  0
SECTION
  2
HEADER
  9
$ACADVER
  1
AC1015
  9
$ACADMAINTVER
 70
    20
  9
$DWGCODEPAGE
  3
ANSI_932
  9
$INSBASE
 10
0.0
 20
0.0
 30
0.0
  9
$EXTMIN
 10
-19.26284375907214
 20
49.0
 30
0.0
  9
$EXTMAX
 10
1132.737156240927
 20
867.0
 30
0.0
  9
$LIMMIN
 10
0.0
 20
0.0
  9
$LIMMAX
 10
420.0
 20
297.0
  9
$ORTHOMODE
 70
     0
  9
$REGENMODE
 70
     1
  9
$FILLMODE
 70
     1
  9
$QTEXTMODE
 70
     0
  9
$MIRRTEXT
 70
     0
  9
$LTSCALE
 40
3.0
  9
$ATTMODE
 70
     1
  9
$TEXTSIZE
 40
3.0
  9
$TRACEWID
 40
1.0
  9
$TEXTSTYLE
  7
ｺﾞｼｯｸ（縦）
  9
$CLAYER
  8
003
  9
$CELTYPE
  6
ByLayer
  9
$CECOLOR
 62
   256
  9
$CELTSCALE
 40
0.5
  9
$DISPSILH
 70
     0
  9
$DIMSCALE
 40
2.1
  9
$DIMASZ
 40
1.5
  9
$DIMEXO
 40
1.5
  9
$DIMDLI
 40
7.0
  9
$DIMRND
 40
0.0
  9
$DIMDLE
 40
0.0
  9
$DIMEXE
 40
1.0
  9
$DIMTP
 40
0.0
  9
$DIMTM
 40
0.0
  9
$DIMTXT
 40
3.0
  9
$DIMCEN
 40
0.0
  9
$DIMTSZ
 40
0.0
  9
$DIMTOL
 70
     0
  9
$DIMLIM
 70
     0
  9
$DIMTIH
 70
     0
  9
$DIMTOH
 70
     0
  9
$DIMSE1
 70
     0
  9
$DIMSE2
 70
     0
  9
$DIMTAD
 70
     1
  9
$DIMZIN
 70
     8
  9
$DIMBLK
  1
Open30
  9
$DIMASO
 70
     1
  9
$DIMSHO
 70
     1
  9
$DIMPOST
  1

  9
$DIMAPOST
  1

  9
$DIMALT
 70
     0
  9
$DIMALTD
 70
     3
  9
$DIMALTF
 40
0.03937007874016
  9
$DIMLFAC
 40
1.0
  9
$DIMTOFL
 70
     1
  9
$DIMTVP
 40
0.0
  9
$DIMTIX
 70
     0
  9
$DIMSOXD
 70
     0
  9
$DIMSAH
 70
     0
  9
$DIMBLK1
  1

  9
$DIMBLK2
  1

  9
$DIMSTYLE
  2
DIM
  9
$DIMCLRD
 70
     4
  9
$DIMCLRE
 70
     4
  9
$DIMCLRT
 70
     7
  9
$DIMTFAC
 40
1.0
  9
$DIMGAP
 40
1.0
  9
$DIMJUST
 70
     0
  9
$DIMSD1
 70
     0
  9
$DIMSD2
 70
     0
  9
$DIMTOLJ
 70
     0
  9
$DIMTZIN
 70
     8
  9
$DIMALTZ
 70
     0
  9
$DIMALTTZ
 70
     0
  9
$DIMUPT
 70
     0
  9
$DIMDEC
 70
     2
  9
$DIMTDEC
 70
     2
  9
$DIMALTU
 70
     2
  9
$DIMALTTD
 70
     3
  9
$DIMTXSTY
  7
DIM
  9
$DIMAUNIT
 70
     0
  9
$DIMADEC
 70
     2
  9
$DIMALTRND
 40
0.0
  9
$DIMAZIN
 70
     2
  9
$DIMDSEP
 70
    46
  9
$DIMATFIT
 70
     3
  9
$DIMFRAC
 70
     0
  9
$DIMLDRBLK
  1
Open30
  9
$DIMLUNIT
 70
     2
  9
$DIMLWD
 70
    20
  9
$DIMLWE
 70
    20
  9
$DIMTMOVE
 70
     0
  9
$LUNITS
 70
     2
  9
$LUPREC
 70
     4
  9
$SKETCHINC
 40
1.0
  9
$FILLETRAD
 40
2.0
  9
$AUNITS
 70
     0
  9
$AUPREC
 70
     0
  9
$MENU
  1
.
  9
$ELEVATION
 40
0.0
  9
$PELEVATION
 40
0.0
  9
$THICKNESS
 40
0.0
  9
$LIMCHECK
 70
     0
  9
$CHAMFERA
 40
10.0
  9
$CHAMFERB
 40
10.0
  9
$CHAMFERC
 40
20.0
  9
$CHAMFERD
 40
0.0
  9
$SKPOLY
 70
     0
  9
$TDCREATE
 40
2452888.428849190
  9
$TDUCREATE
 40
2452888.053849190
  9
$TDUPDATE
 40
2457829.744915903
  9
$TDUUPDATE
 40
2457829.369915903
  9
$TDINDWG
 40
0.6061787963
  9
$TDUSRTIMER
 40
0.6061787963
  9
$USRTIMER
 70
     1
  9
$ANGBASE
 50
0.0
  9
$ANGDIR
 70
     0
  9
$PDMODE
 70
     0
  9
$PDSIZE
 40
0.0
  9
$PLINEWID
 40
0.0
  9
$SPLFRAME
 70
     0
  9
$SPLINETYPE
 70
     6
  9
$SPLINESEGS
 70
     8
  9
$HANDSEED
  5
2A276
  9
$SURFTAB1
 70
     6
  9
$SURFTAB2
 70
     6
  9
$SURFTYPE
 70
     6
  9
$SURFU
 70
     6
  9
$SURFV
 70
     6
  9
$UCSBASE
  2

  9
$UCSNAME
  2

  9
$UCSORG
 10
0.0
 20
0.0
 30
0.0
  9
$UCSXDIR
 10
1.0
 20
0.0
 30
0.0
  9
$UCSYDIR
 10
0.0
 20
1.0
 30
0.0
  9
$UCSORTHOREF
  2

  9
$UCSORTHOVIEW
 70
     0
  9
$UCSORGTOP
 10
0.0
 20
0.0
 30
0.0
  9
$UCSORGBOTTOM
 10
0.0
 20
0.0
 30
0.0
  9
$UCSORGLEFT
 10
0.0
 20
0.0
 30
0.0
  9
$UCSORGRIGHT
 10
0.0
 20
0.0
 30
0.0
  9
$UCSORGFRONT
 10
0.0
 20
0.0
 30
0.0
  9
$UCSORGBACK
 10
0.0
 20
0.0
 30
0.0
  9
$PUCSBASE
  2

  9
$PUCSNAME
  2

  9
$PUCSORG
 10
0.0
 20
0.0
 30
0.0
  9
$PUCSXDIR
 10
1.0
 20
0.0
 30
0.0
  9
$PUCSYDIR
 10
0.0
 20
1.0
 30
0.0
  9
$PUCSORTHOREF
  2

  9
$PUCSORTHOVIEW
 70
     0
  9
$PUCSORGTOP
 10
0.0
 20
0.0
 30
0.0
  9
$PUCSORGBOTTOM
 10
0.0
 20
0.0
 30
0.0
  9
$PUCSORGLEFT
 10
0.0
 20
0.0
 30
0.0
  9
$PUCSORGRIGHT
 10
0.0
 20
0.0
 30
0.0
  9
$PUCSORGFRONT
 10
0.0
 20
0.0
 30
0.0
  9
$PUCSORGBACK
 10
0.0
 20
0.0
 30
0.0
  9
$USERI1
 70
     0
  9
$USERI2
 70
     0
  9
$USERI3
 70
     0
  9
$USERI4
 70
     0
  9
$USERI5
 70
     0
  9
$USERR1
 40
0.0
  9
$USERR2
 40
0.0
  9
$USERR3
 40
0.0
  9
$USERR4
 40
0.0
  9
$USERR5
 40
0.0
  9
$WORLDVIEW
 70
     1
  9
$SHADEDGE
 70
     3
  9
$SHADEDIF
 70
    70
  9
$TILEMODE
 70
     1
  9
$MAXACTVP
 70
    64
  9
$PINSBASE
 10
0.0
 20
0.0
 30
0.0
  9
$PLIMCHECK
 70
     0
  9
$PEXTMIN
 10
1.000000000000000E+20
 20
1.000000000000000E+20
 30
1.000000000000000E+20
  9
$PEXTMAX
 10
-1.000000000000000E+20
 20
-1.000000000000000E+20
 30
-1.000000000000000E+20
  9
$PLIMMIN
 10
0.0
 20
0.0
  9
$PLIMMAX
 10
420.0
 20
297.0
  9
$UNITMODE
 70
     0
  9
$VISRETAIN
 70
     1
  9
$PLINEGEN
 70
     0
  9
$PSLTSCALE
 70
     0
  9
$TREEDEPTH
 70
  3020
  9
$CMLSTYLE
  2
Standard
  9
$CMLJUST
 70
     0
  9
$CMLSCALE
 40
20.0
  9
$PROXYGRAPHICS
 70
     1
  9
$MEASUREMENT
 70
     1
  9
$CELWEIGHT
370
    -1
  9
$ENDCAPS
280
     0
  9
$JOINSTYLE
280
     0
  9
$LWDISPLAY
290
     0
  9
$INSUNITS
 70
     4
  9
$HYPERLINKBASE
  1

  9
$STYLESHEET
  1
monochrome.ctb
  9
$XEDIT
290
     1
  9
$CEPSNTYPE
380
     0
  9
$PSTYLEMODE
290
     1
  9
$FINGERPRINTGUID
  2
{9AEAB59C-DF80-11D7-8237-004026CDA8AB}
  9
$VERSIONGUID
  2
{262F163A-D2CD-4016-9B3E-BDF7F5FE3FC2}
  9
$EXTNAMES
290
     1
  9
$PSVPSCALE
 40
0.0
  9
$OLESTARTUP
290
     0
  0
ENDSEC
  0
SECTION
  2
CLASSES
  0
CLASS
  1
ACDBDICTIONARYWDFLT
  2
AcDbDictionaryWithDefault
  3
ObjectDBX Classes
 90
        0
280
     0
281
     0
  0
CLASS
  1
ACDBPLACEHOLDER
  2
AcDbPlaceHolder
  3
ObjectDBX Classes
 90
        0
280
     0
281
     0
  0
CLASS
  1
LAYOUT
  2
AcDbLayout
  3
ObjectDBX Classes
 90
        0
280
     0
281
     0
  0
CLASS
  1
MATERIAL
  2
AcDbMaterial
  3
ObjectDBX Classes
 90
     1153
280
     0
281
     0
  0
CLASS
  1
VISUALSTYLE
  2
AcDbVisualStyle
  3
ObjectDBX Classes
 90
     4095
280
     0
281
     0
  0
CLASS
  1
TABLESTYLE
  2
AcDbTableStyle
  3
ObjectDBX Classes
 90
     4095
280
     0
281
     0
  0
CLASS
  1
SCALE
  2
AcDbScale
  3
ObjectDBX Classes
 90
     1153
280
     0
281
     0
  0
CLASS
  1
MLEADERSTYLE
  2
AcDbMLeaderStyle
  3
ACDB_MLEADERSTYLE_CLASS
 90
     4095
280
     0
281
     0
  0
CLASS
  1
SORTENTSTABLE
  2
AcDbSortentsTable
  3
ObjectDBX Classes
 90
        0
280
     0
281
     0
  0
CLASS
  1
CELLSTYLEMAP
  2
AcDbCellStyleMap
  3
ObjectDBX Classes
 90
     1152
280
     0
281
     0
  0
CLASS
  1
DICTIONARYVAR
  2
AcDbDictionaryVar
  3
ObjectDBX Classes
 90
        0
280
     0
281
     0
  0
CLASS
  1
WIPEOUT
  2
AcDbWipeout
  3
"WipeOut|Product Desc: Object Enabler for WipeOut entity                        |Company: Autodesk, Inc.                        |WEB Address: www.autodesk.com"
 90
    34943
280
     0
281
     1
  0
CLASS
  1
WIPEOUTVARIABLES
  2
AcDbWipeoutVariables
  3
"WipeOut|Product Desc:     WipeOut Dbx Application|Company:          Autodesk, Inc.|WEB Address:      www.autodesk.com"
 90
        0
280
     0
281
     0
  0
CLASS
  1
ACDB_TEXTOBJECTCONTEXTDATA_CLASS
  2
AcDbTextObjectContextData
  3
ObjectDBX Classes
 90
    33921
280
     0
281
     0
  0
CLASS
  1
MULTILEADER
  2
AcDbMLeader
  3
ACDB_MLEADER_CLASS
 90
    33793
280
     0
281
     1
  0
ENDSEC
  0
SECTION
  2
TABLES
  0
TABLE
  2
VPORT
  5
8
102
{ACAD_XDICTIONARY
360
A6B1
102
}
330
0
100
AcDbSymbolTable
 70
     1
  0
VPORT
  5
2A1FA
330
8
100
AcDbSymbolTableRecord
100
AcDbViewportTableRecord
  2
*Active
 70
     0
 10
0.0
 20
0.0
 11
1.0
 21
1.0
 12
556.7371589231368
 22
433.5132303794533
 13
0.0
 23
0.0
 14
10.0
 24
10.0
 15
10.0
 25
10.0
 16
0.0
 26
0.0
 36
1.0
 17
0.0
 27
0.0
 37
0.0
 40
873.5372977608507
 41
1.512531328320801
 42
50.0
 43
0.0
 44
0.0
 50
0.0
 51
0.0
 71
     0
 72
   100
 73
     1
 74
     3
 75
     0
 76
     0
 77
     0
 78
     0
281
     0
 65
     1
110
0.0
120
0.0
130
0.0
111
1.0
121
0.0
131
0.0
112
0.0
122
1.0
132
0.0
 79
     0
146
0.0
  0
ENDTAB
  0
TABLE
  2
LTYPE
  5
5
330
0
100
AcDbSymbolTable
 70
     4
  0
LTYPE
  5
14
330
5
100
AcDbSymbolTableRecord
100
AcDbLinetypeTableRecord
  2
ByBlock
 70
     0
  3

 72
    65
 73
     0
 40
0.0
  0
LTYPE
  5
15
330
5
100
AcDbSymbolTableRecord
100
AcDbLinetypeTableRecord
  2
ByLayer
 70
     0
  3

 72
    65
 73
     0
 40
0.0
  0
LTYPE
  5
16
330
5
100
AcDbSymbolTableRecord
100
AcDbLinetypeTableRecord
  2
Continuous
 70
     0
  3
Solid line
 72
    65
 73
     0
 40
0.0
  0
LTYPE
  5
19D
330
5
100
AcDbSymbolTableRecord
100
AcDbLinetypeTableRecord
  2
ACAD_ISO04W100
 70
     0
  3
ISO long-dash dot ____ . ____ . ____ . ____ . _
 72
    65
 73
     4
 40
30.0
 49
24.0
 74
     0
 49
-3.0
 74
     0
 49
0.0
 74
     0
 49
-3.0
 74
     0
  0
LTYPE
  5
19E
330
5
100
AcDbSymbolTableRecord
100
AcDbLinetypeTableRecord
  2
ACAD_ISO02W100
 70
     0
  3
ISO dash __ __ __ __ __ __ __ __ __ __ __ __ __
 72
    65
 73
     2
 40
15.0
 49
12.0
 74
     0
 49
-3.0
 74
     0
  0
LTYPE
  5
29205
330
5
100
AcDbSymbolTableRecord
100
AcDbLinetypeTableRecord
  2
AM_ISO08W050
 70
     0
  3
____ . ____ . ____ . ____ . ____ . ____ . ____
 72
    65
 73
     4
 40
18.0
 49
12.0
 74
     0
 49
-1.5
 74
     0
 49
3.0
 74
     0
 49
-1.5
 74
     0
  0
ENDTAB
  0
TABLE
  2
LAYER
  5
2
102
{ACAD_XDICTIONARY
360
6C5
102
}
330
0
100
AcDbSymbolTable
 70
     9
  0
LAYER
  5
10
102
{ACAD_XDICTIONARY
360
9F26
102
}
330
2
100
AcDbSymbolTableRecord
100
AcDbLayerTableRecord
  2
0
 70
     0
 62
     7
  6
Continuous
370
    25
390
F
  0
LAYER
  5
32
102
{ACAD_XDICTIONARY
360
9F2A
102
}
330
2
100
AcDbSymbolTableRecord
100
AcDbLayerTableRecord
  2
002
 70
     0
 62
     6
  6
Continuous
370
    35
390
F
  0
LAYER
  5
33
102
{ACAD_XDICTIONARY
360
9F2C
102
}
330
2
100
AcDbSymbolTableRecord
100
AcDbLayerTableRecord
  2
003
 70
     0
 62
     2
  6
Continuous
370
    25
390
F
  0
LAYER
  5
1A4
102
{ACAD_XDICTIONARY
360
9F32
102
}
330
2
100
AcDbSymbolTableRecord
100
AcDbLayerTableRecord
  2
006
 70
     0
 62
     4
  6
ACAD_ISO04W100
370
    20
390
F
  0
LAYER
  5
1A5
102
{ACAD_XDICTIONARY
360
9F34
102
}
330
2
100
AcDbSymbolTableRecord
100
AcDbLayerTableRecord
  2
007
 70
     0
 62
     4
  6
ACAD_ISO02W100
370
    20
390
F
  0
LAYER
  5
1A8
330
2
100
AcDbSymbolTableRecord
100
AcDbLayerTableRecord
  2
Defpoints
 70
     0
 62
   151
  6
Continuous
290
     0
370
    25
390
F
  0
LAYER
  5
11A3A
330
2
100
AcDbSymbolTableRecord
100
AcDbLayerTableRecord
  2
0000躯体
 70
     0
 62
   253
  6
Continuous
370
    -3
390
F
1001
AcAecLayerStandard
1000

1000

  0
LAYER
  5
11A59
330
2
100
AcDbSymbolTableRecord
100
AcDbLayerTableRecord
  2
0000寸法
 70
     0
 62
   255
  6
Continuous
370
    20
390
F
1001
AcAecLayerStandard
1000

1000

  0
LAYER
  5
2920A
330
2
100
AcDbSymbolTableRecord
100
AcDbLayerTableRecord
  2
ビス中心線
 70
     0
 62
     4
  6
AM_ISO08W050
370
    25
390
F
1001
AcAecLayerStandard
1000

1000

  0
ENDTAB
  0
TABLE
  2
STYLE
  5
3
330
0
100
AcDbSymbolTable
 70
     5
  0
STYLE
  5
11
330
3
100
AcDbSymbolTableRecord
100
AcDbTextStyleTableRecord
  2
Standard
 70
     0
 40
0.0
 41
1.0
 50
0.0
 71
     0
 42
2.5
  3
txt
  4

  0
STYLE
  5
34
330
3
100
AcDbSymbolTableRecord
100
AcDbTextStyleTableRecord
  2
DIM
 70
     0
 40
0.0
 41
0.75
 50
0.0
 71
     0
 42
60.0
  3
romans.shx
  4
extfont.shx
  0
STYLE
  5
35
330
3
100
AcDbSymbolTableRecord
100
AcDbTextStyleTableRecord
  2
AT_VECTOR
 70
     0
 40
0.0
 41
1.0
 50
0.0
 71
     0
 42
3.0
  3
romans.shx
  4
extfont.shx
  0
STYLE
  5
18343
330
3
100
AcDbSymbolTableRecord
100
AcDbTextStyleTableRecord
  2
ｺﾞｼｯｸ（横）
 70
     0
 40
0.0
 41
1.0
 50
0.0
 71
     0
 42
3.0
  3

  4

1001
ACAD
1000
MS PGothic
1071
    32818
  0
STYLE
  5
1834F
330
3
100
AcDbSymbolTableRecord
100
AcDbTextStyleTableRecord
  2
ｺﾞｼｯｸ（縦）
 70
     0
 40
0.0
 41
1.0
 50
0.0
 71
     0
 42
3.0
  3

  4

1001
ACAD
1000
@MS PGothic
1071
    32818
  0
ENDTAB
  0
TABLE
  2
VIEW
  5
6
330
0
100
AcDbSymbolTable
 70
     0
  0
ENDTAB
  0
TABLE
  2
UCS
  5
7
330
0
100
AcDbSymbolTable
 70
     0
  0
ENDTAB
  0
TABLE
  2
APPID
  5
9
330
0
100
AcDbSymbolTable
 70
    31
  0
APPID
  5
12
330
9
100
AcDbSymbolTableRecord
100
AcDbRegAppTableRecord
  2
ACAD
 70
     0
  0
APPID
  5
9CB2
330
9
100
AcDbSymbolTableRecord
100
AcDbRegAppTableRecord
  2
ACAD_MLEADERVER
 70
     0
  0
APPID
  5
9D67
330
9
100
AcDbSymbolTableRecord
100
AcDbRegAppTableRecord
  2
ACAD_PSEXT
 70
     0
  0
APPID
  5
9D68
330
9
100
AcDbSymbolTableRecord
100
AcDbRegAppTableRecord
  2
ACAD_DSTYLE_DIMJAG
 70
     0
  0
APPID
  5
9D69
330
9
100
AcDbSymbolTableRecord
100
AcDbRegAppTableRecord
  2
ACAD_DSTYLE_DIMTALN
 70
     0
  0
APPID
  5
9F0E
330
9
100
AcDbSymbolTableRecord
100
AcDbRegAppTableRecord
  2
ACAD_EXEMPT_FROM_CAD_STANDARDS
 70
     0
  0
APPID
  5
A7A1
330
9
100
AcDbSymbolTableRecord
100
AcDbRegAppTableRecord
  2
AcAecLayerStandard
 70
     0
  0
APPID
  5
A7A2
330
9
100
AcDbSymbolTableRecord
100
AcDbRegAppTableRecord
  2
ACAD_DSTYLE_DIMJOGGED_JOGANGLE_SYMBOL
 70
     0
  0
APPID
  5
CA00
330
9
100
AcDbSymbolTableRecord
100
AcDbRegAppTableRecord
  2
ACAD_DSTYLE_DIMRADIAL_EXTENSION
 70
     0
  0
APPID
  5
CA01
330
9
100
AcDbSymbolTableRecord
100
AcDbRegAppTableRecord
  2
ACAD_DSTYLE_DIMTEXT_FILL
 70
     0
  0
APPID
  5
CF93
330
9
100
AcDbSymbolTableRecord
100
AcDbRegAppTableRecord
  2
GENIUS_GENODEF_13
 70
     0
  0
APPID
  5
CF94
330
9
100
AcDbSymbolTableRecord
100
AcDbRegAppTableRecord
  2
GENIUS_GENOBJ-N-FIL_13
 70
     0
  0
APPID
  5
CF95
330
9
100
AcDbSymbolTableRecord
100
AcDbRegAppTableRecord
  2
GENIUS_GENOBJ-N-HTC_13
 70
     0
  0
APPID
  5
CF96
330
9
100
AcDbSymbolTableRecord
100
AcDbRegAppTableRecord
  2
GENIUS_GENHATCH_13
 70
     0
  0
APPID
  5
CF97
330
9
100
AcDbSymbolTableRecord
100
AcDbRegAppTableRecord
  2
GENIUS_GENREC_14
 70
     0
  0
APPID
  5
CF98
330
9
100
AcDbSymbolTableRecord
100
AcDbRegAppTableRecord
  2
GENIUS_GENOBJ-N-REC_13
 70
     0
  0
APPID
  5
CF99
330
9
100
AcDbSymbolTableRecord
100
AcDbRegAppTableRecord
  2
YALIB
 70
     0
  0
APPID
  5
CF9A
330
9
100
AcDbSymbolTableRecord
100
AcDbRegAppTableRecord
  2
MYHANDLE
 70
     0
  0
APPID
  5
CF9B
330
9
100
AcDbSymbolTableRecord
100
AcDbRegAppTableRecord
  2
GROUP
 70
     0
  0
APPID
  5
CF9C
330
9
100
AcDbSymbolTableRecord
100
AcDbRegAppTableRecord
  2
YOBJCUT10114081642
 70
     0
  0
APPID
  5
CF9D
330
9
100
AcDbSymbolTableRecord
100
AcDbRegAppTableRecord
  2
YOBJCUT10114103941
 70
     0
  0
APPID
  5
CF9E
330
9
100
AcDbSymbolTableRecord
100
AcDbRegAppTableRecord
  2
YOBJCUT10114103945
 70
     0
  0
APPID
  5
F5BD
330
9
100
AcDbSymbolTableRecord
100
AcDbRegAppTableRecord
  2
YOBJCUT10209125520
 70
     0
  0
APPID
  5
F5BE
330
9
100
AcDbSymbolTableRecord
100
AcDbRegAppTableRecord
  2
YOBJCUT10209131805
 70
     0
  0
APPID
  5
F5BF
330
9
100
AcDbSymbolTableRecord
100
AcDbRegAppTableRecord
  2
AEC_XDATA_BOUND_SPACE
 70
     0
  0
APPID
  5
F5C0
330
9
100
AcDbSymbolTableRecord
100
AcDbRegAppTableRecord
  2
APCAD3_KATACH
 70
     0
  0
APPID
  5
17D29
330
9
100
AcDbSymbolTableRecord
100
AcDbRegAppTableRecord
  2
AcadAnnotative
 70
     0
  0
APPID
  5
18344
330
9
100
AcDbSymbolTableRecord
100
AcDbRegAppTableRecord
  2
AcadAnnoPO
 70
     0
  0
APPID
  5
2920B
330
9
100
AcDbSymbolTableRecord
100
AcDbRegAppTableRecord
  2
GENIUS_GENOBJ-N-CEN_13
 70
     0
  0
APPID
  5
2920C
330
9
100
AcDbSymbolTableRecord
100
AcDbRegAppTableRecord
  2
GENIUS_GENCEN_19
 70
     0
  0
APPID
  5
29F2F
330
9
100
AcDbSymbolTableRecord
100
AcDbRegAppTableRecord
  2
ACAD_NAV_VCDISPLAY
 70
     0
  0
ENDTAB
  0
TABLE
  2
DIMSTYLE
  5
A
330
0
100
AcDbSymbolTable
 70
     2
100
AcDbDimStyleTable
 71
     2
340
38
340
1A9
  0
DIMSTYLE
105
38
102
{ACAD_REACTORS
330
26E99
330
26E9A
330
26ED7
330
26F4E
330
26F6E
330
29915
330
29922
330
2993D
330
29991
330
2999E
330
299AB
330
299B8
330
299C5
330
29C3A
330
29C47
330
29C66
330
29C73
330
29C80
330
29C8D
330
29CD4
330
29FB2
330
29FB3
102
}
330
A
100
AcDbSymbolTableRecord
100
AcDbDimStyleTableRecord
  2
DIM
 70
     0
 41
1.5
 42
1.5
 43
7.0
 44
1.0
 73
     0
 74
     0
 77
     1
 78
     8
140
3.0
141
0.0
143
0.03937007874016
147
1.0
171
     3
172
     1
176
     4
177
     4
178
     7
271
     2
272
     2
274
     3
283
     0
284
     8
340
34
341
2B
342
2B
371
    20
372
    20
  0
DIMSTYLE
105
1A9
330
A
100
AcDbSymbolTableRecord
100
AcDbDimStyleTableRecord
  2
Standard
 70
     0
340
11
  0
ENDTAB
  0
TABLE
  2
BLOCK_RECORD
  5
1
330
0
100
AcDbSymbolTable
 70
    25
  0
BLOCK_RECORD
  5
1F
102
{ACAD_XDICTIONARY
360
9EA6
102
}
330
1
100
AcDbSymbolTableRecord
100
AcDbBlockTableRecord
  2
*Model_Space
340
22
  0
BLOCK_RECORD
  5
1B
330
1
100
AcDbSymbolTableRecord
100
AcDbBlockTableRecord
  2
*Paper_Space
340
1E
  0
BLOCK_RECORD
  5
23
330
1
100
AcDbSymbolTableRecord
100
AcDbBlockTableRecord
  2
*Paper_Space0
340
26
  0
BLOCK_RECORD
  5
2B
330
1
100
AcDbSymbolTableRecord
100
AcDbBlockTableRecord
  2
_Open30
340
0
102
{BLKREFS
331
299F7
331
299F8
331
29A00
331
29A01
331
29A09
331
29A0A
331
29A12
331
29A13
331
29A1B
331
29A1C
331
29A24
331
29A25
331
29A2D
331
29A2E
331
29A36
331
29A37
331
29D4A
331
29D4B
331
29D53
331
29D54
331
29D65
331
29D66
331
29D6E
331
29D6F
331
29D77
331
29D78
331
29D80
331
29D81
331
29D9E
331
29D9F
331
29DBE
331
29DBF
331
29E08
331
29E09
331
29E11
331
29E12
331
29E1A
331
29E1B
331
29FEF
331
29FF0
331
29FF8
331
29FF9
331
2A002
331
2A003
102
}
  0
BLOCK_RECORD
  5
26E9B
330
1
100
AcDbSymbolTableRecord
100
AcDbBlockTableRecord
  2
*D2
340
0
  0
BLOCK_RECORD
  5
26EA7
330
1
100
AcDbSymbolTableRecord
100
AcDbBlockTableRecord
  2
*D3
340
0
  0
BLOCK_RECORD
  5
26ED8
330
1
100
AcDbSymbolTableRecord
100
AcDbBlockTableRecord
  2
*D4
340
0
  0
BLOCK_RECORD
  5
26F4F
330
1
100
AcDbSymbolTableRecord
100
AcDbBlockTableRecord
  2
*D5
340
0
  0
BLOCK_RECORD
  5
26F6F
330
1
100
AcDbSymbolTableRecord
100
AcDbBlockTableRecord
  2
*D6
340
0
  0
BLOCK_RECORD
  5
29916
330
1
100
AcDbSymbolTableRecord
100
AcDbBlockTableRecord
  2
*D7
340
0
  0
BLOCK_RECORD
  5
29923
330
1
100
AcDbSymbolTableRecord
100
AcDbBlockTableRecord
  2
*D8
340
0
  0
BLOCK_RECORD
  5
2993E
330
1
100
AcDbSymbolTableRecord
100
AcDbBlockTableRecord
  2
*D9
340
0
  0
BLOCK_RECORD
  5
29992
330
1
100
AcDbSymbolTableRecord
100
AcDbBlockTableRecord
  2
*D10
340
0
  0
BLOCK_RECORD
  5
2999F
330
1
100
AcDbSymbolTableRecord
100
AcDbBlockTableRecord
  2
*D11
340
0
  0
BLOCK_RECORD
  5
299AC
330
1
100
AcDbSymbolTableRecord
100
AcDbBlockTableRecord
  2
*D12
340
0
  0
BLOCK_RECORD
  5
299B9
330
1
100
AcDbSymbolTableRecord
100
AcDbBlockTableRecord
  2
*D13
340
0
  0
BLOCK_RECORD
  5
299C6
330
1
100
AcDbSymbolTableRecord
100
AcDbBlockTableRecord
  2
*D14
340
0
  0
BLOCK_RECORD
  5
29C3B
330
1
100
AcDbSymbolTableRecord
100
AcDbBlockTableRecord
  2
*D15
340
0
  0
BLOCK_RECORD
  5
29C48
330
1
100
AcDbSymbolTableRecord
100
AcDbBlockTableRecord
  2
*D16
340
0
  0
BLOCK_RECORD
  5
29C67
330
1
100
AcDbSymbolTableRecord
100
AcDbBlockTableRecord
  2
*D17
340
0
  0
BLOCK_RECORD
  5
29C74
330
1
100
AcDbSymbolTableRecord
100
AcDbBlockTableRecord
  2
*D18
340
0
  0
BLOCK_RECORD
  5
29C81
330
1
100
AcDbSymbolTableRecord
100
AcDbBlockTableRecord
  2
*D19
340
0
  0
BLOCK_RECORD
  5
29C8E
330
1
100
AcDbSymbolTableRecord
100
AcDbBlockTableRecord
  2
*D20
340
0
  0
BLOCK_RECORD
  5
29CD5
330
1
100
AcDbSymbolTableRecord
100
AcDbBlockTableRecord
  2
*D21
340
0
  0
BLOCK_RECORD
  5
29EDF
330
1
100
AcDbSymbolTableRecord
100
AcDbBlockTableRecord
  2
W材 45×25改
340
0
310
2800000020000000200000000100080000000000000400000000000000000000000000000000000000000000000080000080000000808000800000008000800080800000C0C0C000C0DCC000F0CAA6000020400000206000002080000020A0000020C0000020E00000400000004020000040400000406000004080000040A0
310
000040C0000040E00000600000006020000060400000606000006080000060A0000060C0000060E00000800000008020000080400000806000008080000080A0000080C0000080E00000A0000000A0200000A0400000A0600000A0800000A0A00000A0C00000A0E00000C0000000C0200000C0400000C0600000C0800000C0
310
A00000C0C00000C0E00000E0000000E0200000E0400000E0600000E0800000E0A00000E0C00000E0E00040000000400020004000400040006000400080004000A0004000C0004000E00040200000402020004020400040206000402080004020A0004020C0004020E000404000004040200040404000404060004040800040
310
40A0004040C0004040E00040600000406020004060400040606000406080004060A0004060C0004060E00040800000408020004080400040806000408080004080A0004080C0004080E00040A0000040A0200040A0400040A0600040A0800040A0A00040A0C00040A0E00040C0000040C0200040C0400040C0600040C08000
310
40C0A00040C0C00040C0E00040E0000040E0200040E0400040E0600040E0800040E0A00040E0C00040E0E00080000000800020008000400080006000800080008000A0008000C0008000E00080200000802020008020400080206000802080008020A0008020C0008020E00080400000804020008040400080406000804080
310
008040A0008040C0008040E00080600000806020008060400080606000806080008060A0008060C0008060E00080800000808020008080400080806000808080008080A0008080C0008080E00080A0000080A0200080A0400080A0600080A0800080A0A00080A0C00080A0E00080C0000080C0200080C0400080C0600080C0
310
800080C0A00080C0C00080C0E00080E0000080E0200080E0400080E0600080E0800080E0A00080E0C00080E0E000C0000000C0002000C0004000C0006000C0008000C000A000C000C000C000E000C0200000C0202000C0204000C0206000C0208000C020A000C020C000C020E000C0400000C0402000C0404000C0406000C0
310
408000C040A000C040C000C040E000C0600000C0602000C0604000C0606000C0608000C060A000C060C000C060E000C0800000C0802000C0804000C0806000C0808000C080A000C080C000C080E000C0A00000C0A02000C0A04000C0A06000C0A08000C0A0A000C0A0C000C0A0E000C0C00000C0C02000C0C04000C0C06000
310
C0C08000C0C0A000F0FBFF00A4A0A000808080000000FF0000FF000000FFFF00FF000000FF00FF00FFFF0000FFFFFF0049494949494949494949494949494949494949494949494949494949494949494949494949494949FFFFFFFFFFFFFFFFFFFFFFFFFFFFFFFF49494949494949494949494949494949FF494949494949
310
4949494949494949FF49494949494949494949494949494949FFFFFFFFFFFFFFFFFFFFFFFFFFFFFFFF49494949494949494949494949494949FFFF494949FFFFFFFFFFFFFF4949FFFF49494949494949494949494949494949FFFF49494949FFFFFFFF49494949FFFF49494949494949494949494949494949FFFF49494949
310
4949494949494949FFFF49494949494949494949494949494949FFFF494949494949494949494949FFFF49494949494949494949494949494949FFFF494949494949494949494949FFFF49494949494949494949494949494949FFFF494949494949494949494949494949494949494949494949494949494949FFFF494949
310
494949494949494949494949494949494949494949494949494949FFFF494949494949494949494949494949494949494949494949494949494949FFFF494949494949494949494949494949494949494949494949494949494949FFFF494949494949494949494949494949494949494949494949494949494949FFFF4949
310
49494949494949494949494949494949494949494949494949494949FFFF494949494949494949494949494949494949494949494949494949494949FFFF494949494949494949494949494949494949494949494949494949494949FFFF494949494949494949494949494949494949494949494949494949494949FFFF49
310
4949494949494949494949494949494949494949494949494949494949FFFF494949494949494949494949494949494949494949494949494949494949FFFF494949494949494949494949494949494949494949494949494949494949FFFF494949494949494949494949494949494949494949494949494949494949FFFF
310
494949494949494949494949494949494949494949494949494949494949FFFF494949494949494949494949FFFF49494949494949494949494949494949FFFF494949494949494949494949FFFF49494949494949494949494949494949FFFF494949494949494949494949FFFF49494949494949494949494949494949FF
310
FF49494949FFFFFFFF49494949FFFF49494949494949494949494949494949FFFF494949FFFFFFFFFFFFFF4949FFFF49494949494949494949494949494949FFFFFFFFFFFFFFFFFFFFFFFFFFFFFFFF49494949494949494949494949494949FF4949494949494949494949494949FF49494949494949494949494949494949
310
FFFFFFFFFFFFFFFFFFFFFFFFFFFFFFFF49494949494949494949494949494949494949494949494949494949494949494949494949494949
102
{BLKREFS
331
29F37
331
29FB4
102
}
  0
BLOCK_RECORD
  5
29FD4
330
1
100
AcDbSymbolTableRecord
100
AcDbBlockTableRecord
  2
*D23
340
0
  0
BLOCK_RECORD
  5
29FE0
330
1
100
AcDbSymbolTableRecord
100
AcDbBlockTableRecord
  2
*D24
340
0
  0
ENDTAB
  0
ENDSEC
  0
SECTION
  2
BLOCKS
  0
BLOCK
  5
20
330
1F
100
AcDbEntity
  8
0
100
AcDbBlockBegin
  2
*Model_Space
 70
     0
 10
0.0
 20
0.0
 30
0.0
  3
*Model_Space
  1

  0
ENDBLK
  5
21
330
1F
100
AcDbEntity
  8
0
100
AcDbBlockEnd
  0
BLOCK
  5
1C
330
1B
100
AcDbEntity
 67
     1
  8
0
100
AcDbBlockBegin
  2
*Paper_Space
 70
     0
 10
0.0
 20
0.0
 30
0.0
  3
*Paper_Space
  1

  0
ENDBLK
  5
1D
330
1B
100
AcDbEntity
 67
     1
  8
0
100
AcDbBlockEnd
  0
BLOCK
  5
24
330
23
100
AcDbEntity
 67
     1
  8
0
100
AcDbBlockBegin
  2
*Paper_Space0
 70
     0
 10
0.0
 20
0.0
 30
0.0
  3
*Paper_Space0
  1

  0
ENDBLK
  5
25
330
23
100
AcDbEntity
 67
     1
  8
0
100
AcDbBlockEnd
  0
BLOCK
  5
2F
330
2B
100
AcDbEntity
  8
0
100
AcDbBlockBegin
  2
_Open30
 70
     0
 10
0.0
 20
0.0
 30
0.0
  3
_Open30
  1

  0
LINE
  5
2C
330
2B
100
AcDbEntity
  8
0
  6
ByBlock
 62
     0
370
    -2
100
AcDbLine
 10
-1.0
 20
0.26794919
 30
0.0
 11
0.0
 21
0.0
 31
0.0
  0
LINE
  5
2D
330
2B
100
AcDbEntity
  8
0
  6
ByBlock
 62
     0
370
    -2
100
AcDbLine
 10
0.0
 20
0.0
 30
0.0
 11
-1.0
 21
-0.26794919
 31
0.0
  0
LINE
  5
2E
330
2B
100
AcDbEntity
  8
0
  6
ByBlock
 62
     0
370
    -2
100
AcDbLine
 10
0.0
 20
0.0
 30
0.0
 11
-1.0
 21
0.0
 31
0.0
  0
ENDBLK
  5
30
330
2B
100
AcDbEntity
  8
0
100
AcDbBlockEnd
  0
BLOCK
  5
26E9C
330
26E9B
100
AcDbEntity
  8
0
 48
0.5
100
AcDbBlockBegin
  2
*D2
 70
     1
 10
0.0
 20
0.0
 30
0.0
  3
*D2
  1

  0
LINE
  5
29DBB
330
26E9B
100
AcDbEntity
  8
0000寸法
 62
     4
 48
0.5
370
    20
100
AcDbLine
 10
649.0574698744312
 20
689.1735206747904
 30
0.0
 11
649.0574698744312
 21
659.4360710007525
 31
0.0
  0
LINE
  5
29DBC
330
26E9B
100
AcDbEntity
  8
0000寸法
 62
     4
 48
0.5
370
    20
100
AcDbLine
 10
829.0574698744313
 20
689.5485206747904
 30
0.0
 11
829.0574698744313
 21
659.4360710007525
 31
0.0
  0
LINE
  5
29DBD
330
26E9B
100
AcDbEntity
  8
0000寸法
 62
     4
 48
0.5
370
    20
100
AcDbLine
 10
652.2074698744312
 20
661.5360710007526
 30
0.0
 11
825.9074698744312
 21
661.5360710007526
 31
0.0
  0
INSERT
  5
29DBE
330
26E9B
100
AcDbEntity
  8
0000寸法
 62
     4
 48
0.5
370
    20
100
AcDbBlockReference
  2
_Open30
 10
649.0574698744312
 20
661.5360710007526
 30
0.0
 41
3.15
 42
3.15
 43
3.15
 50
180.0
  0
INSERT
  5
29DBF
330
26E9B
100
AcDbEntity
  8
0000寸法
 62
     4
 48
0.5
370
    20
100
AcDbBlockReference
  2
_Open30
 10
829.0574698744313
 20
661.5360710007526
 30
0.0
 41
3.15
 42
3.15
 43
3.15
  0
MTEXT
  5
29DC0
330
26E9B
100
AcDbEntity
  8
0000寸法
 62
     7
 48
0.5
100
AcDbMText
 10
739.0574698744313
 20
666.7860710007525
 30
0.0
 40
6.3
 41
0.0
 71
     5
 72
     1
  1
製品W
  7
DIM
 73
     1
 44
1.0
1001
ACAD
1000
MTEXTBEGIN
1070
    73
1070
     1
1070
    44
1040
1.0
1070
    74
1070
     0
1000
MTEXTEND
1000
ACAD_MTEXT_BBRT
1070
    91
1071
        3
1070
    46
1040
1.1
1070
    64
1071
-1027028792
1070
    65
1000

1070
    66
1000

1070
   442
1071
  2163110
1000
ACAD_MTEXT_BERT
  0
POINT
  5
29DC1
330
26E9B
100
AcDbEntity
  8
Defpoints
 62
     0
 48
0.5
100
AcDbPoint
 10
649.0574698744312
 20
692.3235206747904
 30
0.0
  0
POINT
  5
29DC2
330
26E9B
100
AcDbEntity
  8
Defpoints
 62
     0
 48
0.5
100
AcDbPoint
 10
829.0574698744313
 20
692.6985206747904
 30
0.0
  0
POINT
  5
29DC3
330
26E9B
100
AcDbEntity
  8
Defpoints
 62
     0
 48
0.5
100
AcDbPoint
 10
829.0574698744313
 20
661.5360710007526
 30
0.0
  0
ENDBLK
  5
26E9D
330
26E9B
100
AcDbEntity
  8
0
 48
0.5
100
AcDbBlockEnd
  0
BLOCK
  5
26EA8
330
26EA7
100
AcDbEntity
  8
0
 48
0.5
100
AcDbBlockBegin
  2
*D3
 70
     1
 10
0.0
 20
0.0
 30
0.0
  3
*D3
  1

  0
LINE
  5
29E0E
330
26EA7
100
AcDbEntity
  8
0000寸法
 62
     4
 48
0.5
370
    20
100
AcDbLine
 10
824.7074698744311
 20
682.9485206747904
 30
0.0
 11
870.3494541320019
 21
682.9485206747904
 31
0.0
  0
LINE
  5
29E0F
330
26EA7
100
AcDbEntity
  8
0000寸法
 62
     4
 48
0.5
370
    20
100
AcDbLine
 10
824.7074698744311
 20
817.9485206747903
 30
0.0
 11
870.349454132002
 21
817.9485206747903
 31
0.0
  0
LINE
  5
29E10
330
26EA7
100
AcDbEntity
  8
0000寸法
 62
     4
 48
0.5
370
    20
100
AcDbLine
 10
868.249454132002
 20
686.0985206747904
 30
0.0
 11
868.249454132002
 21
814.7985206747904
 31
0.0
  0
INSERT
  5
29E11
330
26EA7
100
AcDbEntity
  8
0000寸法
 62
     4
 48
0.5
370
    20
100
AcDbBlockReference
  2
_Open30
 10
868.249454132002
 20
682.9485206747904
 30
0.0
 41
3.15
 42
3.15
 43
3.15
 50
270.0
  0
INSERT
  5
29E12
330
26EA7
100
AcDbEntity
  8
0000寸法
 62
     4
 48
0.5
370
    20
100
AcDbBlockReference
  2
_Open30
 10
868.249454132002
 20
817.9485206747903
 30
0.0
 41
3.15
 42
3.15
 43
3.15
 50
90.0
  0
MTEXT
  5
29E13
330
26EA7
100
AcDbEntity
  8
0000寸法
 62
     7
 48
0.5
100
AcDbMText
 10
862.9994541320018
 20
750.4485206747906
 30
0.0
 40
6.3
 41
0.0
 71
     5
 72
     1
  1
製品H
  7
DIM
 11
0.0000000000000001
 21
1.0
 31
0.0
 73
     1
 44
1.0
1001
ACAD
1000
MTEXTBEGIN
1070
    73
1070
     1
1070
    44
1040
1.0
1070
    74
1070
     0
1000
MTEXTEND
1000
ACAD_MTEXT_BBRT
1070
    91
1071
        3
1070
    46
1040
1.1
1070
    64
1071
-1027028792
1070
    65
1000

1070
    66
1000

1070
   442
1071
  1442219
1000
ACAD_MTEXT_BERT
  0
POINT
  5
29E14
330
26EA7
100
AcDbEntity
  8
Defpoints
 62
     0
 48
0.5
100
AcDbPoint
 10
821.5574698744312
 20
682.9485206747904
 30
0.0
  0
POINT
  5
29E15
330
26EA7
100
AcDbEntity
  8
Defpoints
 62
     0
 48
0.5
100
AcDbPoint
 10
821.5574698744312
 20
817.9485206747903
 30
0.0
  0
POINT
  5
29E16
330
26EA7
100
AcDbEntity
  8
Defpoints
 62
     0
 48
0.5
100
AcDbPoint
 10
868.249454132002
 20
817.9485206747903
 30
0.0
  0
ENDBLK
  5
26EA9
330
26EA7
100
AcDbEntity
  8
0
 48
0.5
100
AcDbBlockEnd
  0
BLOCK
  5
26ED9
330
26ED8
100
AcDbEntity
  8
0
 48
0.5
100
AcDbBlockBegin
  2
*D4
 70
     1
 10
0.0
 20
0.0
 30
0.0
  3
*D4
  1

  0
LINE
  5
29D9B
330
26ED8
100
AcDbEntity
  8
0000寸法
 62
     4
 48
0.5
370
    20
100
AcDbLine
 10
730.0574698744313
 20
821.0985206747903
 30
0.0
 11
730.0574698744313
 21
835.5065656065329
 31
0.0
  0
LINE
  5
29D9C
330
26ED8
100
AcDbEntity
  8
0000寸法
 62
     4
 48
0.5
370
    20
100
AcDbLine
 10
748.0574698744312
 20
821.0985206747903
 30
0.0
 11
748.0574698744312
 21
835.5065656065329
 31
0.0
  0
LINE
  5
29D9D
330
26ED8
100
AcDbEntity
  8
0000寸法
 62
     4
 48
0.5
370
    20
100
AcDbLine
 10
733.2074698744312
 20
833.4065656065329
 30
0.0
 11
744.9074698744312
 21
833.4065656065329
 31
0.0
  0
INSERT
  5
29D9E
330
26ED8
100
AcDbEntity
  8
0000寸法
 62
     4
 48
0.5
370
    20
100
AcDbBlockReference
  2
_Open30
 10
730.0574698744313
 20
833.4065656065329
 30
0.0
 41
3.15
 42
3.15
 43
3.15
 50
180.0
  0
INSERT
  5
29D9F
330
26ED8
100
AcDbEntity
  8
0000寸法
 62
     4
 48
0.5
370
    20
100
AcDbBlockReference
  2
_Open30
 10
748.0574698744312
 20
833.4065656065329
 30
0.0
 41
3.15
 42
3.15
 43
3.15
  0
MTEXT
  5
29DA0
330
26ED8
100
AcDbEntity
  8
0000寸法
 62
     7
 48
0.5
100
AcDbMText
 10
739.0574698744313
 20
838.6565656065329
 30
0.0
 40
6.3
 41
0.0
 71
     5
 72
     1
  1
Pic120
  7
DIM
 73
     1
 44
1.0
1001
ACAD
1000
MTEXTBEGIN
1070
    73
1070
     1
1070
    44
1040
1.0
1070
    74
1070
     0
1000
MTEXTEND
1000
ACAD_MTEXT_BBRT
1070
    91
1071
        3
1070
    46
1040
1.1
1070
    64
1071
-1027028792
1070
    65
1000

1070
    66
1000

1070
   442
1071
  2884021
1000
ACAD_MTEXT_BERT
  0
POINT
  5
29DA1
330
26ED8
100
AcDbEntity
  8
Defpoints
 62
     0
 48
0.5
100
AcDbPoint
 10
730.0574698744313
 20
817.9485206747903
 30
0.0
  0
POINT
  5
29DA2
330
26ED8
100
AcDbEntity
  8
Defpoints
 62
     0
 48
0.5
100
AcDbPoint
 10
748.0574698744312
 20
817.9485206747903
 30
0.0
  0
POINT
  5
29DA3
330
26ED8
100
AcDbEntity
  8
Defpoints
 62
     0
 48
0.5
100
AcDbPoint
 10
748.0574698744312
 20
833.4065656065329
 30
0.0
  0
ENDBLK
  5
26EDA
330
26ED8
100
AcDbEntity
  8
0
 48
0.5
100
AcDbBlockEnd
  0
BLOCK
  5
26F50
330
26F4F
100
AcDbEntity
  8
0
 48
0.5
100
AcDbBlockBegin
  2
*D5
 70
     1
 10
0.0
 20
0.0
 30
0.0
  3
*D5
  1

  0
LINE
  5
29E05
330
26F4F
100
AcDbEntity
  8
003
 62
     4
 48
0.5
370
    20
100
AcDbLine
 10
832.2074698744312
 20
805.1985206747904
 30
0.0
 11
849.8323097141488
 21
805.1985206747904
 31
0.0
  0
LINE
  5
29E06
330
26F4F
100
AcDbEntity
  8
003
 62
     4
 48
0.5
370
    20
100
AcDbLine
 10
824.7074698744311
 20
817.9485206747903
 30
0.0
 11
849.8323097141488
 21
817.9485206747903
 31
0.0
  0
LINE
  5
29E07
330
26F4F
100
AcDbEntity
  8
003
 62
     4
 48
0.5
370
    20
100
AcDbLine
 10
847.7323097141489
 20
808.3485206747903
 30
0.0
 11
847.7323097141489
 21
814.7985206747904
 31
0.0
  0
INSERT
  5
29E08
330
26F4F
100
AcDbEntity
  8
003
 62
     4
 48
0.5
370
    20
100
AcDbBlockReference
  2
_Open30
 10
847.7323097141489
 20
805.1985206747904
 30
0.0
 41
3.15
 42
3.15
 43
3.15
 50
270.0
  0
INSERT
  5
29E09
330
26F4F
100
AcDbEntity
  8
003
 62
     4
 48
0.5
370
    20
100
AcDbBlockReference
  2
_Open30
 10
847.7323097141489
 20
817.9485206747903
 30
0.0
 41
3.15
 42
3.15
 43
3.15
 50
90.0
  0
MTEXT
  5
29E0A
330
26F4F
100
AcDbEntity
  8
003
 62
     7
 48
0.5
100
AcDbMText
 10
842.4823097141485
 20
811.5735206747906
 30
0.0
 40
6.3
 41
0.0
 71
     5
 72
     1
  1
85
  7
DIM
 11
0.0000000000000001
 21
1.0
 31
0.0
 73
     1
 44
1.0
1001
ACAD
1000
MTEXTBEGIN
1070
    73
1070
     1
1070
    44
1040
1.0
1070
    74
1070
     0
1000
MTEXTEND
1000
ACAD_MTEXT_BBRT
1070
    91
1071
        3
1070
    46
1040
1.1
1070
    64
1071
-1027028792
1070
    65
1000

1070
    66
1000

1070
   442
1071
 14746037
1000
ACAD_MTEXT_BERT
  0
POINT
  5
29E0B
330
26F4F
100
AcDbEntity
  8
Defpoints
 62
     0
 48
0.5
100
AcDbPoint
 10
829.0574698744313
 20
805.1985206747904
 30
0.0
  0
POINT
  5
29E0C
330
26F4F
100
AcDbEntity
  8
Defpoints
 62
     0
 48
0.5
100
AcDbPoint
 10
821.5574698744312
 20
817.9485206747903
 30
0.0
  0
POINT
  5
29E0D
330
26F4F
100
AcDbEntity
  8
Defpoints
 62
     0
 48
0.5
100
AcDbPoint
 10
847.7323097141489
 20
817.9485206747903
 30
0.0
  0
ENDBLK
  5
26F51
330
26F4F
100
AcDbEntity
  8
0
 48
0.5
100
AcDbBlockEnd
  0
BLOCK
  5
26F70
330
26F6F
100
AcDbEntity
  8
0
 48
0.5
100
AcDbBlockBegin
  2
*D6
 70
     1
 10
0.0
 20
0.0
 30
0.0
  3
*D6
  1

  0
LINE
  5
29E17
330
26F6F
100
AcDbEntity
  8
003
 62
     4
 48
0.5
370
    20
100
AcDbLine
 10
832.2074698744312
 20
695.6985206747904
 30
0.0
 11
849.8323097141488
 21
695.6985206747904
 31
0.0
  0
LINE
  5
29E18
330
26F6F
100
AcDbEntity
  8
003
 62
     4
 48
0.5
370
    20
100
AcDbLine
 10
824.7074698744311
 20
682.9485206747904
 30
0.0
 11
849.8323097141488
 21
682.9485206747904
 31
0.0
  0
LINE
  5
29E19
330
26F6F
100
AcDbEntity
  8
003
 62
     4
 48
0.5
370
    20
100
AcDbLine
 10
847.7323097141489
 20
692.5485206747904
 30
0.0
 11
847.7323097141489
 21
686.0985206747904
 31
0.0
  0
INSERT
  5
29E1A
330
26F6F
100
AcDbEntity
  8
003
 62
     4
 48
0.5
370
    20
100
AcDbBlockReference
  2
_Open30
 10
847.7323097141489
 20
695.6985206747904
 30
0.0
 41
3.15
 42
3.15
 43
3.15
 50
90.0
  0
INSERT
  5
29E1B
330
26F6F
100
AcDbEntity
  8
003
 62
     4
 48
0.5
370
    20
100
AcDbBlockReference
  2
_Open30
 10
847.7323097141489
 20
682.9485206747904
 30
0.0
 41
3.15
 42
3.15
 43
3.15
 50
270.0
  0
MTEXT
  5
29E1C
330
26F6F
100
AcDbEntity
  8
003
 62
     7
 48
0.5
100
AcDbMText
 10
842.4823097141487
 20
689.3235206747906
 30
0.0
 40
6.3
 41
0.0
 71
     5
 72
     1
  1
85
  7
DIM
 11
0.0000000000000001
 21
1.0
 31
0.0
 73
     1
 44
1.0
1001
ACAD
1000
MTEXTBEGIN
1070
    73
1070
     1
1070
    44
1040
1.0
1070
    74
1070
     0
1000
MTEXTEND
1000
ACAD_MTEXT_BBRT
1070
    91
1071
        3
1070
    46
1040
1.1
1070
    64
1071
-1027028792
1070
    65
1000

1070
    66
1000

1070
   442
1071
  3408314
1000
ACAD_MTEXT_BERT
  0
POINT
  5
29E1D
330
26F6F
100
AcDbEntity
  8
Defpoints
 62
     0
 48
0.5
100
AcDbPoint
 10
829.0574698744313
 20
695.6985206747904
 30
0.0
  0
POINT
  5
29E1E
330
26F6F
100
AcDbEntity
  8
Defpoints
 62
     0
 48
0.5
100
AcDbPoint
 10
821.5574698744312
 20
682.9485206747904
 30
0.0
  0
POINT
  5
29E1F
330
26F6F
100
AcDbEntity
  8
Defpoints
 62
     0
 48
0.5
100
AcDbPoint
 10
847.7323097141489
 20
682.9485206747904
 30
0.0
  0
ENDBLK
  5
26F71
330
26F6F
100
AcDbEntity
  8
0
 48
0.5
100
AcDbBlockEnd
  0
BLOCK
  5
29917
330
29916
100
AcDbEntity
  8
0
 48
0.5
100
AcDbBlockBegin
  2
*D7
 70
     1
 10
0.0
 20
0.0
 30
0.0
  3
*D7
  1

  0
LINE
  5
299F4
330
29916
100
AcDbEntity
  8
003
 62
     4
 48
0.5
370
    20
100
AcDbLine
 10
215.5410271374359
 20
680.9385783243347
 30
0.0
 11
185.3898948224845
 21
680.9385783243347
 31
0.0
  0
LINE
  5
299F5
330
29916
100
AcDbEntity
  8
003
 62
     4
 48
0.5
370
    20
100
AcDbLine
 10
246.0901863235005
 20
595.9385783243346
 30
0.0
 11
185.3898948224845
 21
595.9385783243346
 31
0.0
  0
LINE
  5
299F6
330
29916
100
AcDbEntity
  8
003
 62
     4
 48
0.5
370
    20
100
AcDbLine
 10
187.4898948224845
 20
677.7885783243347
 30
0.0
 11
187.4898948224845
 21
599.0885783243347
 31
0.0
  0
INSERT
  5
299F7
330
29916
100
AcDbEntity
  8
003
 62
     4
 48
0.5
370
    20
100
AcDbBlockReference
  2
_Open30
 10
187.4898948224845
 20
680.9385783243347
 30
0.0
 41
3.15
 42
3.15
 43
3.15
 50
90.0
  0
INSERT
  5
299F8
330
29916
100
AcDbEntity
  8
003
 62
     4
 48
0.5
370
    20
100
AcDbBlockReference
  2
_Open30
 10
187.4898948224845
 20
595.9385783243346
 30
0.0
 41
3.15
 42
3.15
 43
3.15
 50
270.0
  0
MTEXT
  5
299F9
330
29916
100
AcDbEntity
  8
003
 62
     7
 48
0.5
100
AcDbMText
 10
182.2398948224844
 20
638.4385783243346
 30
0.0
 40
6.3
 41
0.0
 71
     5
 72
     1
  1
85
  7
DIM
 11
0.0000000000000001
 21
1.0
 31
0.0
 73
     1
 44
1.0
1001
ACAD
1000
MTEXTBEGIN
1070
    73
1070
     1
1070
    44
1040
1.0
1070
    74
1070
     0
1000
MTEXTEND
1000
ACAD_MTEXT_BBRT
1070
    91
1071
        3
1070
    46
1040
1.1
1070
    64
1071
-1027028792
1070
    65
1000

1070
    66
1000

1070
   442
1071
 10486207
1000
ACAD_MTEXT_BERT
  0
POINT
  5
299FA
330
29916
100
AcDbEntity
  8
Defpoints
 62
     0
 48
0.5
100
AcDbPoint
 10
218.6910271374359
 20
680.9385783243347
 30
0.0
  0
POINT
  5
299FB
330
29916
100
AcDbEntity
  8
Defpoints
 62
     0
 48
0.5
100
AcDbPoint
 10
249.2401863235004
 20
595.9385783243346
 30
0.0
  0
POINT
  5
299FC
330
29916
100
AcDbEntity
  8
Defpoints
 62
     0
 48
0.5
100
AcDbPoint
 10
187.4898948224845
 20
595.9385783243346
 30
0.0
  0
ENDBLK
  5
29918
330
29916
100
AcDbEntity
  8
0
 48
0.5
100
AcDbBlockEnd
  0
BLOCK
  5
29924
330
29923
100
AcDbEntity
  8
0
 48
0.5
100
AcDbBlockBegin
  2
*D8
 70
     1
 10
0.0
 20
0.0
 30
0.0
  3
*D8
  1

  0
LINE
  5
299FD
330
29923
100
AcDbEntity
  8
003
 62
     4
 48
0.5
370
    20
100
AcDbLine
 10
215.5410271374359
 20
680.9385783243347
 30
0.0
 11
170.6898948224846
 21
680.9385783243347
 31
0.0
  0
LINE
  5
299FE
330
29923
100
AcDbEntity
  8
003
 62
     4
 48
0.5
370
    20
100
AcDbLine
 10
215.5410271374359
 20
280.9385783243347
 30
0.0
 11
170.6898948224845
 21
280.9385783243347
 31
0.0
  0
LINE
  5
299FF
330
29923
100
AcDbEntity
  8
003
 62
     4
 48
0.5
370
    20
100
AcDbLine
 10
172.7898948224845
 20
677.7885783243347
 30
0.0
 11
172.7898948224845
 21
284.0885783243347
 31
0.0
  0
INSERT
  5
29A00
330
29923
100
AcDbEntity
  8
003
 62
     4
 48
0.5
370
    20
100
AcDbBlockReference
  2
_Open30
 10
172.7898948224845
 20
680.9385783243347
 30
0.0
 41
3.15
 42
3.15
 43
3.15
 50
90.0
  0
INSERT
  5
29A01
330
29923
100
AcDbEntity
  8
003
 62
     4
 48
0.5
370
    20
100
AcDbBlockReference
  2
_Open30
 10
172.7898948224845
 20
280.9385783243347
 30
0.0
 41
3.15
 42
3.15
 43
3.15
 50
270.0
  0
MTEXT
  5
29A02
330
29923
100
AcDbEntity
  8
003
 62
     7
 48
0.5
100
AcDbMText
 10
167.5398948224844
 20
480.9385783243347
 30
0.0
 40
6.3
 41
0.0
 71
     5
 72
     1
  1
製品H
  7
DIM
 11
0.0000000000000001
 21
1.0
 31
0.0
 73
     1
 44
1.0
1001
ACAD
1000
MTEXTBEGIN
1070
    73
1070
     1
1070
    44
1040
1.0
1070
    74
1070
     0
1000
MTEXTEND
1000
ACAD_MTEXT_BBRT
1070
    91
1071
        3
1070
    46
1040
1.1
1070
    64
1071
-1027028792
1070
    65
1000

1070
    66
1000

1070
   442
1071
  2163140
1000
ACAD_MTEXT_BERT
  0
POINT
  5
29A03
330
29923
100
AcDbEntity
  8
Defpoints
 62
     0
 48
0.5
100
AcDbPoint
 10
218.6910271374359
 20
680.9385783243347
 30
0.0
  0
POINT
  5
29A04
330
29923
100
AcDbEntity
  8
Defpoints
 62
     0
 48
0.5
100
AcDbPoint
 10
218.6910271374359
 20
280.9385783243347
 30
0.0
  0
POINT
  5
29A05
330
29923
100
AcDbEntity
  8
Defpoints
 62
     0
 48
0.5
100
AcDbPoint
 10
172.7898948224845
 20
280.9385783243347
 30
0.0
  0
ENDBLK
  5
29925
330
29923
100
AcDbEntity
  8
0
 48
0.5
100
AcDbBlockEnd
  0
BLOCK
  5
2993F
330
2993E
100
AcDbEntity
  8
0
 48
0.5
100
AcDbBlockBegin
  2
*D9
 70
     1
 10
0.0
 20
0.0
 30
0.0
  3
*D9
  1

  0
LINE
  5
29A06
330
2993E
100
AcDbEntity
  8
003
 62
     4
 48
0.5
370
    20
100
AcDbLine
 10
215.5410271374359
 20
280.9385783243347
 30
0.0
 11
185.3898948224845
 21
280.9385783243347
 31
0.0
  0
LINE
  5
29A07
330
2993E
100
AcDbEntity
  8
003
 62
     4
 48
0.5
370
    20
100
AcDbLine
 10
246.0901863235005
 20
365.9385783243347
 30
0.0
 11
185.3898948224845
 21
365.9385783243347
 31
0.0
  0
LINE
  5
29A08
330
2993E
100
AcDbEntity
  8
003
 62
     4
 48
0.5
370
    20
100
AcDbLine
 10
187.4898948224845
 20
284.0885783243347
 30
0.0
 11
187.4898948224845
 21
362.7885783243347
 31
0.0
  0
INSERT
  5
29A09
330
2993E
100
AcDbEntity
  8
003
 62
     4
 48
0.5
370
    20
100
AcDbBlockReference
  2
_Open30
 10
187.4898948224845
 20
280.9385783243347
 30
0.0
 41
3.15
 42
3.15
 43
3.15
 50
270.0
  0
INSERT
  5
29A0A
330
2993E
100
AcDbEntity
  8
003
 62
     4
 48
0.5
370
    20
100
AcDbBlockReference
  2
_Open30
 10
187.4898948224845
 20
365.9385783243347
 30
0.0
 41
3.15
 42
3.15
 43
3.15
 50
90.0
  0
MTEXT
  5
29A0B
330
2993E
100
AcDbEntity
  8
003
 62
     7
 48
0.5
100
AcDbMText
 10
182.2398948224845
 20
323.4385783243348
 30
0.0
 40
6.3
 41
0.0
 71
     5
 72
     1
  1
85
  7
DIM
 11
0.0000000000000001
 21
1.0
 31
0.0
 73
     1
 44
1.0
1001
ACAD
1000
MTEXTBEGIN
1070
    73
1070
     1
1070
    44
1040
1.0
1070
    74
1070
     0
1000
MTEXTEND
1000
ACAD_MTEXT_BBRT
1070
    91
1071
        3
1070
    46
1040
1.1
1070
    64
1071
-1027028792
1070
    65
1000

1070
    66
1000

1070
   442
1071
  2818505
1000
ACAD_MTEXT_BERT
  0
POINT
  5
29A0C
330
2993E
100
AcDbEntity
  8
Defpoints
 62
     0
 48
0.5
100
AcDbPoint
 10
218.6910271374359
 20
280.9385783243347
 30
0.0
  0
POINT
  5
29A0D
330
2993E
100
AcDbEntity
  8
Defpoints
 62
     0
 48
0.5
100
AcDbPoint
 10
249.2401863235004
 20
365.9385783243347
 30
0.0
  0
POINT
  5
29A0E
330
2993E
100
AcDbEntity
  8
Defpoints
 62
     0
 48
0.5
100
AcDbPoint
 10
187.4898948224845
 20
365.9385783243347
 30
0.0
  0
ENDBLK
  5
29940
330
2993E
100
AcDbEntity
  8
0
 48
0.5
100
AcDbBlockEnd
  0
BLOCK
  5
29993
330
29992
100
AcDbEntity
  8
0
 48
0.5
100
AcDbBlockBegin
  2
*D10
 70
     1
 10
0.0
 20
0.0
 30
0.0
  3
*D10
  1

  0
LINE
  5
29A0F
330
29992
100
AcDbEntity
  8
003
 62
     4
 48
0.5
370
    20
100
AcDbLine
 10
255.841027137437
 20
618.4385783243357
 30
0.0
 11
241.373559019817
 21
618.4385783243357
 31
0.0
  0
LINE
  5
29A10
330
29992
100
AcDbEntity
  8
003
 62
     4
 48
0.5
370
    20
100
AcDbLine
 10
255.8410271374388
 20
573.4385783243356
 30
0.0
 11
241.373559019817
 21
573.4385783243356
 31
0.0
  0
LINE
  5
29A11
330
29992
100
AcDbEntity
  8
003
 62
     4
 48
0.5
370
    20
100
AcDbLine
 10
243.473559019817
 20
615.2885783243357
 30
0.0
 11
243.473559019817
 21
576.5885783243357
 31
0.0
  0
INSERT
  5
29A12
330
29992
100
AcDbEntity
  8
003
 62
     4
 48
0.5
370
    20
100
AcDbBlockReference
  2
_Open30
 10
243.473559019817
 20
618.4385783243357
 30
0.0
 41
3.15
 42
3.15
 43
3.15
 50
90.0
  0
INSERT
  5
29A13
330
29992
100
AcDbEntity
  8
003
 62
     4
 48
0.5
370
    20
100
AcDbBlockReference
  2
_Open30
 10
243.473559019817
 20
573.4385783243356
 30
0.0
 41
3.15
 42
3.15
 43
3.15
 50
270.0
  0
MTEXT
  5
29A14
330
29992
100
AcDbEntity
  8
003
 62
     7
 48
0.5
100
AcDbMText
 10
238.2235590198169
 20
595.9385783243357
 30
0.0
 40
6.3
 41
0.0
 71
     5
 72
     1
  1
45
  7
DIM
 11
0.0000000000000001
 21
1.0
 31
0.0
 73
     1
 44
1.0
1001
ACAD
1000
MTEXTBEGIN
1070
    73
1070
     1
1070
    44
1040
1.0
1070
    74
1070
     0
1000
MTEXTEND
1000
ACAD_MTEXT_BBRT
1070
    91
1071
        3
1070
    46
1040
1.1
1070
    64
1071
-1027028792
1070
    65
1000

1070
    66
1000

1070
   442
1071
  3473870
1000
ACAD_MTEXT_BERT
  0
POINT
  5
29A15
330
29992
100
AcDbEntity
  8
Defpoints
 62
     0
 48
0.5
100
AcDbPoint
 10
258.991027137437
 20
618.4385783243356
 30
0.0
  0
POINT
  5
29A16
330
29992
100
AcDbEntity
  8
Defpoints
 62
     0
 48
0.5
100
AcDbPoint
 10
258.9910271374388
 20
573.4385783243356
 30
0.0
  0
POINT
  5
29A17
330
29992
100
AcDbEntity
  8
Defpoints
 62
     0
 48
0.5
100
AcDbPoint
 10
243.473559019817
 20
573.4385783243356
 30
0.0
  0
ENDBLK
  5
29994
330
29992
100
AcDbEntity
  8
0
 48
0.5
100
AcDbBlockEnd
  0
BLOCK
  5
299A0
330
2999F
100
AcDbEntity
  8
0
 48
0.5
100
AcDbBlockBegin
  2
*D11
 70
     1
 10
0.0
 20
0.0
 30
0.0
  3
*D11
  1

  0
LINE
  5
29A18
330
2999F
100
AcDbEntity
  8
003
 62
     4
 48
0.5
370
    20
100
AcDbLine
 10
218.6910271374359
 20
486.5885783243347
 30
0.0
 11
218.6910271374359
 21
511.2152733522417
 31
0.0
  0
LINE
  5
29A19
330
2999F
100
AcDbEntity
  8
003
 62
     4
 48
0.5
370
    20
100
AcDbLine
 10
258.6910271374359
 20
486.5885783243347
 30
0.0
 11
258.6910271374359
 21
511.2152733522417
 31
0.0
  0
LINE
  5
29A1A
330
2999F
100
AcDbEntity
  8
003
 62
     4
 48
0.5
370
    20
100
AcDbLine
 10
221.8410271374359
 20
509.1152733522417
 30
0.0
 11
255.5410271374359
 21
509.1152733522417
 31
0.0
  0
INSERT
  5
29A1B
330
2999F
100
AcDbEntity
  8
003
 62
     4
 48
0.5
370
    20
100
AcDbBlockReference
  2
_Open30
 10
218.6910271374359
 20
509.1152733522417
 30
0.0
 41
3.15
 42
3.15
 43
3.15
 50
180.0
  0
INSERT
  5
29A1C
330
2999F
100
AcDbEntity
  8
003
 62
     4
 48
0.5
370
    20
100
AcDbBlockReference
  2
_Open30
 10
258.6910271374359
 20
509.1152733522417
 30
0.0
 41
3.15
 42
3.15
 43
3.15
  0
MTEXT
  5
29A1D
330
2999F
100
AcDbEntity
  8
003
 62
     7
 48
0.5
100
AcDbMText
 10
238.6910271374359
 20
514.3652733522417
 30
0.0
 40
6.3
 41
0.0
 71
     5
 72
     1
  1
40
  7
DIM
 73
     1
 44
1.0
1001
ACAD
1000
MTEXTBEGIN
1070
    73
1070
     1
1070
    44
1040
1.0
1070
    74
1070
     0
1000
MTEXTEND
1000
ACAD_MTEXT_BBRT
1070
    91
1071
        3
1070
    46
1040
1.1
1070
    64
1071
-1027028792
1070
    65
1000

1070
    66
1000

1070
   442
1071
  2621907
1000
ACAD_MTEXT_BERT
  0
POINT
  5
29A1E
330
2999F
100
AcDbEntity
  8
Defpoints
 62
     0
 48
0.5
100
AcDbPoint
 10
218.6910271374359
 20
483.4385783243346
 30
0.0
  0
POINT
  5
29A1F
330
2999F
100
AcDbEntity
  8
Defpoints
 62
     0
 48
0.5
100
AcDbPoint
 10
258.6910271374359
 20
483.4385783243346
 30
0.0
  0
POINT
  5
29A20
330
2999F
100
AcDbEntity
  8
Defpoints
 62
     0
 48
0.5
100
AcDbPoint
 10
258.6910271374359
 20
509.1152733522417
 30
0.0
  0
ENDBLK
  5
299A1
330
2999F
100
AcDbEntity
  8
0
 48
0.5
100
AcDbBlockEnd
  0
BLOCK
  5
299AD
330
299AC
100
AcDbEntity
  8
0
 48
0.5
100
AcDbBlockBegin
  2
*D12
 70
     1
 10
0.0
 20
0.0
 30
0.0
  3
*D12
  1

  0
LINE
  5
29A21
330
299AC
100
AcDbEntity
  8
003
 62
     4
 48
0.5
370
    20
100
AcDbLine
 10
258.6910271374359
 20
486.5885783243347
 30
0.0
 11
258.6910271374359
 21
511.2152733522417
 31
0.0
  0
LINE
  5
29A22
330
299AC
100
AcDbEntity
  8
003
 62
     4
 48
0.5
370
    20
100
AcDbLine
 10
283.6910271374377
 20
570.5885783243358
 30
0.0
 11
283.6910271374377
 21
507.0152733522417
 31
0.0
  0
LINE
  5
29A23
330
299AC
100
AcDbEntity
  8
003
 62
     4
 48
0.5
370
    20
100
AcDbLine
 10
261.8410271374358
 20
509.1152733522417
 30
0.0
 11
280.5410271374377
 21
509.1152733522417
 31
0.0
  0
INSERT
  5
29A24
330
299AC
100
AcDbEntity
  8
003
 62
     4
 48
0.5
370
    20
100
AcDbBlockReference
  2
_Open30
 10
258.6910271374359
 20
509.1152733522417
 30
0.0
 41
3.15
 42
3.15
 43
3.15
 50
180.0
  0
INSERT
  5
29A25
330
299AC
100
AcDbEntity
  8
003
 62
     4
 48
0.5
370
    20
100
AcDbBlockReference
  2
_Open30
 10
283.6910271374377
 20
509.1152733522417
 30
0.0
 41
3.15
 42
3.15
 43
3.15
  0
MTEXT
  5
29A26
330
299AC
100
AcDbEntity
  8
003
 62
     7
 48
0.5
100
AcDbMText
 10
271.1910271374368
 20
514.3652733522417
 30
0.0
 40
6.3
 41
0.0
 71
     5
 72
     1
  1
25
  7
DIM
 73
     1
 44
1.0
1001
ACAD
1000
MTEXTBEGIN
1070
    73
1070
     1
1070
    44
1040
1.0
1070
    74
1070
     0
1000
MTEXTEND
1000
ACAD_MTEXT_BBRT
1070
    91
1071
        3
1070
    46
1040
1.1
1070
    64
1071
-1027028792
1070
    65
1000

1070
    66
1000

1070
   442
1071
  1966552
1000
ACAD_MTEXT_BERT
  0
POINT
  5
29A27
330
299AC
100
AcDbEntity
  8
Defpoints
 62
     0
 48
0.5
100
AcDbPoint
 10
258.6910271374359
 20
483.4385783243346
 30
0.0
  0
POINT
  5
29A28
330
299AC
100
AcDbEntity
  8
Defpoints
 62
     0
 48
0.5
100
AcDbPoint
 10
283.6910271374377
 20
573.7385783243357
 30
0.0
  0
POINT
  5
29A29
330
299AC
100
AcDbEntity
  8
Defpoints
 62
     0
 48
0.5
100
AcDbPoint
 10
283.6910271374377
 20
509.1152733522417
 30
0.0
  0
ENDBLK
  5
299AE
330
299AC
100
AcDbEntity
  8
0
 48
0.5
100
AcDbBlockEnd
  0
BLOCK
  5
299BA
330
299B9
100
AcDbEntity
  8
0
 48
0.5
100
AcDbBlockBegin
  2
*D13
 70
     1
 10
0.0
 20
0.0
 30
0.0
  3
*D13
  1

  0
LINE
  5
29A2A
330
299B9
100
AcDbEntity
  8
003
 62
     4
 48
0.5
370
    20
100
AcDbLine
 10
283.6910271374377
 20
570.5885783243358
 30
0.0
 11
283.6910271374377
 21
507.0152733522417
 31
0.0
  0
LINE
  5
29A2B
330
299B9
100
AcDbEntity
  8
003
 62
     4
 48
0.5
370
    20
100
AcDbLine
 10
333.6910271374358
 20
572.7885783243347
 30
0.0
 11
333.6910271374358
 21
507.0152733522417
 31
0.0
  0
LINE
  5
29A2C
330
299B9
100
AcDbEntity
  8
003
 62
     4
 48
0.5
370
    20
100
AcDbLine
 10
286.8410271374377
 20
509.1152733522417
 30
0.0
 11
330.5410271374358
 21
509.1152733522417
 31
0.0
  0
INSERT
  5
29A2D
330
299B9
100
AcDbEntity
  8
003
 62
     4
 48
0.5
370
    20
100
AcDbBlockReference
  2
_Open30
 10
283.6910271374377
 20
509.1152733522417
 30
0.0
 41
3.15
 42
3.15
 43
3.15
 50
180.0
  0
INSERT
  5
29A2E
330
299B9
100
AcDbEntity
  8
003
 62
     4
 48
0.5
370
    20
100
AcDbBlockReference
  2
_Open30
 10
333.6910271374358
 20
509.1152733522417
 30
0.0
 41
3.15
 42
3.15
 43
3.15
  0
MTEXT
  5
29A2F
330
299B9
100
AcDbEntity
  8
003
 62
     7
 48
0.5
100
AcDbMText
 10
308.6910271374368
 20
514.3652733522417
 30
0.0
 40
6.3
 41
0.0
 71
     5
 72
     1
  1
50
  7
DIM
 73
     1
 44
1.0
1001
ACAD
1000
MTEXTBEGIN
1070
    73
1070
     1
1070
    44
1040
1.0
1070
    74
1070
     0
1000
MTEXTEND
1000
ACAD_MTEXT_BBRT
1070
    91
1071
        3
1070
    46
1040
1.1
1070
    64
1071
-1027028792
1070
    65
1000

1070
    66
1000

1070
   442
1071
  1442269
1000
ACAD_MTEXT_BERT
  0
POINT
  5
29A30
330
299B9
100
AcDbEntity
  8
Defpoints
 62
     0
 48
0.5
100
AcDbPoint
 10
283.6910271374377
 20
573.7385783243357
 30
0.0
  0
POINT
  5
29A31
330
299B9
100
AcDbEntity
  8
Defpoints
 62
     0
 48
0.5
100
AcDbPoint
 10
333.6910271374358
 20
575.9385783243346
 30
0.0
  0
POINT
  5
29A32
330
299B9
100
AcDbEntity
  8
Defpoints
 62
     0
 48
0.5
100
AcDbPoint
 10
333.6910271374358
 20
509.1152733522417
 30
0.0
  0
ENDBLK
  5
299BB
330
299B9
100
AcDbEntity
  8
0
 48
0.5
100
AcDbBlockEnd
  0
BLOCK
  5
299C7
330
299C6
100
AcDbEntity
  8
0
 48
0.5
100
AcDbBlockBegin
  2
*D14
 70
     1
 10
0.0
 20
0.0
 30
0.0
  3
*D14
  1

  0
LINE
  5
29A33
330
299C6
100
AcDbEntity
  8
003
 62
     4
 48
0.5
370
    20
100
AcDbLine
 10
336.8410271374358
 20
615.9385783243346
 30
0.0
 11
364.6716389351451
 21
615.9385783243346
 31
0.0
  0
LINE
  5
29A34
330
299C6
100
AcDbEntity
  8
003
 62
     4
 48
0.5
370
    20
100
AcDbLine
 10
336.8410271374358
 20
575.9385783243346
 30
0.0
 11
364.6716389351451
 21
575.9385783243346
 31
0.0
  0
LINE
  5
29A35
330
299C6
100
AcDbEntity
  8
003
 62
     4
 48
0.5
370
    20
100
AcDbLine
 10
362.5716389351451
 20
612.7885783243347
 30
0.0
 11
362.5716389351451
 21
579.0885783243346
 31
0.0
  0
INSERT
  5
29A36
330
299C6
100
AcDbEntity
  8
003
 62
     4
 48
0.5
370
    20
100
AcDbBlockReference
  2
_Open30
 10
362.5716389351451
 20
615.9385783243346
 30
0.0
 41
3.15
 42
3.15
 43
3.15
 50
90.0
  0
INSERT
  5
29A37
330
299C6
100
AcDbEntity
  8
003
 62
     4
 48
0.5
370
    20
100
AcDbBlockReference
  2
_Open30
 10
362.5716389351451
 20
575.9385783243346
 30
0.0
 41
3.15
 42
3.15
 43
3.15
 50
270.0
  0
MTEXT
  5
29A38
330
299C6
100
AcDbEntity
  8
003
 62
     7
 48
0.5
100
AcDbMText
 10
357.321638935145
 20
595.9385783243347
 30
0.0
 40
6.3
 41
0.0
 71
     5
 72
     1
  1
40
  7
DIM
 11
0.0000000000000001
 21
1.0
 31
0.0
 73
     1
 44
1.0
1001
ACAD
1000
MTEXTBEGIN
1070
    73
1070
     1
1070
    44
1040
1.0
1070
    74
1070
     0
1000
MTEXTEND
1000
ACAD_MTEXT_BBRT
1070
    91
1071
        3
1070
    46
1040
1.1
1070
    64
1071
-1027028792
1070
    65
1000

1070
    66
1000

1070
   442
1071
  2163170
1000
ACAD_MTEXT_BERT
  0
POINT
  5
29A39
330
299C6
100
AcDbEntity
  8
Defpoints
 62
     0
 48
0.5
100
AcDbPoint
 10
333.6910271374359
 20
615.9385783243346
 30
0.0
  0
POINT
  5
29A3A
330
299C6
100
AcDbEntity
  8
Defpoints
 62
     0
 48
0.5
100
AcDbPoint
 10
333.6910271374359
 20
575.9385783243346
 30
0.0
  0
POINT
  5
29A3B
330
299C6
100
AcDbEntity
  8
Defpoints
 62
     0
 48
0.5
100
AcDbPoint
 10
362.5716389351451
 20
575.9385783243346
 30
0.0
  0
ENDBLK
  5
299C8
330
299C6
100
AcDbEntity
  8
0
 48
0.5
100
AcDbBlockEnd
  0
BLOCK
  5
29C3C
330
29C3B
100
AcDbEntity
  8
0
 48
0.5
100
AcDbBlockBegin
  2
*D15
 70
     1
 10
0.0
 20
0.0
 30
0.0
  3
*D15
  1

  0
LINE
  5
29D47
330
29C3B
100
AcDbEntity
  8
003
 62
     4
 48
0.5
370
    20
100
AcDbLine
 10
722.5800740951217
 20
331.2351689328207
 30
0.0
 11
722.5800740951217
 21
379.875542802799
 31
0.0
  0
LINE
  5
29D48
330
29C3B
100
AcDbEntity
  8
003
 62
     4
 48
0.5
370
    20
100
AcDbLine
 10
842.5800740951217
 20
331.2351689328207
 30
0.0
 11
842.5800740951217
 21
379.875542802799
 31
0.0
  0
LINE
  5
29D49
330
29C3B
100
AcDbEntity
  8
003
 62
     4
 48
0.5
370
    20
100
AcDbLine
 10
725.7300740951217
 20
377.7755428027989
 30
0.0
 11
839.4300740951218
 21
377.7755428027989
 31
0.0
  0
INSERT
  5
29D4A
330
29C3B
100
AcDbEntity
  8
003
 62
     4
 48
0.5
370
    20
100
AcDbBlockReference
  2
_Open30
 10
722.5800740951217
 20
377.7755428027989
 30
0.0
 41
3.15
 42
3.15
 43
3.15
 50
180.0
  0
INSERT
  5
29D4B
330
29C3B
100
AcDbEntity
  8
003
 62
     4
 48
0.5
370
    20
100
AcDbBlockReference
  2
_Open30
 10
842.5800740951217
 20
377.7755428027989
 30
0.0
 41
3.15
 42
3.15
 43
3.15
  0
MTEXT
  5
29D4C
330
29C3B
100
AcDbEntity
  8
003
 62
     7
 48
0.5
100
AcDbMText
 10
782.5800740951217
 20
383.025542802799
 30
0.0
 40
6.3
 41
0.0
 71
     5
 72
     1
  1
Pic120
  7
DIM
 73
     1
 44
1.0
1001
ACAD
1000
MTEXTBEGIN
1070
    73
1070
     1
1070
    44
1040
1.0
1070
    74
1070
     0
1000
MTEXTEND
1000
ACAD_MTEXT_BBRT
1070
    91
1071
        3
1070
    46
1040
1.1
1070
    64
1071
-1027028792
1070
    65
1000

1070
    66
1000

1070
   442
1071
  3277292
1000
ACAD_MTEXT_BERT
  0
POINT
  5
29D4D
330
29C3B
100
AcDbEntity
  8
Defpoints
 62
     0
 48
0.5
100
AcDbPoint
 10
722.5800740951217
 20
328.0851689328208
 30
0.0
  0
POINT
  5
29D4E
330
29C3B
100
AcDbEntity
  8
Defpoints
 62
     0
 48
0.5
100
AcDbPoint
 10
842.5800740951217
 20
328.0851689328208
 30
0.0
  0
POINT
  5
29D4F
330
29C3B
100
AcDbEntity
  8
Defpoints
 62
     0
 48
0.5
100
AcDbPoint
 10
842.5800740951217
 20
377.7755428027989
 30
0.0
  0
ENDBLK
  5
29C3D
330
29C3B
100
AcDbEntity
  8
0
 48
0.5
100
AcDbBlockEnd
  0
BLOCK
  5
29C49
330
29C48
100
AcDbEntity
  8
0
 48
0.5
100
AcDbBlockBegin
  2
*D16
 70
     1
 10
0.0
 20
0.0
 30
0.0
  3
*D16
  1

  0
LINE
  5
29D50
330
29C48
100
AcDbEntity
  8
003
 62
     4
 48
0.5
370
    20
100
AcDbLine
 10
991.4314235402716
 20
241.8631337732541
 30
0.0
 11
991.4314235402716
 21
202.239062160172
 31
0.0
  0
LINE
  5
29D51
330
29C48
100
AcDbEntity
  8
003
 62
     4
 48
0.5
370
    20
100
AcDbLine
 10
961.4314235402716
 20
244.8631337732541
 30
0.0
 11
961.4314235402716
 21
202.239062160172
 31
0.0
  0
LINE
  5
29D52
330
29C48
100
AcDbEntity
  8
003
 62
     4
 48
0.5
370
    20
100
AcDbLine
 10
988.2814235402717
 20
204.339062160172
 30
0.0
 11
964.5814235402717
 21
204.339062160172
 31
0.0
  0
INSERT
  5
29D53
330
29C48
100
AcDbEntity
  8
003
 62
     4
 48
0.5
370
    20
100
AcDbBlockReference
  2
_Open30
 10
991.4314235402716
 20
204.339062160172
 30
0.0
 41
3.15
 42
3.15
 43
3.15
  0
INSERT
  5
29D54
330
29C48
100
AcDbEntity
  8
003
 62
     4
 48
0.5
370
    20
100
AcDbBlockReference
  2
_Open30
 10
961.4314235402716
 20
204.339062160172
 30
0.0
 41
3.15
 42
3.15
 43
3.15
 50
180.0
  0
MTEXT
  5
29D55
330
29C48
100
AcDbEntity
  8
003
 62
     7
 48
0.5
100
AcDbMText
 10
976.4314235402716
 20
209.589062160172
 30
0.0
 40
6.3
 41
0.0
 71
     5
 72
     1
  1
30
  7
DIM
 73
     1
 44
1.0
1001
ACAD
1000
MTEXTBEGIN
1070
    73
1070
     1
1070
    44
1040
1.0
1070
    74
1070
     0
1000
MTEXTEND
1000
ACAD_MTEXT_BBRT
1070
    91
1071
        3
1070
    46
1040
1.1
1070
    64
1071
-1027028792
1070
    65
1000

1070
    66
1000

1070
   442
1071
 14746092
1000
ACAD_MTEXT_BERT
  0
POINT
  5
29D56
330
29C48
100
AcDbEntity
  8
Defpoints
 62
     0
 48
0.5
100
AcDbPoint
 10
991.4314235402716
 20
245.0131337732541
 30
0.0
  0
POINT
  5
29D57
330
29C48
100
AcDbEntity
  8
Defpoints
 62
     0
 48
0.5
100
AcDbPoint
 10
961.4314235402716
 20
248.0131337732541
 30
0.0
  0
POINT
  5
29D58
330
29C48
100
AcDbEntity
  8
Defpoints
 62
     0
 48
0.5
100
AcDbPoint
 10
961.4314235402716
 20
204.339062160172
 30
0.0
  0
ENDBLK
  5
29C4A
330
29C48
100
AcDbEntity
  8
0
 48
0.5
100
AcDbBlockEnd
  0
BLOCK
  5
29C68
330
29C67
100
AcDbEntity
  8
0
 48
0.5
100
AcDbBlockBegin
  2
*D17
 70
     1
 10
0.0
 20
0.0
 30
0.0
  3
*D17
  1

  0
LINE
  5
29FFF
330
29C67
100
AcDbEntity
  8
003
 62
     4
 48
0.5
370
    20
100
AcDbLine
 10
904.4314235402717
 20
288.8631337732541
 30
0.0
 11
904.4314235402717
 21
263.5812536733934
 31
0.0
  0
LINE
  5
2A000
330
29C67
100
AcDbEntity
  8
003
 62
     4
 48
0.5
370
    20
100
AcDbLine
 10
964.4314235402717
 20
288.8631337732541
 30
0.0
 11
964.4314235402717
 21
263.5812536733934
 31
0.0
  0
LINE
  5
2A001
330
29C67
100
AcDbEntity
  8
003
 62
     4
 48
0.5
370
    20
100
AcDbLine
 10
907.5814235402717
 20
265.6812536733934
 30
0.0
 11
961.2814235402717
 21
265.6812536733934
 31
0.0
  0
INSERT
  5
2A002
330
29C67
100
AcDbEntity
  8
003
 62
     4
 48
0.5
370
    20
100
AcDbBlockReference
  2
_Open30
 10
904.4314235402717
 20
265.6812536733934
 30
0.0
 41
3.15
 42
3.15
 43
3.15
 50
180.0
  0
INSERT
  5
2A003
330
29C67
100
AcDbEntity
  8
003
 62
     4
 48
0.5
370
    20
100
AcDbBlockReference
  2
_Open30
 10
964.4314235402717
 20
265.6812536733934
 30
0.0
 41
3.15
 42
3.15
 43
3.15
  0
MTEXT
  5
2A004
330
29C67
100
AcDbEntity
  8
003
 62
     7
 48
0.5
100
AcDbMText
 10
934.4314235402716
 20
270.9312536733934
 30
0.0
 40
6.3
 41
0.0
 71
     5
 72
     1
  1
60
  7
DIM
 73
     1
 44
1.0
1001
ACAD
1000
MTEXTBEGIN
1070
    73
1070
     1
1070
    44
1040
1.0
1070
    74
1070
     0
1000
MTEXTEND
1000
ACAD_MTEXT_BBRT
1070
    91
1071
        3
1070
    46
1040
1.1
1070
    64
1071
-1027028792
1070
    65
1000

1070
    66
1000

1070
   442
1071
  5374449
1000
ACAD_MTEXT_BERT
  0
POINT
  5
2A005
330
29C67
100
AcDbEntity
  8
Defpoints
 62
     0
 48
0.5
100
AcDbPoint
 10
904.4314235402717
 20
292.0131337732541
 30
0.0
  0
POINT
  5
2A006
330
29C67
100
AcDbEntity
  8
Defpoints
 62
     0
 48
0.5
100
AcDbPoint
 10
964.4314235402717
 20
292.0131337732541
 30
0.0
  0
POINT
  5
2A007
330
29C67
100
AcDbEntity
  8
Defpoints
 62
     0
 48
0.5
100
AcDbPoint
 10
964.4314235402717
 20
265.6812536733934
 30
0.0
  0
ENDBLK
  5
29C69
330
29C67
100
AcDbEntity
  8
0
 48
0.5
100
AcDbBlockEnd
  0
BLOCK
  5
29C75
330
29C74
100
AcDbEntity
  8
0
 48
0.5
100
AcDbBlockBegin
  2
*D18
 70
     1
 10
0.0
 20
0.0
 30
0.0
  3
*D18
  1

  0
LINE
  5
29D62
330
29C74
100
AcDbEntity
  8
003
 62
     4
 48
0.5
370
    20
100
AcDbLine
 10
829.4300740951218
 20
360.0131337732541
 30
0.0
 11
817.2398464699899
 21
360.0131337732541
 31
0.0
  0
LINE
  5
29D63
330
29C74
100
AcDbEntity
  8
003
 62
     4
 48
0.5
370
    20
100
AcDbLine
 10
829.4300740951218
 20
320.0131337732541
 30
0.0
 11
817.2398464699899
 21
320.0131337732541
 31
0.0
  0
LINE
  5
29D64
330
29C74
100
AcDbEntity
  8
003
 62
     4
 48
0.5
370
    20
100
AcDbLine
 10
819.3398464699898
 20
356.8631337732541
 30
0.0
 11
819.3398464699898
 21
323.1631337732541
 31
0.0
  0
INSERT
  5
29D65
330
29C74
100
AcDbEntity
  8
003
 62
     4
 48
0.5
370
    20
100
AcDbBlockReference
  2
_Open30
 10
819.3398464699898
 20
360.0131337732541
 30
0.0
 41
3.15
 42
3.15
 43
3.15
 50
90.0
  0
INSERT
  5
29D66
330
29C74
100
AcDbEntity
  8
003
 62
     4
 48
0.5
370
    20
100
AcDbBlockReference
  2
_Open30
 10
819.3398464699898
 20
320.0131337732541
 30
0.0
 41
3.15
 42
3.15
 43
3.15
 50
270.0
  0
MTEXT
  5
29D67
330
29C74
100
AcDbEntity
  8
003
 62
     7
 48
0.5
100
AcDbMText
 10
814.0898464699898
 20
340.0131337732542
 30
0.0
 40
6.3
 41
0.0
 71
     5
 72
     1
  1
40
  7
DIM
 11
0.0000000000000001
 21
1.0
 31
0.0
 73
     1
 44
1.0
1001
ACAD
1000
MTEXTBEGIN
1070
    73
1070
     1
1070
    44
1040
1.0
1070
    74
1070
     0
1000
MTEXTEND
1000
ACAD_MTEXT_BBRT
1070
    91
1071
        3
1070
    46
1040
1.1
1070
    64
1071
-1027028792
1070
    65
1000

1070
    66
1000

1070
   442
1071
  3342838
1000
ACAD_MTEXT_BERT
  0
POINT
  5
29D68
330
29C74
100
AcDbEntity
  8
Defpoints
 62
     0
 48
0.5
100
AcDbPoint
 10
832.5800740951217
 20
360.0131337732541
 30
0.0
  0
POINT
  5
29D69
330
29C74
100
AcDbEntity
  8
Defpoints
 62
     0
 48
0.5
100
AcDbPoint
 10
832.5800740951217
 20
320.0131337732541
 30
0.0
  0
POINT
  5
29D6A
330
29C74
100
AcDbEntity
  8
Defpoints
 62
     0
 48
0.5
100
AcDbPoint
 10
819.3398464699898
 20
320.0131337732541
 30
0.0
  0
ENDBLK
  5
29C76
330
29C74
100
AcDbEntity
  8
0
 48
0.5
100
AcDbBlockEnd
  0
BLOCK
  5
29C82
330
29C81
100
AcDbEntity
  8
0
 48
0.5
100
AcDbBlockBegin
  2
*D19
 70
     1
 10
0.0
 20
0.0
 30
0.0
  3
*D19
  1

  0
LINE
  5
29D6B
330
29C81
100
AcDbEntity
  8
003
 62
     4
 48
0.5
370
    20
100
AcDbLine
 10
829.4300740951218
 20
320.0131337732541
 30
0.0
 11
817.2398464699899
 21
320.0131337732541
 31
0.0
  0
LINE
  5
29D6C
330
29C81
100
AcDbEntity
  8
003
 62
     4
 48
0.5
370
    20
100
AcDbLine
 10
860.2751052760387
 20
295.0131337732541
 30
0.0
 11
817.2398464699899
 21
295.0131337732541
 31
0.0
  0
LINE
  5
29D6D
330
29C81
100
AcDbEntity
  8
003
 62
     4
 48
0.5
370
    20
100
AcDbLine
 10
819.3398464699898
 20
316.8631337732541
 30
0.0
 11
819.3398464699898
 21
298.1631337732541
 31
0.0
  0
INSERT
  5
29D6E
330
29C81
100
AcDbEntity
  8
003
 62
     4
 48
0.5
370
    20
100
AcDbBlockReference
  2
_Open30
 10
819.3398464699898
 20
320.0131337732541
 30
0.0
 41
3.15
 42
3.15
 43
3.15
 50
90.0
  0
INSERT
  5
29D6F
330
29C81
100
AcDbEntity
  8
003
 62
     4
 48
0.5
370
    20
100
AcDbBlockReference
  2
_Open30
 10
819.3398464699898
 20
295.0131337732541
 30
0.0
 41
3.15
 42
3.15
 43
3.15
 50
270.0
  0
MTEXT
  5
29D70
330
29C81
100
AcDbEntity
  8
003
 62
     7
 48
0.5
100
AcDbMText
 10
814.0898464699898
 20
307.5131337732542
 30
0.0
 40
6.3
 41
0.0
 71
     5
 72
     1
  1
25
  7
DIM
 11
0.0000000000000001
 21
1.0
 31
0.0
 73
     1
 44
1.0
1001
ACAD
1000
MTEXTBEGIN
1070
    73
1070
     1
1070
    44
1040
1.0
1070
    74
1070
     0
1000
MTEXTEND
1000
ACAD_MTEXT_BBRT
1070
    91
1071
        3
1070
    46
1040
1.1
1070
    64
1071
-1027028792
1070
    65
1000

1070
    66
1000

1070
   442
1071
    65535
1000
ACAD_MTEXT_BERT
  0
POINT
  5
29D71
330
29C81
100
AcDbEntity
  8
Defpoints
 62
     0
 48
0.5
100
AcDbPoint
 10
832.5800740951217
 20
320.0131337732541
 30
0.0
  0
POINT
  5
29D72
330
29C81
100
AcDbEntity
  8
Defpoints
 62
     0
 48
0.5
100
AcDbPoint
 10
863.4251052760387
 20
295.0131337732541
 30
0.0
  0
POINT
  5
29D73
330
29C81
100
AcDbEntity
  8
Defpoints
 62
     0
 48
0.5
100
AcDbPoint
 10
819.3398464699898
 20
295.0131337732541
 30
0.0
  0
ENDBLK
  5
29C83
330
29C81
100
AcDbEntity
  8
0
 48
0.5
100
AcDbBlockEnd
  0
BLOCK
  5
29C8F
330
29C8E
100
AcDbEntity
  8
0
 48
0.5
100
AcDbBlockBegin
  2
*D20
 70
     1
 10
0.0
 20
0.0
 30
0.0
  3
*D20
  1

  0
LINE
  5
29D74
330
29C8E
100
AcDbEntity
  8
003
 62
     4
 48
0.5
370
    20
100
AcDbLine
 10
860.2751052760387
 20
295.0131337732541
 30
0.0
 11
817.2398464699899
 21
295.0131337732541
 31
0.0
  0
LINE
  5
29D75
330
29C8E
100
AcDbEntity
  8
003
 62
     4
 48
0.5
370
    20
100
AcDbLine
 10
911.2814235402717
 20
245.0131337732541
 30
0.0
 11
817.2398464699899
 21
245.0131337732541
 31
0.0
  0
LINE
  5
29D76
330
29C8E
100
AcDbEntity
  8
003
 62
     4
 48
0.5
370
    20
100
AcDbLine
 10
819.33984646999
 20
291.8631337732541
 30
0.0
 11
819.3398464699898
 21
248.1631337732541
 31
0.0
  0
INSERT
  5
29D77
330
29C8E
100
AcDbEntity
  8
003
 62
     4
 48
0.5
370
    20
100
AcDbBlockReference
  2
_Open30
 10
819.33984646999
 20
295.0131337732541
 30
0.0
 41
3.15
 42
3.15
 43
3.15
 50
90.0
  0
INSERT
  5
29D78
330
29C8E
100
AcDbEntity
  8
003
 62
     4
 48
0.5
370
    20
100
AcDbBlockReference
  2
_Open30
 10
819.3398464699898
 20
245.0131337732541
 30
0.0
 41
3.15
 42
3.15
 43
3.15
 50
270.0
  0
MTEXT
  5
29D79
330
29C8E
100
AcDbEntity
  8
003
 62
     7
 48
0.5
100
AcDbMText
 10
814.0898464699898
 20
270.0131337732542
 30
0.0
 40
6.3
 41
0.0
 71
     5
 72
     1
  1
50
  7
DIM
 11
0.0000000000000001
 21
1.0
 31
0.0
 73
     1
 44
1.0
1001
ACAD
1000
MTEXTBEGIN
1070
    73
1070
     1
1070
    44
1040
1.0
1070
    74
1070
     0
1000
MTEXTEND
1000
ACAD_MTEXT_BBRT
1070
    91
1071
        3
1070
    46
1040
1.1
1070
    64
1071
-1027028792
1070
    65
1000

1070
    66
1000

1070
   442
1071
        7
1000
ACAD_MTEXT_BERT
  0
POINT
  5
29D7A
330
29C8E
100
AcDbEntity
  8
Defpoints
 62
     0
 48
0.5
100
AcDbPoint
 10
863.4251052760387
 20
295.0131337732541
 30
0.0
  0
POINT
  5
29D7B
330
29C8E
100
AcDbEntity
  8
Defpoints
 62
     0
 48
0.5
100
AcDbPoint
 10
914.4314235402717
 20
245.0131337732541
 30
0.0
  0
POINT
  5
29D7C
330
29C8E
100
AcDbEntity
  8
Defpoints
 62
     0
 48
0.5
100
AcDbPoint
 10
819.3398464699898
 20
245.0131337732541
 30
0.0
  0
ENDBLK
  5
29C90
330
29C8E
100
AcDbEntity
  8
0
 48
0.5
100
AcDbBlockEnd
  0
BLOCK
  5
29CD6
330
29CD5
100
AcDbEntity
  8
0
 48
0.5
100
AcDbBlockBegin
  2
*D21
 70
     1
 10
0.0
 20
0.0
 30
0.0
  3
*D21
  1

  0
LINE
  5
29D7D
330
29CD5
100
AcDbEntity
  8
003
 62
     4
 48
0.5
370
    20
100
AcDbLine
 10
600.7287246499718
 20
323.1631337732541
 30
0.0
 11
600.7287246499718
 21
394.575542802799
 31
0.0
  0
LINE
  5
29D7E
330
29CD5
100
AcDbEntity
  8
003
 62
     4
 48
0.5
370
    20
100
AcDbLine
 10
964.4314235402717
 20
323.1631337732541
 30
0.0
 11
964.4314235402717
 21
394.575542802799
 31
0.0
  0
LINE
  5
29D7F
330
29CD5
100
AcDbEntity
  8
003
 62
     4
 48
0.5
370
    20
100
AcDbLine
 10
603.8787246499717
 20
392.475542802799
 30
0.0
 11
961.2814235402717
 21
392.475542802799
 31
0.0
  0
INSERT
  5
29D80
330
29CD5
100
AcDbEntity
  8
003
 62
     4
 48
0.5
370
    20
100
AcDbBlockReference
  2
_Open30
 10
600.7287246499718
 20
392.475542802799
 30
0.0
 41
3.15
 42
3.15
 43
3.15
 50
180.0
  0
INSERT
  5
29D81
330
29CD5
100
AcDbEntity
  8
003
 62
     4
 48
0.5
370
    20
100
AcDbBlockReference
  2
_Open30
 10
964.4314235402717
 20
392.475542802799
 30
0.0
 41
3.15
 42
3.15
 43
3.15
  0
MTEXT
  5
29D82
330
29CD5
100
AcDbEntity
  8
003
 62
     7
 48
0.5
100
AcDbMText
 10
782.5800740951217
 20
397.7255428027989
 30
0.0
 40
6.3
 41
0.0
 71
     5
 72
     1
  1
製品W
  7
DIM
 73
     1
 44
1.0
1001
ACAD
1000
MTEXTBEGIN
1070
    73
1070
     1
1070
    44
1040
1.0
1070
    74
1070
     0
1000
MTEXTEND
1000
ACAD_MTEXT_BBRT
1070
    91
1071
        3
1070
    46
1040
1.1
1070
    64
1071
-1027028792
1070
    65
1000

1070
    66
1000

1070
   442
1071
       12
1000
ACAD_MTEXT_BERT
  0
POINT
  5
29D83
330
29CD5
100
AcDbEntity
  8
Defpoints
 62
     0
 48
0.5
100
AcDbPoint
 10
600.7287246499718
 20
320.0131337732541
 30
0.0
  0
POINT
  5
29D84
330
29CD5
100
AcDbEntity
  8
Defpoints
 62
     0
 48
0.5
100
AcDbPoint
 10
964.4314235402717
 20
320.0131337732541
 30
0.0
  0
POINT
  5
29D85
330
29CD5
100
AcDbEntity
  8
Defpoints
 62
     0
 48
0.5
100
AcDbPoint
 10
964.4314235402717
 20
392.475542802799
 30
0.0
  0
ENDBLK
  5
29CD7
330
29CD5
100
AcDbEntity
  8
0
 48
0.5
100
AcDbBlockEnd
  0
BLOCK
  5
29EE0
330
29EDF
100
AcDbEntity
  8
0
100
AcDbBlockBegin
  2
W材 45×25改
 70
     0
 10
0.0
 20
0.0
 30
0.0
  3
W材 45×25改
  1

  0
LINE
  5
29EE1
330
29EDF
100
AcDbEntity
  8
0
100
AcDbLine
 10
0.300000000000125
 20
-22.5
 30
0.0
 11
24.69999999999982
 21
-22.50000000000023
 31
0.0
  0
LINE
  5
29EE2
330
29EDF
100
AcDbEntity
  8
0
100
AcDbLine
 10
2.100000000001671
 20
-20.19999999999891
 30
0.0
 11
9.213664601487323
 21
-20.20000000000073
 31
0.0
  0
LINE
  5
29EE3
330
29EDF
100
AcDbEntity
  8
0
100
AcDbLine
 10
15.78633539851165
 20
-20.20000000000232
 30
0.0
 11
17.69999999999981
 21
-20.20000000000278
 31
0.0
  0
LINE
  5
29EE4
330
29EDF
100
AcDbEntity
  8
0
100
AcDbLine
 10
18.70000000000027
 20
-20.20000000000289
 30
0.0
 11
23.19999999999982
 21
-20.20000000000414
 31
0.0
  0
LINE
  5
29EE5
330
29EDF
100
AcDbEntity
  8
0
100
AcDbLine
 10
-0.0000000000009663
 20
-22.19999999999982
 30
0.0
 11
0.0000000000009663
 21
22.19999999999982
 31
0.0
  0
ARC
  5
29EE6
330
29EDF
100
AcDbEntity
  8
0
100
AcDbCircle
 10
0.300000000000125
 20
-22.19999999999982
 30
0.0
 40
0.3
100
AcDbArc
 50
180.0
 51
270.0
1001
GENIUS_GENODEF_13
1002
{
1000
HIER
1070
     0
1002
}
1002
{
1000
MANEDIT
1070
     0
1002
}
1002
{
1000
NOSEL
1070
     0
1002
}
1002
{
1000
BEHIND
1070
     0
1002
}
1002
{
1000
OTHER
1070
     0
1002
}
1002
{
1000
REACTOR
1002
}
1001
GENIUS_GENOBJ-N-FIL_13
1002
{
1000
OWNER
1000
GEN
1002
}
  0
LINE
  5
29EE7
330
29EDF
100
AcDbEntity
  8
0
100
AcDbLine
 10
2.100000000001671
 20
-20.19999999999891
 30
0.0
 11
2.099999999999511
 21
-0.3000000000001819
 31
0.0
  0
LINE
  5
29EE8
330
29EDF
100
AcDbEntity
  8
0
100
AcDbLine
 10
2.099999999999511
 20
0.3000000000010914
 30
0.0
 11
2.100000000001784
 21
20.20000000000073
 31
0.0
  0
LINE
  5
29EE9
330
29EDF
100
AcDbEntity
  8
0
100
AcDbLine
 10
0.3000000000020577
 20
22.5
 30
0.0
 11
24.69999999999982
 21
22.5
 31
0.0
  0
ARC
  5
29EEA
330
29EDF
100
AcDbEntity
  8
0
100
AcDbCircle
 10
24.69999999999982
 20
22.19999999999982
 30
0.0
 40
0.3
100
AcDbArc
 50
0.0
 51
90.0
1001
GENIUS_GENODEF_13
1002
{
1000
HIER
1070
     0
1002
}
1002
{
1000
MANEDIT
1070
     0
1002
}
1002
{
1000
NOSEL
1070
     0
1002
}
1002
{
1000
BEHIND
1070
     0
1002
}
1002
{
1000
OTHER
1070
     0
1002
}
1002
{
1000
REACTOR
1002
}
1001
GENIUS_GENOBJ-N-FIL_13
1002
{
1000
OWNER
1000
GEN
1002
}
  0
ARC
  5
29EEB
330
29EDF
100
AcDbEntity
  8
0
100
AcDbCircle
 10
0.3000000000020577
 20
22.19999999999982
 30
0.0
 40
0.3
100
AcDbArc
 50
90.0
 51
180.0
1001
GENIUS_GENODEF_13
1002
{
1000
HIER
1070
     0
1002
}
1002
{
1000
MANEDIT
1070
     0
1002
}
1002
{
1000
NOSEL
1070
     0
1002
}
1002
{
1000
BEHIND
1070
     0
1002
}
1002
{
1000
OTHER
1070
     0
1002
}
1002
{
1000
REACTOR
1002
}
1001
GENIUS_GENOBJ-N-FIL_13
1002
{
1000
OWNER
1000
GEN
1002
}
  0
LINE
  5
29EEC
330
29EDF
100
AcDbEntity
  8
0
100
AcDbLine
 10
2.100000000001784
 20
20.20000000000073
 30
0.0
 11
9.213664601487435
 21
20.20000000000095
 31
0.0
  0
LINE
  5
29EED
330
29EDF
100
AcDbEntity
  8
0
100
AcDbLine
 10
15.78633539851177
 20
20.20000000000095
 30
0.0
 11
17.69999999999981
 21
20.20000000000095
 31
0.0
  0
LINE
  5
29EEE
330
29EDF
100
AcDbEntity
  8
0
100
AcDbLine
 10
18.70000000000027
 20
20.20000000000095
 30
0.0
 11
23.19999999999982
 21
20.20000000000073
 31
0.0
  0
ARC
  5
29EEF
330
29EDF
100
AcDbEntity
  8
0
100
AcDbCircle
 10
24.69999999999982
 20
-22.19999999999982
 30
0.0
 40
0.3
100
AcDbArc
 50
270.0
 51
0.0
1001
GENIUS_GENODEF_13
1002
{
1000
HIER
1070
     0
1002
}
1002
{
1000
MANEDIT
1070
     0
1002
}
1002
{
1000
NOSEL
1070
     0
1002
}
1002
{
1000
BEHIND
1070
     0
1002
}
1002
{
1000
OTHER
1070
     0
1002
}
1002
{
1000
REACTOR
1002
}
1001
GENIUS_GENOBJ-N-FIL_13
1002
{
1000
OWNER
1000
GEN
1002
}
  0
LINE
  5
29EF0
330
29EDF
100
AcDbEntity
  8
0
100
AcDbLine
 10
23.5
 20
-12.60000000000002
 30
0.0
 11
24.69999999999982
 21
-12.60000000000002
 31
0.0
  0
ARC
  5
29EF1
330
29EDF
100
AcDbEntity
  8
0
100
AcDbCircle
 10
24.69999999999982
 20
-12.9000000000002
 30
0.0
 40
0.3000000000000114
100
AcDbArc
 50
0.0
 51
90.0
  0
LINE
  5
29EF2
330
29EDF
100
AcDbEntity
  8
0
100
AcDbLine
 10
25.00000000000091
 20
-12.9000000000002
 30
0.0
 11
25.00000000000091
 21
-22.19999999999982
 31
0.0
  0
LINE
  5
29EF3
330
29EDF
100
AcDbEntity
  8
0
100
AcDbLine
 10
23.19999999999982
 20
-12.89999999999998
 30
0.0
 11
23.19999999999982
 21
-20.20000000000073
 31
0.0
  0
ARC
  5
29EF4
330
29EDF
100
AcDbEntity
  8
0
100
AcDbCircle
 10
23.5
 20
-12.89999999999998
 30
0.0
 40
0.3
100
AcDbArc
 50
90.0
 51
180.0
1001
GENIUS_GENOBJ-N-FIL_13
1002
{
1000
OWNER
1000
GEN
1002
}
1001
GENIUS_GENODEF_13
1002
{
1000
HIER
1070
     0
1002
}
1002
{
1000
MANEDIT
1070
     0
1002
}
1002
{
1000
NOSEL
1070
     0
1002
}
1002
{
1000
BEHIND
1070
     0
1002
}
1002
{
1000
OTHER
1070
     0
1002
}
1002
{
1000
REACTOR
1002
}
  0
LINE
  5
29EF5
330
29EDF
100
AcDbEntity
  8
0
100
AcDbLine
 10
23.5
 20
12.60000000000002
 30
0.0
 11
24.69999999999982
 21
12.60000000000002
 31
0.0
  0
ARC
  5
29EF6
330
29EDF
100
AcDbEntity
  8
0
100
AcDbCircle
 10
24.69999999999982
 20
12.9000000000002
 30
0.0
 40
0.3000000000000114
100
AcDbArc
 50
270.0
 51
0.0
  0
LINE
  5
29EF7
330
29EDF
100
AcDbEntity
  8
0
100
AcDbLine
 10
24.99999999999682
 20
12.90000000000009
 30
0.0
 11
25.00000000000182
 21
22.1999999999997
 31
0.0
  0
LINE
  5
29EF8
330
29EDF
100
AcDbEntity
  8
0
100
AcDbLine
 10
23.19999999999982
 20
12.89999999999998
 30
0.0
 11
23.19999999999982
 21
20.20000000000073
 31
0.0
  0
ARC
  5
29EF9
330
29EDF
100
AcDbEntity
  8
0
100
AcDbCircle
 10
23.5
 20
12.89999999999998
 30
0.0
 40
0.3
100
AcDbArc
 50
180.0
 51
270.0
1001
GENIUS_GENOBJ-N-FIL_13
1002
{
1000
OWNER
1000
GEN
1002
}
1001
GENIUS_GENODEF_13
1002
{
1000
HIER
1070
     0
1002
}
1002
{
1000
MANEDIT
1070
     0
1002
}
1002
{
1000
NOSEL
1070
     0
1002
}
1002
{
1000
BEHIND
1070
     0
1002
}
1002
{
1000
OTHER
1070
     0
1002
}
1002
{
1000
REACTOR
1002
}
  0
LINE
  5
29EFA
330
29EDF
100
AcDbEntity
  8
0
100
AcDbLine
 10
2.10000000000133
 20
-0.3000000000001819
 30
0.0
 11
1.800000000000238
 21
0.0
 31
0.0
  0
LINE
  5
29EFB
330
29EDF
100
AcDbEntity
  8
0
100
AcDbLine
 10
1.800000000000238
 20
0.0
 30
0.0
 11
2.099999999999511
 21
0.3000000000001819
 31
0.0
  0
ARC
  5
29EFC
330
29EDF
100
AcDbEntity
  8
0
100
AcDbCircle
 10
12.4999999999996
 20
17.99999999999977
 30
0.0
 40
3.200000047684576
100
AcDbArc
 50
328.7670715971411
 51
27.35223252864345
  0
ARC
  5
29EFD
330
29EDF
100
AcDbEntity
  8
0
100
AcDbCircle
 10
14.8086793318003
 20
16.60000000000002
 30
0.0
 40
0.5
100
AcDbArc
 50
270.0
 51
328.7670715971338
1001
GENIUS_GENODEF_13
1002
{
1000
HIER
1070
     0
1002
}
1002
{
1000
MANEDIT
1070
     0
1002
}
1002
{
1000
NOSEL
1070
     0
1002
}
1002
{
1000
BEHIND
1070
     0
1002
}
1002
{
1000
OTHER
1070
     0
1002
}
1002
{
1000
REACTOR
1002
}
1001
GENIUS_GENOBJ-N-FIL_13
1002
{
1000
OWNER
1000
GEN
1002
}
  0
ARC
  5
29EFE
330
29EDF
100
AcDbEntity
  8
0
100
AcDbCircle
 10
15.78633539851177
 20
19.7000000000005
 30
0.0
 40
0.5
100
AcDbArc
 50
90.0000000001042
 51
207.3522325286434
1001
GENIUS_GENODEF_13
1002
{
1000
HIER
1070
     0
1002
}
1002
{
1000
MANEDIT
1070
     0
1002
}
1002
{
1000
NOSEL
1070
     0
1002
}
1002
{
1000
BEHIND
1070
     0
1002
}
1002
{
1000
OTHER
1070
     0
1002
}
1002
{
1000
REACTOR
1002
}
1001
GENIUS_GENOBJ-N-FIL_13
1002
{
1000
OWNER
1000
GEN
1002
}
  0
ARC
  5
29EFF
330
29EDF
100
AcDbEntity
  8
0
100
AcDbCircle
 10
12.50000000000142
 20
17.99999999999977
 30
0.0
 40
1.75
100
AcDbArc
 50
308.2941331078716
 51
44.98295782617792
  0
ARC
  5
29F00
330
29EDF
100
AcDbEntity
  8
0
100
AcDbCircle
 10
13.95000000004216
 20
19.44913767457706
 30
0.0
 40
0.3
100
AcDbArc
 50
180.0000000332463
 51
224.9829578261779
1001
GENIUS_GENODEF_13
1002
{
1000
HIER
1070
     0
1002
}
1002
{
1000
MANEDIT
1070
     0
1002
}
1002
{
1000
NOSEL
1070
     0
1002
}
1002
{
1000
BEHIND
1070
     0
1002
}
1002
{
1000
OTHER
1070
     0
1002
}
1002
{
1000
REACTOR
1002
}
1001
GENIUS_GENOBJ-N-FIL_13
1002
{
1000
OWNER
1000
GEN
1002
}
  0
LINE
  5
29F01
330
29EDF
100
AcDbEntity
  8
0
100
AcDbLine
 10
13.65000000004107
 20
19.44913767440425
 30
0.0
 11
13.64999999988464
 21
19.90000000010491
 31
0.0
  0
ARC
  5
29F02
330
29EDF
100
AcDbEntity
  8
0
100
AcDbCircle
 10
13.34999999988537
 20
19.90000000000122
 30
0.0
 40
0.3
100
AcDbArc
 50
0.0000000199582096
 51
90.0
1001
GENIUS_GENODEF_13
1002
{
1000
HIER
1070
     0
1002
}
1002
{
1000
MANEDIT
1070
     0
1002
}
1002
{
1000
NOSEL
1070
     0
1002
}
1002
{
1000
BEHIND
1070
     0
1002
}
1002
{
1000
OTHER
1070
     0
1002
}
1002
{
1000
REACTOR
1002
}
1001
GENIUS_GENOBJ-N-FIL_13
1002
{
1000
OWNER
1000
GEN
1002
}
  0
LINE
  5
29F03
330
29EDF
100
AcDbEntity
  8
0
100
AcDbLine
 10
11.34999999907046
 20
19.8999999991654
 30
0.0
 11
11.35000000032556
 21
19.44913767633602
 31
0.0
  0
ARC
  5
29F04
330
29EDF
100
AcDbEntity
  8
0
100
AcDbCircle
 10
11.64999999906973
 20
19.90000000000122
 30
0.0
 40
0.3
100
AcDbArc
 50
90.0
 51
180.0000001596657
1001
GENIUS_GENODEF_13
1002
{
1000
HIER
1070
     0
1002
}
1002
{
1000
MANEDIT
1070
     0
1002
}
1002
{
1000
NOSEL
1070
     0
1002
}
1002
{
1000
BEHIND
1070
     0
1002
}
1002
{
1000
OTHER
1070
     0
1002
}
1002
{
1000
REACTOR
1002
}
1001
GENIUS_GENOBJ-N-FIL_13
1002
{
1000
OWNER
1000
GEN
1002
}
  0
ARC
  5
29F05
330
29EDF
100
AcDbEntity
  8
0
100
AcDbCircle
 10
12.50000000000142
 20
17.99999999999977
 30
0.0
 40
1.75
100
AcDbArc
 50
135.0170421593732
 51
231.7058668921283
  0
ARC
  5
29F06
330
29EDF
100
AcDbEntity
  8
0
100
AcDbCircle
 10
11.05000000032629
 20
19.44913767494267
 30
0.0
 40
0.3
100
AcDbArc
 50
315.0170421593732
 51
0.0000002659705011
1001
GENIUS_GENODEF_13
1002
{
1000
HIER
1070
     0
1002
}
1002
{
1000
MANEDIT
1070
     0
1002
}
1002
{
1000
NOSEL
1070
     0
1002
}
1002
{
1000
BEHIND
1070
     0
1002
}
1002
{
1000
OTHER
1070
     0
1002
}
1002
{
1000
REACTOR
1002
}
1001
GENIUS_GENOBJ-N-FIL_13
1002
{
1000
OWNER
1000
GEN
1002
}
  0
ARC
  5
29F07
330
29EDF
100
AcDbEntity
  8
0
100
AcDbCircle
 10
12.4999999999996
 20
18.00000000000159
 30
0.0
 40
3.200000047684149
100
AcDbArc
 50
152.6477674714002
 51
211.2329284029131
  0
ARC
  5
29F08
330
29EDF
100
AcDbEntity
  8
0
100
AcDbCircle
 10
10.19132066820026
 20
16.60000000000002
 30
0.0
 40
0.5
100
AcDbArc
 50
211.2329284029131
 51
270.0
1001
GENIUS_GENOBJ-N-FIL_13
1002
{
1000
OWNER
1000
GEN
1002
}
1001
GENIUS_GENODEF_13
1002
{
1000
HIER
1070
     0
1002
}
1002
{
1000
MANEDIT
1070
     0
1002
}
1002
{
1000
NOSEL
1070
     0
1002
}
1002
{
1000
BEHIND
1070
     0
1002
}
1002
{
1000
OTHER
1070
     0
1002
}
1002
{
1000
REACTOR
1002
}
  0
ARC
  5
29F09
330
29EDF
100
AcDbEntity
  8
0
100
AcDbCircle
 10
9.213664601487435
 20
19.7000000000005
 30
0.0
 40
0.5
100
AcDbArc
 50
332.6477674714003
 51
90.0
1001
GENIUS_GENOBJ-N-FIL_13
1002
{
1000
OWNER
1000
GEN
1002
}
1001
GENIUS_GENODEF_13
1002
{
1000
HIER
1070
     0
1002
}
1002
{
1000
MANEDIT
1070
     0
1002
}
1002
{
1000
NOSEL
1070
     0
1002
}
1002
{
1000
BEHIND
1070
     0
1002
}
1002
{
1000
OTHER
1070
     0
1002
}
1002
{
1000
REACTOR
1002
}
  0
LINE
  5
29F0A
330
29EDF
100
AcDbEntity
  8
0
100
AcDbLine
 10
11.64999999906973
 20
20.20000000000141
 30
0.0
 11
13.34999999988537
 21
20.2000000000005
 31
0.0
  0
LINE
  5
29F0B
330
29EDF
100
AcDbEntity
  8
0
100
AcDbLine
 10
18.69999999999982
 20
20.20000000000084
 30
0.0
 11
18.69999999999982
 21
18.60000000000093
 31
0.0
  0
LINE
  5
29F0C
330
29EDF
100
AcDbEntity
  8
0
100
AcDbLine
 10
17.69999999999981
 20
20.20000000000084
 30
0.0
 11
17.69999999999981
 21
18.60000000000093
 31
0.0
  0
ARC
  5
29F0D
330
29EDF
100
AcDbEntity
  8
0
100
AcDbCircle
 10
17.89999999999963
 20
18.60000000000093
 30
0.0
 40
0.2
100
AcDbArc
 50
180.0
 51
270.0
1001
GENIUS_GENOBJ-N-FIL_13
1002
{
1000
OWNER
1000
GEN
1002
}
1001
GENIUS_GENODEF_13
1002
{
1000
HIER
1070
     0
1002
}
1002
{
1000
MANEDIT
1070
     0
1002
}
1002
{
1000
NOSEL
1070
     0
1002
}
1002
{
1000
BEHIND
1070
     0
1002
}
1002
{
1000
OTHER
1070
     0
1002
}
1002
{
1000
REACTOR
1002
}
  0
LINE
  5
29F0E
330
29EDF
100
AcDbEntity
  8
0
100
AcDbLine
 10
18.5
 20
18.40000000000088
 30
0.0
 11
17.89999999999963
 21
18.40000000000088
 31
0.0
  0
ARC
  5
29F0F
330
29EDF
100
AcDbEntity
  8
0
100
AcDbCircle
 10
18.5
 20
18.60000000000093
 30
0.0
 40
0.2
100
AcDbArc
 50
270.0
 51
0.0
1001
GENIUS_GENODEF_13
1002
{
1000
HIER
1070
     0
1002
}
1002
{
1000
MANEDIT
1070
     0
1002
}
1002
{
1000
NOSEL
1070
     0
1002
}
1002
{
1000
BEHIND
1070
     0
1002
}
1002
{
1000
OTHER
1070
     0
1002
}
1002
{
1000
REACTOR
1002
}
1001
GENIUS_GENOBJ-N-FIL_13
1002
{
1000
OWNER
1000
GEN
1002
}
  0
LINE
  5
29F10
330
29EDF
100
AcDbEntity
  8
0
100
AcDbLine
 10
18.69999999999982
 20
-20.20000000000084
 30
0.0
 11
18.69999999999982
 21
-18.60000000000093
 31
0.0
  0
LINE
  5
29F11
330
29EDF
100
AcDbEntity
  8
0
100
AcDbLine
 10
17.69999999999981
 20
-20.20000000000084
 30
0.0
 11
17.69999999999981
 21
-18.60000000000093
 31
0.0
  0
ARC
  5
29F12
330
29EDF
100
AcDbEntity
  8
0
100
AcDbCircle
 10
17.89999999999963
 20
-18.60000000000093
 30
0.0
 40
0.2
100
AcDbArc
 50
90.0
 51
180.0
1001
GENIUS_GENOBJ-N-FIL_13
1002
{
1000
OWNER
1000
GEN
1002
}
1001
GENIUS_GENODEF_13
1002
{
1000
HIER
1070
     0
1002
}
1002
{
1000
MANEDIT
1070
     0
1002
}
1002
{
1000
NOSEL
1070
     0
1002
}
1002
{
1000
BEHIND
1070
     0
1002
}
1002
{
1000
OTHER
1070
     0
1002
}
1002
{
1000
REACTOR
1002
}
  0
LINE
  5
29F13
330
29EDF
100
AcDbEntity
  8
0
100
AcDbLine
 10
18.5
 20
-18.40000000000088
 30
0.0
 11
17.89999999999963
 21
-18.40000000000088
 31
0.0
  0
ARC
  5
29F14
330
29EDF
100
AcDbEntity
  8
0
100
AcDbCircle
 10
18.5
 20
-18.60000000000093
 30
0.0
 40
0.2
100
AcDbArc
 50
0.0
 51
90.0
1001
GENIUS_GENODEF_13
1002
{
1000
HIER
1070
     0
1002
}
1002
{
1000
MANEDIT
1070
     0
1002
}
1002
{
1000
NOSEL
1070
     0
1002
}
1002
{
1000
BEHIND
1070
     0
1002
}
1002
{
1000
OTHER
1070
     0
1002
}
1002
{
1000
REACTOR
1002
}
1001
GENIUS_GENOBJ-N-FIL_13
1002
{
1000
OWNER
1000
GEN
1002
}
  0
LINE
  5
29F15
330
29EDF
100
AcDbEntity
  8
0
100
AcDbLine
 10
14.8086793318003
 20
16.10000000000002
 30
0.0
 11
13.76728466518767
 21
16.10000000000002
 31
0.0
  0
LINE
  5
29F16
330
29EDF
100
AcDbEntity
  8
0
100
AcDbLine
 10
11.23271533481517
 20
16.10000000000002
 30
0.0
 11
10.19132066820026
 21
16.10000000000002
 31
0.0
  0
ARC
  5
29F17
330
29EDF
100
AcDbEntity
  8
0
100
AcDbCircle
 10
13.76728466518767
 20
16.39500142775546
 30
0.0
 40
0.2950014277554604
100
AcDbArc
 50
128.2941331078416
 51
270.0
  0
ARC
  5
29F18
330
29EDF
100
AcDbEntity
  8
0
100
AcDbCircle
 10
11.23271533481517
 20
16.39500142775546
 30
0.0
 40
0.2950014277554604
100
AcDbArc
 50
270.0
 51
51.70586689215838
  0
ARC
  5
29F19
330
29EDF
100
AcDbEntity
  8
0
100
AcDbCircle
 10
12.49999999999949
 20
-17.99999999999977
 30
0.0
 40
3.200000047684576
100
AcDbArc
 50
332.6477674713566
 51
31.23292840285897
  0
ARC
  5
29F1A
330
29EDF
100
AcDbEntity
  8
0
100
AcDbCircle
 10
14.80867933180019
 20
-16.60000000000002
 30
0.0
 40
0.5
100
AcDbArc
 50
31.23292840285897
 51
90.0
1001
GENIUS_GENODEF_13
1002
{
1000
HIER
1070
     0
1002
}
1002
{
1000
MANEDIT
1070
     0
1002
}
1002
{
1000
NOSEL
1070
     0
1002
}
1002
{
1000
BEHIND
1070
     0
1002
}
1002
{
1000
OTHER
1070
     0
1002
}
1002
{
1000
REACTOR
1002
}
1001
GENIUS_GENOBJ-N-FIL_13
1002
{
1000
OWNER
1000
GEN
1002
}
  0
ARC
  5
29F1B
330
29EDF
100
AcDbEntity
  8
0
100
AcDbCircle
 10
15.78633539851165
 20
-19.7000000000005
 30
0.0
 40
0.5
100
AcDbArc
 50
152.6477674713565
 51
269.9999999998958
1001
GENIUS_GENODEF_13
1002
{
1000
HIER
1070
     0
1002
}
1002
{
1000
MANEDIT
1070
     0
1002
}
1002
{
1000
NOSEL
1070
     0
1002
}
1002
{
1000
BEHIND
1070
     0
1002
}
1002
{
1000
OTHER
1070
     0
1002
}
1002
{
1000
REACTOR
1002
}
1001
GENIUS_GENOBJ-N-FIL_13
1002
{
1000
OWNER
1000
GEN
1002
}
  0
ARC
  5
29F1C
330
29EDF
100
AcDbEntity
  8
0
100
AcDbCircle
 10
12.50000000000131
 20
-17.99999999999977
 30
0.0
 40
1.75
100
AcDbArc
 50
315.0170421737944
 51
51.70586689212836
  0
ARC
  5
29F1D
330
29EDF
100
AcDbEntity
  8
0
100
AcDbCircle
 10
13.95000000004205
 20
-19.44913767457706
 30
0.0
 40
0.3
100
AcDbArc
 50
135.0170421737944
 51
179.9999999667537
1001
GENIUS_GENODEF_13
1002
{
1000
HIER
1070
     0
1002
}
1002
{
1000
MANEDIT
1070
     0
1002
}
1002
{
1000
NOSEL
1070
     0
1002
}
1002
{
1000
BEHIND
1070
     0
1002
}
1002
{
1000
OTHER
1070
     0
1002
}
1002
{
1000
REACTOR
1002
}
1001
GENIUS_GENOBJ-N-FIL_13
1002
{
1000
OWNER
1000
GEN
1002
}
  0
LINE
  5
29F1E
330
29EDF
100
AcDbEntity
  8
0
100
AcDbLine
 10
13.65000000004096
 20
-19.44913767440425
 30
0.0
 11
13.64999999988453
 21
-19.90000000010491
 31
0.0
  0
ARC
  5
29F1F
330
29EDF
100
AcDbEntity
  8
0
100
AcDbCircle
 10
13.34999999988525
 20
-19.90000000000122
 30
0.0
 40
0.3
100
AcDbArc
 50
270.0
 51
359.9999999800417
1001
GENIUS_GENODEF_13
1002
{
1000
HIER
1070
     0
1002
}
1002
{
1000
MANEDIT
1070
     0
1002
}
1002
{
1000
NOSEL
1070
     0
1002
}
1002
{
1000
BEHIND
1070
     0
1002
}
1002
{
1000
OTHER
1070
     0
1002
}
1002
{
1000
REACTOR
1002
}
1001
GENIUS_GENOBJ-N-FIL_13
1002
{
1000
OWNER
1000
GEN
1002
}
  0
LINE
  5
29F20
330
29EDF
100
AcDbEntity
  8
0
100
AcDbLine
 10
11.34999999907035
 20
-19.8999999991654
 30
0.0
 11
11.35000000032545
 21
-19.44913767633602
 31
0.0
  0
ARC
  5
29F21
330
29EDF
100
AcDbEntity
  8
0
100
AcDbCircle
 10
11.64999999906962
 20
-19.90000000000122
 30
0.0
 40
0.3
100
AcDbArc
 50
179.9999998403343
 51
270.0
1001
GENIUS_GENODEF_13
1002
{
1000
HIER
1070
     0
1002
}
1002
{
1000
MANEDIT
1070
     0
1002
}
1002
{
1000
NOSEL
1070
     0
1002
}
1002
{
1000
BEHIND
1070
     0
1002
}
1002
{
1000
OTHER
1070
     0
1002
}
1002
{
1000
REACTOR
1002
}
1001
GENIUS_GENOBJ-N-FIL_13
1002
{
1000
OWNER
1000
GEN
1002
}
  0
ARC
  5
29F22
330
29EDF
100
AcDbEntity
  8
0
100
AcDbCircle
 10
12.50000000000131
 20
-17.99999999999977
 30
0.0
 40
1.75
100
AcDbArc
 50
128.2941331078716
 51
224.9829578406267
  0
ARC
  5
29F23
330
29EDF
100
AcDbEntity
  8
0
100
AcDbCircle
 10
11.05000000032618
 20
-19.44913767494267
 30
0.0
 40
0.3
100
AcDbArc
 50
359.9999997340295
 51
44.98295784062674
1001
GENIUS_GENODEF_13
1002
{
1000
HIER
1070
     0
1002
}
1002
{
1000
MANEDIT
1070
     0
1002
}
1002
{
1000
NOSEL
1070
     0
1002
}
1002
{
1000
BEHIND
1070
     0
1002
}
1002
{
1000
OTHER
1070
     0
1002
}
1002
{
1000
REACTOR
1002
}
1001
GENIUS_GENOBJ-N-FIL_13
1002
{
1000
OWNER
1000
GEN
1002
}
  0
ARC
  5
29F24
330
29EDF
100
AcDbEntity
  8
0
100
AcDbCircle
 10
12.49999999999949
 20
-18.00000000000159
 30
0.0
 40
3.200000047684149
100
AcDbArc
 50
148.7670715970868
 51
207.352232528607
  0
ARC
  5
29F25
330
29EDF
100
AcDbEntity
  8
0
100
AcDbCircle
 10
10.19132066820015
 20
-16.60000000000002
 30
0.0
 40
0.5
100
AcDbArc
 50
90.0
 51
148.7670715970868
1001
GENIUS_GENOBJ-N-FIL_13
1002
{
1000
OWNER
1000
GEN
1002
}
1001
GENIUS_GENODEF_13
1002
{
1000
HIER
1070
     0
1002
}
1002
{
1000
MANEDIT
1070
     0
1002
}
1002
{
1000
NOSEL
1070
     0
1002
}
1002
{
1000
BEHIND
1070
     0
1002
}
1002
{
1000
OTHER
1070
     0
1002
}
1002
{
1000
REACTOR
1002
}
  0
ARC
  5
29F26
330
29EDF
100
AcDbEntity
  8
0
100
AcDbCircle
 10
9.213664601487323
 20
-19.7000000000005
 30
0.0
 40
0.5
100
AcDbArc
 50
270.0
 51
27.35223252860704
1001
GENIUS_GENOBJ-N-FIL_13
1002
{
1000
OWNER
1000
GEN
1002
}
1001
GENIUS_GENODEF_13
1002
{
1000
HIER
1070
     0
1002
}
1002
{
1000
MANEDIT
1070
     0
1002
}
1002
{
1000
NOSEL
1070
     0
1002
}
1002
{
1000
BEHIND
1070
     0
1002
}
1002
{
1000
OTHER
1070
     0
1002
}
1002
{
1000
REACTOR
1002
}
  0
LINE
  5
29F27
330
29EDF
100
AcDbEntity
  8
0
100
AcDbLine
 10
11.64999999906962
 20
-20.20000000000141
 30
0.0
 11
13.34999999988525
 21
-20.2000000000005
 31
0.0
  0
LINE
  5
29F28
330
29EDF
100
AcDbEntity
  8
0
100
AcDbLine
 10
14.80867933180019
 20
-16.10000000000002
 30
0.0
 11
13.76728466518756
 21
-16.10000000000002
 31
0.0
  0
LINE
  5
29F29
330
29EDF
100
AcDbEntity
  8
0
100
AcDbLine
 10
11.23271533481505
 20
-16.10000000000002
 30
0.0
 11
10.19132066820015
 21
-16.10000000000002
 31
0.0
  0
ARC
  5
29F2A
330
29EDF
100
AcDbEntity
  8
0
100
AcDbCircle
 10
13.76728466518756
 20
-16.39500142775546
 30
0.0
 40
0.2950014277554604
100
AcDbArc
 50
90.0
 51
231.7058668921283
  0
ARC
  5
29F2B
330
29EDF
100
AcDbEntity
  8
0
100
AcDbCircle
 10
11.23271533481505
 20
-16.39500142775546
 30
0.0
 40
0.2950014277554604
100
AcDbArc
 50
308.2941331078716
 51
90.0
  0
ENDBLK
  5
29F2C
330
29EDF
100
AcDbEntity
  8
0
100
AcDbBlockEnd
  0
BLOCK
  5
29FD5
330
29FD4
100
AcDbEntity
  8
0
 48
0.5
100
AcDbBlockBegin
  2
*D23
 70
     1
 10
0.0
 20
0.0
 30
0.0
  3
*D23
  1

  0
LINE
  5
29FEC
330
29FD4
100
AcDbEntity
  8
003
 62
     4
 48
0.5
370
    20
100
AcDbLine
 10
255.8410271374369
 20
388.4385783243356
 30
0.0
 11
241.3735590198169
 21
388.4385783243356
 31
0.0
  0
LINE
  5
29FED
330
29FD4
100
AcDbEntity
  8
003
 62
     4
 48
0.5
370
    20
100
AcDbLine
 10
255.8410271374388
 20
343.4385783243356
 30
0.0
 11
241.3735590198169
 21
343.4385783243356
 31
0.0
  0
LINE
  5
29FEE
330
29FD4
100
AcDbEntity
  8
003
 62
     4
 48
0.5
370
    20
100
AcDbLine
 10
243.4735590198169
 20
385.2885783243356
 30
0.0
 11
243.4735590198169
 21
346.5885783243356
 31
0.0
  0
INSERT
  5
29FEF
330
29FD4
100
AcDbEntity
  8
003
 62
     4
 48
0.5
370
    20
100
AcDbBlockReference
  2
_Open30
 10
243.4735590198169
 20
388.4385783243356
 30
0.0
 41
3.15
 42
3.15
 43
3.15
 50
90.0
  0
INSERT
  5
29FF0
330
29FD4
100
AcDbEntity
  8
003
 62
     4
 48
0.5
370
    20
100
AcDbBlockReference
  2
_Open30
 10
243.4735590198169
 20
343.4385783243356
 30
0.0
 41
3.15
 42
3.15
 43
3.15
 50
270.0
  0
MTEXT
  5
29FF1
330
29FD4
100
AcDbEntity
  8
003
 62
     7
 48
0.5
100
AcDbMText
 10
238.2235590198169
 20
365.9385783243357
 30
0.0
 40
6.3
 41
0.0
 71
     5
 72
     1
  1
45
  7
DIM
 11
0.0000000000000001
 21
1.0
 31
0.0
 73
     1
 44
1.0
1001
ACAD
1000
MTEXTBEGIN
1070
    73
1070
     1
1070
    44
1040
1.0
1070
    74
1070
     0
1000
MTEXTEND
1000
ACAD_MTEXT_BBRT
1070
    91
1071
        3
1070
    46
1040
1.1
1070
    64
1071
-1027028792
1070
    65
1000

1070
    66
1000

1070
   442
1071
  2752529
1000
ACAD_MTEXT_BERT
  0
POINT
  5
29FF2
330
29FD4
100
AcDbEntity
  8
Defpoints
 62
     0
 48
0.5
100
AcDbPoint
 10
258.9910271374369
 20
388.4385783243356
 30
0.0
  0
POINT
  5
29FF3
330
29FD4
100
AcDbEntity
  8
Defpoints
 62
     0
 48
0.5
100
AcDbPoint
 10
258.9910271374387
 20
343.4385783243356
 30
0.0
  0
POINT
  5
29FF4
330
29FD4
100
AcDbEntity
  8
Defpoints
 62
     0
 48
0.5
100
AcDbPoint
 10
243.4735590198169
 20
343.4385783243356
 30
0.0
  0
ENDBLK
  5
29FD6
330
29FD4
100
AcDbEntity
  8
0
 48
0.5
100
AcDbBlockEnd
  0
BLOCK
  5
29FE1
330
29FE0
100
AcDbEntity
  8
0
 48
0.5
100
AcDbBlockBegin
  2
*D24
 70
     1
 10
0.0
 20
0.0
 30
0.0
  3
*D24
  1

  0
LINE
  5
29FF5
330
29FE0
100
AcDbEntity
  8
003
 62
     4
 48
0.5
370
    20
100
AcDbLine
 10
336.8410271374358
 20
385.9385783243347
 30
0.0
 11
364.6716389351451
 21
385.9385783243347
 31
0.0
  0
LINE
  5
29FF6
330
29FE0
100
AcDbEntity
  8
003
 62
     4
 48
0.5
370
    20
100
AcDbLine
 10
336.8410271374358
 20
345.9385783243347
 30
0.0
 11
364.671638935145
 21
345.9385783243347
 31
0.0
  0
LINE
  5
29FF7
330
29FE0
100
AcDbEntity
  8
003
 62
     4
 48
0.5
370
    20
100
AcDbLine
 10
362.571638935145
 20
382.7885783243347
 30
0.0
 11
362.571638935145
 21
349.0885783243347
 31
0.0
  0
INSERT
  5
29FF8
330
29FE0
100
AcDbEntity
  8
003
 62
     4
 48
0.5
370
    20
100
AcDbBlockReference
  2
_Open30
 10
362.5716389351451
 20
385.9385783243347
 30
0.0
 41
3.15
 42
3.15
 43
3.15
 50
90.0
  0
INSERT
  5
29FF9
330
29FE0
100
AcDbEntity
  8
003
 62
     4
 48
0.5
370
    20
100
AcDbBlockReference
  2
_Open30
 10
362.571638935145
 20
345.9385783243347
 30
0.0
 41
3.15
 42
3.15
 43
3.15
 50
270.0
  0
MTEXT
  5
29FFA
330
29FE0
100
AcDbEntity
  8
003
 62
     7
 48
0.5
100
AcDbMText
 10
357.321638935145
 20
365.9385783243347
 30
0.0
 40
6.3
 41
0.0
 71
     5
 72
     1
  1
40
  7
DIM
 11
0.0000000000000001
 21
1.0
 31
0.0
 73
     1
 44
1.0
1001
ACAD
1000
MTEXTBEGIN
1070
    73
1070
     1
1070
    44
1040
1.0
1070
    74
1070
     0
1000
MTEXTEND
1000
ACAD_MTEXT_BBRT
1070
    91
1071
        3
1070
    46
1040
1.1
1070
    64
1071
-1027028792
1070
    65
1000

1070
    66
1000

1070
   442
1071
       22
1000
ACAD_MTEXT_BERT
  0
POINT
  5
29FFB
330
29FE0
100
AcDbEntity
  8
Defpoints
 62
     0
 48
0.5
100
AcDbPoint
 10
333.6910271374358
 20
385.9385783243347
 30
0.0
  0
POINT
  5
29FFC
330
29FE0
100
AcDbEntity
  8
Defpoints
 62
     0
 48
0.5
100
AcDbPoint
 10
333.6910271374358
 20
345.9385783243347
 30
0.0
  0
POINT
  5
29FFD
330
29FE0
100
AcDbEntity
  8
Defpoints
 62
     0
 48
0.5
100
AcDbPoint
 10
362.571638935145
 20
345.9385783243347
 30
0.0
  0
ENDBLK
  5
29FE2
330
29FE0
100
AcDbEntity
  8
0
 48
0.5
100
AcDbBlockEnd
  0
ENDSEC
  0
SECTION
  2
ENTITIES
  0
LINE
  5
18110
330
1F
100
AcDbEntity
  8
002
100
AcDbLine
 10
-13.26284375907214
 20
861.0
 30
0.0
 11
1126.737156240927
 21
861.0
 31
0.0
  0
LINE
  5
18111
330
1F
100
AcDbEntity
  8
002
100
AcDbLine
 10
-13.26284375907237
 20
60.0
 30
0.0
 11
1126.737156240927
 21
60.0
 31
0.0
  0
LINE
  5
18112
330
1F
100
AcDbEntity
  8
002
100
AcDbLine
 10
-13.26284375907214
 20
861.0
 30
0.0
 11
-13.26284375907237
 21
60.0
 31
0.0
  0
LINE
  5
18113
330
1F
100
AcDbEntity
  8
002
100
AcDbLine
 10
1126.737156240927
 20
861.0
 30
0.0
 11
1126.737156240927
 21
60.0
 31
0.0
  0
LINE
  5
18114
330
1F
100
AcDbEntity
  8
0
100
AcDbLine
 10
381.2371562409272
 20
81.0
 30
0.0
 11
580.7371562409271
 21
81.0
 31
0.0
  0
LINE
  5
18115
330
1F
100
AcDbEntity
  8
002
100
AcDbLine
 10
-13.26284375907237
 20
102.0
 30
0.0
 11
1126.737156240927
 21
102.0
 31
0.0
  0
TEXT
  5
18116
330
1F
100
AcDbEntity
  8
Defpoints
100
AcDbText
 10
147.5149097513486
 20
76.0
 30
0.0
 40
10.0
  1
ＡＡＡＡＡＡＡＡＡ
  7
ｺﾞｼｯｸ（横）
 11
147.5149097513486
 21
81.0
 31
0.0
100
AcDbText
 73
     2
  0
LINE
  5
18117
330
1F
100
AcDbEntity
  8
0
100
AcDbLine
 10
127.1371562409271
 20
70.5
 30
0.0
 11
-0.6628437590724623
 21
70.5
 31
0.0
  0
LINE
  5
18118
330
1F
100
AcDbEntity
  8
0
100
AcDbLine
 10
127.1371562409271
 20
91.5
 30
0.0
 11
-0.6628437590724623
 21
91.5
 31
0.0
  0
LINE
  5
18119
330
1F
100
AcDbEntity
  8
0
100
AcDbLine
 10
127.1371562409271
 20
81.0
 30
0.0
 11
-0.6628437590724623
 21
81.0
 31
0.0
  0
LINE
  5
1811B
330
1F
100
AcDbEntity
  8
0
100
AcDbLine
 10
-2.762843759072371
 20
102.0
 30
0.0
 11
-2.762843759072371
 21
60.0
 31
0.0
  0
TEXT
  5
1811C
330
1F
100
AcDbEntity
  8
0
100
AcDbText
 10
131.2476676045635
 20
97.5375
 30
0.0
 40
6.299999999999998
  1
工 事 名
 50
270.0
  7
ｺﾞｼｯｸ（縦）
 72
     4
 11
134.4871562409271
 21
81.0
 31
0.0
100
AcDbText
  0
LINE
  5
1811D
330
1F
100
AcDbEntity
  8
0
100
AcDbLine
 10
139.7371562409271
 20
102.0
 30
0.0
 11
139.7371562409271
 21
60.0
 31
0.0
  0
LINE
  5
1811E
330
1F
100
AcDbEntity
  8
0
100
AcDbLine
 10
129.2371562409271
 20
102.0
 30
0.0
 11
129.2371562409271
 21
60.0
 31
0.0
  0
TEXT
  5
1811F
330
1F
100
AcDbEntity
  8
0
100
AcDbText
 10
353.6296100921161
 20
76.79999999999999
 30
0.0
 40
8.4
  1
工事
  7
ｺﾞｼｯｸ（横）
 72
     2
 11
378.0659737284797
 21
81.0
 31
0.0
100
AcDbText
 73
     2
  0
LINE
  5
18121
330
1F
100
AcDbEntity
  8
0
100
AcDbLine
 10
391.7371562409272
 20
102.0
 30
0.0
 11
391.7371562409272
 21
60.0
 31
0.0
  0
LINE
  5
18122
330
1F
100
AcDbEntity
  8
0
100
AcDbLine
 10
381.2371562409272
 20
102.0
 30
0.0
 11
381.2371562409272
 21
60.0
 31
0.0
  0
LINE
  5
18124
330
1F
100
AcDbEntity
  8
0
100
AcDbLine
 10
977.637156240927
 20
91.5
 30
0.0
 11
931.4371562409272
 21
91.5
 31
0.0
  0
TEXT
  5
18125
330
1F
100
AcDbEntity
  8
Defpoints
100
AcDbText
 10
938.9303380591089
 20
62.1
 30
0.0
 40
6.299999999999998
  1
00.00.00
  7
ｺﾞｼｯｸ（横）
 72
     1
 11
954.5371562409272
 21
65.25
 31
0.0
100
AcDbText
 73
     2
  0
LINE
  5
18126
330
1F
100
AcDbEntity
  8
0
100
AcDbLine
 10
977.637156240927
 20
70.5
 30
0.0
 11
931.4371562409272
 21
70.5
 31
0.0
  0
LINE
  5
18127
330
1F
100
AcDbEntity
  8
0
100
AcDbLine
 10
929.3371562409271
 20
81.0
 30
0.0
 11
1126.737156240927
 21
81.0
 31
0.0
  0
TEXT
  5
18128
330
1F
100
AcDbEntity
  8
0
100
AcDbText
 10
567.3083309350337
 20
87.47880713460409
 30
0.0
 40
8.4
  1
殿
  7
ｺﾞｼｯｸ（横）
 72
     1
 11
573.4174218441246
 21
91.67880713460409
 31
0.0
100
AcDbText
 73
     2
  0
LINE
  5
1812A
330
1F
100
AcDbEntity
  8
0
100
AcDbLine
 10
591.2371562409272
 20
102.0
 30
0.0
 11
591.2371562409272
 21
60.0
 31
0.0
  0
LINE
  5
1812B
330
1F
100
AcDbEntity
  8
0
100
AcDbLine
 10
580.7371562409271
 20
102.0
 30
0.0
 11
580.7371562409271
 21
60.0
 31
0.0
  0
TEXT
  5
1812C
330
1F
100
AcDbEntity
  8
0
100
AcDbText
 10
567.3083309350337
 20
66.47880713460408
 30
0.0
 40
8.4
  1
殿
  7
ｺﾞｼｯｸ（横）
 72
     1
 11
573.4174218441246
 21
70.67880713460408
 31
0.0
100
AcDbText
 73
     2
  0
TEXT
  5
1812D
330
1F
100
AcDbEntity
  8
0
100
AcDbText
 10
609.6973835136545
 20
72.02650402863127
 30
0.0
 40
6.0
  1
（格子：20×40パイプ、Ｗ材：45×25）
 41
0.9
  7
ｺﾞｼｯｸ（横）
 72
     1
 11
669.9871562409271
 21
75.02650402863128
 31
0.0
100
AcDbText
 73
     2
  0
TEXT
  5
1812E
330
1F
100
AcDbEntity
  8
0
100
AcDbText
 10
784.978452695202
 20
62.453750830227
 30
0.0
 40
6.299999999999998
  1
年　　　月　　　日
  7
ｺﾞｼｯｸ（横）
 72
     1
 11
816.9795890588384
 21
65.603750830227
 31
0.0
100
AcDbText
 73
     2
  0
TEXT
  5
1812F
330
1F
100
AcDbEntity
  8
0
100
AcDbText
 10
758.7837471500181
 20
93.59999999999999
 30
0.0
 40
6.299999999999998
  1
お　客　様　受　領　印
  7
ｺﾞｼｯｸ（横）
 72
     1
 11
801.2371562409272
 21
96.75
 31
0.0
100
AcDbText
 73
     2
  0
LINE
  5
18130
330
1F
100
AcDbEntity
  8
0
100
AcDbLine
 10
748.7371562409272
 20
91.5
 30
0.0
 11
929.3371562409271
 21
91.5
 31
0.0
  0
LINE
  5
18131
330
1F
100
AcDbEntity
  8
0
100
AcDbLine
 10
748.7371562409272
 20
102.0
 30
0.0
 11
748.7371562409272
 21
60.0
 31
0.0
  0
LINE
  5
18132
330
1F
100
AcDbEntity
  8
0
100
AcDbLine
 10
853.7371562409273
 20
102.0
 30
0.0
 11
853.7371562409273
 21
60.0
 31
0.0
  0
TEXT
  5
18133
330
1F
100
AcDbEntity
  8
0
100
AcDbText
 10
860.4309062409271
 20
93.59999999999999
 30
0.0
 40
6.299999999999998
  1
担　当
  7
ｺﾞｼｯｸ（横）
 72
     1
 11
872.6371562409271
 21
96.75
 31
0.0
100
AcDbText
 73
     2
  0
LINE
  5
18134
330
1F
100
AcDbEntity
  8
0
100
AcDbLine
 10
929.3371562409271
 20
102.0
 30
0.0
 11
929.3371562409271
 21
60.0
 31
0.0
  0
LINE
  5
18135
330
1F
100
AcDbEntity
  8
0
100
AcDbLine
 10
891.5371562409271
 20
102.0
 30
0.0
 11
891.5371562409271
 21
60.0
 31
0.0
  0
TEXT
  5
18136
330
1F
100
AcDbEntity
  8
Defpoints
100
AcDbText
 10
894.9735198772909
 20
71.55
 30
0.0
 40
8.4
  1
AAAA
  7
ｺﾞｼｯｸ（横）
 72
     1
 11
910.4371562409273
 21
75.75
 31
0.0
100
AcDbText
 73
     2
  0
TEXT
  5
18137
330
1F
100
AcDbEntity
  8
0
100
AcDbText
 10
898.2309062409273
 20
93.59999999999999
 30
0.0
 40
6.299999999999998
  1
作　図
  7
ｺﾞｼｯｸ（横）
 72
     1
 11
910.4371562409273
 21
96.75
 31
0.0
100
AcDbText
 73
     2
  0
TEXT
  5
18138
330
1F
100
AcDbEntity
  8
0
100
AcDbText
 10
1016.131812950899
 20
66.9630905889267
 30
0.0
 40
8.4
  1
株式会社
  7
ｺﾞｼｯｸ（横）
 72
     1
 11
1040.568176587263
 21
71.16309058892671
 31
0.0
100
AcDbText
 73
     2
  0
LINE
  5
1813A
330
1F
100
AcDbEntity
  8
0
100
AcDbLine
 10
983.4060579628202
 20
71.9011475359182
 30
0.0
 11
1001.99297610282
 21
61.89755939591805
 31
0.0
  0
LINE
  5
1813B
330
1F
100
AcDbEntity
  8
0
100
AcDbLine
 10
983.0675522428206
 20
68.91666239591836
 30
0.0
 11
1001.99297610282
 21
79.10243939591805
 31
0.0
  0
LINE
  5
1813C
330
1F
100
AcDbEntity
  8
0
100
AcDbLine
 10
979.7371562409272
 20
102.0
 30
0.0
 11
979.7371562409272
 21
60.0
 31
0.0
  0
TEXT
  5
1813D
330
1F
100
AcDbEntity
  8
Defpoints
100
AcDbText
 10
940.7917016954726
 20
83.1
 30
0.0
 40
6.299999999999998
  1
000000
  7
ｺﾞｼｯｸ（横）
 72
     1
 11
954.5371562409272
 21
86.25
 31
0.0
100
AcDbText
 73
     2
  0
TEXT
  5
1813E
330
1F
100
AcDbEntity
  8
0
100
AcDbText
 10
940.7917016954726
 20
72.59999999999999
 30
0.0
 40
6.299999999999998
  1
作成日
  7
ｺﾞｼｯｸ（横）
 72
     1
 11
954.5371562409272
 21
75.75
 31
0.0
100
AcDbText
 73
     2
  0
TEXT
  5
1813F
330
1F
100
AcDbEntity
  8
0
100
AcDbText
 10
949.2752244227453
 20
93.59999999999999
 30
0.0
 40
6.299999999999998
  1
No
  7
ｺﾞｼｯｸ（横）
 72
     1
 11
954.5371562409272
 21
96.75
 31
0.0
100
AcDbText
 73
     2
  0
LINE
  5
18140
330
1F
100
AcDbEntity
  8
0
100
AcDbLine
 10
990.2371562409271
 20
102.0
 30
0.0
 11
990.2371562409271
 21
81.0
 31
0.0
  0
TEXT
  5
18141
330
1F
100
AcDbEntity
  8
0
100
AcDbText
 10
996.2985198772909
 20
87.3
 30
0.0
 40
8.4
  1
1/3、1/20
  7
ｺﾞｼｯｸ（横）
 72
     1
 11
1021.737156240927
 21
91.5
 31
0.0
100
AcDbText
 73
     2
  0
LINE
  5
18142
330
1F
100
AcDbEntity
  8
0
100
AcDbLine
 10
995.8273786228206
 20
62.04924869591764
 30
0.0
 11
1014.75279954282
 21
72.23502569591778
 31
0.0
  0
LINE
  5
18143
330
1F
100
AcDbEntity
  8
0
100
AcDbLine
 10
996.4477274428205
 20
61.71537347591812
 30
0.0
 11
1015.373151302821
 21
71.9011475359182
 31
0.0
  0
LINE
  5
18144
330
1F
100
AcDbEntity
  8
0
100
AcDbLine
 10
996.7862361028204
 20
79.10243939591805
 30
0.0
 11
1015.711657022821
 21
68.91666239591836
 31
0.0
  0
LINE
  5
18145
330
1F
100
AcDbEntity
  8
0
100
AcDbLine
 10
996.1658843428203
 20
78.76856417591785
 30
0.0
 11
1015.091308202821
 21
68.58278717591748
 31
0.0
  0
LINE
  5
18146
330
1F
100
AcDbEntity
  8
0
100
AcDbLine
 10
983.6879040028206
 20
68.58278717591748
 30
0.0
 11
1002.613324922821
 21
78.76856417591785
 31
0.0
  0
TEXT
  5
18147
330
1F
100
AcDbEntity
  8
0
100
AcDbText
 10
993.906870662821
 20
66.09000233591746
 30
0.0
 40
8.819999999999998
  1
ＡＬ
 41
0.6360784961240127
  7
ｺﾞｼｯｸ（横）
 72
     5
 11
1004.87228568282
 21
66.09000233591746
 31
0.0
100
AcDbText
  0
LINE
  5
18148
330
1F
100
AcDbEntity
  8
0
100
AcDbLine
 10
984.0264097228207
 20
72.23502569591778
 30
0.0
 11
1002.95183358282
 21
62.04924869591764
 31
0.0
  0
POINT
  5
18149
330
1F
100
AcDbEntity
  8
0
100
AcDbPoint
 10
999.3896061028207
 20
70.49999939591771
 30
0.0
  0
TEXT
  5
1814A
330
1F
100
AcDbEntity
  8
0
100
AcDbText
 10
1072.101575109979
 20
64.2
 30
0.0
 40
12.6
  1
丸　忠
  7
ｺﾞｼｯｸ（横）
 72
     1
 11
1096.514075109979
 21
70.5
 31
0.0
100
AcDbText
 73
     2
  0
LINE
  5
1814C
330
1F
100
AcDbEntity
  8
0
100
AcDbLine
 10
1053.237156240927
 20
102.0
 30
0.0
 11
1053.237156240927
 21
81.0
 31
0.0
  0
LINE
  5
1814D
330
1F
100
AcDbEntity
  8
0
100
AcDbLine
 10
1063.737156240927
 20
102.0
 30
0.0
 11
1063.737156240927
 21
81.0
 31
0.0
  0
TEXT
  5
18150
330
1F
100
AcDbEntity
  8
0
100
AcDbText
 10
652.5326107863817
 20
83.94537933590163
 30
0.0
 40
8.0
  1
太格子
  7
ｺﾞｼｯｸ（横）
 72
     1
 11
669.9871562409271
 21
87.94537933590163
 31
0.0
100
AcDbText
 73
     2
  0
POINT
  5
18154
330
1F
100
AcDbEntity
  8
0000寸法
 48
0.5
100
AcDbPoint
 10
-19.26284375907214
 20
867.0
 30
0.0
  0
POINT
  5
18158
330
1F
100
AcDbEntity
  8
0
 48
0.5
100
AcDbPoint
 10
1132.737156240927
 20
49.0
 30
0.0
  0
TEXT
  5
18353
330
1F
100
AcDbEntity
  8
0
100
AcDbText
 10
-11.3060255772542
 20
93.20624999999999
 30
0.0
 40
6.299999999999998
  1
特　記
 50
270.0
  7
ｺﾞｼｯｸ（縦）
 72
     4
 11
-8.012843759072381
 21
81.0
 31
0.0
100
AcDbText
  0
TEXT
  5
18355
330
1F
100
AcDbEntity
  8
0
100
AcDbText
 10
384.1476676045635
 20
101.3181818181818
 30
0.0
 40
4.5
  1
御設計
 50
270.0
  7
ｺﾞｼｯｸ（縦）
 72
     4
 11
386.4871562409271
 21
91.5
 31
0.0
100
AcDbText
  0
TEXT
  5
18357
330
1F
100
AcDbEntity
  8
0
100
AcDbText
 10
384.1476676045635
 20
80.31818181818181
 30
0.0
 40
4.5
  1
御施行
 50
270.0
  7
ｺﾞｼｯｸ（縦）
 72
     4
 11
386.4871562409271
 21
70.5
 31
0.0
100
AcDbText
  0
TEXT
  5
18358
330
1F
100
AcDbEntity
  8
0
100
AcDbText
 10
582.6402812409273
 20
99.32727272727273
 30
0.0
 40
6.299999999999998
  1
図面名称
 50
270.0
  7
ｺﾞｼｯｸ（縦）
 72
     4
 11
585.9871562409272
 21
81.0
 31
0.0
100
AcDbText
  0
TEXT
  5
1835B
330
1F
100
AcDbEntity
  8
0
100
AcDbText
 10
982.4445426045636
 20
98.77272727272728
 30
0.0
 40
5.0
  1
縮尺
 50
270.0
  7
ｺﾞｼｯｸ（縦）
 72
     4
 11
984.9871562409273
 21
91.5
 31
0.0
100
AcDbText
  0
TEXT
  5
1835D
330
1F
100
AcDbEntity
  8
0
100
AcDbText
 10
1055.930338059109
 20
98.77272727272728
 30
0.0
 40
5.0
  1
図番
 50
270.0
  7
ｺﾞｼｯｸ（縦）
 72
     4
 11
1058.487156240927
 21
91.5
 31
0.0
100
AcDbText
  0
TEXT
  5
24019
330
1F
100
AcDbEntity
  8
0
100
AcDbText
 10
1095.027332077367
 20
52.45834297416286
 30
0.0
 40
6.299999999999998
  1
170401
  7
ｺﾞｼｯｸ（横）
 72
     1
 11
1108.772786622821
 21
55.60834297416286
 31
0.0
100
AcDbText
 73
     2
  0
LINE
  5
2685E
330
1F
100
AcDbEntity
  8
003
100
AcDbLine
 10
697.0574698744307
 20
633.5360710007526
 30
0.0
 11
781.0574698744304
 21
633.5360710007526
 31
0.0
  0
LINE
  5
2685F
330
1F
100
AcDbEntity
  8
003
100
AcDbLine
 10
697.0574698744307
 20
647.5360710007525
 30
0.0
 11
781.0574698744308
 21
647.5360710007525
 31
0.0
  0
LINE
  5
26860
330
1F
100
AcDbEntity
  8
003
100
AcDbLine
 10
697.0574698744307
 20
633.5360710007526
 30
0.0
 11
697.0574698744307
 21
647.5360710007525
 31
0.0
  0
TEXT
  5
26861
330
1F
100
AcDbEntity
  8
0
100
AcDbText
 10
720.2974698744307
 20
636.3360710007525
 30
0.0
 40
8.399999999999998
  1
外観姿図
  7
AT_VECTOR
 72
     1
 11
739.0574698744308
 21
640.5360710007526
 31
0.0
100
AcDbText
 73
     2
  0
LINE
  5
26862
330
1F
100
AcDbEntity
  8
003
100
AcDbLine
 10
781.0574698744304
 20
633.5360710007526
 30
0.0
 11
781.0574698744308
 21
647.5360710007525
 31
0.0
  0
TEXT
  5
26962
330
1F
100
AcDbEntity
  8
0
100
AcDbText
 10
733.4774698744301
 20
608.9760710007524
 30
0.0
 40
7.92
  1
製品Ｗ×製品Ｈ
  7
AT_VECTOR
 72
     1
 11
765.1574698744302
 21
612.9360710007524
 31
0.0
100
AcDbText
 73
     2
  0
LINE
  5
26963
330
1F
100
AcDbEntity
  8
003
100
AcDbLine
 10
639.7574698744297
 20
619.5360710007524
 30
0.0
 11
844.3574698744304
 21
619.5360710007527
 31
0.0
  0
LINE
  5
26964
330
1F
100
AcDbEntity
  8
003
100
AcDbLine
 10
639.7574698744297
 20
606.3360710007524
 30
0.0
 11
844.3574698744146
 21
606.3360710007524
 31
0.0
  0
LINE
  5
26965
330
1F
100
AcDbEntity
  8
003
100
AcDbLine
 10
639.7574698744297
 20
619.5360710007524
 30
0.0
 11
639.7574698744306
 21
540.3360710007511
 31
0.0
  0
TEXT
  5
26966
330
1F
100
AcDbEntity
  8
0
100
AcDbText
 10
666.15746987443
 20
608.9760710007524
 30
0.0
 40
7.92
  1
符　号
  7
AT_VECTOR
 72
     1
 11
679.3574698744301
 21
612.9360710007524
 31
0.0
100
AcDbText
 73
     2
  0
LINE
  5
26967
330
1F
100
AcDbEntity
  8
003
100
AcDbLine
 10
718.9574698744304
 20
619.5360710007524
 30
0.0
 11
718.9574698743658
 21
540.3360710007511
 31
0.0
  0
LINE
  5
26968
330
1F
100
AcDbEntity
  8
003
100
AcDbLine
 10
811.3574698744301
 20
619.5360710007524
 30
0.0
 11
811.3574698743414
 21
540.3360710007511
 31
0.0
  0
LINE
  5
26969
330
1F
100
AcDbEntity
  8
003
100
AcDbLine
 10
844.3574698744301
 20
619.5360710007524
 30
0.0
 11
844.3574698743345
 21
540.3360710007511
 31
0.0
  0
TEXT
  5
2696A
330
1F
100
AcDbEntity
  8
0
100
AcDbText
 10
819.4094698744301
 20
608.9760710007524
 30
0.0
 40
7.92
  1
数量
  7
AT_VECTOR
 72
     1
 11
827.85746987443
 21
612.9360710007524
 31
0.0
100
AcDbText
 73
     2
  0
TEXT
  5
2696B
330
1F
100
AcDbEntity
  8
Defpoints
100
AcDbText
 10
724.682818150336
 20
595.7760710007664
 30
0.0
 40
7.92
  1
００００×００００
  7
AT_VECTOR
 72
     1
 11
766.394818150336
 21
599.7360710007665
 31
0.0
100
AcDbText
 73
     2
  0
TEXT
  5
2696C
330
1F
100
AcDbEntity
  8
Defpoints
100
AcDbText
 10
643.8408343001724
 20
595.7760710007774
 30
0.0
 40
7.92
  1
ＡＡＡＡＡＡ
 41
0.85
  7
AT_VECTOR
 11
643.8408343001724
 21
599.7360710007775
 31
0.0
100
AcDbText
 73
     2
  0
TEXT
  5
2696D
330
1F
100
AcDbEntity
  8
Defpoints
100
AcDbText
 10
814.9214698744309
 20
595.7760710007774
 30
0.0
 40
7.92
  1
９９９
  7
AT_VECTOR
 72
     1
 11
827.8574698744309
 21
599.7360710007775
 31
0.0
100
AcDbText
 73
     2
  0
LINE
  5
2696E
330
1F
100
AcDbEntity
  8
003
100
AcDbLine
 10
844.357469874431
 20
606.3360710007524
 30
0.0
 11
844.357469874431
 21
606.3360710007524
 31
0.0
  0
LINE
  5
2696F
330
1F
100
AcDbEntity
  8
003
100
AcDbLine
 10
844.3574698744319
 20
606.3360710007524
 30
0.0
 11
844.3574698744319
 21
606.3360710007524
 31
0.0
  0
LINE
  5
26970
330
1F
100
AcDbEntity
  8
003
100
AcDbLine
 10
639.7574698744297
 20
593.1360710007522
 30
0.0
 11
844.3574698743983
 21
593.1360710007522
 31
0.0
  0
LINE
  5
26971
330
1F
100
AcDbEntity
  8
003
100
AcDbLine
 10
639.7574698744302
 20
579.936071000752
 30
0.0
 11
844.3574698743823
 21
579.936071000752
 31
0.0
  0
LINE
  5
26972
330
1F
100
AcDbEntity
  8
Defpoints
100
AcDbLine
 10
844.3574698743972
 20
593.1360710007522
 30
0.0
 11
844.3574698743972
 21
593.1360710007522
 31
0.0
  0
LINE
  5
26973
330
1F
100
AcDbEntity
  8
Defpoints
100
AcDbLine
 10
844.3574698743983
 20
593.1360710007522
 30
0.0
 11
844.3574698743983
 21
593.1360710007522
 31
0.0
  0
TEXT
  5
26974
330
1F
100
AcDbEntity
  8
Defpoints
100
AcDbText
 10
724.682818150336
 20
582.5760710007662
 30
0.0
 40
7.92
  1
００００×００００
  7
AT_VECTOR
 72
     1
 11
766.394818150336
 21
586.5360710007662
 31
0.0
100
AcDbText
 73
     2
  0
TEXT
  5
26975
330
1F
100
AcDbEntity
  8
Defpoints
100
AcDbText
 10
643.8408343001724
 20
582.5760710007772
 30
0.0
 40
7.92
  1
ＡＡＡＡＡＡ
 41
0.85
  7
AT_VECTOR
 11
643.8408343001724
 21
586.5360710007772
 31
0.0
100
AcDbText
 73
     2
  0
TEXT
  5
26976
330
1F
100
AcDbEntity
  8
Defpoints
100
AcDbText
 10
814.9214698744309
 20
582.5760710007772
 30
0.0
 40
7.92
  1
９９９
  7
AT_VECTOR
 72
     1
 11
827.8574698744309
 21
586.5360710007772
 31
0.0
100
AcDbText
 73
     2
  0
LINE
  5
26977
330
1F
100
AcDbEntity
  8
Defpoints
100
AcDbLine
 10
844.3574698743972
 20
579.936071000752
 30
0.0
 11
844.3574698743972
 21
579.936071000752
 31
0.0
  0
LINE
  5
26978
330
1F
100
AcDbEntity
  8
Defpoints
100
AcDbLine
 10
844.3574698743983
 20
579.936071000752
 30
0.0
 11
844.3574698743983
 21
579.936071000752
 31
0.0
  0
LINE
  5
26979
330
1F
100
AcDbEntity
  8
003
100
AcDbLine
 10
639.7574698744302
 20
566.7360710007517
 30
0.0
 11
844.3574698743823
 21
566.7360710007517
 31
0.0
  0
TEXT
  5
2697A
330
1F
100
AcDbEntity
  8
Defpoints
100
AcDbText
 10
724.682818150336
 20
569.3760710007659
 30
0.0
 40
7.92
  1
００００×００００
  7
AT_VECTOR
 72
     1
 11
766.394818150336
 21
573.336071000766
 31
0.0
100
AcDbText
 73
     2
  0
TEXT
  5
2697B
330
1F
100
AcDbEntity
  8
Defpoints
100
AcDbText
 10
643.8408343001724
 20
569.376071000777
 30
0.0
 40
7.92
  1
ＡＡＡＡＡＡ
 41
0.85
  7
AT_VECTOR
 11
643.8408343001724
 21
573.336071000777
 31
0.0
100
AcDbText
 73
     2
  0
TEXT
  5
2697C
330
1F
100
AcDbEntity
  8
Defpoints
100
AcDbText
 10
814.9214698744309
 20
569.376071000777
 30
0.0
 40
7.92
  1
９９９
  7
AT_VECTOR
 72
     1
 11
827.8574698744309
 21
573.336071000777
 31
0.0
100
AcDbText
 73
     2
  0
LINE
  5
2697D
330
1F
100
AcDbEntity
  8
Defpoints
100
AcDbLine
 10
844.3574698743972
 20
566.7360710007517
 30
0.0
 11
844.3574698743972
 21
566.7360710007517
 31
0.0
  0
LINE
  5
2697E
330
1F
100
AcDbEntity
  8
Defpoints
100
AcDbLine
 10
844.3574698743983
 20
566.7360710007517
 30
0.0
 11
844.3574698743983
 21
566.7360710007517
 31
0.0
  0
LINE
  5
2697F
330
1F
100
AcDbEntity
  8
003
100
AcDbLine
 10
639.7574698744302
 20
553.5360710007514
 30
0.0
 11
844.3574698743823
 21
553.5360710007514
 31
0.0
  0
TEXT
  5
26980
330
1F
100
AcDbEntity
  8
Defpoints
100
AcDbText
 10
724.682818150336
 20
556.1760710007656
 30
0.0
 40
7.92
  1
００００×００００
  7
AT_VECTOR
 72
     1
 11
766.394818150336
 21
560.1360710007656
 31
0.0
100
AcDbText
 73
     2
  0
TEXT
  5
26981
330
1F
100
AcDbEntity
  8
Defpoints
100
AcDbText
 10
643.8408343001724
 20
556.1760710007766
 30
0.0
 40
7.92
  1
ＡＡＡＡＡＡ
 41
0.85
  7
AT_VECTOR
 11
643.8408343001724
 21
560.1360710007766
 31
0.0
100
AcDbText
 73
     2
  0
TEXT
  5
26982
330
1F
100
AcDbEntity
  8
Defpoints
100
AcDbText
 10
814.9214698744309
 20
556.1760710007766
 30
0.0
 40
7.92
  1
９９９
  7
AT_VECTOR
 72
     1
 11
827.8574698744309
 21
560.1360710007766
 31
0.0
100
AcDbText
 73
     2
  0
LINE
  5
26983
330
1F
100
AcDbEntity
  8
Defpoints
100
AcDbLine
 10
844.3574698743972
 20
553.5360710007514
 30
0.0
 11
844.3574698743972
 21
553.5360710007514
 31
0.0
  0
LINE
  5
26984
330
1F
100
AcDbEntity
  8
Defpoints
100
AcDbLine
 10
844.3574698743983
 20
553.5360710007514
 30
0.0
 11
844.3574698743983
 21
553.5360710007514
 31
0.0
  0
LINE
  5
26985
330
1F
100
AcDbEntity
  8
003
100
AcDbLine
 10
639.7574698744302
 20
540.3360710007511
 30
0.0
 11
844.3574698743823
 21
540.3360710007511
 31
0.0
  0
TEXT
  5
26986
330
1F
100
AcDbEntity
  8
Defpoints
100
AcDbText
 10
724.682818150336
 20
542.9760710007655
 30
0.0
 40
7.92
  1
００００×００００
  7
AT_VECTOR
 72
     1
 11
766.394818150336
 21
546.9360710007655
 31
0.0
100
AcDbText
 73
     2
  0
TEXT
  5
26987
330
1F
100
AcDbEntity
  8
Defpoints
100
AcDbText
 10
643.8408343001724
 20
542.9760710007764
 30
0.0
 40
7.92
  1
ＡＡＡＡＡＡ
 41
0.85
  7
AT_VECTOR
 11
643.8408343001724
 21
546.9360710007764
 31
0.0
100
AcDbText
 73
     2
  0
TEXT
  5
26988
330
1F
100
AcDbEntity
  8
Defpoints
100
AcDbText
 10
814.9214698744309
 20
542.9760710007764
 30
0.0
 40
7.92
  1
９９９
  7
AT_VECTOR
 72
     1
 11
827.8574698744309
 21
546.9360710007764
 31
0.0
100
AcDbText
 73
     2
  0
LINE
  5
26989
330
1F
100
AcDbEntity
  8
Defpoints
100
AcDbLine
 10
844.3574698743972
 20
540.3360710007511
 30
0.0
 11
844.3574698743972
 21
540.3360710007511
 31
0.0
  0
LINE
  5
2698A
330
1F
100
AcDbEntity
  8
Defpoints
100
AcDbLine
 10
844.3574698743983
 20
540.3360710007511
 30
0.0
 11
844.3574698743983
 21
540.3360710007511
 31
0.0
  0
TEXT
  5
26D4B
330
1F
100
AcDbEntity
  8
0
100
AcDbText
 10
772.0800740951217
 20
428.0964748321462
 30
0.0
 40
6.3
  1
外　部
  7
AT_VECTOR
 72
     1
 11
782.5800740951217
 21
431.2464748321461
 31
0.0
100
AcDbText
 73
     2
  0
LINE
  5
26D4C
330
1F
100
AcDbEntity
  8
003
100
AcDbLine
 10
766.8300740951217
 20
435.9714748321461
 30
0.0
 11
798.3300740951217
 21
435.9714748321461
 31
0.0
  0
LINE
  5
26D4D
330
1F
100
AcDbEntity
  8
003
100
AcDbLine
 10
766.8300740951217
 20
426.521474832146
 30
0.0
 11
798.3300740951217
 21
426.521474832146
 31
0.0
  0
LINE
  5
26D4E
330
1F
100
AcDbEntity
  8
003
100
AcDbLine
 10
766.8300740951217
 20
435.9714748321461
 30
0.0
 11
766.8300740951217
 21
426.521474832146
 31
0.0
  0
LINE
  5
26D4F
330
1F
100
AcDbEntity
  8
003
100
AcDbLine
 10
798.3300740951217
 20
435.9714748321461
 30
0.0
 11
798.3300740951217
 21
426.521474832146
 31
0.0
  0
LINE
  5
26D59
330
1F
100
AcDbEntity
  8
003
100
AcDbLine
 10
798.3300740951217
 20
188.4243957227093
 30
0.0
 11
798.3300740951217
 21
178.9743957227093
 31
0.0
  0
TEXT
  5
26D5A
330
1F
100
AcDbEntity
  8
0
100
AcDbText
 10
771.8700740951216
 20
180.5493957227094
 30
0.0
 40
6.3
  1
内　部
  7
AT_VECTOR
 72
     1
 11
782.5800740951217
 21
183.6993957227094
 31
0.0
100
AcDbText
 73
     2
  0
LINE
  5
26D5B
330
1F
100
AcDbEntity
  8
003
100
AcDbLine
 10
766.8300740951217
 20
188.4243957227093
 30
0.0
 11
766.8300740951217
 21
178.9743957227093
 31
0.0
  0
LINE
  5
26D5C
330
1F
100
AcDbEntity
  8
003
100
AcDbLine
 10
766.8300740951217
 20
178.9743957227093
 30
0.0
 11
798.3300740951217
 21
178.9743957227093
 31
0.0
  0
LINE
  5
26D5D
330
1F
100
AcDbEntity
  8
003
100
AcDbLine
 10
766.8300740951217
 20
188.4243957227093
 30
0.0
 11
798.3300740951217
 21
188.4243957227093
 31
0.0
  0
LINE
  5
26D5E
330
1F
100
AcDbEntity
  8
003
100
AcDbLine
 10
740.5800740951217
 20
145.1717031760355
 30
0.0
 11
824.5800740951212
 21
145.1717031760355
 31
0.0
  0
LINE
  5
26D5F
330
1F
100
AcDbEntity
  8
003
100
AcDbLine
 10
740.5800740951217
 20
159.1717031760355
 30
0.0
 11
824.5800740951217
 21
159.1717031760355
 31
0.0
  0
LINE
  5
26D60
330
1F
100
AcDbEntity
  8
003
100
AcDbLine
 10
740.5800740951217
 20
145.1717031760355
 30
0.0
 11
740.5800740951217
 21
159.1717031760355
 31
0.0
  0
TEXT
  5
26D61
330
1F
100
AcDbEntity
  8
0
100
AcDbText
 10
763.8200740951218
 20
147.9717031760355
 30
0.0
 40
8.399999999999998
  1
横断面図
  7
AT_VECTOR
 72
     1
 11
782.5800740951217
 21
152.1717031760355
 31
0.0
100
AcDbText
 73
     2
  0
LINE
  5
26D62
330
1F
100
AcDbEntity
  8
003
100
AcDbLine
 10
824.5800740951212
 20
145.1717031760355
 30
0.0
 11
824.5800740951217
 21
159.1717031760355
 31
0.0
  0
LWPOLYLINE
  5
26E1A
330
1F
100
AcDbEntity
  8
003
100
AcDbPolyline
 90
        4
 70
     1
 43
0.0
 10
728.5574698744312
 20
817.9485206747903
 10
731.5574698744312
 20
817.9485206747903
 10
731.5574698744312
 20
682.9485206747904
 10
728.5574698744312
 20
682.9485206747904
  0
DIMENSION
  5
26E99
330
1F
100
AcDbEntity
  8
0000寸法
 48
0.5
100
AcDbDimension
  2
*D2
 10
829.0574698744313
 20
661.5360710007526
 30
0.0
 11
739.0574698744313
 21
666.7860710007525
 31
0.0
 70
    32
  1
製品W
 71
     5
 42
180.0
  3
DIM
100
AcDbAlignedDimension
 13
649.0574698744312
 23
692.3235206747904
 33
0.0
 14
829.0574698744313
 24
692.6985206747904
 34
0.0
100
AcDbRotatedDimension
1001
ACAD
1000
DSTYLE
1002
{
1070
    40
1040
2.1
1070
    50
1040
1.570796326794896
1070
    69
1070
     1
1070
    79
1070
     2
1070
   179
1070
     2
1002
}
  0
DIMENSION
  5
26E9A
330
1F
100
AcDbEntity
  8
0000寸法
 48
0.5
100
AcDbDimension
  2
*D3
 10
868.249454132002
 20
817.9485206747903
 30
0.0
 11
862.9994541320018
 21
750.4485206747906
 31
0.0
 70
    32
  1
製品H
 71
     5
 42
135.0
  3
DIM
100
AcDbAlignedDimension
 13
821.5574698744312
 23
682.9485206747904
 33
0.0
 14
821.5574698744312
 24
817.9485206747903
 34
0.0
 50
90.0
100
AcDbRotatedDimension
1001
ACAD
1000
DSTYLE
1002
{
1070
    40
1040
2.1
1070
    50
1040
1.570796326794896
1070
    69
1070
     1
1070
    79
1070
     2
1070
   179
1070
     2
1002
}
  0
DIMENSION
  5
26ED7
330
1F
100
AcDbEntity
  8
0000寸法
 48
0.5
100
AcDbDimension
  2
*D4
 10
748.0574698744312
 20
833.4065656065329
 30
0.0
 11
739.0574698744313
 21
833.4065656065329
 31
0.0
 70
   160
  1
Pic120
 71
     5
 42
18.0
  3
DIM
100
AcDbAlignedDimension
 13
730.0574698744313
 23
817.9485206747903
 33
0.0
 14
748.0574698744312
 24
817.9485206747903
 34
0.0
100
AcDbRotatedDimension
1001
ACAD
1000
DSTYLE
1002
{
1070
    40
1040
2.1
1070
    50
1040
1.570796326794896
1070
    69
1070
     1
1070
    79
1070
     2
1070
   179
1070
     2
1002
}
  0
LINE
  5
26F20
330
1F
100
AcDbEntity
  8
003
100
AcDbLine
 10
649.0574698744312
 20
808.5735206747903
 30
0.0
 11
656.5574698744312
 21
808.5735206747903
 31
0.0
  0
LINE
  5
26F21
330
1F
100
AcDbEntity
  8
003
100
AcDbLine
 10
649.0574698744312
 20
801.8235206747904
 30
0.0
 11
656.5574698744312
 21
801.8235206747904
 31
0.0
  0
LINE
  5
26F25
330
1F
100
AcDbEntity
  8
003
 48
0.5
100
AcDbLine
 10
649.0574698744312
 20
808.5735206747903
 30
0.0
 11
649.0574698744312
 21
801.8235206747904
 31
0.0
  0
LINE
  5
26F42
330
1F
100
AcDbEntity
  8
Defpoints
 48
0.5
100
AcDbLine
 10
730.0574698744313
 20
828.3025431406617
 30
0.0
 11
730.0574698744313
 21
676.654359684936
 31
0.0
  0
DIMENSION
  5
26F4E
330
1F
100
AcDbEntity
  8
003
 48
0.5
100
AcDbDimension
  2
*D5
 10
847.7323097141489
 20
817.9485206747903
 30
0.0
 11
842.4823097141485
 21
811.5735206747906
 31
0.0
 70
    32
  1
85
 71
     5
 42
12.75
  3
DIM
100
AcDbAlignedDimension
 13
829.0574698744313
 23
805.1985206747904
 33
0.0
 14
821.5574698744312
 24
817.9485206747903
 34
0.0
 50
90.0
100
AcDbRotatedDimension
1001
ACAD
1000
DSTYLE
1002
{
1070
    40
1040
2.1
1070
    50
1040
1.570796326794896
1070
    69
1070
     1
1070
    79
1070
     2
1070
   179
1070
     2
1002
}
  0
DIMENSION
  5
26F6E
330
1F
100
AcDbEntity
  8
003
 48
0.5
100
AcDbDimension
  2
*D6
 10
847.7323097141489
 20
682.9485206747904
 30
0.0
 11
842.4823097141487
 21
689.3235206747906
 31
0.0
 70
    32
  1
85
 71
     5
 42
12.75
  3
DIM
100
AcDbAlignedDimension
 13
829.0574698744313
 23
695.6985206747904
 33
0.0
 14
821.5574698744312
 24
682.9485206747904
 34
0.0
 50
270.0
100
AcDbRotatedDimension
1001
ACAD
1000
DSTYLE
1002
{
1070
    40
1040
2.1
1070
    50
1040
1.570796326794896
1070
    69
1070
     1
1070
    79
1070
     2
1070
   179
1070
     2
1002
}
  0
LINE
  5
27125
330
1F
100
AcDbEntity
  8
003
100
AcDbLine
 10
245.2713672754871
 20
156.4124785108999
 30
0.0
 11
329.2713672754867
 21
156.4124785108999
 31
0.0
  0
LINE
  5
27126
330
1F
100
AcDbEntity
  8
003
100
AcDbLine
 10
245.2713672754871
 20
170.4124785109
 30
0.0
 11
329.2713672754871
 21
170.4124785109
 31
0.0
  0
LINE
  5
27127
330
1F
100
AcDbEntity
  8
003
100
AcDbLine
 10
245.2713672754871
 20
156.4124785108999
 30
0.0
 11
245.2713672754871
 21
170.4124785109
 31
0.0
  0
TEXT
  5
27128
330
1F
100
AcDbEntity
  8
0
100
AcDbText
 10
268.5113672754872
 20
159.2124785109
 30
0.0
 40
8.399999999999998
  1
縦断面図
  7
AT_VECTOR
 72
     1
 11
287.2713672754871
 21
163.4124785108999
 31
0.0
100
AcDbText
 73
     2
  0
LINE
  5
27129
330
1F
100
AcDbEntity
  8
003
100
AcDbLine
 10
329.2713672754867
 20
156.4124785108999
 30
0.0
 11
329.2713672754871
 21
170.4124785109
 31
0.0
  0
TEXT
  5
2712A
330
1F
100
AcDbEntity
  8
0
100
AcDbText
 10
125.5529620862917
 20
704.6772214368459
 30
0.0
 40
6.3
  1
外　部
  7
AT_VECTOR
 72
     1
 11
136.0529620862917
 21
707.8272214368459
 31
0.0
100
AcDbText
 73
     2
  0
LINE
  5
2712B
330
1F
100
AcDbEntity
  8
003
100
AcDbLine
 10
120.3029620862917
 20
712.5522214368458
 30
0.0
 11
151.8029620862917
 21
712.5522214368458
 31
0.0
  0
LINE
  5
2712C
330
1F
100
AcDbEntity
  8
003
100
AcDbLine
 10
120.3029620862917
 20
703.1022214368457
 30
0.0
 11
151.8029620862917
 21
703.1022214368457
 31
0.0
  0
LINE
  5
2712D
330
1F
100
AcDbEntity
  8
003
100
AcDbLine
 10
120.3029620862917
 20
712.5522214368458
 30
0.0
 11
120.3029620862917
 21
703.1022214368457
 31
0.0
  0
LINE
  5
2712E
330
1F
100
AcDbEntity
  8
003
100
AcDbLine
 10
151.8029620862917
 20
712.5522214368458
 30
0.0
 11
151.8029620862917
 21
703.1022214368457
 31
0.0
  0
LINE
  5
2976A
330
1F
100
AcDbEntity
  8
003
100
AcDbLine
 10
258.6910271374359
 20
682.9385783243346
 30
0.0
 11
218.6910271374359
 21
682.9385783243346
 31
0.0
  0
LINE
  5
2976B
330
1F
100
AcDbEntity
  8
003
100
AcDbLine
 10
258.6910271374359
 20
680.9385783243347
 30
0.0
 11
218.6910271374359
 21
680.9385783243347
 31
0.0
  0
LINE
  5
2976C
330
1F
100
AcDbEntity
  8
003
100
AcDbLine
 10
258.6910271374359
 20
483.4385783243346
 30
0.0
 11
258.6910271374359
 21
682.9385783243346
 31
0.0
  0
LINE
  5
2976D
330
1F
100
AcDbEntity
  8
003
100
AcDbLine
 10
218.6910271374359
 20
483.4385783243346
 30
0.0
 11
218.6910271374359
 21
682.9385783243346
 31
0.0
  0
LINE
  5
2976F
330
1F
100
AcDbEntity
  8
003
100
AcDbLine
 10
258.6910271374359
 20
278.9385783243347
 30
0.0
 11
218.6910271374359
 21
278.9385783243347
 31
0.0
  0
LINE
  5
29770
330
1F
100
AcDbEntity
  8
003
100
AcDbLine
 10
258.6910271374359
 20
280.9385783243347
 30
0.0
 11
218.6910271374359
 21
280.9385783243347
 31
0.0
  0
LINE
  5
29771
330
1F
100
AcDbEntity
  8
003
100
AcDbLine
 10
258.6910271374359
 20
478.4385783243346
 30
0.0
 11
258.6910271374359
 21
278.9385783243347
 31
0.0
  0
LINE
  5
29772
330
1F
100
AcDbEntity
  8
003
100
AcDbLine
 10
218.6910271374359
 20
478.4385783243346
 30
0.0
 11
218.6910271374359
 21
278.9385783243347
 31
0.0
  0
LINE
  5
29789
330
1F
100
AcDbEntity
  8
ビス中心線
100
AcDbLine
 10
268.6990240924438
 20
595.9385783243346
 30
0.0
 11
249.2401863235004
 21
595.9385783243346
 31
0.0
  0
LINE
  5
29795
330
1F
100
AcDbEntity
  8
006
100
AcDbLine
 10
317.058863894503
 20
595.9385783243346
 30
0.0
 11
343.6581370722806
 21
595.9385783243346
 31
0.0
  0
LINE
  5
29796
330
1F
100
AcDbEntity
  8
007
100
AcDbLine
 10
329.6910271374358
 20
601.9312593336219
 30
0.0
 11
329.6910271374358
 21
589.9312593336222
 31
0.0
  0
ARC
  5
29797
330
1F
100
AcDbEntity
  8
007
100
AcDbCircle
 10
327.3310271374358
 20
591.8012593336221
 30
0.0
 40
2.14
100
AcDbArc
 50
139.9206199999867
 51
219.8742299999999
  0
LINE
  5
29798
330
1F
100
AcDbEntity
  8
007
100
AcDbLine
 10
329.6910271374358
 20
590.4312593336221
 30
0.0
 11
325.6910271374359
 21
590.4312593336221
 31
0.0
  0
LINE
  5
29799
330
1F
100
AcDbEntity
  8
007
100
AcDbLine
 10
329.6910271374358
 20
589.9312593336222
 30
0.0
 11
330.6910271374359
 21
589.9312593336222
 31
0.0
  0
LINE
  5
2979A
330
1F
100
AcDbEntity
  8
007
100
AcDbLine
 10
329.6910271374358
 20
601.4312593336219
 30
0.0
 11
325.6910271374359
 21
601.4312593336219
 31
0.0
  0
LINE
  5
2979B
330
1F
100
AcDbEntity
  8
007
100
AcDbLine
 10
329.6910271374358
 20
598.6812593336219
 30
0.0
 11
325.6910271374359
 21
598.6812593336219
 31
0.0
  0
LINE
  5
2979C
330
1F
100
AcDbEntity
  8
007
100
AcDbLine
 10
329.6910271374358
 20
593.1812593336221
 30
0.0
 11
325.6910271374359
 21
593.1812593336221
 31
0.0
  0
LINE
  5
2979D
330
1F
100
AcDbEntity
  8
007
100
AcDbLine
 10
323.1910305668618
 20
598.9385783243347
 30
0.0
 11
323.1910305668618
 21
592.9385783243346
 31
0.0
  0
ARC
  5
2979E
330
1F
100
AcDbEntity
  8
007
100
AcDbCircle
 10
333.0010271374356
 20
595.9312593336221
 30
0.0
 40
7.809999999999999
100
AcDbArc
 50
159.3838599999915
 51
200.616148999994
  0
LINE
  5
2979F
330
1F
100
AcDbEntity
  8
007
100
AcDbLine
 10
325.1910305668618
 20
600.0550905125432
 30
0.0
 11
325.1910305668618
 21
591.8050905125435
 31
0.0
  0
LINE
  5
297A0
330
1F
100
AcDbEntity
  8
007
100
AcDbLine
 10
323.1910305668618
 20
592.9385783243346
 30
0.0
 11
325.1910305668618
 21
592.9385783243346
 31
0.0
  0
LINE
  5
297A1
330
1F
100
AcDbEntity
  8
007
100
AcDbLine
 10
323.1910305668618
 20
598.9385783243347
 30
0.0
 11
325.1910305668618
 21
598.9385783243347
 31
0.0
  0
ARC
  5
297A2
330
1F
100
AcDbEntity
  8
007
100
AcDbCircle
 10
327.3310271374358
 20
600.051259333622
 30
0.0
 40
2.14
100
AcDbArc
 50
139.9206199999867
 51
219.8742299999999
  0
LINE
  5
297A3
330
1F
100
AcDbEntity
  8
007
100
AcDbLine
 10
329.6910271374358
 20
601.9312593336219
 30
0.0
 11
330.6910271374359
 21
601.9312593336219
 31
0.0
  0
LINE
  5
297AB
330
1F
100
AcDbEntity
  8
007
100
AcDbLine
 10
330.6910271374359
 20
615.9385783243346
 30
0.0
 11
330.6910271374359
 21
575.9385783243346
 31
0.0
  0
DIMENSION
  5
29915
330
1F
100
AcDbEntity
  8
003
 48
0.5
100
AcDbDimension
  2
*D7
 10
187.4898948224845
 20
595.9385783243346
 30
0.0
 11
182.2398948224844
 21
638.4385783243346
 31
0.0
 70
    32
 71
     5
 42
85.0
  3
DIM
100
AcDbAlignedDimension
 13
218.6910271374359
 23
680.9385783243347
 33
0.0
 14
249.2401863235004
 24
595.9385783243346
 34
0.0
 50
90.0
100
AcDbRotatedDimension
1001
ACAD
1000
DSTYLE
1002
{
1070
    40
1040
2.1
1070
    50
1040
1.570796326794896
1070
    69
1070
     1
1070
    79
1070
     2
1070
   179
1070
     2
1002
}
  0
DIMENSION
  5
29922
330
1F
100
AcDbEntity
  8
003
 48
0.5
100
AcDbDimension
  2
*D8
 10
172.7898948224845
 20
280.9385783243347
 30
0.0
 11
167.5398948224844
 21
480.9385783243347
 31
0.0
 70
    32
  1
製品H
 71
     5
 42
400.0
  3
DIM
100
AcDbAlignedDimension
 13
218.6910271374359
 23
680.9385783243347
 33
0.0
 14
218.6910271374359
 24
280.9385783243347
 34
0.0
 50
90.0
100
AcDbRotatedDimension
1001
ACAD
1000
DSTYLE
1002
{
1070
    40
1040
2.1
1070
    50
1040
1.570796326794896
1070
    69
1070
     1
1070
    79
1070
     2
1070
   179
1070
     2
1002
}
  0
DIMENSION
  5
2993D
330
1F
100
AcDbEntity
  8
003
 48
0.5
100
AcDbDimension
  2
*D9
 10
187.4898948224845
 20
365.9385783243347
 30
0.0
 11
182.2398948224845
 21
323.4385783243348
 31
0.0
 70
    32
 71
     5
 42
85.0
  3
DIM
100
AcDbAlignedDimension
 13
218.6910271374359
 23
280.9385783243347
 33
0.0
 14
249.2401863235004
 24
365.9385783243347
 34
0.0
 50
270.0
100
AcDbRotatedDimension
1001
ACAD
1000
DSTYLE
1002
{
1070
    40
1040
2.1
1070
    50
1040
1.570796326794896
1070
    69
1070
     1
1070
    79
1070
     2
1070
   179
1070
     2
1002
}
  0
LINE
  5
29975
330
1F
100
AcDbEntity
  8
0000躯体
 48
0.5
100
AcDbLine
 10
363.6910271374359
 20
712.9500027015238
 30
0.0
 11
333.6910271374359
 21
682.9500027015237
 31
0.0
  0
LINE
  5
29976
330
1F
100
AcDbEntity
  8
0000躯体
 48
0.5
100
AcDbLine
 10
363.6910271374359
 20
708.7073620144044
 30
0.0
 11
333.6910271374359
 21
678.7073620144044
 31
0.0
  0
LINE
  5
29977
330
1F
100
AcDbEntity
  8
0000躯体
 48
0.5
100
AcDbLine
 10
363.6910271374359
 20
704.4647213272851
 30
0.0
 11
333.6910271374359
 21
674.4647213272851
 31
0.0
  0
LINE
  5
29978
330
1F
100
AcDbEntity
  8
0000躯体
 48
0.5
100
AcDbLine
 10
363.6910271374359
 20
630.2856444481635
 30
0.0
 11
333.6910271374359
 21
600.2856444481635
 31
0.0
  0
LINE
  5
29979
330
1F
100
AcDbEntity
  8
0000躯体
 48
0.5
100
AcDbLine
 10
363.6910271374359
 20
626.0430037610442
 30
0.0
 11
333.6910271374359
 21
596.0430037610442
 31
0.0
  0
LINE
  5
2997A
330
1F
100
AcDbEntity
  8
0000躯体
 48
0.5
100
AcDbLine
 10
363.6910271374358
 20
621.8003630739249
 30
0.0
 11
333.6910271374358
 21
591.8003630739248
 31
0.0
  0
LINE
  5
2997B
330
1F
100
AcDbEntity
  8
0000躯体
 48
0.5
100
AcDbLine
 10
363.6910271374357
 20
547.6212861948034
 30
0.0
 11
333.6910271374358
 21
517.6212861948033
 31
0.0
  0
LINE
  5
2997C
330
1F
100
AcDbEntity
  8
0000躯体
 48
0.5
100
AcDbLine
 10
363.6910271374357
 20
543.378645507684
 30
0.0
 11
333.6910271374358
 21
513.378645507684
 31
0.0
  0
LINE
  5
2997D
330
1F
100
AcDbEntity
  8
0000躯体
 48
0.5
100
AcDbLine
 10
363.6910271374357
 20
539.1360048205647
 30
0.0
 11
333.6910271374358
 21
509.1360048205647
 31
0.0
  0
LINE
  5
2997E
330
1F
100
AcDbEntity
  8
0000躯体
 48
0.5
100
AcDbLine
 10
363.6910271374357
 20
464.9569279414431
 30
0.0
 11
333.6910271374358
 21
434.9569279414431
 31
0.0
  0
LINE
  5
2997F
330
1F
100
AcDbEntity
  8
0000躯体
 48
0.5
100
AcDbLine
 10
363.6910271374357
 20
460.7142872543238
 30
0.0
 11
333.6910271374358
 21
430.7142872543238
 31
0.0
  0
LINE
  5
29980
330
1F
100
AcDbEntity
  8
0000躯体
 48
0.5
100
AcDbLine
 10
363.6910271374357
 20
456.4716465672045
 30
0.0
 11
333.6910271374357
 21
426.4716465672044
 31
0.0
  0
LINE
  5
29981
330
1F
100
AcDbEntity
  8
0000躯体
 48
0.5
100
AcDbLine
 10
363.6910271374359
 20
382.2925696880831
 30
0.0
 11
333.6910271374359
 21
352.2925696880831
 31
0.0
  0
LINE
  5
29982
330
1F
100
AcDbEntity
  8
0000躯体
 48
0.5
100
AcDbLine
 10
363.6910271374359
 20
378.0499290009638
 30
0.0
 11
333.6910271374359
 21
348.0499290009638
 31
0.0
  0
LINE
  5
29983
330
1F
100
AcDbEntity
  8
0000躯体
 48
0.5
100
AcDbLine
 10
363.6910271374358
 20
373.8072883138445
 30
0.0
 11
333.6910271374358
 21
343.8072883138445
 31
0.0
  0
LINE
  5
29984
330
1F
100
AcDbEntity
  8
0000躯体
 48
0.5
100
AcDbLine
 10
363.6910271374359
 20
299.628211434723
 30
0.0
 11
333.6910271374359
 21
269.628211434723
 31
0.0
  0
LINE
  5
29985
330
1F
100
AcDbEntity
  8
0000躯体
 48
0.5
100
AcDbLine
 10
363.6910271374359
 20
295.3855707476037
 30
0.0
 11
333.6910271374359
 21
265.3855707476036
 31
0.0
  0
LINE
  5
29986
330
1F
100
AcDbEntity
  8
0000躯体
 48
0.5
100
AcDbLine
 10
363.6910271374358
 20
291.1429300604843
 30
0.0
 11
333.6910271374358
 21
261.1429300604843
 31
0.0
  0
LINE
  5
2998C
330
1F
100
AcDbEntity
  8
0000躯体
 48
0.5
100
AcDbLine
 10
333.6910271374359
 20
483.4385783243346
 30
0.0
 11
333.6910271374359
 21
730.9385783243347
 31
0.0
  0
LINE
  5
29990
330
1F
100
AcDbEntity
  8
0000躯体
 48
0.5
100
AcDbLine
 10
333.6910271374359
 20
230.9385783243347
 30
0.0
 11
333.6910271374359
 21
478.4385783243347
 31
0.0
  0
DIMENSION
  5
29991
330
1F
100
AcDbEntity
  8
003
 48
0.5
100
AcDbDimension
  2
*D10
 10
243.473559019817
 20
573.4385783243356
 30
0.0
 11
238.2235590198169
 21
595.9385783243357
 31
0.0
 70
    32
 71
     5
 42
45.0
  3
DIM
100
AcDbAlignedDimension
 13
258.991027137437
 23
618.4385783243356
 33
0.0
 14
258.9910271374388
 24
573.4385783243356
 34
0.0
 50
90.0
100
AcDbRotatedDimension
1001
ACAD
1000
DSTYLE
1002
{
1070
    40
1040
2.1
1070
    50
1040
1.570796326794896
1070
    69
1070
     1
1070
    79
1070
     2
1070
   179
1070
     2
1002
}
  0
DIMENSION
  5
2999E
330
1F
100
AcDbEntity
  8
003
 48
0.5
100
AcDbDimension
  2
*D11
 10
258.6910271374359
 20
509.1152733522417
 30
0.0
 11
238.6910271374359
 21
514.3652733522417
 31
0.0
 70
    32
 71
     5
 42
40.0
  3
DIM
100
AcDbAlignedDimension
 13
218.6910271374359
 23
483.4385783243346
 33
0.0
 14
258.6910271374359
 24
483.4385783243346
 34
0.0
100
AcDbRotatedDimension
1001
ACAD
1000
DSTYLE
1002
{
1070
    40
1040
2.1
1070
    50
1040
1.570796326794896
1070
    69
1070
     1
1070
    79
1070
     2
1070
   179
1070
     2
1002
}
  0
DIMENSION
  5
299AB
330
1F
100
AcDbEntity
  8
003
 48
0.5
100
AcDbDimension
  2
*D12
 10
283.6910271374377
 20
509.1152733522417
 30
0.0
 11
271.1910271374368
 21
514.3652733522417
 31
0.0
 70
    32
 71
     5
 42
25.00000000000182
  3
DIM
100
AcDbAlignedDimension
 13
258.6910271374359
 23
483.4385783243346
 33
0.0
 14
283.6910271374377
 24
573.7385783243357
 34
0.0
100
AcDbRotatedDimension
1001
ACAD
1000
DSTYLE
1002
{
1070
   279
1070
     1
1070
    40
1040
2.1
1070
    50
1040
1.570796326794896
1070
    69
1070
     1
1070
    79
1070
     2
1070
   179
1070
     2
1002
}
  0
DIMENSION
  5
299B8
330
1F
100
AcDbEntity
  8
003
 48
0.5
100
AcDbDimension
  2
*D13
 10
333.6910271374358
 20
509.1152733522417
 30
0.0
 11
308.6910271374368
 21
514.3652733522417
 31
0.0
 70
    32
 71
     5
 42
49.99999999999812
  3
DIM
100
AcDbAlignedDimension
 13
283.6910271374377
 23
573.7385783243357
 33
0.0
 14
333.6910271374358
 24
575.9385783243346
 34
0.0
100
AcDbRotatedDimension
1001
ACAD
1000
DSTYLE
1002
{
1070
   279
1070
     1
1070
    40
1040
2.1
1070
    50
1040
1.570796326794896
1070
    69
1070
     1
1070
    79
1070
     2
1070
   179
1070
     2
1002
}
  0
DIMENSION
  5
299C5
330
1F
100
AcDbEntity
  8
003
 48
0.5
100
AcDbDimension
  2
*D14
 10
362.5716389351451
 20
575.9385783243346
 30
0.0
 11
357.321638935145
 21
595.9385783243347
 31
0.0
 70
    32
 71
     5
 42
40.0
  3
DIM
100
AcDbAlignedDimension
 13
333.6910271374359
 23
615.9385783243346
 33
0.0
 14
333.6910271374359
 24
575.9385783243346
 34
0.0
 50
90.0
100
AcDbRotatedDimension
1001
ACAD
1000
DSTYLE
1002
{
1070
    40
1040
2.1
1070
    50
1040
1.570796326794896
1070
    69
1070
     1
1070
    79
1070
     2
1070
   179
1070
     2
1002
}
  0
LEADER
  5
299E8
330
1F
100
AcDbEntity
  8
003
 48
0.5
100
AcDbLeader
  3
DIM
 73
     0
 40
6.3
 41
32.69249999999999
 76
     3
 10
241.6235372883148
 20
682.4385783243346
 30
0.0
 10
236.4597218777661
 20
691.3825689763121
 30
0.0
 10
235.4517280150135
 20
691.3825689763121
 30
0.0
340
299E9
1001
ACAD
1000
DSTYLE
1002
{
1070
   147
1040
1.0
1070
    77
1070
     1
1070
    40
1040
2.1
1070
    50
1040
1.570796326794896
1070
    69
1070
     1
1070
    79
1070
     2
1070
   179
1070
     2
1002
}
  0
MTEXT
  5
299E9
102
{ACAD_REACTORS
330
299E8
102
}
330
1F
100
AcDbEntity
  8
003
 62
     7
 48
0.5
100
AcDbMText
 10
233.3517280150135
 20
693.4825689763121
 30
0.0
 40
6.3
 41
0.0
 71
     9
 72
     1
  1
小口キャップ
  7
DIM
 73
     1
 44
1.0
1001
ACAD
1000
MTEXTBEGIN
1070
    73
1070
     1
1070
    44
1040
1.0
1070
    74
1070
     0
1000
MTEXTEND
1000
ACAD_MTEXT_BBRT
1070
    91
1071
        3
1070
    46
1040
1.1
1070
    64
1071
-1027028792
1070
    65
1000

1070
    66
1000

1070
   442
1071
  2621722
1000
ACAD_MTEXT_BERT
  0
LEADER
  5
299EA
330
1F
100
AcDbEntity
  8
003
 48
0.5
100
AcDbLeader
  3
DIM
 73
     0
 40
6.3
 41
32.69249999999999
 76
     3
 10
241.2986768795447
 20
278.9385783243347
 30
0.0
 10
229.7852415359835
 20
258.9967233396273
 30
0.0
 10
227.5566450513863
 20
258.9967233396273
 30
0.0
340
299EB
1001
ACAD
1000
DSTYLE
1002
{
1070
   147
1040
1.0
1070
    77
1070
     1
1070
    40
1040
2.1
1070
    50
1040
1.570796326794896
1070
    69
1070
     1
1070
    79
1070
     2
1070
   179
1070
     2
1002
}
  0
MTEXT
  5
299EB
102
{ACAD_REACTORS
330
299EA
102
}
330
1F
100
AcDbEntity
  8
003
 62
     7
 48
0.5
100
AcDbMText
 10
225.4566450513863
 20
261.0967233396274
 30
0.0
 40
6.3
 41
0.0
 71
     9
 72
     1
  1
小口キャップ
  7
DIM
 73
     1
 44
1.0
1001
ACAD
1000
MTEXTBEGIN
1070
    73
1070
     1
1070
    44
1040
1.0
1070
    74
1070
     0
1000
MTEXTEND
1000
ACAD_MTEXT_BBRT
1070
    91
1071
        3
1070
    46
1040
1.1
1070
    64
1071
-1027028792
1070
    65
1000

1070
    66
1000

1070
   442
1071
  4260132
1000
ACAD_MTEXT_BERT
  0
LEADER
  5
299EC
330
1F
100
AcDbEntity
  8
003
 48
0.2
100
AcDbLeader
  3
DIM
 73
     0
 74
     0
 40
16.8
 41
36.85500000000001
 76
     3
 10
293.334587440158
 20
606.9779251678528
 30
0.0
 10
307.3702181657492
 20
629.4716536816614
 30
0.0
 10
308.5481330832426
 20
629.4716536816613
 30
0.0
340
299ED
1001
ACAD
1000
DSTYLE
1002
{
1070
   147
1040
1.0
1070
    77
1070
     1
1070
    40
1040
2.1
1070
    50
1040
1.570796326794896
1070
    69
1070
     1
1070
    79
1070
     2
1070
   179
1070
     2
1002
}
  0
MTEXT
  5
299ED
102
{ACAD_REACTORS
330
299EC
102
}
330
1F
100
AcDbEntity
  8
003
 62
     7
 48
0.2
100
AcDbMText
 10
310.6481330832427
 20
631.5716536816613
 30
0.0
 40
6.3
 41
0.0
 71
     7
 72
     1
  1
Ｚ型ブラケット\P（SUS.t=3）
  7
DIM
 73
     1
 44
1.0
1001
ACAD
1000
MTEXTBEGIN
1070
    73
1070
     1
1070
    44
1040
1.0
1070
    74
1070
     0
1000
MTEXTEND
1000
ACAD_MTEXT_BBRT
1070
    91
1071
        3
1070
    46
1040
1.1
1070
    64
1071
-1027028792
1070
    65
1000

1070
    66
1000

1070
   442
1071
  2621737
1000
ACAD_MTEXT_BERT
  0
LEADER
  5
299EE
330
1F
100
AcDbEntity
  8
003
 48
0.5
100
AcDbLeader
  3
DIM
 73
     0
 74
     0
 40
16.8
 41
22.32
 76
     3
 10
271.3329070124978
 20
573.7707896620161
 30
0.0
 10
289.277921351025
 20
550.7425238364308
 30
0.0
 10
290.5559961230014
 20
550.7425238364309
 30
0.0
340
299EF
1001
ACAD
1000
DSTYLE
1002
{
1070
   147
1040
1.0
1070
    77
1070
     1
1070
    40
1040
2.1
1070
    50
1040
1.570796326794896
1070
    69
1070
     1
1070
    79
1070
     2
1070
   179
1070
     2
1002
}
  0
MTEXT
  5
299EF
102
{ACAD_REACTORS
330
299EE
102
}
330
1F
100
AcDbEntity
  8
003
 62
     7
 48
0.5
100
AcDbMText
 10
292.6559961230014
 20
552.8425238364309
 30
0.0
 40
6.3
 41
0.0
 71
     7
 72
     1
  1
Ｗ材：\P45×25
  7
DIM
 73
     1
 44
1.0
1001
ACAD
1000
MTEXTBEGIN
1070
    73
1070
     1
1070
    44
1040
1.0
1070
    74
1070
     0
1000
MTEXTEND
1000
ACAD_MTEXT_BBRT
1070
    91
1071
        3
1070
    46
1040
1.1
1070
    64
1071
-1027028792
1070
    65
1000

1070
    66
1000

1070
   442
1071
  8847667
1000
ACAD_MTEXT_BERT
  0
LEADER
  5
299F0
330
1F
100
AcDbEntity
  8
003
 48
0.5
100
AcDbLeader
  3
DIM
 73
     0
 40
16.8
 41
44.3475
 76
     3
 10
244.3693675293237
 20
536.1640798020896
 30
0.0
 10
233.0952039554908
 20
547.4382433759226
 30
0.0
 10
231.6233300548077
 20
547.4382433759226
 30
0.0
340
299F1
1001
ACAD
1000
DSTYLE
1002
{
1070
   147
1040
1.0
1070
    77
1070
     1
1070
    40
1040
2.1
1070
    50
1040
1.570796326794896
1070
    69
1070
     1
1070
    79
1070
     2
1070
   179
1070
     2
1002
}
  0
MTEXT
  5
299F1
102
{ACAD_REACTORS
330
299F0
102
}
330
1F
100
AcDbEntity
  8
003
 62
     7
 48
0.5
100
AcDbMText
 10
229.5233300548077
 20
549.5382433759226
 30
0.0
 40
6.3
 41
0.0
 71
     9
 72
     1
  1
格子：\P20×40角パイプ
  7
DIM
 73
     1
 44
1.0
1001
ACAD
1000
MTEXTBEGIN
1070
    73
1070
     1
1070
    44
1040
1.0
1070
    74
1070
     0
1000
MTEXTEND
1000
ACAD_MTEXT_BBRT
1070
    91
1071
        3
1070
    46
1040
1.1
1070
    64
1071
-1027028792
1070
    65
1000

1070
    66
1000

1070
   442
1071
  9765181
1000
ACAD_MTEXT_BERT
  0
LEADER
  5
299F2
330
1F
100
AcDbEntity
  8
003
 48
0.2
100
AcDbLeader
  3
DIM
 73
     0
 74
     0
 40
16.8
 41
47.34000000000001
 76
     3
 10
329.6910271374358
 20
368.0281263928693
 30
0.0
 10
344.0343182487726
 20
399.3433031238447
 30
0.0
 10
345.4904720809418
 20
399.3433031238446
 30
0.0
340
299F3
1001
ACAD
1000
DSTYLE
1002
{
1070
   147
1040
1.0
1070
    77
1070
     1
1070
    40
1040
2.1
1070
    50
1040
1.570796326794896
1070
    69
1070
     1
1070
    79
1070
     2
1070
   179
1070
     2
1002
}
  0
MTEXT
  5
299F3
102
{ACAD_REACTORS
330
299F2
102
}
330
1F
100
AcDbEntity
  8
003
 62
     7
 48
0.2
100
AcDbMText
 10
347.5904720809418
 20
401.4433031238446
 30
0.0
 40
6.3
 41
0.0
 71
     7
 72
     1
  1
Ｍ6オールアンカー\P（別途）
  7
DIM
 73
     1
 44
1.0
1001
ACAD
1000
MTEXTBEGIN
1070
    73
1070
     1
1070
    44
1040
1.0
1070
    74
1070
     0
1000
MTEXTEND
1000
ACAD_MTEXT_BBRT
1070
    91
1071
        3
1070
    46
1040
1.1
1070
    64
1071
-1027028792
1070
    65
1000

1070
    66
1000

1070
   442
1071
  8061255
1000
ACAD_MTEXT_BERT
  0
LINE
  5
29AC9
330
1F
100
AcDbEntity
  8
0000躯体
100
AcDbLine
 10
904.4314235402717
 20
235.0131337732541
 30
0.0
 11
904.4314235402717
 21
197.7847685770136
 31
0.0
  0
LINE
  5
29ACD
330
1F
100
AcDbEntity
  8
0000躯体
100
AcDbLine
 10
914.4314235402717
 20
245.0131337732541
 30
0.0
 11
904.4314235402717
 21
235.0131337732541
 31
0.0
  0
LINE
  5
29ACE
330
1F
100
AcDbEntity
  8
0000躯体
100
AcDbLine
 10
914.4314235402717
 20
245.0131337732541
 30
0.0
 11
1017.742328472171
 21
245.0131337732541
 31
0.0
  0
LINE
  5
29ACF
330
1F
100
AcDbEntity
  8
0000躯体
100
AcDbLine
 10
660.7287246499717
 20
235.0131337732541
 30
0.0
 11
660.7287246499716
 21
197.7847685770136
 31
0.0
  0
LINE
  5
29AD0
330
1F
100
AcDbEntity
  8
0000躯体
100
AcDbLine
 10
650.7287246499713
 20
245.0131337732541
 30
0.0
 11
660.7287246499717
 21
235.0131337732541
 31
0.0
  0
LINE
  5
29AD1
330
1F
100
AcDbEntity
  8
0000躯体
100
AcDbLine
 10
650.7287246499713
 20
245.0131337732541
 30
0.0
 11
547.4178197180722
 21
245.0131337732541
 31
0.0
  0
LWPOLYLINE
  5
29AD5
330
1F
100
AcDbEntity
  8
003
100
AcDbPolyline
 90
        4
 70
     1
 43
0.0
 10
832.5800740951217
 20
360.0131337732541
 10
852.5800740951217
 20
360.0131337732541
 10
852.5800740951217
 20
320.0131337732541
 10
832.5800740951217
 20
320.0131337732541
  0
LWPOLYLINE
  5
29AD6
330
1F
100
AcDbEntity
  8
003
100
AcDbPolyline
 90
        4
 70
     1
 43
0.0
 10
834.5800740951217
 20
358.0131337732541
 10
850.5800740951217
 20
358.0131337732541
 10
850.5800740951217
 20
322.0131337732541
 10
834.5800740951217
 20
322.0131337732541
  0
LWPOLYLINE
  5
29AD7
330
1F
100
AcDbEntity
  8
003
100
AcDbPolyline
 90
        4
 70
     1
 43
0.0
 10
712.5800740951217
 20
360.0131337732541
 10
732.5800740951217
 20
360.0131337732541
 10
732.5800740951217
 20
320.0131337732541
 10
712.5800740951217
 20
320.0131337732541
  0
LWPOLYLINE
  5
29AD8
330
1F
100
AcDbEntity
  8
003
100
AcDbPolyline
 90
        4
 70
     1
 43
0.0
 10
714.5800740951217
 20
358.0131337732541
 10
730.5800740951217
 20
358.0131337732541
 10
730.5800740951217
 20
322.0131337732541
 10
714.5800740951217
 20
322.0131337732541
  0
LINE
  5
29ADA
330
1F
100
AcDbEntity
  8
003
100
AcDbLine
 10
863.4251052760387
 20
295.0131337732541
 30
0.0
 11
701.7350429142047
 21
295.0131337732541
 31
0.0
  0
LINE
  5
29ADB
330
1F
100
AcDbEntity
  8
003
100
AcDbLine
 10
863.4251052760387
 20
320.0131337732541
 30
0.0
 11
701.7350429142047
 21
320.0131337732541
 31
0.0
  0
LWPOLYLINE
  5
29AFB
330
1F
100
AcDbEntity
  8
003
100
AcDbPolyline
 90
        4
 70
     1
 43
0.0
 10
680.7287246499718
 20
360.0131337732541
 10
660.7287246499717
 20
360.0131337732541
 10
660.7287246499717
 20
320.0131337732541
 10
680.7287246499718
 20
320.0131337732541
  0
LWPOLYLINE
  5
29AFC
330
1F
100
AcDbEntity
  8
003
100
AcDbPolyline
 90
        4
 70
     1
 43
0.0
 10
678.7287246499718
 20
358.0131337732541
 10
662.7287246499718
 20
358.0131337732541
 10
662.7287246499718
 20
322.0131337732541
 10
678.7287246499718
 20
322.0131337732541
  0
LINE
  5
29AFE
330
1F
100
AcDbEntity
  8
006
100
AcDbLine
 10
842.5800740951217
 20
328.0851689328208
 30
0.0
 11
842.5800740951217
 21
311.9410986136874
 31
0.0
  0
LINE
  5
29AFF
330
1F
100
AcDbEntity
  8
006
100
AcDbLine
 10
722.5800740951217
 20
328.0851689328208
 30
0.0
 11
722.5800740951217
 21
311.9410986136874
 31
0.0
  0
LINE
  5
29B00
330
1F
100
AcDbEntity
  8
006
100
AcDbLine
 10
670.7287246499718
 20
328.0851689328208
 30
0.0
 11
670.7287246499718
 21
311.9410986136874
 31
0.0
  0
LWPOLYLINE
  5
29B04
330
1F
100
AcDbEntity
  8
003
100
AcDbPolyline
 90
        4
 70
     1
 43
0.0
 10
884.4314235402716
 20
360.0131337732541
 10
904.4314235402717
 20
360.0131337732541
 10
904.4314235402717
 20
320.0131337732541
 10
884.4314235402716
 20
320.0131337732541
  0
LWPOLYLINE
  5
29B05
330
1F
100
AcDbEntity
  8
003
100
AcDbPolyline
 90
        4
 70
     1
 43
0.0
 10
886.4314235402716
 20
358.0131337732541
 10
902.4314235402716
 20
358.0131337732541
 10
902.4314235402716
 20
322.0131337732541
 10
886.4314235402716
 20
322.0131337732541
  0
LINE
  5
29B06
330
1F
100
AcDbEntity
  8
006
100
AcDbLine
 10
894.4314235402716
 20
328.0851689328208
 30
0.0
 11
894.4314235402716
 21
311.9410986136874
 31
0.0
  0
LINE
  5
29B18
330
1F
100
AcDbEntity
  8
003
100
AcDbLine
 10
696.7350429142047
 20
320.0131337732541
 30
0.0
 11
600.7287246499718
 21
320.0131337732541
 31
0.0
  0
LINE
  5
29B19
330
1F
100
AcDbEntity
  8
003
100
AcDbLine
 10
696.7350429142047
 20
295.0131337732541
 30
0.0
 11
600.7287246499718
 21
295.0131337732541
 31
0.0
  0
LINE
  5
29B1A
330
1F
100
AcDbEntity
  8
003
100
AcDbLine
 10
600.7287246499718
 20
320.0131337732541
 30
0.0
 11
600.7287246499718
 21
295.0131337732541
 31
0.0
  0
LINE
  5
29B1B
330
1F
100
AcDbEntity
  8
003
100
AcDbLine
 10
600.7287246499718
 20
295.0131337732541
 30
0.0
 11
600.7287246499718
 21
320.0131337732541
 31
0.0
  0
LWPOLYLINE
  5
29B1C
330
1F
100
AcDbEntity
  8
003
100
AcDbPolyline
 90
        4
 70
     1
 43
0.0
 10
600.7287246499718
 20
295.0131337732541
 10
597.7287246499717
 20
295.0131337732541
 10
597.7287246499717
 20
320.0131337732541
 10
600.7287246499718
 20
320.0131337732541
1001
GENIUS_GENREC_14
1002
{
1000
PYDIR
1011
600.7287246499718
1021
320.0131337732541
1031
0.0
1002
}
1002
{
1000
PXDIR
1011
597.7287246499717
1021
295.0131337732541
1031
0.0
1002
}
1002
{
1000
PORI
1011
600.7287246499718
1021
295.0131337732541
1031
0.0
1002
}
1002
{
1000
PINS
1011
600.7287246499718
1021
295.0131337732541
1031
0.0
1002
}
1002
{
1000
PINS2
1011
597.7287246499717
1021
320.0131337732541
1031
0.0
1002
}
1002
{
1000
C
1070
     1
1002
}
1001
GENIUS_GENOBJ-N-REC_13
1002
{
1000
OWNER
1000
GEN
1002
}
1001
GENIUS_GENODEF_13
1002
{
1000
HIER
1070
     0
1002
}
1002
{
1000
MANEDIT
1070
     0
1002
}
1002
{
1000
NOSEL
1070
     0
1002
}
1002
{
1000
BEHIND
1070
     0
1002
}
1002
{
1000
OTHER
1070
     0
1002
}
1002
{
1000
REACTOR
1002
}
  0
LINE
  5
29B3E
330
1F
100
AcDbEntity
  8
003
100
AcDbLine
 10
964.4314235402719
 20
292.0131337732541
 30
0.0
 11
964.4314235402715
 21
248.0131337732541
 31
0.0
  0
ARC
  5
29B3F
330
1F
100
AcDbEntity
  8
003
100
AcDbCircle
 10
961.4314235402719
 20
292.0131337732541
 30
0.0
 40
3.0
100
AcDbArc
 50
0.0
 51
90.0
  0
LINE
  5
29B40
330
1F
100
AcDbEntity
  8
003
100
AcDbLine
 10
961.4314235402716
 20
292.0131337732541
 30
0.0
 11
961.4314235402716
 21
248.0131337732541
 31
0.0
  0
ARC
  5
29B41
330
1F
100
AcDbEntity
  8
003
100
AcDbCircle
 10
964.4314235402717
 20
248.0131337732541
 30
0.0
 40
3.0
100
AcDbArc
 50
180.0
 51
270.0
  0
LINE
  5
29B42
330
1F
100
AcDbEntity
  8
003
100
AcDbLine
 10
964.4314235402715
 20
248.0131337732541
 30
0.0
 11
991.4314235402716
 21
248.0131337732538
 31
0.0
  0
LINE
  5
29B43
330
1F
100
AcDbEntity
  8
003
100
AcDbLine
 10
991.4314235402716
 20
248.0131337732538
 30
0.0
 11
991.4314235402716
 21
245.0131337732541
 31
0.0
  0
LINE
  5
29B44
330
1F
100
AcDbEntity
  8
003
100
AcDbLine
 10
991.4314235402716
 20
245.0131337732541
 30
0.0
 11
964.4314235402717
 21
245.0131337732541
 31
0.0
  0
LINE
  5
29B45
330
1F
100
AcDbEntity
  8
003
100
AcDbLine
 10
904.4314235402717
 20
292.0131337732541
 30
0.0
 11
904.4314235402717
 21
295.0131337732541
 31
0.0
  0
LINE
  5
29B46
330
1F
100
AcDbEntity
  8
006
100
AcDbLine
 10
977.9314235402717
 20
260.6452970161869
 30
0.0
 11
977.9314235402717
 21
220.1562678483014
 31
0.0
  0
LINE
  5
29B47
330
1F
100
AcDbEntity
  8
007
100
AcDbLine
 10
980.9314235402716
 20
245.0131337732541
 30
0.0
 11
980.9314235402716
 21
228.1606559165622
 31
0.0
  0
LINE
  5
29B48
330
1F
100
AcDbEntity
  8
007
100
AcDbLine
 10
974.9314235402717
 20
245.0131337732541
 30
0.0
 11
974.9314235402717
 21
228.1606559165622
 31
0.0
  0
LINE
  5
29B49
330
1F
100
AcDbEntity
  8
0
  6
Continuous
 62
     2
100
AcDbLine
 10
983.9241045495592
 20
249.0131337732541
 30
0.0
 11
971.9241045495591
 21
249.0131337732541
 31
0.0
  0
ARC
  5
29B4A
330
1F
100
AcDbEntity
  8
0
  6
Continuous
 62
     2
100
AcDbCircle
 10
973.794104549559
 20
251.3731337732542
 30
0.0
 40
2.14
100
AcDbArc
 50
49.92061999998267
 51
129.874230000002
  0
LINE
  5
29B4B
330
1F
100
AcDbEntity
  8
0
  6
Continuous
 62
     2
100
AcDbLine
 10
972.4241045495592
 20
249.0131337732541
 30
0.0
 11
972.4241045495592
 21
253.0131337732541
 31
0.0
  0
LINE
  5
29B4C
330
1F
100
AcDbEntity
  8
003
100
AcDbLine
 10
971.9241045495591
 20
249.0131337732541
 30
0.0
 11
971.9241045495591
 21
248.0131337732541
 31
0.0
  0
LINE
  5
29B4D
330
1F
100
AcDbEntity
  8
0
  6
Continuous
 62
     2
100
AcDbLine
 10
983.4241045495591
 20
249.0131337732541
 30
0.0
 11
983.4241045495591
 21
253.0131337732541
 31
0.0
  0
LINE
  5
29B4E
330
1F
100
AcDbEntity
  8
0
  6
Continuous
 62
     2
100
AcDbLine
 10
980.6741045495591
 20
249.0131337732541
 30
0.0
 11
980.6741045495591
 21
253.0131337732541
 31
0.0
  0
LINE
  5
29B4F
330
1F
100
AcDbEntity
  8
0
  6
Continuous
 62
     2
100
AcDbLine
 10
975.1741045495592
 20
249.0131337732541
 30
0.0
 11
975.1741045495592
 21
253.0131337732541
 31
0.0
  0
LINE
  5
29B50
330
1F
100
AcDbEntity
  8
003
100
AcDbLine
 10
980.9314235402716
 20
255.5131303438281
 30
0.0
 11
974.9314235402717
 21
255.5131303438281
 31
0.0
  0
ARC
  5
29B51
330
1F
100
AcDbEntity
  8
0
  6
Continuous
 62
     2
100
AcDbCircle
 10
977.9241045495592
 20
245.7031337732544
 30
0.0
 40
7.809999999999999
100
AcDbArc
 50
69.38386000000455
 51
110.6161489999935
  0
LINE
  5
29B52
330
1F
100
AcDbEntity
  8
003
100
AcDbLine
 10
982.0479357284808
 20
253.5131303438281
 30
0.0
 11
973.7979357284807
 21
253.5131303438281
 31
0.0
  0
LINE
  5
29B53
330
1F
100
AcDbEntity
  8
003
100
AcDbLine
 10
974.9314235402717
 20
255.5131303438281
 30
0.0
 11
974.9314235402717
 21
253.5131303438281
 31
0.0
  0
LINE
  5
29B54
330
1F
100
AcDbEntity
  8
003
100
AcDbLine
 10
980.9314235402716
 20
255.5131303438281
 30
0.0
 11
980.9314235402716
 21
253.5131303438281
 31
0.0
  0
ARC
  5
29B55
330
1F
100
AcDbEntity
  8
0
  6
Continuous
 62
     2
100
AcDbCircle
 10
982.044104549559
 20
251.3731337732542
 30
0.0
 40
2.14
100
AcDbArc
 50
49.92061999998267
 51
129.874230000002
  0
LINE
  5
29B56
330
1F
100
AcDbEntity
  8
003
100
AcDbLine
 10
983.9241045495592
 20
249.0131337732541
 30
0.0
 11
983.9241045495592
 21
248.0131337732541
 31
0.0
  0
LINE
  5
29B57
330
1F
100
AcDbEntity
  8
006
100
AcDbLine
 10
919.4314235402716
 20
277.2934571755372
 30
0.0
 11
919.4314235402716
 21
305.156628507367
 31
0.0
  0
LINE
  5
29B5A
330
1F
100
AcDbEntity
  8
003
100
AcDbLine
 10
868.4251052760387
 20
320.0131337732541
 30
0.0
 11
964.4314235402717
 21
320.0131337732541
 31
0.0
  0
LINE
  5
29B5B
330
1F
100
AcDbEntity
  8
003
100
AcDbLine
 10
868.4251052760387
 20
295.0131337732541
 30
0.0
 11
964.4314235402717
 21
295.0131337732541
 31
0.0
  0
LINE
  5
29B5C
330
1F
100
AcDbEntity
  8
003
100
AcDbLine
 10
964.4314235402717
 20
320.0131337732541
 30
0.0
 11
964.4314235402717
 21
295.0131337732541
 31
0.0
  0
LINE
  5
29B5D
330
1F
100
AcDbEntity
  8
003
100
AcDbLine
 10
964.4314235402717
 20
295.0131337732541
 30
0.0
 11
964.4314235402717
 21
320.0131337732541
 31
0.0
  0
LWPOLYLINE
  5
29B5E
330
1F
100
AcDbEntity
  8
003
100
AcDbPolyline
 90
        4
 70
     1
 43
0.0
 10
964.4314235402717
 20
295.0131337732541
 10
967.4314235402716
 20
295.0131337732541
 10
967.4314235402716
 20
320.0131337732541
 10
964.4314235402717
 20
320.0131337732541
1001
GENIUS_GENREC_14
1002
{
1000
PYDIR
1011
964.4314235402717
1021
320.0131337732541
1031
0.0
1002
}
1002
{
1000
PXDIR
1011
967.4314235402716
1021
295.0131337732541
1031
0.0
1002
}
1002
{
1000
PORI
1011
964.4314235402717
1021
295.0131337732541
1031
0.0
1002
}
1002
{
1000
PINS
1011
964.4314235402717
1021
295.0131337732541
1031
0.0
1002
}
1002
{
1000
PINS2
1011
967.4314235402716
1021
320.0131337732541
1031
0.0
1002
}
1002
{
1000
C
1070
     1
1002
}
1001
GENIUS_GENOBJ-N-REC_13
1002
{
1000
OWNER
1000
GEN
1002
}
1001
GENIUS_GENODEF_13
1002
{
1000
HIER
1070
     0
1002
}
1002
{
1000
MANEDIT
1070
     0
1002
}
1002
{
1000
NOSEL
1070
     0
1002
}
1002
{
1000
BEHIND
1070
     0
1002
}
1002
{
1000
OTHER
1070
     0
1002
}
1002
{
1000
REACTOR
1002
}
  0
LINE
  5
29B64
330
1F
100
AcDbEntity
  8
003
100
AcDbLine
 10
904.4314235402717
 20
295.0131337732541
 30
0.0
 11
961.4314235402719
 21
295.0131337732541
 31
0.0
  0
LINE
  5
29B65
330
1F
100
AcDbEntity
  8
0
  6
Continuous
 62
     2
100
AcDbLine
 10
913.4387425309844
 20
291.0131337732541
 30
0.0
 11
925.4387425309841
 21
291.0131337732541
 31
0.0
  0
ARC
  5
29B66
330
1F
100
AcDbEntity
  8
0
  6
Continuous
 62
     2
100
AcDbCircle
 10
923.5687425309842
 20
287.153133773254
 30
0.0
 40
2.14
100
AcDbArc
 50
229.9206199999826
 51
309.874230000002
  0
LINE
  5
29B67
330
1F
100
AcDbEntity
  8
0
  6
Continuous
 62
     2
100
AcDbLine
 10
924.9387425309842
 20
289.5131337732541
 30
0.0
 11
924.9387425309842
 21
285.5131337732541
 31
0.0
  0
LINE
  5
29B68
330
1F
100
AcDbEntity
  8
003
100
AcDbLine
 10
925.4387425309841
 20
291.0131337732541
 30
0.0
 11
925.4387425309841
 21
292.0131337732541
 31
0.0
  0
LINE
  5
29B69
330
1F
100
AcDbEntity
  8
0
  6
Continuous
 62
     2
100
AcDbLine
 10
913.9387425309845
 20
289.5131337732541
 30
0.0
 11
913.9387425309845
 21
285.5131337732541
 31
0.0
  0
LINE
  5
29B6A
330
1F
100
AcDbEntity
  8
0
  6
Continuous
 62
     2
100
AcDbLine
 10
916.6887425309845
 20
289.5131337732541
 30
0.0
 11
916.6887425309845
 21
285.5131337732541
 31
0.0
  0
LINE
  5
29B6B
330
1F
100
AcDbEntity
  8
0
  6
Continuous
 62
     2
100
AcDbLine
 10
922.1887425309843
 20
289.5131337732541
 30
0.0
 11
922.1887425309843
 21
285.5131337732541
 31
0.0
  0
ARC
  5
29B6C
330
1F
100
AcDbEntity
  8
0
  6
Continuous
 62
     2
100
AcDbCircle
 10
919.4387425309841
 20
292.8231337732538
 30
0.0
 40
7.809999999999999
100
AcDbArc
 50
249.3838600000045
 51
290.6161489999935
  0
LINE
  5
29B6D
330
1F
100
AcDbEntity
  8
003
100
AcDbLine
 10
915.3149113520628
 20
285.0131372026801
 30
0.0
 11
923.5649113520626
 21
285.0131372026801
 31
0.0
  0
ARC
  5
29B6E
330
1F
100
AcDbEntity
  8
0
  6
Continuous
 62
     2
100
AcDbCircle
 10
915.3187425309845
 20
287.153133773254
 30
0.0
 40
2.14
100
AcDbArc
 50
229.9206199999826
 51
309.874230000002
  0
LINE
  5
29B6F
330
1F
100
AcDbEntity
  8
003
100
AcDbLine
 10
913.4387425309844
 20
291.0131337732541
 30
0.0
 11
913.4387425309844
 21
292.0131337732541
 31
0.0
  0
LWPOLYLINE
  5
29B70
330
1F
100
AcDbEntity
  8
003
100
AcDbPolyline
 90
        4
 70
     1
 43
0.0
 10
913.6814235402717
 20
291.0131337732541
 10
913.6814235402717
 20
289.5131337732541
 10
925.1814235402717
 20
289.5131337732541
 10
925.1814235402717
 20
291.0131337732541
  0
LINE
  5
29B71
330
1F
100
AcDbEntity
  8
003
100
AcDbLine
 10
919.4314235402716
 20
289.5131337732541
 30
0.0
 11
920.9314235402716
 21
291.0131337732541
 31
0.0
  0
LINE
  5
29B72
330
1F
100
AcDbEntity
  8
006
100
AcDbLine
 10
944.4314235402716
 20
277.2934571755372
 30
0.0
 11
944.4314235402716
 21
305.156628507367
 31
0.0
  0
LINE
  5
29B73
330
1F
100
AcDbEntity
  8
0
  6
Continuous
 62
     2
100
AcDbLine
 10
938.4387425309844
 20
291.0131337732541
 30
0.0
 11
950.4387425309841
 21
291.0131337732541
 31
0.0
  0
ARC
  5
29B74
330
1F
100
AcDbEntity
  8
0
  6
Continuous
 62
     2
100
AcDbCircle
 10
948.5687425309842
 20
287.153133773254
 30
0.0
 40
2.14
100
AcDbArc
 50
229.9206199999826
 51
309.874230000002
  0
LINE
  5
29B75
330
1F
100
AcDbEntity
  8
0
  6
Continuous
 62
     2
100
AcDbLine
 10
949.9387425309842
 20
289.5131337732541
 30
0.0
 11
949.9387425309842
 21
285.5131337732541
 31
0.0
  0
LINE
  5
29B76
330
1F
100
AcDbEntity
  8
003
100
AcDbLine
 10
950.4387425309841
 20
291.0131337732541
 30
0.0
 11
950.4387425309841
 21
292.0131337732541
 31
0.0
  0
LINE
  5
29B77
330
1F
100
AcDbEntity
  8
0
  6
Continuous
 62
     2
100
AcDbLine
 10
938.9387425309845
 20
289.5131337732541
 30
0.0
 11
938.9387425309845
 21
285.5131337732541
 31
0.0
  0
LINE
  5
29B78
330
1F
100
AcDbEntity
  8
0
  6
Continuous
 62
     2
100
AcDbLine
 10
941.6887425309845
 20
289.5131337732541
 30
0.0
 11
941.6887425309845
 21
285.5131337732541
 31
0.0
  0
LINE
  5
29B79
330
1F
100
AcDbEntity
  8
0
  6
Continuous
 62
     2
100
AcDbLine
 10
947.1887425309843
 20
289.5131337732541
 30
0.0
 11
947.1887425309843
 21
285.5131337732541
 31
0.0
  0
ARC
  5
29B7A
330
1F
100
AcDbEntity
  8
0
  6
Continuous
 62
     2
100
AcDbCircle
 10
944.4387425309841
 20
292.8231337732538
 30
0.0
 40
7.809999999999999
100
AcDbArc
 50
249.3838600000045
 51
290.6161489999935
  0
LINE
  5
29B7B
330
1F
100
AcDbEntity
  8
003
100
AcDbLine
 10
940.3149113520628
 20
285.0131372026801
 30
0.0
 11
948.5649113520626
 21
285.0131372026801
 31
0.0
  0
ARC
  5
29B7C
330
1F
100
AcDbEntity
  8
0
  6
Continuous
 62
     2
100
AcDbCircle
 10
940.3187425309845
 20
287.153133773254
 30
0.0
 40
2.14
100
AcDbArc
 50
229.9206199999826
 51
309.874230000002
  0
LINE
  5
29B7D
330
1F
100
AcDbEntity
  8
003
100
AcDbLine
 10
938.4387425309844
 20
291.0131337732541
 30
0.0
 11
938.4387425309844
 21
292.0131337732541
 31
0.0
  0
LWPOLYLINE
  5
29B7E
330
1F
100
AcDbEntity
  8
003
100
AcDbPolyline
 90
        4
 70
     1
 43
0.0
 10
938.6814235402717
 20
291.0131337732541
 10
938.6814235402717
 20
289.5131337732541
 10
950.1814235402717
 20
289.5131337732541
 10
950.1814235402717
 20
291.0131337732541
  0
LINE
  5
29B7F
330
1F
100
AcDbEntity
  8
003
100
AcDbLine
 10
944.4314235402716
 20
289.5131337732541
 30
0.0
 11
945.9314235402716
 21
291.0131337732541
 31
0.0
  0
LINE
  5
29C29
330
1F
100
AcDbEntity
  8
0000躯体
 48
0.5
100
AcDbLine
 10
576.5676258513569
 20
245.0131337732541
 30
0.0
 11
547.4178197180722
 21
215.8633276399693
 31
0.0
  0
LINE
  5
29C2A
330
1F
100
AcDbEntity
  8
0000躯体
 48
0.5
100
AcDbLine
 10
580.8102665384763
 20
245.0131337732541
 30
0.0
 11
547.4178197180722
 21
211.6206869528502
 31
0.0
  0
LINE
  5
29C2B
330
1F
100
AcDbEntity
  8
0000躯体
 48
0.5
100
AcDbLine
 10
585.0529072255956
 20
245.0131337732541
 30
0.0
 11
547.4178197180719
 21
207.3780462657307
 31
0.0
  0
LINE
  5
29C2C
330
1F
100
AcDbEntity
  8
0000躯体
 48
0.5
100
AcDbLine
 10
654.9803543773443
 20
240.7615040458812
 30
0.0
 11
612.0036189084767
 21
197.7847685770136
 31
0.0
  0
LINE
  5
29C2D
330
1F
100
AcDbEntity
  8
0000躯体
 48
0.5
100
AcDbLine
 10
657.1016747209041
 20
238.6401837023216
 30
0.0
 11
616.2462595955962
 21
197.7847685770136
 31
0.0
  0
LINE
  5
29C2E
330
1F
100
AcDbEntity
  8
0000躯体
 48
0.5
100
AcDbLine
 10
659.2229950644637
 20
236.5188633587619
 30
0.0
 11
620.4889002827153
 21
197.7847685770136
 31
0.0
  0
LINE
  5
29C34
330
1F
100
AcDbEntity
  8
0000躯体
 48
0.5
100
AcDbLine
 10
933.5812296735566
 20
245.0131337732541
 30
0.0
 11
904.4314235402719
 21
215.8633276399693
 31
0.0
  0
LINE
  5
29C35
330
1F
100
AcDbEntity
  8
0000躯体
 48
0.5
100
AcDbLine
 10
937.823870360676
 20
245.0131337732541
 30
0.0
 11
904.4314235402719
 21
211.6206869528502
 31
0.0
  0
LINE
  5
29C36
330
1F
100
AcDbEntity
  8
0000躯体
 48
0.5
100
AcDbLine
 10
942.0665110477953
 20
245.0131337732541
 30
0.0
 11
904.4314235402717
 21
207.3780462657307
 31
0.0
  0
LINE
  5
29C37
330
1F
100
AcDbEntity
  8
0000躯体
 48
0.5
100
AcDbLine
 10
1017.130547456603
 20
245.0131337732541
 30
0.0
 11
969.9021822603626
 21
197.7847685770136
 31
0.0
  0
LINE
  5
29C38
330
1F
100
AcDbEntity
  8
0000躯体
 48
0.5
100
AcDbLine
 10
1017.742328472171
 20
242.2672336313886
 30
0.0
 11
973.2598634177959
 21
197.7847685770136
 31
0.0
  0
LINE
  5
29C39
330
1F
100
AcDbEntity
  8
0000躯体
 48
0.5
100
AcDbLine
 10
1017.742328472171
 20
238.0245929442693
 30
0.0
 11
977.5025041049151
 21
197.7847685770136
 31
0.0
  0
DIMENSION
  5
29C3A
330
1F
100
AcDbEntity
  8
003
 48
0.5
100
AcDbDimension
  2
*D15
 10
842.5800740951217
 20
377.7755428027989
 30
0.0
 11
782.5800740951217
 21
383.025542802799
 31
0.0
 70
    32
  1
Pic<>
 71
     5
 42
120.0
  3
DIM
100
AcDbAlignedDimension
 13
722.5800740951217
 23
328.0851689328208
 33
0.0
 14
842.5800740951217
 24
328.0851689328208
 34
0.0
100
AcDbRotatedDimension
1001
ACAD
1000
DSTYLE
1002
{
1070
    40
1040
2.1
1070
    50
1040
1.570796326794896
1070
    69
1070
     1
1070
    79
1070
     2
1070
   179
1070
     2
1002
}
  0
DIMENSION
  5
29C47
330
1F
100
AcDbEntity
  8
003
 48
0.5
100
AcDbDimension
  2
*D16
 10
961.4314235402716
 20
204.339062160172
 30
0.0
 11
976.4314235402716
 21
209.589062160172
 31
0.0
 70
    32
 71
     5
 42
30.0
  3
DIM
100
AcDbAlignedDimension
 13
991.4314235402716
 23
245.0131337732541
 33
0.0
 14
961.4314235402716
 24
248.0131337732541
 34
0.0
100
AcDbRotatedDimension
1001
ACAD
1000
DSTYLE
1002
{
1070
    40
1040
2.1
1070
    50
1040
1.570796326794896
1070
    69
1070
     1
1070
    79
1070
     2
1070
   179
1070
     2
1002
}
  0
DIMENSION
  5
29C66
330
1F
100
AcDbEntity
  8
003
 48
0.5
100
AcDbDimension
  2
*D17
 10
964.4314235402717
 20
265.6812536733934
 30
0.0
 11
934.4314235402716
 21
270.9312536733934
 31
0.0
 70
    32
 71
     5
 42
60.0
  3
DIM
100
AcDbAlignedDimension
 13
904.4314235402717
 23
292.0131337732541
 33
0.0
 14
964.4314235402717
 24
292.0131337732541
 34
0.0
100
AcDbRotatedDimension
1001
ACAD
1000
DSTYLE
1002
{
1070
    40
1040
2.1
1070
    50
1040
1.570796326794896
1070
    69
1070
     1
1070
    79
1070
     2
1070
   179
1070
     2
1002
}
  0
DIMENSION
  5
29C73
330
1F
100
AcDbEntity
  8
003
 48
0.5
100
AcDbDimension
  2
*D18
 10
819.3398464699898
 20
320.0131337732541
 30
0.0
 11
814.0898464699898
 21
340.0131337732542
 31
0.0
 70
    32
 71
     5
 42
40.0
  3
DIM
100
AcDbAlignedDimension
 13
832.5800740951217
 23
360.0131337732541
 33
0.0
 14
832.5800740951217
 24
320.0131337732541
 34
0.0
 50
90.0
100
AcDbRotatedDimension
1001
ACAD
1000
DSTYLE
1002
{
1070
    40
1040
2.1
1070
    50
1040
1.570796326794896
1070
    69
1070
     1
1070
    79
1070
     2
1070
   179
1070
     2
1002
}
  0
DIMENSION
  5
29C80
330
1F
100
AcDbEntity
  8
003
 48
0.5
100
AcDbDimension
  2
*D19
 10
819.3398464699898
 20
295.0131337732541
 30
0.0
 11
814.0898464699898
 21
307.5131337732542
 31
0.0
 70
    32
 71
     5
 42
25.0
  3
DIM
100
AcDbAlignedDimension
 13
832.5800740951217
 23
320.0131337732541
 33
0.0
 14
863.4251052760387
 24
295.0131337732541
 34
0.0
 50
90.0
100
AcDbRotatedDimension
1001
ACAD
1000
DSTYLE
1002
{
1070
   279
1070
     1
1070
    40
1040
2.1
1070
    50
1040
1.570796326794896
1070
    69
1070
     1
1070
    79
1070
     2
1070
   179
1070
     2
1002
}
  0
DIMENSION
  5
29C8D
330
1F
100
AcDbEntity
  8
003
 48
0.5
100
AcDbDimension
  2
*D20
 10
819.3398464699898
 20
245.0131337732541
 30
0.0
 11
814.0898464699898
 21
270.0131337732542
 31
0.0
 70
    32
 71
     5
 42
49.99999999999997
  3
DIM
100
AcDbAlignedDimension
 13
863.4251052760387
 23
295.0131337732541
 33
0.0
 14
914.4314235402717
 24
245.0131337732541
 34
0.0
 50
90.0
100
AcDbRotatedDimension
1001
ACAD
1000
DSTYLE
1002
{
1070
   279
1070
     1
1070
    40
1040
2.1
1070
    50
1040
1.570796326794896
1070
    69
1070
     1
1070
    79
1070
     2
1070
   179
1070
     2
1002
}
  0
LINE
  5
29C9A
330
1F
100
AcDbEntity
  8
003
100
AcDbLine
 10
600.7287246499715
 20
292.0131337732541
 30
0.0
 11
600.728724649972
 21
248.0131337732541
 31
0.0
  0
ARC
  5
29C9B
330
1F
100
AcDbEntity
  8
003
100
AcDbCircle
 10
603.7287246499715
 20
292.0131337732541
 30
0.0
 40
3.0
100
AcDbArc
 50
90.0
 51
180.0
  0
LINE
  5
29C9C
330
1F
100
AcDbEntity
  8
003
100
AcDbLine
 10
603.7287246499718
 20
292.0131337732541
 30
0.0
 11
603.7287246499718
 21
248.0131337732541
 31
0.0
  0
ARC
  5
29C9D
330
1F
100
AcDbEntity
  8
003
100
AcDbCircle
 10
600.7287246499718
 20
248.0131337732541
 30
0.0
 40
3.0
100
AcDbArc
 50
270.0
 51
0.0
  0
LINE
  5
29C9E
330
1F
100
AcDbEntity
  8
003
100
AcDbLine
 10
600.728724649972
 20
248.0131337732541
 30
0.0
 11
573.7287246499717
 21
248.0131337732538
 31
0.0
  0
LINE
  5
29C9F
330
1F
100
AcDbEntity
  8
003
100
AcDbLine
 10
573.7287246499717
 20
248.0131337732538
 30
0.0
 11
573.7287246499717
 21
245.0131337732541
 31
0.0
  0
LINE
  5
29CA0
330
1F
100
AcDbEntity
  8
003
100
AcDbLine
 10
573.7287246499717
 20
245.0131337732541
 30
0.0
 11
600.7287246499718
 21
245.0131337732541
 31
0.0
  0
LINE
  5
29CA1
330
1F
100
AcDbEntity
  8
003
100
AcDbLine
 10
660.7287246499717
 20
292.0131337732541
 30
0.0
 11
660.7287246499717
 21
295.0131337732541
 31
0.0
  0
LINE
  5
29CA2
330
1F
100
AcDbEntity
  8
006
100
AcDbLine
 10
587.2287246499718
 20
260.6452970161869
 30
0.0
 11
587.2287246499718
 21
220.1562678483014
 31
0.0
  0
LINE
  5
29CA3
330
1F
100
AcDbEntity
  8
007
100
AcDbLine
 10
584.2287246499718
 20
245.0131337732541
 30
0.0
 11
584.2287246499718
 21
228.1606559165622
 31
0.0
  0
LINE
  5
29CA4
330
1F
100
AcDbEntity
  8
007
100
AcDbLine
 10
590.2287246499717
 20
245.0131337732541
 30
0.0
 11
590.2287246499717
 21
228.1606559165622
 31
0.0
  0
LINE
  5
29CA5
330
1F
100
AcDbEntity
  8
0
  6
Continuous
 62
     2
100
AcDbLine
 10
581.2360436406843
 20
249.0131337732541
 30
0.0
 11
593.2360436406843
 21
249.0131337732541
 31
0.0
  0
ARC
  5
29CA6
330
1F
100
AcDbEntity
  8
0
  6
Continuous
 62
     2
100
AcDbCircle
 10
591.3660436406844
 20
251.3731337732542
 30
0.0
 40
2.14
100
AcDbArc
 50
50.12577000000669
 51
130.079380000018
  0
LINE
  5
29CA7
330
1F
100
AcDbEntity
  8
0
  6
Continuous
 62
     2
100
AcDbLine
 10
592.7360436406843
 20
249.0131337732541
 30
0.0
 11
592.7360436406843
 21
253.0131337732541
 31
0.0
  0
LINE
  5
29CA8
330
1F
100
AcDbEntity
  8
003
100
AcDbLine
 10
593.2360436406843
 20
249.0131337732541
 30
0.0
 11
593.2360436406843
 21
248.0131337732541
 31
0.0
  0
LINE
  5
29CA9
330
1F
100
AcDbEntity
  8
0
  6
Continuous
 62
     2
100
AcDbLine
 10
581.7360436406842
 20
249.0131337732541
 30
0.0
 11
581.7360436406842
 21
253.0131337732541
 31
0.0
  0
LINE
  5
29CAA
330
1F
100
AcDbEntity
  8
0
  6
Continuous
 62
     2
100
AcDbLine
 10
584.4860436406843
 20
249.0131337732541
 30
0.0
 11
584.4860436406843
 21
253.0131337732541
 31
0.0
  0
LINE
  5
29CAB
330
1F
100
AcDbEntity
  8
0
  6
Continuous
 62
     2
100
AcDbLine
 10
589.9860436406843
 20
249.0131337732541
 30
0.0
 11
589.9860436406843
 21
253.0131337732541
 31
0.0
  0
LINE
  5
29CAC
330
1F
100
AcDbEntity
  8
003
100
AcDbLine
 10
584.2287246499718
 20
255.5131303438281
 30
0.0
 11
590.2287246499717
 21
255.5131303438281
 31
0.0
  0
ARC
  5
29CAD
330
1F
100
AcDbEntity
  8
0
  6
Continuous
 62
     2
100
AcDbCircle
 10
587.2360436406843
 20
245.7031337732544
 30
0.0
 40
7.809999999999999
100
AcDbArc
 50
69.38385100000648
 51
110.6161399999955
  0
LINE
  5
29CAE
330
1F
100
AcDbEntity
  8
003
100
AcDbLine
 10
583.1122124617627
 20
253.5131303438281
 30
0.0
 11
591.3622124617627
 21
253.5131303438281
 31
0.0
  0
LINE
  5
29CAF
330
1F
100
AcDbEntity
  8
003
100
AcDbLine
 10
590.2287246499717
 20
255.5131303438281
 30
0.0
 11
590.2287246499717
 21
253.5131303438281
 31
0.0
  0
LINE
  5
29CB0
330
1F
100
AcDbEntity
  8
003
100
AcDbLine
 10
584.2287246499718
 20
255.5131303438281
 30
0.0
 11
584.2287246499718
 21
253.5131303438281
 31
0.0
  0
ARC
  5
29CB1
330
1F
100
AcDbEntity
  8
0
  6
Continuous
 62
     2
100
AcDbCircle
 10
583.1160436406844
 20
251.3731337732542
 30
0.0
 40
2.14
100
AcDbArc
 50
50.12577000000669
 51
130.079380000018
  0
LINE
  5
29CB2
330
1F
100
AcDbEntity
  8
003
100
AcDbLine
 10
581.2360436406843
 20
249.0131337732541
 30
0.0
 11
581.2360436406843
 21
248.0131337732541
 31
0.0
  0
LINE
  5
29CB3
330
1F
100
AcDbEntity
  8
006
100
AcDbLine
 10
645.7287246499718
 20
277.2934571755372
 30
0.0
 11
645.7287246499718
 21
305.156628507367
 31
0.0
  0
LINE
  5
29CB4
330
1F
100
AcDbEntity
  8
003
100
AcDbLine
 10
660.7287246499717
 20
295.0131337732541
 30
0.0
 11
603.7287246499715
 21
295.0131337732541
 31
0.0
  0
LINE
  5
29CB5
330
1F
100
AcDbEntity
  8
0
  6
Continuous
 62
     2
100
AcDbLine
 10
651.7214056592591
 20
291.0131337732541
 30
0.0
 11
639.7214056592592
 21
291.0131337732541
 31
0.0
  0
ARC
  5
29CB6
330
1F
100
AcDbEntity
  8
0
  6
Continuous
 62
     2
100
AcDbCircle
 10
641.5914056592591
 20
287.153133773254
 30
0.0
 40
2.14
100
AcDbArc
 50
230.1257700000067
 51
310.079380000018
  0
LINE
  5
29CB7
330
1F
100
AcDbEntity
  8
0
  6
Continuous
 62
     2
100
AcDbLine
 10
640.2214056592592
 20
289.5131337732541
 30
0.0
 11
640.2214056592592
 21
285.5131337732541
 31
0.0
  0
LINE
  5
29CB8
330
1F
100
AcDbEntity
  8
003
100
AcDbLine
 10
639.7214056592592
 20
291.0131337732541
 30
0.0
 11
639.7214056592592
 21
292.0131337732541
 31
0.0
  0
LINE
  5
29CB9
330
1F
100
AcDbEntity
  8
0
  6
Continuous
 62
     2
100
AcDbLine
 10
651.221405659259
 20
289.5131337732541
 30
0.0
 11
651.221405659259
 21
285.5131337732541
 31
0.0
  0
LINE
  5
29CBA
330
1F
100
AcDbEntity
  8
0
  6
Continuous
 62
     2
100
AcDbLine
 10
648.471405659259
 20
289.5131337732541
 30
0.0
 11
648.471405659259
 21
285.5131337732541
 31
0.0
  0
LINE
  5
29CBB
330
1F
100
AcDbEntity
  8
0
  6
Continuous
 62
     2
100
AcDbLine
 10
642.9714056592593
 20
289.5131337732541
 30
0.0
 11
642.9714056592593
 21
285.5131337732541
 31
0.0
  0
ARC
  5
29CBC
330
1F
100
AcDbEntity
  8
0
  6
Continuous
 62
     2
100
AcDbCircle
 10
645.7214056592593
 20
292.8231337732538
 30
0.0
 40
7.809999999999999
100
AcDbArc
 50
249.3838510000065
 51
290.6161399999955
  0
LINE
  5
29CBD
330
1F
100
AcDbEntity
  8
003
100
AcDbLine
 10
649.8452368381806
 20
285.0131372026801
 30
0.0
 11
641.5952368381809
 21
285.0131372026801
 31
0.0
  0
ARC
  5
29CBE
330
1F
100
AcDbEntity
  8
0
  6
Continuous
 62
     2
100
AcDbCircle
 10
649.8414056592589
 20
287.153133773254
 30
0.0
 40
2.14
100
AcDbArc
 50
230.1257700000067
 51
310.079380000018
  0
LINE
  5
29CBF
330
1F
100
AcDbEntity
  8
003
100
AcDbLine
 10
651.7214056592591
 20
291.0131337732541
 30
0.0
 11
651.7214056592591
 21
292.0131337732541
 31
0.0
  0
LWPOLYLINE
  5
29CC0
330
1F
100
AcDbEntity
  8
003
100
AcDbPolyline
 90
        4
 70
     1
 43
0.0
 10
651.4787246499718
 20
291.0131337732541
 10
651.4787246499718
 20
289.5131337732541
 10
639.9787246499718
 20
289.5131337732541
 10
639.9787246499718
 20
291.0131337732541
  0
LINE
  5
29CC1
330
1F
100
AcDbEntity
  8
003
100
AcDbLine
 10
645.7287246499718
 20
289.5131337732541
 30
0.0
 11
644.2287246499717
 21
291.0131337732541
 31
0.0
  0
LINE
  5
29CC2
330
1F
100
AcDbEntity
  8
006
100
AcDbLine
 10
620.7287246499718
 20
277.2934571755372
 30
0.0
 11
620.7287246499718
 21
305.156628507367
 31
0.0
  0
LINE
  5
29CC3
330
1F
100
AcDbEntity
  8
0
  6
Continuous
 62
     2
100
AcDbLine
 10
626.7214056592591
 20
291.0131337732541
 30
0.0
 11
614.7214056592592
 21
291.0131337732541
 31
0.0
  0
ARC
  5
29CC4
330
1F
100
AcDbEntity
  8
0
  6
Continuous
 62
     2
100
AcDbCircle
 10
616.5914056592591
 20
287.153133773254
 30
0.0
 40
2.14
100
AcDbArc
 50
230.1257700000067
 51
310.079380000018
  0
LINE
  5
29CC5
330
1F
100
AcDbEntity
  8
0
  6
Continuous
 62
     2
100
AcDbLine
 10
615.2214056592592
 20
289.5131337732541
 30
0.0
 11
615.2214056592592
 21
285.5131337732541
 31
0.0
  0
LINE
  5
29CC6
330
1F
100
AcDbEntity
  8
003
100
AcDbLine
 10
614.7214056592592
 20
291.0131337732541
 30
0.0
 11
614.7214056592592
 21
292.0131337732541
 31
0.0
  0
LINE
  5
29CC7
330
1F
100
AcDbEntity
  8
0
  6
Continuous
 62
     2
100
AcDbLine
 10
626.221405659259
 20
289.5131337732541
 30
0.0
 11
626.221405659259
 21
285.5131337732541
 31
0.0
  0
LINE
  5
29CC8
330
1F
100
AcDbEntity
  8
0
  6
Continuous
 62
     2
100
AcDbLine
 10
623.471405659259
 20
289.5131337732541
 30
0.0
 11
623.471405659259
 21
285.5131337732541
 31
0.0
  0
LINE
  5
29CC9
330
1F
100
AcDbEntity
  8
0
  6
Continuous
 62
     2
100
AcDbLine
 10
617.9714056592593
 20
289.5131337732541
 30
0.0
 11
617.9714056592593
 21
285.5131337732541
 31
0.0
  0
ARC
  5
29CCA
330
1F
100
AcDbEntity
  8
0
  6
Continuous
 62
     2
100
AcDbCircle
 10
620.7214056592593
 20
292.8231337732538
 30
0.0
 40
7.809999999999999
100
AcDbArc
 50
249.3838510000065
 51
290.6161399999955
  0
LINE
  5
29CCB
330
1F
100
AcDbEntity
  8
003
100
AcDbLine
 10
624.8452368381806
 20
285.0131372026801
 30
0.0
 11
616.5952368381809
 21
285.0131372026801
 31
0.0
  0
ARC
  5
29CCC
330
1F
100
AcDbEntity
  8
0
  6
Continuous
 62
     2
100
AcDbCircle
 10
624.8414056592589
 20
287.153133773254
 30
0.0
 40
2.14
100
AcDbArc
 50
230.1257700000067
 51
310.079380000018
  0
LINE
  5
29CCD
330
1F
100
AcDbEntity
  8
003
100
AcDbLine
 10
626.7214056592591
 20
291.0131337732541
 30
0.0
 11
626.7214056592591
 21
292.0131337732541
 31
0.0
  0
LWPOLYLINE
  5
29CCE
330
1F
100
AcDbEntity
  8
003
100
AcDbPolyline
 90
        4
 70
     1
 43
0.0
 10
626.4787246499718
 20
291.0131337732541
 10
626.4787246499718
 20
289.5131337732541
 10
614.9787246499718
 20
289.5131337732541
 10
614.9787246499718
 20
291.0131337732541
  0
LINE
  5
29CCF
330
1F
100
AcDbEntity
  8
003
100
AcDbLine
 10
620.7287246499718
 20
289.5131337732541
 30
0.0
 11
619.2287246499717
 21
291.0131337732541
 31
0.0
  0
DIMENSION
  5
29CD4
330
1F
100
AcDbEntity
  8
003
 48
0.5
100
AcDbDimension
  2
*D21
 10
964.4314235402717
 20
392.475542802799
 30
0.0
 11
782.5800740951217
 21
397.7255428027989
 31
0.0
 70
    32
  1
製品W
 71
     5
 42
363.7026988902999
  3
DIM
100
AcDbAlignedDimension
 13
600.7287246499718
 23
320.0131337732541
 33
0.0
 14
964.4314235402717
 24
320.0131337732541
 34
0.0
100
AcDbRotatedDimension
1001
ACAD
1000
DSTYLE
1002
{
1070
    40
1040
2.1
1070
    50
1040
1.570796326794896
1070
    69
1070
     1
1070
    79
1070
     2
1070
   179
1070
     2
1002
}
  0
LEADER
  5
29CF3
330
1F
100
AcDbEntity
  8
003
 48
0.5
100
AcDbLeader
  3
DIM
 73
     0
 74
     0
 40
16.8
 41
22.32
 76
     3
 10
828.3048169771658
 20
301.2624232319679
 30
0.0
 10
841.8985649508236
 20
261.9950102554233
 30
0.0
 10
843.1766397227999
 20
261.9950102554234
 30
0.0
340
29CF4
1001
ACAD
1000
DSTYLE
1002
{
1070
   147
1040
1.0
1070
    77
1070
     1
1070
    40
1040
2.1
1070
    50
1040
1.570796326794896
1070
    69
1070
     1
1070
    79
1070
     2
1070
   179
1070
     2
1002
}
  0
MTEXT
  5
29CF4
102
{ACAD_REACTORS
330
29CF3
102
}
330
1F
100
AcDbEntity
  8
003
 62
     7
 48
0.5
100
AcDbMText
 10
845.2766397228
 20
264.0950102554235
 30
0.0
 40
6.3
 41
0.0
 71
     7
 72
     1
  1
Ｗ材：\P45×25
  7
DIM
 73
     1
 44
1.0
1001
ACAD
1000
MTEXTBEGIN
1070
    73
1070
     1
1070
    44
1040
1.0
1070
    74
1070
     0
1000
MTEXTEND
1000
ACAD_MTEXT_BBRT
1070
    91
1071
        3
1070
    46
1040
1.1
1070
    64
1071
-1027028792
1070
    65
1000

1070
    66
1000

1070
   442
1071
  8913233
1000
ACAD_MTEXT_BERT
  0
LEADER
  5
29CF5
330
1F
100
AcDbEntity
  8
003
 48
0.5
100
AcDbLeader
  3
DIM
 73
     0
 74
     0
 40
16.8
 41
44.3475
 76
     3
 10
845.9742554656052
 20
358.5837821969058
 30
0.0
 10
857.2484190394382
 20
369.8579457707388
 30
0.0
 10
858.7202929401211
 20
369.8579457707388
 30
0.0
340
29CF6
1001
ACAD
1000
DSTYLE
1002
{
1070
   147
1040
1.0
1070
    77
1070
     1
1070
    40
1040
2.1
1070
    50
1040
1.570796326794896
1070
    69
1070
     1
1070
    79
1070
     2
1070
   179
1070
     2
1002
}
  0
MTEXT
  5
29CF6
102
{ACAD_REACTORS
330
29CF5
102
}
330
1F
100
AcDbEntity
  8
003
 62
     7
 48
0.5
100
AcDbMText
 10
860.8202929401212
 20
371.9579457707388
 30
0.0
 40
6.3
 41
0.0
 71
     7
 72
     1
  1
格子：\P20×40角パイプ
  7
DIM
 73
     1
 44
1.0
1001
ACAD
1000
MTEXTBEGIN
1070
    73
1070
     1
1070
    44
1040
1.0
1070
    74
1070
     0
1000
MTEXTEND
1000
ACAD_MTEXT_BBRT
1070
    91
1071
        3
1070
    46
1040
1.1
1070
    64
1071
-1027028792
1070
    65
1000

1070
    66
1000

1070
   442
1071
      347
1000
ACAD_MTEXT_BERT
  0
LEADER
  5
29CF7
330
1F
100
AcDbEntity
  8
003
 48
0.2
100
AcDbLeader
  3
DIM
 73
     0
 74
     0
 40
16.8
 41
36.85500000000001
 76
     3
 10
962.3447106870658
 20
273.5365099838861
 30
0.0
 10
980.7087097165199
 20
289.7647708538599
 30
0.0
 10
981.8866246340133
 20
289.7647708538597
 30
0.0
340
29CF8
1001
ACAD
1000
DSTYLE
1002
{
1070
   147
1040
1.0
1070
    77
1070
     1
1070
    40
1040
2.1
1070
    50
1040
1.570796326794896
1070
    69
1070
     1
1070
    79
1070
     2
1070
   179
1070
     2
1002
}
  0
MTEXT
  5
29CF8
102
{ACAD_REACTORS
330
29CF7
102
}
330
1F
100
AcDbEntity
  8
003
 62
     7
 48
0.2
100
AcDbMText
 10
983.9866246340134
 20
291.8647708538598
 30
0.0
 40
6.3
 41
0.0
 71
     7
 72
     1
  1
Ｚ型ブラケット\P（SUS.t=3）
  7
DIM
 73
     1
 44
1.0
1001
ACAD
1000
MTEXTBEGIN
1070
    73
1070
     1
1070
    44
1040
1.0
1070
    74
1070
     0
1000
MTEXTEND
1000
ACAD_MTEXT_BBRT
1070
    91
1071
        3
1070
    46
1040
1.1
1070
    64
1071
-1027028792
1070
    65
1000

1070
    66
1000

1070
   442
1071
  8913253
1000
ACAD_MTEXT_BERT
  0
LEADER
  5
29CF9
330
1F
100
AcDbEntity
  8
003
 48
0.2
100
AcDbLeader
  3
DIM
 73
     0
 74
     0
 40
16.8
 41
47.34000000000001
 76
     3
 10
588.7848624233797
 20
236.3884723476567
 30
0.0
 10
601.2747473381982
 20
210.8388175240499
 30
0.0
 10
602.7309011703672
 20
210.8388175240498
 30
0.0
340
29CFA
1001
ACAD
1000
DSTYLE
1002
{
1070
   147
1040
1.0
1070
    77
1070
     1
1070
    40
1040
2.1
1070
    50
1040
1.570796326794896
1070
    69
1070
     1
1070
    79
1070
     2
1070
   179
1070
     2
1002
}
  0
MTEXT
  5
29CFA
102
{ACAD_REACTORS
330
29CF9
102
}
330
1F
100
AcDbEntity
  8
003
 62
     7
 48
0.2
100
AcDbMText
 10
604.8309011703672
 20
212.9388175240498
 30
0.0
 40
6.3
 41
0.0
 71
     7
 72
     1
  1
Ｍ6オールアンカー\P（別途）
  7
DIM
 73
     1
 44
1.0
1001
ACAD
1000
MTEXTBEGIN
1070
    73
1070
     1
1070
    44
1040
1.0
1070
    74
1070
     0
1000
MTEXTEND
1000
ACAD_MTEXT_BBRT
1070
    91
1071
        3
1070
    46
1040
1.1
1070
    64
1071
-1027028792
1070
    65
1000

1070
    66
1000

1070
   442
1071
  9568623
1000
ACAD_MTEXT_BERT
  0
LEADER
  5
29CFB
330
1F
100
AcDbEntity
  8
003
 48
0.5
100
AcDbLeader
  3
DIM
 73
     0
 40
6.3
 41
32.69249999999999
 76
     3
 10
598.1105115422053
 20
305.3567572457545
 30
0.0
 10
592.9466961316566
 20
314.3007478977319
 30
0.0
 10
591.9387022689039
 20
314.3007478977319
 30
0.0
340
29CFC
1001
ACAD
1000
DSTYLE
1002
{
1070
   147
1040
1.0
1070
    77
1070
     1
1070
    40
1040
2.1
1070
    50
1040
1.570796326794896
1070
    69
1070
     1
1070
    79
1070
     2
1070
   179
1070
     2
1002
}
  0
MTEXT
  5
29CFC
102
{ACAD_REACTORS
330
29CFB
102
}
330
1F
100
AcDbEntity
  8
003
 62
     7
 48
0.5
100
AcDbMText
 10
589.8387022689039
 20
316.4007478977319
 30
0.0
 40
6.3
 41
0.0
 71
     9
 72
     1
  1
小口キャップ
  7
DIM
 73
     1
 44
1.0
1001
ACAD
1000
MTEXTBEGIN
1070
    73
1070
     1
1070
    44
1040
1.0
1070
    74
1070
     0
1000
MTEXTEND
1000
ACAD_MTEXT_BBRT
1070
    91
1071
        3
1070
    46
1040
1.1
1070
    64
1071
-1027028792
1070
    65
1000

1070
    66
1000

1070
   442
1071
  8716670
1000
ACAD_MTEXT_BERT
  0
LEADER
  5
29CFD
330
1F
100
AcDbEntity
  8
003
 48
0.5
100
AcDbLeader
  3
DIM
 73
     0
 74
     0
 40
6.3
 41
32.69249999999999
 76
     3
 10
967.0496366480382
 20
313.389423667379
 30
0.0
 10
972.2134520585868
 20
322.3334143193564
 30
0.0
 10
973.2214459213395
 20
322.3334143193564
 30
0.0
340
29CFE
1001
ACAD
1000
DSTYLE
1002
{
1070
   147
1040
1.0
1070
    77
1070
     1
1070
    40
1040
2.1
1070
    50
1040
1.570796326794896
1070
    69
1070
     1
1070
    79
1070
     2
1070
   179
1070
     2
1002
}
  0
MTEXT
  5
29CFE
102
{ACAD_REACTORS
330
29CFD
102
}
330
1F
100
AcDbEntity
  8
003
 62
     7
 48
0.5
100
AcDbMText
 10
975.3214459213396
 20
324.4334143193565
 30
0.0
 40
6.3
 41
0.0
 71
     7
 72
     1
  1
小口キャップ
  7
DIM
 73
     1
 44
1.0
1001
ACAD
1000
MTEXTBEGIN
1070
    73
1070
     1
1070
    44
1040
1.0
1070
    74
1070
     0
1000
MTEXTEND
1000
ACAD_MTEXT_BBRT
1070
    91
1071
        3
1070
    46
1040
1.1
1070
    64
1071
-1027028792
1070
    65
1000

1070
    66
1000

1070
   442
1071
  9961864
1000
ACAD_MTEXT_BERT
  0
LWPOLYLINE
  5
29D86
330
1F
100
AcDbEntity
  8
003
100
AcDbPolyline
 90
        4
 70
     1
 43
0.0
 10
746.5574698744312
 20
817.9485206747903
 10
749.5574698744312
 20
817.9485206747903
 10
749.5574698744312
 20
682.9485206747904
 10
746.5574698744312
 20
682.9485206747904
  0
LINE
  5
29D87
330
1F
100
AcDbEntity
  8
Defpoints
 48
0.5
100
AcDbLine
 10
748.0574698744312
 20
828.3025431406617
 30
0.0
 11
748.0574698744312
 21
676.654359684936
 31
0.0
  0
LWPOLYLINE
  5
29DA4
330
1F
100
AcDbEntity
  8
003
100
AcDbPolyline
 90
        4
 70
     1
 43
0.0
 10
710.5574698744312
 20
817.9485206747903
 10
713.5574698744313
 20
817.9485206747903
 10
713.5574698744313
 20
682.9485206747904
 10
710.5574698744312
 20
682.9485206747904
  0
LINE
  5
29DA5
330
1F
100
AcDbEntity
  8
Defpoints
 48
0.5
100
AcDbLine
 10
712.0574698744312
 20
828.3025431406617
 30
0.0
 11
712.0574698744312
 21
676.654359684936
 31
0.0
  0
LWPOLYLINE
  5
29DA6
330
1F
100
AcDbEntity
  8
003
100
AcDbPolyline
 90
        4
 70
     1
 43
0.0
 10
692.5574698744313
 20
817.9485206747903
 10
695.5574698744312
 20
817.9485206747903
 10
695.5574698744312
 20
682.9485206747904
 10
692.5574698744313
 20
682.9485206747904
  0
LINE
  5
29DA7
330
1F
100
AcDbEntity
  8
Defpoints
 48
0.5
100
AcDbLine
 10
694.0574698744312
 20
828.3025431406617
 30
0.0
 11
694.0574698744312
 21
676.654359684936
 31
0.0
  0
LWPOLYLINE
  5
29DA8
330
1F
100
AcDbEntity
  8
003
100
AcDbPolyline
 90
        4
 70
     1
 43
0.0
 10
674.5574698744312
 20
817.9485206747903
 10
677.5574698744312
 20
817.9485206747903
 10
677.5574698744312
 20
682.9485206747904
 10
674.5574698744312
 20
682.9485206747904
  0
LINE
  5
29DA9
330
1F
100
AcDbEntity
  8
Defpoints
 48
0.5
100
AcDbLine
 10
676.0574698744313
 20
828.3025431406617
 30
0.0
 11
676.0574698744313
 21
676.654359684936
 31
0.0
  0
LWPOLYLINE
  5
29DAA
330
1F
100
AcDbEntity
  8
003
100
AcDbPolyline
 90
        4
 70
     1
 43
0.0
 10
656.5574698744312
 20
817.9485206747903
 10
659.5574698744313
 20
817.9485206747903
 10
659.5574698744313
 20
682.9485206747904
 10
656.5574698744312
 20
682.9485206747904
  0
LINE
  5
29DAB
330
1F
100
AcDbEntity
  8
Defpoints
 48
0.5
100
AcDbLine
 10
658.0574698744312
 20
828.3025431406617
 30
0.0
 11
658.0574698744312
 21
676.654359684936
 31
0.0
  0
LINE
  5
29DB8
330
1F
100
AcDbEntity
  8
003
100
AcDbLine
 10
649.0574698744312
 20
692.3235206747904
 30
0.0
 11
656.5574698744312
 21
692.3235206747904
 31
0.0
  0
LINE
  5
29DB9
330
1F
100
AcDbEntity
  8
003
100
AcDbLine
 10
649.0574698744312
 20
699.0735206747904
 30
0.0
 11
656.5574698744312
 21
699.0735206747904
 31
0.0
  0
LINE
  5
29DBA
330
1F
100
AcDbEntity
  8
003
 48
0.5
100
AcDbLine
 10
649.0574698744312
 20
692.3235206747904
 30
0.0
 11
649.0574698744312
 21
699.0735206747904
 31
0.0
  0
LINE
  5
29DCA
330
1F
100
AcDbEntity
  8
003
100
AcDbLine
 10
659.5574698744313
 20
808.5735206747903
 30
0.0
 11
674.5574698744312
 21
808.5735206747903
 31
0.0
  0
LINE
  5
29DCB
330
1F
100
AcDbEntity
  8
003
100
AcDbLine
 10
659.5574698744313
 20
801.8235206747904
 30
0.0
 11
674.5574698744312
 21
801.8235206747904
 31
0.0
  0
LINE
  5
29DCC
330
1F
100
AcDbEntity
  8
003
100
AcDbLine
 10
659.5574698744313
 20
692.3235206747904
 30
0.0
 11
674.5574698744312
 21
692.3235206747904
 31
0.0
  0
LINE
  5
29DCD
330
1F
100
AcDbEntity
  8
003
100
AcDbLine
 10
659.5574698744313
 20
699.0735206747904
 30
0.0
 11
674.5574698744312
 21
699.0735206747904
 31
0.0
  0
LINE
  5
29DCE
330
1F
100
AcDbEntity
  8
003
100
AcDbLine
 10
677.5574698744312
 20
808.5735206747903
 30
0.0
 11
692.5574698744313
 21
808.5735206747903
 31
0.0
  0
LINE
  5
29DCF
330
1F
100
AcDbEntity
  8
003
100
AcDbLine
 10
677.5574698744312
 20
801.8235206747904
 30
0.0
 11
692.5574698744313
 21
801.8235206747904
 31
0.0
  0
LINE
  5
29DD0
330
1F
100
AcDbEntity
  8
003
100
AcDbLine
 10
677.5574698744312
 20
692.3235206747904
 30
0.0
 11
692.5574698744313
 21
692.3235206747904
 31
0.0
  0
LINE
  5
29DD1
330
1F
100
AcDbEntity
  8
003
100
AcDbLine
 10
677.5574698744312
 20
699.0735206747904
 30
0.0
 11
692.5574698744313
 21
699.0735206747904
 31
0.0
  0
LINE
  5
29DD2
330
1F
100
AcDbEntity
  8
003
100
AcDbLine
 10
695.5574698744312
 20
808.5735206747903
 30
0.0
 11
710.5574698744312
 21
808.5735206747903
 31
0.0
  0
LINE
  5
29DD3
330
1F
100
AcDbEntity
  8
003
100
AcDbLine
 10
695.5574698744312
 20
801.8235206747904
 30
0.0
 11
710.5574698744312
 21
801.8235206747904
 31
0.0
  0
LINE
  5
29DD4
330
1F
100
AcDbEntity
  8
003
100
AcDbLine
 10
695.5574698744312
 20
692.3235206747904
 30
0.0
 11
710.5574698744312
 21
692.3235206747904
 31
0.0
  0
LINE
  5
29DD5
330
1F
100
AcDbEntity
  8
003
100
AcDbLine
 10
695.5574698744312
 20
699.0735206747904
 30
0.0
 11
710.5574698744312
 21
699.0735206747904
 31
0.0
  0
LINE
  5
29DD6
330
1F
100
AcDbEntity
  8
003
100
AcDbLine
 10
713.5574698744313
 20
808.5735206747903
 30
0.0
 11
728.5574698744312
 21
808.5735206747903
 31
0.0
  0
LINE
  5
29DD7
330
1F
100
AcDbEntity
  8
003
100
AcDbLine
 10
713.5574698744313
 20
801.8235206747904
 30
0.0
 11
728.5574698744312
 21
801.8235206747904
 31
0.0
  0
LINE
  5
29DD8
330
1F
100
AcDbEntity
  8
003
100
AcDbLine
 10
713.5574698744313
 20
692.3235206747904
 30
0.0
 11
728.5574698744312
 21
692.3235206747904
 31
0.0
  0
LINE
  5
29DD9
330
1F
100
AcDbEntity
  8
003
100
AcDbLine
 10
713.5574698744313
 20
699.0735206747904
 30
0.0
 11
728.5574698744312
 21
699.0735206747904
 31
0.0
  0
LINE
  5
29DDA
330
1F
100
AcDbEntity
  8
003
100
AcDbLine
 10
731.5574698744312
 20
808.5735206747903
 30
0.0
 11
746.5574698744312
 21
808.5735206747903
 31
0.0
  0
LINE
  5
29DDB
330
1F
100
AcDbEntity
  8
003
100
AcDbLine
 10
731.5574698744312
 20
801.8235206747904
 30
0.0
 11
746.5574698744312
 21
801.8235206747904
 31
0.0
  0
LINE
  5
29DDC
330
1F
100
AcDbEntity
  8
003
100
AcDbLine
 10
731.5574698744312
 20
692.3235206747904
 30
0.0
 11
746.5574698744312
 21
692.3235206747904
 31
0.0
  0
LINE
  5
29DDD
330
1F
100
AcDbEntity
  8
003
100
AcDbLine
 10
731.5574698744312
 20
699.0735206747904
 30
0.0
 11
746.5574698744312
 21
699.0735206747904
 31
0.0
  0
LINE
  5
29DDE
330
1F
100
AcDbEntity
  8
003
100
AcDbLine
 10
829.0574698744313
 20
808.5735206747903
 30
0.0
 11
821.5574698744312
 21
808.5735206747903
 31
0.0
  0
LINE
  5
29DDF
330
1F
100
AcDbEntity
  8
003
100
AcDbLine
 10
829.0574698744313
 20
801.8235206747904
 30
0.0
 11
821.5574698744312
 21
801.8235206747904
 31
0.0
  0
LINE
  5
29DE0
330
1F
100
AcDbEntity
  8
003
 48
0.5
100
AcDbLine
 10
829.0574698744313
 20
808.5735206747903
 30
0.0
 11
829.0574698744313
 21
801.8235206747904
 31
0.0
  0
LWPOLYLINE
  5
29DE1
330
1F
100
AcDbEntity
  8
003
100
AcDbPolyline
 90
        4
 70
     1
 43
0.0
 10
767.5574698744313
 20
817.9485206747903
 10
764.5574698744312
 20
817.9485206747903
 10
764.5574698744312
 20
682.9485206747904
 10
767.5574698744313
 20
682.9485206747904
  0
LINE
  5
29DE2
330
1F
100
AcDbEntity
  8
Defpoints
 48
0.5
100
AcDbLine
 10
766.0574698744312
 20
828.3025431406617
 30
0.0
 11
766.0574698744312
 21
676.654359684936
 31
0.0
  0
LWPOLYLINE
  5
29DE3
330
1F
100
AcDbEntity
  8
003
100
AcDbPolyline
 90
        4
 70
     1
 43
0.0
 10
785.5574698744312
 20
817.9485206747903
 10
782.5574698744312
 20
817.9485206747903
 10
782.5574698744312
 20
682.9485206747904
 10
785.5574698744312
 20
682.9485206747904
  0
LINE
  5
29DE4
330
1F
100
AcDbEntity
  8
Defpoints
 48
0.5
100
AcDbLine
 10
784.0574698744313
 20
828.3025431406617
 30
0.0
 11
784.0574698744313
 21
676.654359684936
 31
0.0
  0
LWPOLYLINE
  5
29DE5
330
1F
100
AcDbEntity
  8
003
100
AcDbPolyline
 90
        4
 70
     1
 43
0.0
 10
803.5574698744312
 20
817.9485206747903
 10
800.5574698744313
 20
817.9485206747903
 10
800.5574698744313
 20
682.9485206747904
 10
803.5574698744312
 20
682.9485206747904
  0
LINE
  5
29DE6
330
1F
100
AcDbEntity
  8
Defpoints
 48
0.5
100
AcDbLine
 10
802.0574698744312
 20
828.3025431406617
 30
0.0
 11
802.0574698744312
 21
676.654359684936
 31
0.0
  0
LWPOLYLINE
  5
29DE7
330
1F
100
AcDbEntity
  8
003
100
AcDbPolyline
 90
        4
 70
     1
 43
0.0
 10
821.5574698744312
 20
817.9485206747903
 10
818.5574698744312
 20
817.9485206747903
 10
818.5574698744312
 20
682.9485206747904
 10
821.5574698744312
 20
682.9485206747904
  0
LINE
  5
29DE8
330
1F
100
AcDbEntity
  8
Defpoints
 48
0.5
100
AcDbLine
 10
820.0574698744313
 20
828.3025431406617
 30
0.0
 11
820.0574698744313
 21
676.654359684936
 31
0.0
  0
LINE
  5
29DE9
330
1F
100
AcDbEntity
  8
003
100
AcDbLine
 10
829.0574698744313
 20
692.3235206747904
 30
0.0
 11
821.5574698744312
 21
692.3235206747904
 31
0.0
  0
LINE
  5
29DEA
330
1F
100
AcDbEntity
  8
003
100
AcDbLine
 10
829.0574698744313
 20
699.0735206747904
 30
0.0
 11
821.5574698744312
 21
699.0735206747904
 31
0.0
  0
LINE
  5
29DEB
330
1F
100
AcDbEntity
  8
003
 48
0.5
100
AcDbLine
 10
829.0574698744313
 20
692.3235206747904
 30
0.0
 11
829.0574698744313
 21
699.0735206747904
 31
0.0
  0
LINE
  5
29DEC
330
1F
100
AcDbEntity
  8
003
100
AcDbLine
 10
818.5574698744312
 20
808.5735206747903
 30
0.0
 11
803.5574698744312
 21
808.5735206747903
 31
0.0
  0
LINE
  5
29DED
330
1F
100
AcDbEntity
  8
003
100
AcDbLine
 10
818.5574698744312
 20
801.8235206747904
 30
0.0
 11
803.5574698744312
 21
801.8235206747904
 31
0.0
  0
LINE
  5
29DEE
330
1F
100
AcDbEntity
  8
003
100
AcDbLine
 10
818.5574698744312
 20
692.3235206747904
 30
0.0
 11
803.5574698744312
 21
692.3235206747904
 31
0.0
  0
LINE
  5
29DEF
330
1F
100
AcDbEntity
  8
003
100
AcDbLine
 10
818.5574698744312
 20
699.0735206747904
 30
0.0
 11
803.5574698744312
 21
699.0735206747904
 31
0.0
  0
LINE
  5
29DF0
330
1F
100
AcDbEntity
  8
003
100
AcDbLine
 10
800.5574698744313
 20
808.5735206747903
 30
0.0
 11
785.5574698744312
 21
808.5735206747903
 31
0.0
  0
LINE
  5
29DF1
330
1F
100
AcDbEntity
  8
003
100
AcDbLine
 10
800.5574698744313
 20
801.8235206747904
 30
0.0
 11
785.5574698744312
 21
801.8235206747904
 31
0.0
  0
LINE
  5
29DF2
330
1F
100
AcDbEntity
  8
003
100
AcDbLine
 10
800.5574698744313
 20
692.3235206747904
 30
0.0
 11
785.5574698744312
 21
692.3235206747904
 31
0.0
  0
LINE
  5
29DF3
330
1F
100
AcDbEntity
  8
003
100
AcDbLine
 10
800.5574698744313
 20
699.0735206747904
 30
0.0
 11
785.5574698744312
 21
699.0735206747904
 31
0.0
  0
LINE
  5
29DF4
330
1F
100
AcDbEntity
  8
003
100
AcDbLine
 10
782.5574698744312
 20
808.5735206747903
 30
0.0
 11
767.5574698744313
 21
808.5735206747903
 31
0.0
  0
LINE
  5
29DF5
330
1F
100
AcDbEntity
  8
003
100
AcDbLine
 10
782.5574698744312
 20
801.8235206747904
 30
0.0
 11
767.5574698744313
 21
801.8235206747904
 31
0.0
  0
LINE
  5
29DF6
330
1F
100
AcDbEntity
  8
003
100
AcDbLine
 10
782.5574698744312
 20
692.3235206747904
 30
0.0
 11
767.5574698744313
 21
692.3235206747904
 31
0.0
  0
LINE
  5
29DF7
330
1F
100
AcDbEntity
  8
003
100
AcDbLine
 10
782.5574698744312
 20
699.0735206747904
 30
0.0
 11
767.5574698744313
 21
699.0735206747904
 31
0.0
  0
LINE
  5
29DF8
330
1F
100
AcDbEntity
  8
003
100
AcDbLine
 10
764.5574698744312
 20
808.5735206747903
 30
0.0
 11
749.5574698744312
 21
808.5735206747903
 31
0.0
  0
LINE
  5
29DF9
330
1F
100
AcDbEntity
  8
003
100
AcDbLine
 10
764.5574698744312
 20
801.8235206747904
 30
0.0
 11
749.5574698744312
 21
801.8235206747904
 31
0.0
  0
LINE
  5
29DFA
330
1F
100
AcDbEntity
  8
003
100
AcDbLine
 10
764.5574698744312
 20
692.3235206747904
 30
0.0
 11
749.5574698744312
 21
692.3235206747904
 31
0.0
  0
LINE
  5
29DFB
330
1F
100
AcDbEntity
  8
003
100
AcDbLine
 10
764.5574698744312
 20
699.0735206747904
 30
0.0
 11
749.5574698744312
 21
699.0735206747904
 31
0.0
  0
LEADER
  5
29E70
330
1F
100
AcDbEntity
  8
003
 48
0.2
100
AcDbLeader
  3
DIM
 73
     0
 74
     0
 40
16.8
 41
36.85500000000001
 76
     3
 10
280.3910271374369
 20
614.9385783243347
 30
0.0
 10
281.8984025814666
 20
658.8362455414538
 30
0.0
 10
283.0763174989601
 20
658.8362455414536
 30
0.0
340
29E71
1001
ACAD
1000
DSTYLE
1002
{
1070
   147
1040
1.0
1070
    77
1070
     1
1070
    40
1040
2.1
1070
    50
1040
1.570796326794896
1070
    69
1070
     1
1070
    79
1070
     2
1070
   179
1070
     2
1002
}
  0
MTEXT
  5
29E71
102
{ACAD_REACTORS
330
29E70
102
}
330
1F
100
AcDbEntity
  8
003
 62
     7
 48
0.2
100
AcDbMText
 10
285.1763174989601
 20
660.9362455414537
 30
0.0
 40
6.3
 41
0.0
 71
     7
 72
     1
  1
座金\P（SUS.t=3）
  7
DIM
 73
     1
 44
1.0
1001
ACAD
1000
MTEXTBEGIN
1070
    73
1070
     1
1070
    44
1040
1.0
1070
    74
1070
     0
1000
MTEXTEND
1000
ACAD_MTEXT_BBRT
1070
    91
1071
        3
1070
    46
1040
1.1
1070
    64
1071
-1027028792
1070
    65
1000

1070
    66
1000

1070
   442
1071
 14614925
1000
ACAD_MTEXT_BERT
  0
LEADER
  5
29EB7
330
1F
100
AcDbEntity
  8
003
 48
0.5
100
AcDbLeader
  3
DIM
 73
     0
 74
     0
 40
6.300000000000002
 41
60.61500000000004
 76
     3
 10
648.9711221512099
 20
286.2438561808062
 30
0.0
 10
654.2919737991767
 20
269.3861674910574
 30
0.0
 10
656.0870276595219
 20
269.3861674910574
 30
0.0
340
29EB8
1001
ACAD
1000
DSTYLE
1002
{
1070
   147
1040
1.0
1070
    77
1070
     1
1070
    40
1040
2.1
1070
    50
1040
1.570796326794896
1070
    69
1070
     1
1070
    79
1070
     2
1070
   179
1070
     2
1002
}
  0
MTEXT
  5
29EB8
102
{ACAD_REACTORS
330
29EB7
102
}
330
1F
100
AcDbEntity
  8
003
 62
     7
 48
0.5
100
AcDbMText
 10
658.1870276595219
 20
271.4861674910574
 30
0.0
 40
6.3
 41
0.0
 71
     7
 72
     1
  1
Ｍ6ボルト（平W+SW）
  7
DIM
 73
     1
 44
1.0
1001
ACAD
1000
MTEXTBEGIN
1070
    73
1070
     1
1070
    44
1040
1.0
1070
    74
1070
     0
1000
MTEXTEND
1000
ACAD_MTEXT_BBRT
1070
    91
1071
        3
1070
    46
1040
1.1
1070
    64
1071
-1027028792
1070
    65
1000

1070
    66
1000

1070
   442
1071
  2621847
1000
ACAD_MTEXT_BERT
  0
LEADER
  5
29EB9
330
1F
100
AcDbEntity
  8
003
 48
0.5
100
AcDbLeader
  3
DIM
 73
     0
 74
     0
 40
16.8
 41
31.23000000000001
 76
     3
 10
288.1910271374377
 20
371.4312593336219
 30
0.0
 10
290.1261733032709
 20
414.6596630891826
 30
0.0
 10
292.7799250028205
 20
414.6596630891826
 30
0.0
340
29EBA
1001
ACAD
1000
DSTYLE
1002
{
1070
   147
1040
1.0
1070
    77
1070
     1
1070
    40
1040
2.1
1070
    50
1040
1.570796326794896
1070
    69
1070
     1
1070
    79
1070
     2
1070
   179
1070
     2
1002
}
  0
MTEXT
  5
29EBA
102
{ACAD_REACTORS
330
29EB9
102
}
330
1F
100
AcDbEntity
  8
003
 62
     7
 48
0.5
100
AcDbMText
 10
294.8799250028205
 20
416.7596630891826
 30
0.0
 40
6.3
 41
0.0
 71
     7
 72
     1
  1
Ｍ6ボルト\P（平W+SW）
  7
DIM
 73
     1
 44
1.0
1001
ACAD
1000
MTEXTBEGIN
1070
    73
1070
     1
1070
    44
1040
1.0
1070
    74
1070
     0
1000
MTEXTEND
1000
ACAD_MTEXT_BBRT
1070
    91
1071
        3
1070
    46
1040
1.1
1070
    64
1071
-1027028792
1070
    65
1000

1070
    66
1000

1070
   442
1071
  2818465
1000
ACAD_MTEXT_BERT
  0
INSERT
  5
29F37
330
1F
100
AcDbEntity
  8
0
100
AcDbBlockReference
  2
W材 45×25改
 10
-258.6910271374371
 20
595.9385783243346
 30
0.0
 41
-1.0
 43
-1.0
210
0.0
220
0.0
230
-1.0
  0
LINE
  5
29F51
330
1F
100
AcDbEntity
  8
006
100
AcDbLine
 10
296.3280092235395
 20
595.9385783243346
 30
0.0
 11
269.4854914508612
 21
595.9385783243346
 31
0.0
  0
LINE
  5
29F52
330
1F
100
AcDbEntity
  8
003
100
AcDbLine
 10
283.6910271374378
 20
592.9385783243349
 30
0.0
 11
281.8910271374367
 21
592.9385783243349
 31
0.0
  0
LINE
  5
29F53
330
1F
100
AcDbEntity
  8
003
100
AcDbLine
 10
278.8910271374366
 20
592.9385783243349
 30
0.0
 11
272.6910271374377
 21
592.9385783243349
 31
0.0
  0
LINE
  5
29F54
330
1F
100
AcDbEntity
  8
003
100
AcDbLine
 10
283.6910271374378
 20
598.9385783243347
 30
0.0
 11
281.8910271374367
 21
598.9385783243347
 31
0.0
  0
LINE
  5
29F55
330
1F
100
AcDbEntity
  8
003
100
AcDbLine
 10
278.8910271374366
 20
598.9385783243347
 30
0.0
 11
272.6910271374377
 21
598.9385783243347
 31
0.0
  0
LINE
  5
29F56
330
1F
100
AcDbEntity
  8
003
100
AcDbLine
 10
272.6910271374377
 20
598.9385783243347
 30
0.0
 11
272.6910271374377
 21
592.9385783243349
 31
0.0
  0
LWPOLYLINE
  5
29F57
330
1F
100
AcDbEntity
  8
003
100
AcDbPolyline
 90
        4
 70
     1
 43
0.0
 10
333.691027137436
 20
615.9385783243346
 10
333.6910271374358
 20
575.9385783243346
 10
283.6910271374378
 20
575.9385783243346
 10
283.6910271374378
 20
615.9385783243346
  0
LINE
  5
29F58
330
1F
100
AcDbEntity
  8
003
100
AcDbLine
 10
286.6910271374377
 20
615.9385783243346
 30
0.0
 11
286.6910271374377
 21
575.9385783243346
 31
0.0
  0
LINE
  5
29F59
330
1F
100
AcDbEntity
  8
0
  6
Continuous
 62
     2
100
AcDbLine
 10
287.6910271374377
 20
601.9312593336219
 30
0.0
 11
287.6910271374377
 21
589.9312593336222
 31
0.0
  0
ARC
  5
29F5A
330
1F
100
AcDbEntity
  8
0
  6
Continuous
 62
     2
100
AcDbCircle
 10
291.5510271374379
 20
591.8012593336221
 30
0.0
 40
2.14
100
AcDbArc
 50
320.1257699999993
 51
40.07938000002005
  0
LINE
  5
29F5B
330
1F
100
AcDbEntity
  8
0
  6
Continuous
 62
     2
100
AcDbLine
 10
289.1910271374377
 20
590.4312593336221
 30
0.0
 11
293.1910271374377
 21
590.4312593336221
 31
0.0
  0
LINE
  5
29F5C
330
1F
100
AcDbEntity
  8
003
100
AcDbLine
 10
287.6910271374377
 20
589.9312593336222
 30
0.0
 11
286.6910271374377
 21
589.9312593336222
 31
0.0
  0
LINE
  5
29F5D
330
1F
100
AcDbEntity
  8
0
  6
Continuous
 62
     2
100
AcDbLine
 10
289.1910271374377
 20
601.4312593336219
 30
0.0
 11
293.1910271374377
 21
601.4312593336219
 31
0.0
  0
LINE
  5
29F5E
330
1F
100
AcDbEntity
  8
0
  6
Continuous
 62
     2
100
AcDbLine
 10
289.1910271374377
 20
598.6812593336219
 30
0.0
 11
293.1910271374377
 21
598.6812593336219
 31
0.0
  0
LINE
  5
29F5F
330
1F
100
AcDbEntity
  8
0
  6
Continuous
 62
     2
100
AcDbLine
 10
289.1910271374377
 20
593.1812593336221
 30
0.0
 11
293.1910271374377
 21
593.1812593336221
 31
0.0
  0
ARC
  5
29F60
330
1F
100
AcDbEntity
  8
0
  6
Continuous
 62
     2
100
AcDbCircle
 10
285.881027137438
 20
595.9312593336221
 30
0.0
 40
7.809999999999999
100
AcDbArc
 50
339.3838510000055
 51
20.61613999999852
  0
LINE
  5
29F61
330
1F
100
AcDbEntity
  8
003
100
AcDbLine
 10
293.6910237080117
 20
600.0550905125435
 30
0.0
 11
293.6910237080117
 21
591.8050905125437
 31
0.0
  0
ARC
  5
29F62
330
1F
100
AcDbEntity
  8
0
  6
Continuous
 62
     2
100
AcDbCircle
 10
291.5510271374379
 20
600.0512593336218
 30
0.0
 40
2.14
100
AcDbArc
 50
320.1257699999993
 51
40.07938000002005
  0
LINE
  5
29F63
330
1F
100
AcDbEntity
  8
003
100
AcDbLine
 10
287.6910271374377
 20
601.9312593336219
 30
0.0
 11
286.6910271374377
 21
601.9312593336219
 31
0.0
  0
LWPOLYLINE
  5
29F64
330
1F
100
AcDbEntity
  8
003
100
AcDbPolyline
 90
        4
 70
     1
 43
0.0
 10
287.6910271374377
 20
601.6885783243346
 10
289.1910271374377
 20
601.6885783243346
 10
289.1910271374377
 20
590.1885783243346
 10
287.6910271374377
 20
590.1885783243346
  0
LINE
  5
29F65
330
1F
100
AcDbEntity
  8
003
100
AcDbLine
 10
289.1910271374377
 20
595.9385783243346
 30
0.0
 11
287.6910271374377
 21
594.4385783243347
 31
0.0
  0
LWPOLYLINE
  5
29F97
330
1F
100
AcDbEntity
  8
003
 48
0.5
100
AcDbPolyline
 90
        4
 70
     1
 43
0.0
 10
278.8910271374369
 20
614.9385783243347
 10
281.8910271374369
 20
614.9385783243347
 10
281.8910271374369
 20
576.9385783243347
 10
278.8910271374369
 20
576.9385783243347
  0
LINE
  5
29F98
330
1F
100
AcDbEntity
  8
0
100
AcDbLine
 10
260.7910271374357
 20
598.9385499837813
 30
0.0
 11
260.7910271374357
 21
592.9385499837812
 31
0.0
  0
ARC
  5
29F99
330
1F
100
AcDbEntity
  8
0
100
AcDbCircle
 10
261.2910271374357
 20
592.9385499837812
 30
0.0
 40
0.5
100
AcDbArc
 50
180.0
 51
270.0
1001
GENIUS_GENOBJ-N-FIL_13
1002
{
1000
OWNER
1000
GEN
1002
}
1001
GENIUS_GENODEF_13
1002
{
1000
HIER
1070
     0
1002
}
1002
{
1000
MANEDIT
1070
     0
1002
}
1002
{
1000
NOSEL
1070
     0
1002
}
1002
{
1000
BEHIND
1070
     0
1002
}
1002
{
1000
OTHER
1070
     0
1002
}
1002
{
1000
REACTOR
1002
}
  0
ARC
  5
29F9A
330
1F
100
AcDbEntity
  8
0
100
AcDbCircle
 10
261.2910271374357
 20
598.9385499837813
 30
0.0
 40
0.5
100
AcDbArc
 50
90.0
 51
180.0
1001
GENIUS_GENODEF_13
1002
{
1000
HIER
1070
     0
1002
}
1002
{
1000
MANEDIT
1070
     0
1002
}
1002
{
1000
NOSEL
1070
     0
1002
}
1002
{
1000
BEHIND
1070
     0
1002
}
1002
{
1000
OTHER
1070
     0
1002
}
1002
{
1000
REACTOR
1002
}
1001
GENIUS_GENOBJ-N-FIL_13
1002
{
1000
OWNER
1000
GEN
1002
}
  0
LINE
  5
29F9B
330
1F
100
AcDbEntity
  8
0
100
AcDbLine
 10
263.5910271374386
 20
597.6385499837784
 30
0.0
 11
263.5910271374386
 21
594.2385499837805
 31
0.0
  0
LINE
  5
29F9C
330
1F
100
AcDbEntity
  8
0
100
AcDbLine
 10
261.7910271374357
 20
599.4385499837813
 30
0.0
 11
261.2910271374357
 21
599.4385499837813
 31
0.0
  0
ARC
  5
29F9D
330
1F
100
AcDbEntity
  8
0
100
AcDbCircle
 10
261.7910271374357
 20
597.6385499837784
 30
0.0
 40
1.8
100
AcDbArc
 50
0.0
 51
90.0
1001
GENIUS_GENODEF_13
1002
{
1000
HIER
1070
     0
1002
}
1002
{
1000
MANEDIT
1070
     0
1002
}
1002
{
1000
NOSEL
1070
     0
1002
}
1002
{
1000
BEHIND
1070
     0
1002
}
1002
{
1000
OTHER
1070
     0
1002
}
1002
{
1000
REACTOR
1002
}
1001
GENIUS_GENOBJ-N-FIL_13
1002
{
1000
OWNER
1000
GEN
1002
}
  0
LINE
  5
29F9E
330
1F
100
AcDbEntity
  8
0
100
AcDbLine
 10
261.7910271374357
 20
592.4385499837812
 30
0.0
 11
261.2910271374357
 21
592.4385499837812
 31
0.0
  0
ARC
  5
29F9F
330
1F
100
AcDbEntity
  8
0
100
AcDbCircle
 10
261.7910271374357
 20
594.2385499837805
 30
0.0
 40
1.8
100
AcDbArc
 50
270.0
 51
0.0
1001
GENIUS_GENOBJ-N-FIL_13
1002
{
1000
OWNER
1000
GEN
1002
}
1001
GENIUS_GENODEF_13
1002
{
1000
HIER
1070
     0
1002
}
1002
{
1000
MANEDIT
1070
     0
1002
}
1002
{
1000
NOSEL
1070
     0
1002
}
1002
{
1000
BEHIND
1070
     0
1002
}
1002
{
1000
OTHER
1070
     0
1002
}
1002
{
1000
REACTOR
1002
}
  0
LINE
  5
29FA0
330
1F
100
AcDbEntity
  8
0
100
AcDbLine
 10
260.7910271374357
 20
592.9385783243346
 30
0.0
 11
260.7910271374357
 21
598.9385783243347
 31
0.0
  0
LINE
  5
29FA1
330
1F
100
AcDbEntity
  8
ビス中心線
100
AcDbLine
 10
268.6990240924437
 20
365.9385783243347
 30
0.0
 11
249.2401863235004
 21
365.9385783243347
 31
0.0
  0
LINE
  5
29FA2
330
1F
100
AcDbEntity
  8
006
100
AcDbLine
 10
317.058863894503
 20
365.9385783243347
 30
0.0
 11
343.6581370722806
 21
365.9385783243347
 31
0.0
  0
LINE
  5
29FA3
330
1F
100
AcDbEntity
  8
007
100
AcDbLine
 10
329.6910271374358
 20
371.931259333622
 30
0.0
 11
329.6910271374358
 21
359.9312593336222
 31
0.0
  0
ARC
  5
29FA4
330
1F
100
AcDbEntity
  8
007
100
AcDbCircle
 10
327.3310271374357
 20
361.8012593336221
 30
0.0
 40
2.14
100
AcDbArc
 50
139.9206199999873
 51
219.8742300000003
  0
LINE
  5
29FA5
330
1F
100
AcDbEntity
  8
007
100
AcDbLine
 10
329.6910271374358
 20
360.4312593336222
 30
0.0
 11
325.6910271374358
 21
360.4312593336222
 31
0.0
  0
LINE
  5
29FA6
330
1F
100
AcDbEntity
  8
007
100
AcDbLine
 10
329.6910271374358
 20
359.9312593336222
 30
0.0
 11
330.6910271374358
 21
359.9312593336222
 31
0.0
  0
LINE
  5
29FA7
330
1F
100
AcDbEntity
  8
007
100
AcDbLine
 10
329.6910271374358
 20
371.4312593336219
 30
0.0
 11
325.6910271374358
 21
371.4312593336219
 31
0.0
  0
LINE
  5
29FA8
330
1F
100
AcDbEntity
  8
007
100
AcDbLine
 10
329.6910271374358
 20
368.6812593336219
 30
0.0
 11
325.6910271374358
 21
368.6812593336219
 31
0.0
  0
LINE
  5
29FA9
330
1F
100
AcDbEntity
  8
007
100
AcDbLine
 10
329.6910271374358
 20
363.1812593336221
 30
0.0
 11
325.6910271374358
 21
363.1812593336221
 31
0.0
  0
LINE
  5
29FAA
330
1F
100
AcDbEntity
  8
007
100
AcDbLine
 10
323.1910305668618
 20
368.9385783243347
 30
0.0
 11
323.1910305668618
 21
362.9385783243347
 31
0.0
  0
ARC
  5
29FAB
330
1F
100
AcDbEntity
  8
007
100
AcDbCircle
 10
333.0010271374356
 20
365.9312593336222
 30
0.0
 40
7.809999999999999
100
AcDbArc
 50
159.383859999992
 51
200.6161489999936
  0
LINE
  5
29FAC
330
1F
100
AcDbEntity
  8
007
100
AcDbLine
 10
325.1910305668618
 20
370.0550905125433
 30
0.0
 11
325.1910305668618
 21
361.8050905125435
 31
0.0
  0
LINE
  5
29FAD
330
1F
100
AcDbEntity
  8
007
100
AcDbLine
 10
323.1910305668618
 20
362.9385783243347
 30
0.0
 11
325.1910305668618
 21
362.9385783243347
 31
0.0
  0
LINE
  5
29FAE
330
1F
100
AcDbEntity
  8
007
100
AcDbLine
 10
323.1910305668618
 20
368.9385783243347
 30
0.0
 11
325.1910305668618
 21
368.9385783243347
 31
0.0
  0
ARC
  5
29FAF
330
1F
100
AcDbEntity
  8
007
100
AcDbCircle
 10
327.3310271374357
 20
370.0512593336221
 30
0.0
 40
2.14
100
AcDbArc
 50
139.9206199999873
 51
219.8742300000003
  0
LINE
  5
29FB0
330
1F
100
AcDbEntity
  8
007
100
AcDbLine
 10
329.6910271374358
 20
371.931259333622
 30
0.0
 11
330.6910271374358
 21
371.931259333622
 31
0.0
  0
LINE
  5
29FB1
330
1F
100
AcDbEntity
  8
007
100
AcDbLine
 10
330.6910271374358
 20
385.9385783243347
 30
0.0
 11
330.6910271374358
 21
345.9385783243347
 31
0.0
  0
DIMENSION
  5
29FB2
330
1F
100
AcDbEntity
  8
003
 48
0.5
100
AcDbDimension
  2
*D23
 10
243.4735590198169
 20
343.4385783243356
 30
0.0
 11
238.2235590198169
 21
365.9385783243357
 31
0.0
 70
    32
 71
     5
 42
45.0
  3
DIM
100
AcDbAlignedDimension
 13
258.9910271374369
 23
388.4385783243356
 33
0.0
 14
258.9910271374387
 24
343.4385783243356
 34
0.0
 50
90.0
100
AcDbRotatedDimension
1001
ACAD
1000
DSTYLE
1002
{
1070
    40
1040
2.1
1070
    50
1040
1.570796326794896
1070
    69
1070
     1
1070
    79
1070
     2
1070
   179
1070
     2
1002
}
  0
DIMENSION
  5
29FB3
330
1F
100
AcDbEntity
  8
003
 48
0.5
100
AcDbDimension
  2
*D24
 10
362.571638935145
 20
345.9385783243347
 30
0.0
 11
357.321638935145
 21
365.9385783243347
 31
0.0
 70
    32
 71
     5
 42
40.0
  3
DIM
100
AcDbAlignedDimension
 13
333.6910271374358
 23
385.9385783243347
 33
0.0
 14
333.6910271374358
 24
345.9385783243347
 34
0.0
 50
90.0
100
AcDbRotatedDimension
1001
ACAD
1000
DSTYLE
1002
{
1070
    40
1040
2.1
1070
    50
1040
1.570796326794896
1070
    69
1070
     1
1070
    79
1070
     2
1070
   179
1070
     2
1002
}
  0
INSERT
  5
29FB4
330
1F
100
AcDbEntity
  8
0
100
AcDbBlockReference
  2
W材 45×25改
 10
-258.6910271374371
 20
365.9385783243347
 30
0.0
 41
-1.0
 43
-1.0
210
0.0
220
0.0
230
-1.0
  0
LINE
  5
29FB5
330
1F
100
AcDbEntity
  8
006
100
AcDbLine
 10
296.3280092235394
 20
365.9385783243347
 30
0.0
 11
269.4854914508611
 21
365.9385783243347
 31
0.0
  0
LINE
  5
29FB6
330
1F
100
AcDbEntity
  8
003
100
AcDbLine
 10
283.6910271374377
 20
362.9385783243349
 30
0.0
 11
281.8910271374366
 21
362.9385783243349
 31
0.0
  0
LINE
  5
29FB7
330
1F
100
AcDbEntity
  8
003
100
AcDbLine
 10
278.8910271374366
 20
362.9385783243349
 30
0.0
 11
272.6910271374377
 21
362.9385783243349
 31
0.0
  0
LINE
  5
29FB8
330
1F
100
AcDbEntity
  8
003
100
AcDbLine
 10
283.6910271374377
 20
368.9385783243347
 30
0.0
 11
281.8910271374366
 21
368.9385783243347
 31
0.0
  0
LINE
  5
29FB9
330
1F
100
AcDbEntity
  8
003
100
AcDbLine
 10
278.8910271374366
 20
368.9385783243347
 30
0.0
 11
272.6910271374377
 21
368.9385783243347
 31
0.0
  0
LINE
  5
29FBA
330
1F
100
AcDbEntity
  8
003
100
AcDbLine
 10
272.6910271374377
 20
368.9385783243347
 30
0.0
 11
272.6910271374377
 21
362.9385783243349
 31
0.0
  0
LWPOLYLINE
  5
29FBB
330
1F
100
AcDbEntity
  8
003
100
AcDbPolyline
 90
        4
 70
     1
 43
0.0
 10
333.6910271374359
 20
385.9385783243347
 10
333.6910271374357
 20
345.9385783243347
 10
283.6910271374377
 20
345.9385783243347
 10
283.6910271374377
 20
385.9385783243347
  0
LINE
  5
29FBC
330
1F
100
AcDbEntity
  8
003
100
AcDbLine
 10
286.6910271374377
 20
385.9385783243347
 30
0.0
 11
286.6910271374377
 21
345.9385783243347
 31
0.0
  0
LINE
  5
29FBD
330
1F
100
AcDbEntity
  8
0
  6
Continuous
 62
     2
100
AcDbLine
 10
287.6910271374377
 20
371.931259333622
 30
0.0
 11
287.6910271374377
 21
359.9312593336222
 31
0.0
  0
ARC
  5
29FBE
330
1F
100
AcDbEntity
  8
0
  6
Continuous
 62
     2
100
AcDbCircle
 10
291.5510271374378
 20
361.8012593336221
 30
0.0
 40
2.14
100
AcDbArc
 50
320.1257699999993
 51
40.07938000002051
  0
LINE
  5
29FBF
330
1F
100
AcDbEntity
  8
0
  6
Continuous
 62
     2
100
AcDbLine
 10
289.1910271374377
 20
360.4312593336222
 30
0.0
 11
293.1910271374377
 21
360.4312593336222
 31
0.0
  0
LINE
  5
29FC0
330
1F
100
AcDbEntity
  8
003
100
AcDbLine
 10
287.6910271374377
 20
359.9312593336222
 30
0.0
 11
286.6910271374377
 21
359.9312593336222
 31
0.0
  0
LINE
  5
29FC1
330
1F
100
AcDbEntity
  8
0
  6
Continuous
 62
     2
100
AcDbLine
 10
289.1910271374377
 20
371.4312593336219
 30
0.0
 11
293.1910271374377
 21
371.4312593336219
 31
0.0
  0
LINE
  5
29FC2
330
1F
100
AcDbEntity
  8
0
  6
Continuous
 62
     2
100
AcDbLine
 10
289.1910271374377
 20
368.6812593336219
 30
0.0
 11
293.1910271374377
 21
368.6812593336219
 31
0.0
  0
LINE
  5
29FC3
330
1F
100
AcDbEntity
  8
0
  6
Continuous
 62
     2
100
AcDbLine
 10
289.1910271374377
 20
363.1812593336221
 30
0.0
 11
293.1910271374377
 21
363.1812593336221
 31
0.0
  0
ARC
  5
29FC4
330
1F
100
AcDbEntity
  8
0
  6
Continuous
 62
     2
100
AcDbCircle
 10
285.881027137438
 20
365.9312593336222
 30
0.0
 40
7.809999999999999
100
AcDbArc
 50
339.3838510000048
 51
20.61613999999913
  0
LINE
  5
29FC5
330
1F
100
AcDbEntity
  8
003
100
AcDbLine
 10
293.6910237080117
 20
370.0550905125435
 30
0.0
 11
293.6910237080117
 21
361.8050905125437
 31
0.0
  0
ARC
  5
29FC6
330
1F
100
AcDbEntity
  8
0
  6
Continuous
 62
     2
100
AcDbCircle
 10
291.5510271374378
 20
370.0512593336218
 30
0.0
 40
2.14
100
AcDbArc
 50
320.1257699999993
 51
40.07938000002051
  0
LINE
  5
29FC7
330
1F
100
AcDbEntity
  8
003
100
AcDbLine
 10
287.6910271374377
 20
371.931259333622
 30
0.0
 11
286.6910271374377
 21
371.931259333622
 31
0.0
  0
LWPOLYLINE
  5
29FC8
330
1F
100
AcDbEntity
  8
003
100
AcDbPolyline
 90
        4
 70
     1
 43
0.0
 10
287.6910271374377
 20
371.6885783243347
 10
289.1910271374377
 20
371.6885783243347
 10
289.1910271374377
 20
360.1885783243347
 10
287.6910271374377
 20
360.1885783243347
  0
LINE
  5
29FC9
330
1F
100
AcDbEntity
  8
003
100
AcDbLine
 10
289.1910271374377
 20
365.9385783243347
 30
0.0
 11
287.6910271374377
 21
364.4385783243347
 31
0.0
  0
LWPOLYLINE
  5
29FCA
330
1F
100
AcDbEntity
  8
003
 48
0.5
100
AcDbPolyline
 90
        4
 70
     1
 43
0.0
 10
278.8910271374369
 20
384.9385783243347
 10
281.8910271374369
 20
384.9385783243347
 10
281.8910271374369
 20
346.9385783243347
 10
278.8910271374369
 20
346.9385783243347
  0
LINE
  5
29FCB
330
1F
100
AcDbEntity
  8
0
100
AcDbLine
 10
260.7910271374357
 20
368.9385499837813
 30
0.0
 11
260.7910271374357
 21
362.9385499837813
 31
0.0
  0
ARC
  5
29FCC
330
1F
100
AcDbEntity
  8
0
100
AcDbCircle
 10
261.2910271374357
 20
362.9385499837813
 30
0.0
 40
0.5
100
AcDbArc
 50
180.0
 51
270.0
1001
GENIUS_GENOBJ-N-FIL_13
1002
{
1000
OWNER
1000
GEN
1002
}
1001
GENIUS_GENODEF_13
1002
{
1000
HIER
1070
     0
1002
}
1002
{
1000
MANEDIT
1070
     0
1002
}
1002
{
1000
NOSEL
1070
     0
1002
}
1002
{
1000
BEHIND
1070
     0
1002
}
1002
{
1000
OTHER
1070
     0
1002
}
1002
{
1000
REACTOR
1002
}
  0
ARC
  5
29FCD
330
1F
100
AcDbEntity
  8
0
100
AcDbCircle
 10
261.2910271374357
 20
368.9385499837813
 30
0.0
 40
0.5
100
AcDbArc
 50
90.0
 51
180.0
1001
GENIUS_GENODEF_13
1002
{
1000
HIER
1070
     0
1002
}
1002
{
1000
MANEDIT
1070
     0
1002
}
1002
{
1000
NOSEL
1070
     0
1002
}
1002
{
1000
BEHIND
1070
     0
1002
}
1002
{
1000
OTHER
1070
     0
1002
}
1002
{
1000
REACTOR
1002
}
1001
GENIUS_GENOBJ-N-FIL_13
1002
{
1000
OWNER
1000
GEN
1002
}
  0
LINE
  5
29FCE
330
1F
100
AcDbEntity
  8
0
100
AcDbLine
 10
263.5910271374386
 20
367.6385499837784
 30
0.0
 11
263.5910271374386
 21
364.2385499837806
 31
0.0
  0
LINE
  5
29FCF
330
1F
100
AcDbEntity
  8
0
100
AcDbLine
 10
261.7910271374356
 20
369.4385499837813
 30
0.0
 11
261.2910271374357
 21
369.4385499837813
 31
0.0
  0
ARC
  5
29FD0
330
1F
100
AcDbEntity
  8
0
100
AcDbCircle
 10
261.7910271374356
 20
367.6385499837784
 30
0.0
 40
1.8
100
AcDbArc
 50
0.0
 51
90.0
1001
GENIUS_GENODEF_13
1002
{
1000
HIER
1070
     0
1002
}
1002
{
1000
MANEDIT
1070
     0
1002
}
1002
{
1000
NOSEL
1070
     0
1002
}
1002
{
1000
BEHIND
1070
     0
1002
}
1002
{
1000
OTHER
1070
     0
1002
}
1002
{
1000
REACTOR
1002
}
1001
GENIUS_GENOBJ-N-FIL_13
1002
{
1000
OWNER
1000
GEN
1002
}
  0
LINE
  5
29FD1
330
1F
100
AcDbEntity
  8
0
100
AcDbLine
 10
261.7910271374356
 20
362.4385499837813
 30
0.0
 11
261.2910271374357
 21
362.4385499837813
 31
0.0
  0
ARC
  5
29FD2
330
1F
100
AcDbEntity
  8
0
100
AcDbCircle
 10
261.7910271374356
 20
364.2385499837806
 30
0.0
 40
1.8
100
AcDbArc
 50
270.0
 51
0.0
1001
GENIUS_GENOBJ-N-FIL_13
1002
{
1000
OWNER
1000
GEN
1002
}
1001
GENIUS_GENODEF_13
1002
{
1000
HIER
1070
     0
1002
}
1002
{
1000
MANEDIT
1070
     0
1002
}
1002
{
1000
NOSEL
1070
     0
1002
}
1002
{
1000
BEHIND
1070
     0
1002
}
1002
{
1000
OTHER
1070
     0
1002
}
1002
{
1000
REACTOR
1002
}
  0
LINE
  5
29FD3
330
1F
100
AcDbEntity
  8
0
100
AcDbLine
 10
260.7910271374357
 20
362.9385783243347
 30
0.0
 11
260.7910271374357
 21
368.9385783243347
 31
0.0
  0
LINE
  5
29FFE
330
1F
100
AcDbEntity
  8
003
 48
0.5
100
AcDbLine
 10
660.7287246499717
 20
292.0131337732541
 30
0.0
 11
603.7287246499718
 21
292.0131337732541
 31
0.0
  0
LINE
  5
2A008
330
1F
100
AcDbEntity
  8
003
 48
0.5
100
AcDbLine
 10
904.4314235402717
 20
292.0131337732541
 30
0.0
 11
961.4314235402716
 21
292.0131337732541
 31
0.0
  0
TEXT
  5
2A1AD
330
1F
100
AcDbEntity
  8
0
100
AcDbText
 10
1085.951441955213
 20
88.49999999999978
 30
0.0
 40
6.0
  1
HT01
  7
ｺﾞｼｯｸ（横）
 72
     1
 11
1095.237156240927
 21
91.49999999999977
 31
0.0
100
AcDbText
 73
     2
  0
LWPOLYLINE
  5
2A1F6
330
1F
100
AcDbEntity
  8
0
100
AcDbPolyline
 90
        4
 70
     1
 43
0.0
 10
-7.538847053406414
 20
848.2392047481971
 10
382.3086335335618
 20
848.2392047481971
 10
382.3086335335618
 20
792.8935553962815
 10
-7.538847053406414
 20
792.8935553962815
  0
LWPOLYLINE
  5
2A1F7
330
1F
100
AcDbEntity
  8
0
100
AcDbPolyline
 90
        4
 70
     1
 43
0.0
 10
-4.538847053406414
 20
845.2392047481971
 10
379.3086335335618
 20
845.2392047481971
 10
379.3086335335618
 20
795.8935553962815
 10
-4.538847053406414
 20
795.8935553962815
  0
TEXT
  5
2A1F8
330
1F
100
AcDbEntity
  8
0
100
AcDbText
 10
1.344957172578688
 20
812.2051550831583
 30
0.0
 40
14.04
  1
ＲＣ・躯体止め納まり
 41
0.8
  7
AT_VECTOR
 11
1.344957172578688
 21
812.2051550831583
 31
0.0
100
AcDbText
 73
     1
  0
TEXT
  5
2A1F9
330
1F
100
AcDbEntity
  8
0
100
AcDbText
 10
178.549508147843
 20
812.393201874036
 30
0.0
 40
14.04
  1
太格子　（Ｚ型ブラケット）
 41
0.8
  7
AT_VECTOR
 11
178.549508147843
 21
812.393201874036
 31
0.0
100
AcDbText
 73
     1
  0
ENDSEC
  0
SECTION
  2
OBJECTS
  0
DICTIONARY
  5
C
330
0
100
AcDbDictionary
281
     1
  3
ACAD_2007HEADERVARS_RT
350
2A269
  3
ACAD_COLOR
350
9C8B
  3
ACAD_GROUP
350
D
  3
ACAD_LAYOUT
350
1A
  3
ACAD_MATERIAL
350
9C61
  3
ACAD_MLEADERSTYLE
350
9CB0
  3
ACAD_MLINESTYLE
350
17
  3
ACAD_PLOTSETTINGS
350
19
  3
ACAD_PLOTSTYLENAME
350
E
  3
ACAD_SCALELIST
350
9C8E
  3
ACAD_TABLESTYLE
350
9C8C
  3
ACAD_VISUALSTYLE
350
9C7A
  3
ACAD_WIPEOUT_VARS
350
DD7A
  3
AcadDim
350
29E6F
  3
ACDB_RECOMPOSE_DATA
350
A6AF
  3
AcDbVariableDictionary
350
A6CA
  3
DWGPROPS
350
2A268
  0
DICTIONARY
  5
A6B1
330
8
100
AcDbDictionary
280
     1
281
     1
  0
DICTIONARY
  5
6C5
330
2
100
AcDbDictionary
280
     1
281
     1
  3
ACAD_LAYERFILTERS
360
247AF
  3
ACAD_LAYERSTATES
360
6C6
  3
ACLYDICTIONARY
360
247AE
  0
DICTIONARY
  5
9F26
330
10
100
AcDbDictionary
280
     1
281
     1
  3
ADSK_XREC_LAYER_RECONCILED
360
9F27
  0
DICTIONARY
  5
9F2A
330
32
100
AcDbDictionary
280
     1
281
     1
  3
ADSK_XREC_LAYER_RECONCILED
360
9F2B
  0
DICTIONARY
  5
9F2C
330
33
100
AcDbDictionary
280
     1
281
     1
  3
ADSK_XREC_LAYER_RECONCILED
360
9F2D
  0
DICTIONARY
  5
9F32
330
1A4
100
AcDbDictionary
280
     1
281
     1
  3
ADSK_XREC_LAYER_RECONCILED
360
9F33
  0
DICTIONARY
  5
9F34
330
1A5
100
AcDbDictionary
280
     1
281
     1
  3
ADSK_XREC_LAYER_RECONCILED
360
9F35
  0
DICTIONARY
  5
9EA6
330
1F
100
AcDbDictionary
280
     1
281
     1
  3
ACAD_SORTENTS
360
9EA7
  0
DICTIONARY
  5
2A269
102
{ACAD_REACTORS
330
C
102
}
330
C
100
AcDbDictionary
281
     1
  3
DIMJOGANG
350
2A26B
  3
DIMTFILL
350
2A26A
  0
DICTIONARY
  5
9C8B
102
{ACAD_REACTORS
330
C
102
}
330
C
100
AcDbDictionary
281
     1
  0
DICTIONARY
  5
D
102
{ACAD_REACTORS
330
C
102
}
330
C
100
AcDbDictionary
281
     1
  0
DICTIONARY
  5
1A
102
{ACAD_REACTORS
330
C
102
}
330
C
100
AcDbDictionary
281
     1
  3
Model
350
22
  3
ﾚｲｱｳﾄ1
350
1E
  3
ﾚｲｱｳﾄ2
350
26
  0
DICTIONARY
  5
9C61
102
{ACAD_REACTORS
330
C
102
}
330
C
100
AcDbDictionary
281
     1
  3
ByBlock
350
9C6A
  3
ByLayer
350
9C62
  3
Global
350
9C72
  0
DICTIONARY
  5
9CB0
102
{ACAD_REACTORS
330
C
102
}
330
C
100
AcDbDictionary
281
     1
  3
Standard
350
9CB1
  0
DICTIONARY
  5
17
102
{ACAD_REACTORS
330
C
102
}
330
C
100
AcDbDictionary
281
     1
  3
Standard
350
18
  0
DICTIONARY
  5
19
102
{ACAD_REACTORS
330
C
102
}
330
C
100
AcDbDictionary
281
     1
  0
ACDBDICTIONARYWDFLT
  5
E
102
{ACAD_REACTORS
330
C
102
}
330
C
100
AcDbDictionary
281
     1
  3
Normal
350
F
100
AcDbDictionaryWithDefault
340
F
  0
DICTIONARY
  5
9C8E
102
{ACAD_REACTORS
330
C
102
}
330
C
100
AcDbDictionary
281
     1
  3
*A1
350
246A3
  3
*A10
350
2A048
  3
*A100
350
2A09F
  3
*A101
350
2A0C9
  3
*A102
350
2A15C
  3
*A103
350
2A0A0
  3
*A104
350
2A0A1
  3
*A105
350
2A009
  3
*A106
350
2A061
  3
*A107
350
2A0A2
  3
*A108
350
2A00E
  3
*A109
350
2A0A3
  3
*A11
350
2A07F
  3
*A110
350
2A0A4
  3
*A111
350
2A0A5
  3
*A112
350
2A151
  3
*A113
350
2A195
  3
*A114
350
2A064
  3
*A115
350
2A15D
  3
*A116
350
2A0A6
  3
*A117
350
2A0A7
  3
*A118
350
2A0A8
  3
*A119
350
2A0A9
  3
*A12
350
2A049
  3
*A120
350
2A0AA
  3
*A121
350
2A0AB
  3
*A122
350
2A062
  3
*A123
350
2A0D4
  3
*A124
350
2A196
  3
*A125
350
2A00A
  3
*A126
350
2A0AC
  3
*A127
350
2A0C3
  3
*A128
350
2A11C
  3
*A129
350
2A0AD
  3
*A13
350
2A021
  3
*A130
350
2A0AE
  3
*A131
350
2A0AF
  3
*A132
350
2A0B0
  3
*A133
350
2A0B1
  3
*A134
350
2A0B2
  3
*A135
350
2A197
  3
*A136
350
2A0B3
  3
*A137
350
2A0B4
  3
*A138
350
2A0D5
  3
*A139
350
2A14C
  3
*A14
350
2A04A
  3
*A140
350
2A15E
  3
*A141
350
2A0D6
  3
*A142
350
2A11D
  3
*A143
350
2A0D7
  3
*A144
350
2A066
  3
*A145
350
2A0D8
  3
*A146
350
2A198
  3
*A147
350
2A0D9
  3
*A148
350
2A0DA
  3
*A149
350
2A0B6
  3
*A15
350
2A04B
  3
*A150
350
2A0DB
  3
*A151
350
2A0DC
  3
*A152
350
2A15F
  3
*A153
350
2A0DD
  3
*A154
350
2A00F
  3
*A155
350
2A11E
  3
*A156
350
2A0DE
  3
*A157
350
2A153
  3
*A158
350
2A0DF
  3
*A159
350
2A0E0
  3
*A16
350
2A10A
  3
*A160
350
2A067
  3
*A161
350
2A0E1
  3
*A162
350
2A0E2
  3
*A163
350
2A0B7
  3
*A164
350
2A074
  3
*A165
350
2A0E3
  3
*A166
350
2A0E4
  3
*A167
350
2A0E5
  3
*A168
350
2A199
  3
*A169
350
2A11F
  3
*A17
350
2A156
  3
*A170
350
2A0E6
  3
*A171
350
2A0E7
  3
*A172
350
2A010
  3
*A173
350
2A0E8
  3
*A174
350
2A0E9
  3
*A175
350
2A068
  3
*A176
350
2A01C
  3
*A177
350
2A0EA
  3
*A178
350
2A0B8
  3
*A179
350
2A19A
  3
*A18
350
246A6
  3
*A180
350
2A0EB
  3
*A181
350
2A0EC
  3
*A182
350
2A06B
  3
*A183
350
2A120
  3
*A184
350
2A0ED
  3
*A185
350
2A0EE
  3
*A186
350
2A0EF
  3
*A187
350
2A0F0
  3
*A188
350
2A160
  3
*A189
350
2A0F1
  3
*A19
350
2A117
  3
*A190
350
2A19B
  3
*A191
350
2A011
  3
*A192
350
2A0F2
  3
*A193
350
2A069
  3
*A194
350
2A0B9
  3
*A195
350
2A0F3
  3
*A196
350
2A06E
  3
*A197
350
2A0F4
  3
*A198
350
2A0F5
  3
*A199
350
2A0F6
  3
*A2
350
2A191
  3
*A20
350
2A04C
  3
*A200
350
2A0BC
  3
*A201
350
2A022
  3
*A202
350
2A0F7
  3
*A203
350
2A0F8
  3
*A204
350
2A0F9
  3
*A205
350
2A0FA
  3
*A206
350
2A0FB
  3
*A207
350
2A012
  3
*A208
350
2A0BA
  3
*A209
350
2A121
  3
*A21
350
2A04D
  3
*A210
350
2A06A
  3
*A211
350
2A0FC
  3
*A212
350
2A111
  3
*A213
350
2A161
  3
*A214
350
2A0FD
  3
*A215
350
2A0FE
  3
*A216
350
2A0FF
  3
*A217
350
2A100
  3
*A218
350
2A101
  3
*A219
350
2A102
  3
*A22
350
2A04E
  3
*A220
350
2A103
  3
*A221
350
2A104
  3
*A222
350
2A122
  3
*A223
350
2A18C
  3
*A224
350
2A19C
  3
*A225
350
2A123
  3
*A226
350
2A162
  3
*A227
350
246AD
  3
*A228
350
2A0BE
  3
*A229
350
2A016
  3
*A23
350
2A04F
  3
*A230
350
2A124
  3
*A231
350
2A125
  3
*A232
350
2A013
  3
*A233
350
2A126
  3
*A234
350
2A127
  3
*A235
350
2A19D
  3
*A236
350
2A128
  3
*A237
350
2A06F
  3
*A238
350
2A163
  3
*A239
350
2A129
  3
*A24
350
2A192
  3
*A240
350
2A12A
  3
*A241
350
2A12B
  3
*A242
350
2A0BF
  3
*A243
350
2A12C
  3
*A244
350
2A12D
  3
*A245
350
2A106
  3
*A246
350
2A00D
  3
*A247
350
2A017
  3
*A248
350
2A12E
  3
*A249
350
2A12F
  3
*A25
350
2A050
  3
*A250
350
2A164
  3
*A251
350
2A130
  3
*A252
350
2A131
  3
*A253
350
246A7
  3
*A254
350
2A132
  3
*A255
350
2A133
  3
*A256
350
246AC
  3
*A257
350
2A07A
  3
*A258
350
2A134
  3
*A259
350
2A107
  3
*A26
350
2A051
  3
*A260
350
2A135
  3
*A261
350
2A136
  3
*A262
350
2A0C1
  3
*A263
350
2A165
  3
*A264
350
2A137
  3
*A265
350
2A018
  3
*A266
350
2A138
  3
*A267
350
2A139
  3
*A268
350
2A19E
  3
*A269
350
2A13A
  3
*A27
350
246A4
  3
*A270
350
2A070
  3
*A271
350
2A13B
  3
*A272
350
2A00C
  3
*A273
350
2A108
  3
*A274
350
2A13C
  3
*A275
350
2A0C4
  3
*A276
350
2A13D
  3
*A277
350
2A13E
  3
*A278
350
2A13F
  3
*A279
350
2A10B
  3
*A28
350
2A080
  3
*A280
350
2A140
  3
*A281
350
2A141
  3
*A282
350
2A019
  3
*A283
350
2A142
  3
*A284
350
2A143
  3
*A285
350
2A071
  3
*A286
350
2A109
  3
*A287
350
2A166
  3
*A288
350
2A0C0
  3
*A289
350
2A144
  3
*A29
350
2A157
  3
*A290
350
2A19F
  3
*A291
350
2A145
  3
*A292
350
2A146
  3
*A293
350
2A147
  3
*A294
350
2A148
  3
*A295
350
2A149
  3
*A296
350
2A14A
  3
*A297
350
2A14B
  3
*A298
350
2A01A
  3
*A299
350
2A167
  3
*A3
350
2A044
  3
*A30
350
2A052
  3
*A300
350
2A168
  3
*A301
350
2A1A0
  3
*A302
350
2A05C
  3
*A303
350
2A10D
  3
*A304
350
2A075
  3
*A305
350
2A169
  3
*A306
350
2A01D
  3
*A307
350
2A072
  3
*A308
350
2A16A
  3
*A309
350
2A16B
  3
*A31
350
2A053
  3
*A310
350
2A16C
  3
*A311
350
2A0C5
  3
*A312
350
2A1A1
  3
*A313
350
2A16D
  3
*A314
350
2A16E
  3
*A315
350
2A16F
  3
*A316
350
2A10E
  3
*A317
350
2A170
  3
*A318
350
2A171
  3
*A319
350
2A14D
  3
*A32
350
2A06D
  3
*A320
350
2A076
  3
*A321
350
2A172
  3
*A322
350
2A173
  3
*A323
350
2A1A2
  3
*A324
350
2A01E
  3
*A325
350
2A174
  3
*A326
350
2A065
  3
*A327
350
2A175
  3
*A328
350
2A176
  3
*A329
350
246A5
  3
*A33
350
2A0CF
  3
*A330
350
2A177
  3
*A331
350
2A14E
  3
*A332
350
2A178
  3
*A333
350
2A179
  3
*A334
350
2A014
  3
*A335
350
2A1A3
  3
*A336
350
2A17A
  3
*A337
350
2A077
  3
*A338
350
2A17B
  3
*A339
350
2A17C
  3
*A34
350
2A054
  3
*A340
350
2A17D
  3
*A341
350
2A0C6
  3
*A342
350
2A01F
  3
*A343
350
2A06C
  3
*A344
350
2A14F
  3
*A345
350
2A17E
  3
*A346
350
2A112
  3
*A347
350
2A17F
  3
*A348
350
2A180
  3
*A349
350
2A181
  3
*A35
350
2A152
  3
*A350
350
2A182
  3
*A351
350
2A183
  3
*A352
350
2A078
  3
*A353
350
2A184
  3
*A354
350
2A185
  3
*A355
350
2A0C7
  3
*A356
350
2A150
  3
*A357
350
2A1A4
  3
*A358
350
2A10F
  3
*A359
350
2A186
  3
*A36
350
2A055
  3
*A360
350
2A187
  3
*A361
350
246AE
  3
*A362
350
2A020
  3
*A363
350
2A188
  3
*A364
350
2A189
  3
*A365
350
2A18A
  3
*A366
350
2A18B
  3
*A367
350
2A079
  3
*A368
350
2A1A5
  3
*A369
350
2A023
  3
*A37
350
2A056
  3
*A370
350
2A0B5
  3
*A371
350
2A154
  3
*A372
350
2A0CA
  3
*A373
350
2A024
  3
*A374
350
2A07B
  3
*A375
350
2A0C8
  3
*A376
350
2A025
  3
*A377
350
2A026
  3
*A378
350
2A027
  3
*A379
350
2A113
  3
*A38
350
2A057
  3
*A380
350
2A028
  3
*A381
350
2A029
  3
*A382
350
246AF
  3
*A383
350
2A155
  3
*A384
350
2A02A
  3
*A385
350
2A02B
  3
*A386
350
2A18D
  3
*A387
350
2A0CB
  3
*A388
350
2A02C
  3
*A389
350
2A02D
  3
*A39
350
2A058
  3
*A390
350
2A07C
  3
*A391
350
2A02E
  3
*A392
350
2A0BD
  3
*A393
350
2A02F
  3
*A394
350
2A030
  3
*A395
350
2A063
  3
*A396
350
2A031
  3
*A397
350
2A18E
  3
*A398
350
2A032
  3
*A399
350
2A033
  3
*A4
350
2A073
  3
*A40
350
2A059
  3
*A400
350
246B0
  3
*A401
350
2A0CC
  3
*A402
350
2A034
  3
*A403
350
2A035
  3
*A404
350
2A036
  3
*A405
350
2A114
  3
*A406
350
2A07D
  3
*A407
350
2A0C2
  3
*A408
350
2A18F
  3
*A409
350
2A037
  3
*A41
350
2A158
  3
*A410
350
2A038
  3
*A411
350
2A039
  3
*A412
350
2A03A
  3
*A413
350
2A03B
  3
*A414
350
2A03C
  3
*A415
350
2A0CD
  3
*A416
350
2A03D
  3
*A417
350
246B1
  3
*A418
350
2A115
  3
*A419
350
2A190
  3
*A42
350
2A05A
  3
*A420
350
2A01B
  3
*A421
350
2A03E
  3
*A422
350
2A03F
  3
*A423
350
2A05D
  3
*A424
350
2A07E
  3
*A425
350
2A040
  3
*A426
350
2A041
  3
*A427
350
2A042
  3
*A428
350
2A043
  3
*A429
350
2A0CE
  3
*A43
350
2A05B
  3
*A44
350
2A081
  3
*A45
350
2A105
  3
*A46
350
2A193
  3
*A47
350
2A118
  3
*A48
350
2A082
  3
*A49
350
2A0D0
  3
*A5
350
2A116
  3
*A50
350
2A083
  3
*A51
350
246A9
  3
*A52
350
2A084
  3
*A53
350
2A159
  3
*A54
350
2A085
  3
*A55
350
2A086
  3
*A56
350
2A05E
  3
*A57
350
2A194
  3
*A58
350
2A087
  3
*A59
350
2A088
  3
*A6
350
2A045
  3
*A60
350
2A119
  3
*A61
350
2A089
  3
*A62
350
2A08A
  3
*A63
350
2A0D1
  3
*A64
350
2A08B
  3
*A65
350
2A10C
  3
*A66
350
2A08C
  3
*A67
350
2A08D
  3
*A68
350
2A0BB
  3
*A69
350
246AA
  3
*A7
350
2A046
  3
*A70
350
2A08E
  3
*A71
350
2A08F
  3
*A72
350
2A05F
  3
*A73
350
2A015
  3
*A74
350
2A090
  3
*A75
350
2A091
  3
*A76
350
2A092
  3
*A77
350
2A15A
  3
*A78
350
2A0D2
  3
*A79
350
2A110
  3
*A8
350
2A047
  3
*A80
350
2A093
  3
*A81
350
2A094
  3
*A82
350
2A095
  3
*A83
350
2A096
  3
*A84
350
2A097
  3
*A85
350
246AB
  3
*A86
350
2A11A
  3
*A87
350
2A098
  3
*A88
350
2A060
  3
*A89
350
2A15B
  3
*A9
350
246B2
  3
*A90
350
246A8
  3
*A91
350
2A099
  3
*A92
350
2A09A
  3
*A93
350
2A00B
  3
*A94
350
2A0D3
  3
*A95
350
2A09B
  3
*A96
350
2A09C
  3
*A97
350
2A09D
  3
*A98
350
2A09E
  3
*A99
350
2A11B
  3
A0
350
9C8F
  3
A1
350
244FB
  3
A2
350
244FC
  3
A3
350
244FD
  3
A4
350
244FE
  3
A5
350
244FF
  3
A6
350
24500
  3
A7
350
24501
  3
A8
350
24502
  3
A9
350
24503
  3
B0
350
24504
  3
B1
350
24505
  3
B2
350
24506
  3
B3
350
24507
  3
B4
350
24508
  3
B5
350
24509
  3
B6
350
2450A
  3
B7
350
2450B
  3
B8
350
2450C
  3
B9
350
2450D
  3
C0
350
2450E
  3
C1
350
2450F
  3
C2
350
24510
  3
C3
350
24511
  3
C4
350
24512
  3
C5
350
24513
  3
C6
350
24514
  3
C7
350
24515
  3
C8
350
24516
  3
C9
350
24517
  3
D0
350
24518
  3
D1
350
24519
  3
D2
350
2451A
  0
DICTIONARY
  5
9C8C
102
{ACAD_REACTORS
330
C
102
}
330
C
100
AcDbDictionary
281
     1
  3
Standard
350
9C8D
  0
DICTIONARY
  5
9C7A
102
{ACAD_REACTORS
330
C
102
}
330
C
100
AcDbDictionary
281
     1
  3
2dWireframe
350
9C80
  3
3D Hidden
350
9C82
  3
3dWireframe
350
9C81
  3
Basic
350
9C7F
  3
Brighten
350
9C86
  3
ColorChange
350
9C8A
  3
Conceptual
350
9C83
  3
Dim
350
9C85
  3
Facepattern
350
9C89
  3
Flat
350
9C7B
  3
FlatWithEdges
350
9C7C
  3
Gouraud
350
9C7D
  3
GouraudWithEdges
350
9C7E
  3
Linepattern
350
9C88
  3
Realistic
350
9C84
  3
Thicken
350
9C87
  0
WIPEOUTVARIABLES
  5
DD7A
102
{ACAD_REACTORS
330
C
102
}
330
C
100
AcDbWipeoutVariables
 70
     1
  0
XRECORD
  5
29E6F
102
{ACAD_REACTORS
330
C
102
}
330
C
100
AcDbXrecord
280
     1
 90
   990106
  3

 60
     0
 61
     0
 62
     4
 63
     4
 64
     1
 65
     0
 66
     0
 67
     3
 68
     1
 69
     0
 70
     0
 71
     0
 72
     0
 40
0.0
170
     2
340
29EB8
  0
XRECORD
  5
A6AF
102
{ACAD_REACTORS
330
C
102
}
330
C
100
AcDbXrecord
280
     1
 90
        1
330
9C8D
  0
DICTIONARY
  5
A6CA
102
{ACAD_REACTORS
330
C
102
}
330
C
100
AcDbDictionary
281
     1
  3
CANNOSCALE
350
A6CD
  3
CMLEADERSTYLE
350
A6CC
  3
CTABLESTYLE
350
A6CB
  3
DIMASSOC
350
A6D0
  3
INDEXCTL
350
A6CF
  3
LIGHTINGUNITS
350
2A20C
  3
MSLTSCALE
350
2A20B
  3
SORTENTS
350
A6CE
  0
XRECORD
  5
2A268
102
{ACAD_REACTORS
330
C
102
}
330
C
100
AcDbXrecord
280
     1
  1
DWGPROPS COOKIE
  2

  3

  4

  6

  7

  8
koba
  9

300
=
301
=
302
=
303
=
304
=
305
=
306
=
307
=
308
=
309
=
 40
0.6061787962962964
 41
2452888.42884919
 42
2457829.744915903
  1

 90
        0
  0
DICTIONARY
  5
247AF
102
{ACAD_REACTORS
330
6C5
102
}
330
6C5
100
AcDbDictionary
281
     1
  0
DICTIONARY
  5
6C6
102
{ACAD_REACTORS
330
6C5
102
}
330
6C5
100
AcDbDictionary
281
     1
  0
DICTIONARY
  5
247AE
102
{ACAD_REACTORS
330
6C5
102
}
330
6C5
100
AcDbDictionary
281
     1
1001
ACAD
1000
<All
  0
XRECORD
  5
9F27
102
{ACAD_REACTORS
330
9F26
102
}
330
9F26
100
AcDbXrecord
280
     1
290
     1
  0
XRECORD
  5
9F2B
102
{ACAD_REACTORS
330
9F2A
102
}
330
9F2A
100
AcDbXrecord
280
     1
290
     1
  0
XRECORD
  5
9F2D
102
{ACAD_REACTORS
330
9F2C
102
}
330
9F2C
100
AcDbXrecord
280
     1
290
     1
  0
XRECORD
  5
9F33
102
{ACAD_REACTORS
330
9F32
102
}
330
9F32
100
AcDbXrecord
280
     1
290
     1
  0
XRECORD
  5
9F35
102
{ACAD_REACTORS
330
9F34
102
}
330
9F34
100
AcDbXrecord
280
     1
290
     1
  0
SORTENTSTABLE
  5
9EA7
102
{ACAD_REACTORS
330
9EA6
102
}
330
9EA6
100
AcDbSortentsTable
330
1F
331
29985
  5
2998A
331
26972
  5
26977
331
26E99
  5
26EF1
331
2697A
  5
2697F
331
1813F
  5
1813F
331
2976F
  5
2976F
331
26982
  5
26987
331
18112
  5
18112
331
18147
  5
18147
331
2698A
  5
26991
331
18122
  5
18122
331
29797
  5
29797
331
27128
  5
2712D
331
26D5A
  5
26D5F
331
1812A
  5
1812A
331
2979F
  5
2979F
331
26F21
  5
26F42
331
29976
  5
2997B
331
26963
  5
26968
331
26D62
  5
26D70
331
18132
  5
18132
331
2997E
  5
29983
331
2696B
  5
26970
331
18357
  5
18357
331
29986
  5
2998B
331
26973
  5
26978
331
26E1A
  5
26E3E
331
18138
  5
18138
331
2697B
  5
26980
331
26E9A
  5
26EF2
331
18140
  5
18140
331
29770
  5
29770
331
26983
  5
26988
331
18113
  5
18113
331
18148
  5
18148
331
18150
  5
18150
331
1811B
  5
1811B
331
18158
  5
18158
331
26D4B
  5
26D59
331
1812B
  5
1812B
331
26D5B
  5
26D60
331
27129
  5
2712E
331
29798
  5
29798
331
18133
  5
18133
331
297A0
  5
297A0
331
26964
  5
26969
331
29977
  5
2997C
331
2997F
  5
29984
331
2696C
  5
26971
331
26F42
  5
26F47
331
18358
  5
18358
331
26974
  5
26979
331
18141
  5
18141
331
2697C
  5
26981
331
18149
  5
18149
331
18114
  5
18114
331
29771
  5
29771
331
26984
  5
26989
331
1811C
  5
1811C
331
29789
  5
29789
331
18124
  5
18124
331
26D4C
  5
26D5A
331
1812C
  5
1812C
331
26D5C
  5
26D61
331
2712A
  5
2712F
331
29799
  5
29799
331
29978
  5
2997D
331
18134
  5
18134
331
26965
  5
2696A
331
297A1
  5
297A1
331
2696D
  5
26972
331
29980
  5
29985
331
29990
  5
29979
331
1813A
  5
1813A
331
26975
  5
2697A
331
18142
  5
18142
331
24019
  5
24019
331
2976A
  5
2976A
331
2697D
  5
26982
331
1814A
  5
1814A
331
18115
  5
18115
331
29772
  5
29772
331
26985
  5
2698A
331
1811D
  5
1811D
331
18125
  5
18125
331
26D4D
  5
26D5B
331
2685E
  5
26863
331
1812D
  5
1812D
331
26D5D
  5
26D62
331
2712B
  5
27130
331
2979A
  5
2979A
331
29979
  5
2997E
331
18135
  5
18135
331
297A2
  5
297A2
331
26966
  5
2696B
331
2696E
  5
26973
331
29981
  5
29986
331
1813B
  5
1813B
331
26976
  5
2697B
331
18143
  5
18143
331
2976B
  5
2976B
331
2697E
  5
26983
331
18116
  5
18116
331
29922
  5
29922
331
26986
  5
2698D
331
1811E
  5
1811E
331
18126
  5
18126
331
2685F
  5
26864
331
26D4E
  5
26D5C
331
1812E
  5
1812E
331
2712C
  5
27131
331
26D5E
  5
26D63
331
2979B
  5
2979B
331
2997A
  5
2997F
331
18136
  5
18136
331
26F25
  5
26F46
331
26967
  5
2696C
331
297A3
  5
297A3
331
18353
  5
18353
331
297AB
  5
297AB
331
2696F
  5
26974
331
29982
  5
29987
331
1813C
  5
1813C
331
1835B
  5
1835B
331
26977
  5
2697C
331
18144
  5
18144
331
2697F
  5
26984
331
2976C
  5
2976C
331
1814C
  5
1814C
331
18117
  5
18117
331
26987
  5
2698E
331
18154
  5
18154
331
1811F
  5
1811F
331
18127
  5
18127
331
27125
  5
2712A
331
26860
  5
26865
331
26D4F
  5
26D5D
331
1812F
  5
1812F
331
2712D
  5
27132
331
26D5F
  5
26D64
331
2979C
  5
2979C
331
18137
  5
18137
331
2997B
  5
29980
331
26968
  5
2696D
331
29983
  5
29988
331
26970
  5
26975
331
1813D
  5
1813D
331
26978
  5
2697D
331
26F4E
  5
2703C
331
18145
  5
18145
331
18110
  5
18110
331
26980
  5
26985
331
2976D
  5
2976D
331
1814D
  5
1814D
331
18118
  5
18118
331
26988
  5
2698F
331
26F6E
  5
2703D
331
27126
  5
2712B
331
18128
  5
18128
331
26861
  5
26866
331
26ED7
  5
26EF3
331
29795
  5
29795
331
18130
  5
18130
331
26D60
  5
26D65
331
2712E
  5
27133
331
2979D
  5
2979D
331
2997C
  5
29981
331
26969
  5
2696E
331
18355
  5
18355
331
29984
  5
29989
331
2998C
  5
29975
331
26971
  5
26976
331
1835D
  5
1835D
331
1813E
  5
1813E
331
26979
  5
2697E
331
29915
  5
29915
331
18111
  5
18111
331
18146
  5
18146
331
26981
  5
26986
331
18119
  5
18119
331
26989
  5
26990
331
2993D
  5
2993D
331
18121
  5
18121
331
29796
  5
29796
331
26862
  5
26867
331
26D59
  5
26D5E
331
27127
  5
2712C
331
2979E
  5
2979E
331
26F20
  5
26F25
331
29975
  5
2997A
331
26962
  5
26967
331
26D61
  5
26D66
331
18131
  5
18131
331
2997D
  5
29982
331
2696A
  5
2696F
  0
XRECORD
  5
2A26B
102
{ACAD_REACTORS
330
2A269
102
}
330
2A269
100
AcDbXrecord
280
     1
 40
1.570796326794896
  0
XRECORD
  5
2A26A
102
{ACAD_REACTORS
330
2A269
102
}
330
2A269
100
AcDbXrecord
280
     1
 70
     1
  0
LAYOUT
  5
22
102
{ACAD_XDICTIONARY
360
2A26E
102
}
102
{ACAD_REACTORS
330
1A
102
}
330
1A
100
AcDbPlotSettings
  1

  2
Brother HL-2270DW series
  4
A4
  6

 40
5.027082920074462
 41
5.027085781097412
 42
5.027069091796875
 43
5.027069091796875
 44
209.9733276367187
 45
296.9259948730469
 46
0.0
 47
2.661537163997991
 48
-19.26284375907214
 49
49.0
140
1132.737156240927
141
867.0
142
1.0
143
4.091653526698181
 70
 11956
 72
     1
 73
     1
 74
     4
  7
monochrome.ctb
 75
     0
147
0.244399970201525
148
19.26284375907214
149
-49.0
100
AcDbLayout
  1
Model
 70
     1
 71
     0
 10
0.0
 20
0.0
 11
12.0
 21
9.0
 12
0.0
 22
0.0
 32
0.0
 14
0.0
 24
0.0
 34
0.0
 15
0.0
 25
0.0
 35
0.0
146
0.0
 13
0.0
 23
0.0
 33
0.0
 16
1.0
 26
0.0
 36
0.0
 17
0.0
 27
1.0
 37
0.0
 76
     0
330
1F
331
2A1FA
1001
ACAD_PSEXT
1000
Brother HL-2270DW series
1000
Brother HL-2270DW series
1000
USB002
1000

1070
     0
  0
LAYOUT
  5
1E
102
{ACAD_XDICTIONARY
360
2A26C
102
}
102
{ACAD_REACTORS
330
1A
102
}
330
1A
100
AcDbPlotSettings
  1

  2
C:\PROGRAM FILES\AUTOCAD LT 2000I\plotters\HP DesignJet 430 A3.pc3
  4

  6

 40
0.0
 41
0.0
 42
0.0
 43
0.0
 44
0.0
 45
0.0
 46
0.0
 47
0.0
 48
0.0
 49
0.0
140
0.0
141
0.0
142
1.0
143
1.0
 70
   688
 72
     0
 73
     0
 74
     5
  7
monochrome.ctb
 75
    16
147
1.0
148
0.0
149
0.0
100
AcDbLayout
  1
ﾚｲｱｳﾄ1
 70
     0
 71
     1
 10
0.0
 20
0.0
 11
420.0
 21
297.0
 12
0.0
 22
0.0
 32
0.0
 14
1.000000000000000E+20
 24
1.000000000000000E+20
 34
1.000000000000000E+20
 15
-1.000000000000000E+20
 25
-1.000000000000000E+20
 35
-1.000000000000000E+20
146
0.0
 13
0.0
 23
0.0
 33
0.0
 16
1.0
 26
0.0
 36
0.0
 17
0.0
 27
1.0
 37
0.0
 76
     0
330
1B
  0
LAYOUT
  5
26
102
{ACAD_XDICTIONARY
360
2A270
102
}
102
{ACAD_REACTORS
330
1A
102
}
330
1A
100
AcDbPlotSettings
  1

  2
C:\PROGRAM FILES\AUTOCAD LT 2000I\plotters\HP DesignJet 430 A3.pc3
  4

  6

 40
0.0
 41
0.0
 42
0.0
 43
0.0
 44
0.0
 45
0.0
 46
0.0
 47
0.0
 48
0.0
 49
0.0
140
0.0
141
0.0
142
1.0
143
1.0
 70
   688
 72
     0
 73
     0
 74
     5
  7
monochrome.ctb
 75
    16
147
1.0
148
0.0
149
0.0
100
AcDbLayout
  1
ﾚｲｱｳﾄ2
 70
     1
 71
     2
 10
0.0
 20
0.0
 11
12.0
 21
9.0
 12
0.0
 22
0.0
 32
0.0
 14
0.0
 24
0.0
 34
0.0
 15
0.0
 25
0.0
 35
0.0
146
0.0
 13
0.0
 23
0.0
 33
0.0
 16
1.0
 26
0.0
 36
0.0
 17
0.0
 27
1.0
 37
0.0
 76
     0
330
23
  0
MATERIAL
  5
9C6A
102
{ACAD_XDICTIONARY
360
9C6B
102
}
102
{ACAD_REACTORS
330
9C61
102
}
330
9C61
100
AcDbMaterial
  1
ByBlock
 72
     0
 43
0.0008202099737533
 43
0.0
 43
0.0
 43
0.0
 43
0.0
 43
0.0008202099737533
 43
0.0
 43
0.0
 43
0.0
 43
0.0
 43
1.0
 43
0.0
 43
0.0
 43
0.0
 43
0.0
 43
1.0
 77
     0
 47
0.0008202099737533
 47
0.0
 47
0.0
 47
0.0
 47
0.0
 47
0.0008202099737533
 47
0.0
 47
0.0
 47
0.0
 47
0.0
 47
1.0
 47
0.0
 47
0.0
 47
0.0
 47
0.0
 47
1.0
171
     0
 49
0.0008202099737533
 49
0.0
 49
0.0
 49
0.0
 49
0.0
 49
0.0008202099737533
 49
0.0
 49
0.0
 49
0.0
 49
0.0
 49
1.0
 49
0.0
 49
0.0
 49
0.0
 49
0.0
 49
1.0
175
     0
142
0.0008202099737533
142
0.0
142
0.0
142
0.0
142
0.0
142
0.0008202099737533
142
0.0
142
0.0
142
0.0
142
0.0
142
1.0
142
0.0
142
0.0
142
0.0
142
0.0
142
1.0
179
     0
144
0.0008202099737533
144
0.0
144
0.0
144
0.0
144
0.0
144
0.0008202099737533
144
0.0
144
0.0
144
0.0
144
0.0
144
1.0
144
0.0
144
0.0
144
0.0
144
0.0
144
1.0
147
0.0008202099737533
147
0.0
147
0.0
147
0.0
147
0.0
147
0.0008202099737533
147
0.0
147
0.0
147
0.0
147
0.0
147
1.0
147
0.0
147
0.0
147
0.0
147
0.0
147
1.0
  0
MATERIAL
  5
9C62
102
{ACAD_XDICTIONARY
360
9C63
102
}
102
{ACAD_REACTORS
330
9C61
102
}
330
9C61
100
AcDbMaterial
  1
ByLayer
 72
     0
 43
0.0008202099737533
 43
0.0
 43
0.0
 43
0.0
 43
0.0
 43
0.0008202099737533
 43
0.0
 43
0.0
 43
0.0
 43
0.0
 43
1.0
 43
0.0
 43
0.0
 43
0.0
 43
0.0
 43
1.0
 77
     0
 47
0.0008202099737533
 47
0.0
 47
0.0
 47
0.0
 47
0.0
 47
0.0008202099737533
 47
0.0
 47
0.0
 47
0.0
 47
0.0
 47
1.0
 47
0.0
 47
0.0
 47
0.0
 47
0.0
 47
1.0
171
     0
 49
0.0008202099737533
 49
0.0
 49
0.0
 49
0.0
 49
0.0
 49
0.0008202099737533
 49
0.0
 49
0.0
 49
0.0
 49
0.0
 49
1.0
 49
0.0
 49
0.0
 49
0.0
 49
0.0
 49
1.0
175
     0
142
0.0008202099737533
142
0.0
142
0.0
142
0.0
142
0.0
142
0.0008202099737533
142
0.0
142
0.0
142
0.0
142
0.0
142
1.0
142
0.0
142
0.0
142
0.0
142
0.0
142
1.0
179
     0
144
0.0008202099737533
144
0.0
144
0.0
144
0.0
144
0.0
144
0.0008202099737533
144
0.0
144
0.0
144
0.0
144
0.0
144
1.0
144
0.0
144
0.0
144
0.0
144
0.0
144
1.0
147
0.0008202099737533
147
0.0
147
0.0
147
0.0
147
0.0
147
0.0008202099737533
147
0.0
147
0.0
147
0.0
147
0.0
147
1.0
147
0.0
147
0.0
147
0.0
147
0.0
147
1.0
  0
MATERIAL
  5
9C72
102
{ACAD_XDICTIONARY
360
9C73
102
}
102
{ACAD_REACTORS
330
9C61
102
}
330
9C61
100
AcDbMaterial
  1
Global
 72
     0
 43
0.0008202099737533
 43
0.0
 43
0.0
 43
0.0
 43
0.0
 43
0.0008202099737533
 43
0.0
 43
0.0
 43
0.0
 43
0.0
 43
1.0
 43
0.0
 43
0.0
 43
0.0
 43
0.0
 43
1.0
 77
     0
 47
0.0008202099737533
 47
0.0
 47
0.0
 47
0.0
 47
0.0
 47
0.0008202099737533
 47
0.0
 47
0.0
 47
0.0
 47
0.0
 47
1.0
 47
0.0
 47
0.0
 47
0.0
 47
0.0
 47
1.0
171
     0
 49
0.0008202099737533
 49
0.0
 49
0.0
 49
0.0
 49
0.0
 49
0.0008202099737533
 49
0.0
 49
0.0
 49
0.0
 49
0.0
 49
1.0
 49
0.0
 49
0.0
 49
0.0
 49
0.0
 49
1.0
175
     0
142
0.0008202099737533
142
0.0
142
0.0
142
0.0
142
0.0
142
0.0008202099737533
142
0.0
142
0.0
142
0.0
142
0.0
142
1.0
142
0.0
142
0.0
142
0.0
142
0.0
142
1.0
179
     0
144
0.0008202099737533
144
0.0
144
0.0
144
0.0
144
0.0
144
0.0008202099737533
144
0.0
144
0.0
144
0.0
144
0.0
144
1.0
144
0.0
144
0.0
144
0.0
144
0.0
144
1.0
147
0.0008202099737533
147
0.0
147
0.0
147
0.0
147
0.0
147
0.0008202099737533
147
0.0
147
0.0
147
0.0
147
0.0
147
1.0
147
0.0
147
0.0
147
0.0
147
0.0
147
1.0
  0
MLEADERSTYLE
  5
9CB1
102
{ACAD_REACTORS
330
9CB0
102
}
330
9CB0
100
AcDbMLeaderStyle
170
     2
171
     1
172
     0
 90
        2
 40
0.0
 41
0.0
173
     1
 91
-1056964608
340
14
 92
       -2
290
     1
 42
2.0
291
     1
 43
0.36
  3
Standard
 44
4.0
300

342
11
174
     1
178
     6
175
     1
176
     0
 93
-1056964608
 45
4.0
292
     0
297
     0
 46
4.0
 94
-1056964608
 47
1.0
 49
1.0
140
1.0
293
     1
141
0.0
294
     1
177
     0
142
1.0
295
     0
296
     0
143
0.125
1001
ACAD_MLEADERVER
1070
     2
  0
MLINESTYLE
  5
18
102
{ACAD_REACTORS
330
17
102
}
330
17
100
AcDbMlineStyle
  2
STANDARD
 70
     0
  3

 62
   256
 51
90.0
 52
90.0
 71
     2
 49
0.5
 62
   256
  6
BYLAYER
 49
-0.5
 62
   256
  6
BYLAYER
  0
ACDBPLACEHOLDER
  5
F
102
{ACAD_REACTORS
330
E
102
}
330
E
  0
SCALE
  5
246A3
102
{ACAD_REACTORS
330
9C8E
102
}
330
9C8E
100
AcDbScale
 70
     0
300
1/128" = 1'-0"_XREF
140
0.0078125
141
12.0
290
     0
  0
SCALE
  5
2A048
102
{ACAD_REACTORS
330
9C8E
102
}
330
9C8E
100
AcDbScale
 70
     0
300
1:100_7
140
1.0
141
100.0
290
     0
  0
SCALE
  5
2A09F
102
{ACAD_REACTORS
330
9C8E
102
}
330
9C8E
100
AcDbScale
 70
     0
300
1:2_1_5
140
1.0
141
2.0
290
     0
  0
SCALE
  5
2A0C9
102
{ACAD_REACTORS
330
9C8E
102
}
330
9C8E
100
AcDbScale
 70
     0
300
1:5_3_5
140
1.0
141
0.005
290
     0
  0
SCALE
  5
2A15C
102
{ACAD_REACTORS
330
9C8E
102
}
330
9C8E
100
AcDbScale
 70
     0
300
1:1_8
140
1.0
141
1.0
290
     0
  0
SCALE
  5
2A0A0
102
{ACAD_REACTORS
330
9C8E
102
}
330
9C8E
100
AcDbScale
 70
     0
300
1:10_6
140
1.0
141
10.0
290
     0
  0
SCALE
  5
2A0A1
102
{ACAD_REACTORS
330
9C8E
102
}
330
9C8E
100
AcDbScale
 70
     0
300
1:2_3
140
1.0
141
2.0
290
     0
  0
SCALE
  5
2A009
102
{ACAD_REACTORS
330
9C8E
102
}
330
9C8E
100
AcDbScale
 70
     0
300
1:10_2_4
140
1.0
141
10.0
290
     0
  0
SCALE
  5
2A061
102
{ACAD_REACTORS
330
9C8E
102
}
330
9C8E
100
AcDbScale
 70
     0
300
1:50_XREF
140
1.0
141
50.0
290
     0
  0
SCALE
  5
2A0A2
102
{ACAD_REACTORS
330
9C8E
102
}
330
9C8E
100
AcDbScale
 70
     0
300
1:20_12_2
140
1.0
141
0.02
290
     0
  0
SCALE
  5
2A00E
102
{ACAD_REACTORS
330
9C8E
102
}
330
9C8E
100
AcDbScale
 70
     0
300
1:100_9_2
140
1.0
141
0.1
290
     0
  0
SCALE
  5
2A0A3
102
{ACAD_REACTORS
330
9C8E
102
}
330
9C8E
100
AcDbScale
 70
     0
300
1:1_3
140
1.0
141
1.0
290
     0
  0
SCALE
  5
2A07F
102
{ACAD_REACTORS
330
9C8E
102
}
330
9C8E
100
AcDbScale
 70
     0
300
1:5_6
140
1.0
141
5.0
290
     0
  0
SCALE
  5
2A0A4
102
{ACAD_REACTORS
330
9C8E
102
}
330
9C8E
100
AcDbScale
 70
     0
300
1/128" = 1'-0"_2
140
0.01
141
12.0
290
     0
  0
SCALE
  5
2A0A5
102
{ACAD_REACTORS
330
9C8E
102
}
330
9C8E
100
AcDbScale
 70
     0
300
1:50_11_1
140
1.0
141
50.0
290
     0
  0
SCALE
  5
2A151
102
{ACAD_REACTORS
330
9C8E
102
}
330
9C8E
100
AcDbScale
 70
     0
300
1/16" = 1'-0"_1
140
0.06
141
12.0
290
     0
  0
SCALE
  5
2A195
102
{ACAD_REACTORS
330
9C8E
102
}
330
9C8E
100
AcDbScale
 70
     0
300
1:2_10
140
1.0
141
2.0
290
     0
  0
SCALE
  5
2A064
102
{ACAD_REACTORS
330
9C8E
102
}
330
9C8E
100
AcDbScale
 70
     0
300
1:100_10_1
140
1.0
141
0.1
290
     0
  0
SCALE
  5
2A15D
102
{ACAD_REACTORS
330
9C8E
102
}
330
9C8E
100
AcDbScale
 70
     0
300
1:1_12
140
1.0
141
1.0
290
     0
  0
SCALE
  5
2A0A6
102
{ACAD_REACTORS
330
9C8E
102
}
330
9C8E
100
AcDbScale
 70
     0
300
1:100_2_1_1
140
1.0
141
100.0
290
     0
  0
SCALE
  5
2A0A7
102
{ACAD_REACTORS
330
9C8E
102
}
330
9C8E
100
AcDbScale
 70
     0
300
1:50_1_8
140
1.0
141
50.0
290
     0
  0
SCALE
  5
2A0A8
102
{ACAD_REACTORS
330
9C8E
102
}
330
9C8E
100
AcDbScale
 70
     0
300
1:100_9
140
1.0
141
100.0
290
     0
  0
SCALE
  5
2A0A9
102
{ACAD_REACTORS
330
9C8E
102
}
330
9C8E
100
AcDbScale
 70
     0
300
1:5_4_5
140
1.0
141
5.0
290
     0
  0
SCALE
  5
2A049
102
{ACAD_REACTORS
330
9C8E
102
}
330
9C8E
100
AcDbScale
 70
     0
300
1:20_2_1_2
140
1.0
141
20.0
290
     0
  0
SCALE
  5
2A0AA
102
{ACAD_REACTORS
330
9C8E
102
}
330
9C8E
100
AcDbScale
 70
     0
300
1:1_1_3
140
1.0
141
1.0
290
     0
  0
SCALE
  5
2A0AB
102
{ACAD_REACTORS
330
9C8E
102
}
330
9C8E
100
AcDbScale
 70
     0
300
1:5_12_2
140
1.0
141
0.005
290
     0
  0
SCALE
  5
2A062
102
{ACAD_REACTORS
330
9C8E
102
}
330
9C8E
100
AcDbScale
 70
     0
300
1:50_3
140
1.0
141
50.0
290
     0
  0
SCALE
  5
2A0D4
102
{ACAD_REACTORS
330
9C8E
102
}
330
9C8E
100
AcDbScale
 70
     0
300
1:50_10_1
140
1.0
141
0.05
290
     0
  0
SCALE
  5
2A196
102
{ACAD_REACTORS
330
9C8E
102
}
330
9C8E
100
AcDbScale
 70
     0
300
1:5_3_3
140
1.0
141
0.005
290
     0
  0
SCALE
  5
2A00A
102
{ACAD_REACTORS
330
9C8E
102
}
330
9C8E
100
AcDbScale
 70
     0
300
1:100_4
140
1.0
141
100.0
290
     0
  0
SCALE
  5
2A0AC
102
{ACAD_REACTORS
330
9C8E
102
}
330
9C8E
100
AcDbScale
 70
     0
300
1:1_3_5
140
1.0
141
0.001
290
     0
  0
SCALE
  5
2A0C3
102
{ACAD_REACTORS
330
9C8E
102
}
330
9C8E
100
AcDbScale
 70
     0
300
1:5_1_2
140
1.0
141
5.0
290
     0
  0
SCALE
  5
2A11C
102
{ACAD_REACTORS
330
9C8E
102
}
330
9C8E
100
AcDbScale
 70
     0
300
1:1_9
140
1.0
141
1.0
290
     0
  0
SCALE
  5
2A0AD
102
{ACAD_REACTORS
330
9C8E
102
}
330
9C8E
100
AcDbScale
 70
     0
300
3/16" = 1'-0"_1
140
0.19
141
12.0
290
     0
  0
SCALE
  5
2A021
102
{ACAD_REACTORS
330
9C8E
102
}
330
9C8E
100
AcDbScale
 70
     0
300
1:20_1_6
140
1.0
141
20.0
290
     0
  0
SCALE
  5
2A0AE
102
{ACAD_REACTORS
330
9C8E
102
}
330
9C8E
100
AcDbScale
 70
     0
300
1:5_11_2
140
1.0
141
5.0
290
     0
  0
SCALE
  5
2A0AF
102
{ACAD_REACTORS
330
9C8E
102
}
330
9C8E
100
AcDbScale
 70
     0
300
1:5_9_1
140
1.0
141
0.005
290
     0
  0
SCALE
  5
2A0B0
102
{ACAD_REACTORS
330
9C8E
102
}
330
9C8E
100
AcDbScale
 70
     0
300
1:50_1_6
140
1.0
141
50.0
290
     0
  0
SCALE
  5
2A0B1
102
{ACAD_REACTORS
330
9C8E
102
}
330
9C8E
100
AcDbScale
 70
     0
300
1:1_11_2
140
1.0
141
1.0
290
     0
  0
SCALE
  5
2A0B2
102
{ACAD_REACTORS
330
9C8E
102
}
330
9C8E
100
AcDbScale
 70
     0
300
1:100_11_3
140
1.0
141
100.0
290
     0
  0
SCALE
  5
2A197
102
{ACAD_REACTORS
330
9C8E
102
}
330
9C8E
100
AcDbScale
 70
     0
300
1:50_11_3
140
1.0
141
50.0
290
     0
  0
SCALE
  5
2A0B3
102
{ACAD_REACTORS
330
9C8E
102
}
330
9C8E
100
AcDbScale
 70
     0
300
1:50_1
140
1.0
141
0.05
290
     0
  0
SCALE
  5
2A0B4
102
{ACAD_REACTORS
330
9C8E
102
}
330
9C8E
100
AcDbScale
 70
     0
300
1:10_8_2
140
1.0
141
0.01
290
     0
  0
SCALE
  5
2A0D5
102
{ACAD_REACTORS
330
9C8E
102
}
330
9C8E
100
AcDbScale
 70
     0
300
1:1_3_1
140
1.0
141
0.001
290
     0
  0
SCALE
  5
2A14C
102
{ACAD_REACTORS
330
9C8E
102
}
330
9C8E
100
AcDbScale
 70
     0
300
1:100_1_9
140
1.0
141
100.0
290
     0
  0
SCALE
  5
2A04A
102
{ACAD_REACTORS
330
9C8E
102
}
330
9C8E
100
AcDbScale
 70
     0
300
1:10_3_3
140
1.0
141
0.01
290
     0
  0
SCALE
  5
2A15E
102
{ACAD_REACTORS
330
9C8E
102
}
330
9C8E
100
AcDbScale
 70
     0
300
1:50_8
140
1.0
141
50.0
290
     0
  0
SCALE
  5
2A0D6
102
{ACAD_REACTORS
330
9C8E
102
}
330
9C8E
100
AcDbScale
 70
     0
300
1:1_7_2
140
1.0
141
0.001
290
     0
  0
SCALE
  5
2A11D
102
{ACAD_REACTORS
330
9C8E
102
}
330
9C8E
100
AcDbScale
 70
     0
300
1:50_2_7_2
140
1.0
141
50.0
290
     0
  0
SCALE
  5
2A0D7
102
{ACAD_REACTORS
330
9C8E
102
}
330
9C8E
100
AcDbScale
 70
     0
300
1:10_11_2
140
1.0
141
0.01
290
     0
  0
SCALE
  5
2A066
102
{ACAD_REACTORS
330
9C8E
102
}
330
9C8E
100
AcDbScale
 70
     0
300
1:50_12_1
140
1.0
141
0.05
290
     0
  0
SCALE
  5
2A0D8
102
{ACAD_REACTORS
330
9C8E
102
}
330
9C8E
100
AcDbScale
 70
     0
300
3/32" = 1'-0"_1
140
0.09
141
12.0
290
     0
  0
SCALE
  5
2A198
102
{ACAD_REACTORS
330
9C8E
102
}
330
9C8E
100
AcDbScale
 70
     0
300
1:2_2_9
140
1.0
141
0.002
290
     0
  0
SCALE
  5
2A0D9
102
{ACAD_REACTORS
330
9C8E
102
}
330
9C8E
100
AcDbScale
 70
     0
300
1:20_8_1
140
1.0
141
0.02
290
     0
  0
SCALE
  5
2A0DA
102
{ACAD_REACTORS
330
9C8E
102
}
330
9C8E
100
AcDbScale
 70
     0
300
1:10_7_2
140
1.0
141
0.01
290
     0
  0
SCALE
  5
2A0B6
102
{ACAD_REACTORS
330
9C8E
102
}
330
9C8E
100
AcDbScale
 70
     0
300
1:10_1
140
1.0
141
0.01
290
     0
  0
SCALE
  5
2A04B
102
{ACAD_REACTORS
330
9C8E
102
}
330
9C8E
100
AcDbScale
 70
     0
300
1:1000_1
140
1.0
141
1000.0
290
     0
  0
SCALE
  5
2A0DB
102
{ACAD_REACTORS
330
9C8E
102
}
330
9C8E
100
AcDbScale
 70
     0
300
1:1_8_1
140
1.0
141
0.001
290
     0
  0
SCALE
  5
2A0DC
102
{ACAD_REACTORS
330
9C8E
102
}
330
9C8E
100
AcDbScale
 70
     0
300
1:20_1_4
140
1.0
141
20.0
290
     0
  0
SCALE
  5
2A15F
102
{ACAD_REACTORS
330
9C8E
102
}
330
9C8E
100
AcDbScale
 70
     0
300
1:1000_4_1
140
1.0
141
1.0
290
     0
  0
SCALE
  5
2A0DD
102
{ACAD_REACTORS
330
9C8E
102
}
330
9C8E
100
AcDbScale
 70
     0
300
1:10_13
140
1.0
141
0.01
290
     0
  0
SCALE
  5
2A00F
102
{ACAD_REACTORS
330
9C8E
102
}
330
9C8E
100
AcDbScale
 70
     0
300
1:10_1_4
140
1.0
141
10.0
290
     0
  0
SCALE
  5
2A11E
102
{ACAD_REACTORS
330
9C8E
102
}
330
9C8E
100
AcDbScale
 70
     0
300
1:20_14
140
1.0
141
0.02
290
     0
  0
SCALE
  5
2A0DE
102
{ACAD_REACTORS
330
9C8E
102
}
330
9C8E
100
AcDbScale
 70
     0
300
1:50_11_2
140
1.0
141
50.0
290
     0
  0
SCALE
  5
2A153
102
{ACAD_REACTORS
330
9C8E
102
}
330
9C8E
100
AcDbScale
 70
     0
300
1/32" = 1'-0"_1
140
0.03
141
12.0
290
     0
  0
SCALE
  5
2A0DF
102
{ACAD_REACTORS
330
9C8E
102
}
330
9C8E
100
AcDbScale
 70
     0
300
1:50_1_2
140
1.0
141
50.0
290
     0
  0
SCALE
  5
2A0E0
102
{ACAD_REACTORS
330
9C8E
102
}
330
9C8E
100
AcDbScale
 70
     0
300
1:7_XREF_XREF
140
1.0
141
7.0
290
     0
  0
SCALE
  5
2A10A
102
{ACAD_REACTORS
330
9C8E
102
}
330
9C8E
100
AcDbScale
 70
     0
300
1:50_3_2
140
1.0
141
0.05
290
     0
  0
SCALE
  5
2A067
102
{ACAD_REACTORS
330
9C8E
102
}
330
9C8E
100
AcDbScale
 70
     0
300
1:100_1_5
140
1.0
141
100.0
290
     0
  0
SCALE
  5
2A0E1
102
{ACAD_REACTORS
330
9C8E
102
}
330
9C8E
100
AcDbScale
 70
     0
300
1:10_3_5
140
1.0
141
0.01
290
     0
  0
SCALE
  5
2A0E2
102
{ACAD_REACTORS
330
9C8E
102
}
330
9C8E
100
AcDbScale
 70
     0
300
1:100_2_2
140
1.0
141
100.0
290
     0
  0
SCALE
  5
2A0B7
102
{ACAD_REACTORS
330
9C8E
102
}
330
9C8E
100
AcDbScale
 70
     0
300
1:2_1_7
140
1.0
141
2.0
290
     0
  0
SCALE
  5
2A074
102
{ACAD_REACTORS
330
9C8E
102
}
330
9C8E
100
AcDbScale
 70
     0
300
1:20_9
140
1.0
141
20.0
290
     0
  0
SCALE
  5
2A0E3
102
{ACAD_REACTORS
330
9C8E
102
}
330
9C8E
100
AcDbScale
 70
     0
300
1:20_3
140
1.0
141
20.0
290
     0
  0
SCALE
  5
2A0E4
102
{ACAD_REACTORS
330
9C8E
102
}
330
9C8E
100
AcDbScale
 70
     0
300
1:100_3
140
1.0
141
100.0
290
     0
  0
SCALE
  5
2A0E5
102
{ACAD_REACTORS
330
9C8E
102
}
330
9C8E
100
AcDbScale
 70
     0
300
1:1000_7
140
1.0
141
1.0
290
     0
  0
SCALE
  5
2A199
102
{ACAD_REACTORS
330
9C8E
102
}
330
9C8E
100
AcDbScale
 70
     0
300
1:1_1_6
140
1.0
141
1.0
290
     0
  0
SCALE
  5
2A11F
102
{ACAD_REACTORS
330
9C8E
102
}
330
9C8E
100
AcDbScale
 70
     0
300
1:2_2_4
140
1.0
141
2.0
290
     0
  0
SCALE
  5
2A156
102
{ACAD_REACTORS
330
9C8E
102
}
330
9C8E
100
AcDbScale
 70
     0
300
1:2_11_1
140
1.0
141
0.002
290
     0
  0
SCALE
  5
2A0E6
102
{ACAD_REACTORS
330
9C8E
102
}
330
9C8E
100
AcDbScale
 70
     0
300
1:1000_9
140
1.0
141
1.0
290
     0
  0
SCALE
  5
2A0E7
102
{ACAD_REACTORS
330
9C8E
102
}
330
9C8E
100
AcDbScale
 70
     0
300
1/16" = 1'-0"_2
140
0.06
141
12.0
290
     0
  0
SCALE
  5
2A010
102
{ACAD_REACTORS
330
9C8E
102
}
330
9C8E
100
AcDbScale
 70
     0
300
1:1000_2
140
1.0
141
1.0
290
     0
  0
SCALE
  5
2A0E8
102
{ACAD_REACTORS
330
9C8E
102
}
330
9C8E
100
AcDbScale
 70
     0
300
1:20_2_7
140
1.0
141
20.0
290
     0
  0
SCALE
  5
2A0E9
102
{ACAD_REACTORS
330
9C8E
102
}
330
9C8E
100
AcDbScale
 70
     0
300
1:5_1_5
140
1.0
141
5.0
290
     0
  0
SCALE
  5
2A068
102
{ACAD_REACTORS
330
9C8E
102
}
330
9C8E
100
AcDbScale
 70
     0
300
1:2_12_2
140
1.0
141
2.0
290
     0
  0
SCALE
  5
2A01C
102
{ACAD_REACTORS
330
9C8E
102
}
330
9C8E
100
AcDbScale
 70
     0
300
1:100_13
140
1.0
141
0.1
290
     0
  0
SCALE
  5
2A0EA
102
{ACAD_REACTORS
330
9C8E
102
}
330
9C8E
100
AcDbScale
 70
     0
300
1:1_11
140
1.0
141
0.001
290
     0
  0
SCALE
  5
2A0B8
102
{ACAD_REACTORS
330
9C8E
102
}
330
9C8E
100
AcDbScale
 70
     0
300
1:10_10_1
140
1.0
141
0.01
290
     0
  0
SCALE
  5
2A19A
102
{ACAD_REACTORS
330
9C8E
102
}
330
9C8E
100
AcDbScale
 70
     0
300
1:100_6
140
1.0
141
100.0
290
     0
  0
SCALE
  5
246A6
102
{ACAD_REACTORS
330
9C8E
102
}
330
9C8E
100
AcDbScale
 70
     0
300
1/4" = 1'-0"_XREF
140
0.25
141
12.0
290
     0
  0
SCALE
  5
2A0EB
102
{ACAD_REACTORS
330
9C8E
102
}
330
9C8E
100
AcDbScale
 70
     0
300
1:10_1_9
140
1.0
141
10.0
290
     0
  0
SCALE
  5
2A0EC
102
{ACAD_REACTORS
330
9C8E
102
}
330
9C8E
100
AcDbScale
 70
     0
300
1:2_10_2
140
1.0
141
0.002
290
     0
  0
SCALE
  5
2A06B
102
{ACAD_REACTORS
330
9C8E
102
}
330
9C8E
100
AcDbScale
 70
     0
300
1:2_3_3
140
1.0
141
0.002
290
     0
  0
SCALE
  5
2A120
102
{ACAD_REACTORS
330
9C8E
102
}
330
9C8E
100
AcDbScale
 70
     0
300
1:50_2_4
140
1.0
141
50.0
290
     0
  0
SCALE
  5
2A0ED
102
{ACAD_REACTORS
330
9C8E
102
}
330
9C8E
100
AcDbScale
 70
     0
300
1:10_9
140
1.0
141
10.0
290
     0
  0
SCALE
  5
2A0EE
102
{ACAD_REACTORS
330
9C8E
102
}
330
9C8E
100
AcDbScale
 70
     0
300
1:5_10_1
140
1.0
141
0.005
290
     0
  0
SCALE
  5
2A0EF
102
{ACAD_REACTORS
330
9C8E
102
}
330
9C8E
100
AcDbScale
 70
     0
300
1:10_5
140
1.0
141
10.0
290
     0
  0
SCALE
  5
2A0F0
102
{ACAD_REACTORS
330
9C8E
102
}
330
9C8E
100
AcDbScale
 70
     0
300
1:100_12_1
140
1.0
141
0.1
290
     0
  0
SCALE
  5
2A160
102
{ACAD_REACTORS
330
9C8E
102
}
330
9C8E
100
AcDbScale
 70
     0
300
1:5_1_8
140
1.0
141
5.0
290
     0
  0
SCALE
  5
2A0F1
102
{ACAD_REACTORS
330
9C8E
102
}
330
9C8E
100
AcDbScale
 70
     0
300
1:20_1_3
140
1.0
141
20.0
290
     0
  0
SCALE
  5
2A117
102
{ACAD_REACTORS
330
9C8E
102
}
330
9C8E
100
AcDbScale
 70
     0
300
1:5_4_8
140
1.0
141
0.005
290
     0
  0
SCALE
  5
2A19B
102
{ACAD_REACTORS
330
9C8E
102
}
330
9C8E
100
AcDbScale
 70
     0
300
1:1000_1_4
140
1.0
141
1.0
290
     0
  0
SCALE
  5
2A011
102
{ACAD_REACTORS
330
9C8E
102
}
330
9C8E
100
AcDbScale
 70
     0
300
1:15
140
1.0
141
15.0
290
     0
  0
SCALE
  5
2A0F2
102
{ACAD_REACTORS
330
9C8E
102
}
330
9C8E
100
AcDbScale
 70
     0
300
1:100_2_5
140
1.0
141
100.0
290
     0
  0
SCALE
  5
2A069
102
{ACAD_REACTORS
330
9C8E
102
}
330
9C8E
100
AcDbScale
 70
     0
300
1:1_11_1
140
1.0
141
1.0
290
     0
  0
SCALE
  5
2A0B9
102
{ACAD_REACTORS
330
9C8E
102
}
330
9C8E
100
AcDbScale
 70
     0
300
1:2_9_1
140
1.0
141
0.002
290
     0
  0
SCALE
  5
2A0F3
102
{ACAD_REACTORS
330
9C8E
102
}
330
9C8E
100
AcDbScale
 70
     0
300
1:50_13
140
1.0
141
0.05
290
     0
  0
SCALE
  5
2A06E
102
{ACAD_REACTORS
330
9C8E
102
}
330
9C8E
100
AcDbScale
 70
     0
300
1:1_14
140
1.0
141
0.001
290
     0
  0
SCALE
  5
2A0F4
102
{ACAD_REACTORS
330
9C8E
102
}
330
9C8E
100
AcDbScale
 70
     0
300
1:10_2_6
140
1.0
141
10.0
290
     0
  0
SCALE
  5
2A0F5
102
{ACAD_REACTORS
330
9C8E
102
}
330
9C8E
100
AcDbScale
 70
     0
300
1:10_8
140
1.0
141
10.0
290
     0
  0
SCALE
  5
2A0F6
102
{ACAD_REACTORS
330
9C8E
102
}
330
9C8E
100
AcDbScale
 70
     0
300
1:2_5
140
1.0
141
2.0
290
     0
  0
SCALE
  5
2A191
102
{ACAD_REACTORS
330
9C8E
102
}
330
9C8E
100
AcDbScale
 70
     0
300
1:10_2_1_2
140
1.0
141
10.0
290
     0
  0
SCALE
  5
2A04C
102
{ACAD_REACTORS
330
9C8E
102
}
330
9C8E
100
AcDbScale
 70
     0
300
1:10_2_5
140
1.0
141
10.0
290
     0
  0
SCALE
  5
2A0BC
102
{ACAD_REACTORS
330
9C8E
102
}
330
9C8E
100
AcDbScale
 70
     0
300
1:50_1_4
140
1.0
141
50.0
290
     0
  0
SCALE
  5
2A022
102
{ACAD_REACTORS
330
9C8E
102
}
330
9C8E
100
AcDbScale
 70
     0
300
1:20_10
140
1.0
141
20.0
290
     0
  0
SCALE
  5
2A0F7
102
{ACAD_REACTORS
330
9C8E
102
}
330
9C8E
100
AcDbScale
 70
     0
300
1:100_3_3
140
1.0
141
0.1
290
     0
  0
SCALE
  5
2A0F8
102
{ACAD_REACTORS
330
9C8E
102
}
330
9C8E
100
AcDbScale
 70
     0
300
1:20_12_1
140
1.0
141
0.02
290
     0
  0
SCALE
  5
2A0F9
102
{ACAD_REACTORS
330
9C8E
102
}
330
9C8E
100
AcDbScale
 70
     0
300
1:20_3_4
140
1.0
141
0.02
290
     0
  0
SCALE
  5
2A0FA
102
{ACAD_REACTORS
330
9C8E
102
}
330
9C8E
100
AcDbScale
 70
     0
300
1:1000_1_1
140
1.0
141
1.0
290
     0
  0
SCALE
  5
2A0FB
102
{ACAD_REACTORS
330
9C8E
102
}
330
9C8E
100
AcDbScale
 70
     0
300
1:2_2_1
140
1.0
141
2.0
290
     0
  0
SCALE
  5
2A012
102
{ACAD_REACTORS
330
9C8E
102
}
330
9C8E
100
AcDbScale
 70
     0
300
1:20_9_2
140
1.0
141
0.02
290
     0
  0
SCALE
  5
2A0BA
102
{ACAD_REACTORS
330
9C8E
102
}
330
9C8E
100
AcDbScale
 70
     0
300
1:2_2_7
140
1.0
141
2.0
290
     0
  0
SCALE
  5
2A121
102
{ACAD_REACTORS
330
9C8E
102
}
330
9C8E
100
AcDbScale
 70
     0
300
1:500000
140
1.0
141
500.0
290
     0
  0
SCALE
  5
2A04D
102
{ACAD_REACTORS
330
9C8E
102
}
330
9C8E
100
AcDbScale
 70
     0
300
1:10_7_1
140
1.0
141
0.01
290
     0
  0
SCALE
  5
2A06A
102
{ACAD_REACTORS
330
9C8E
102
}
330
9C8E
100
AcDbScale
 70
     0
300
1:2_1_8
140
1.0
141
2.0
290
     0
  0
SCALE
  5
2A0FC
102
{ACAD_REACTORS
330
9C8E
102
}
330
9C8E
100
AcDbScale
 70
     0
300
1:5_14
140
1.0
141
0.005
290
     0
  0
SCALE
  5
2A111
102
{ACAD_REACTORS
330
9C8E
102
}
330
9C8E
100
AcDbScale
 70
     0
300
1:2_8_2
140
1.0
141
0.002
290
     0
  0
SCALE
  5
2A161
102
{ACAD_REACTORS
330
9C8E
102
}
330
9C8E
100
AcDbScale
 70
     0
300
1:1000_4
140
1.0
141
1000.0
290
     0
  0
SCALE
  5
2A0FD
102
{ACAD_REACTORS
330
9C8E
102
}
330
9C8E
100
AcDbScale
 70
     0
300
1:1_8_2
140
1.0
141
0.001
290
     0
  0
SCALE
  5
2A0FE
102
{ACAD_REACTORS
330
9C8E
102
}
330
9C8E
100
AcDbScale
 70
     0
300
1:5_8_2
140
1.0
141
0.005
290
     0
  0
SCALE
  5
2A0FF
102
{ACAD_REACTORS
330
9C8E
102
}
330
9C8E
100
AcDbScale
 70
     0
300
1:20_2_1_1
140
1.0
141
20.0
290
     0
  0
SCALE
  5
2A100
102
{ACAD_REACTORS
330
9C8E
102
}
330
9C8E
100
AcDbScale
 70
     0
300
1:2_12
140
1.0
141
0.002
290
     0
  0
SCALE
  5
2A101
102
{ACAD_REACTORS
330
9C8E
102
}
330
9C8E
100
AcDbScale
 70
     0
300
1:20_3_2
140
1.0
141
0.02
290
     0
  0
SCALE
  5
2A102
102
{ACAD_REACTORS
330
9C8E
102
}
330
9C8E
100
AcDbScale
 70
     0
300
1:50_2_7
140
1.0
141
0.05
290
     0
  0
SCALE
  5
2A04E
102
{ACAD_REACTORS
330
9C8E
102
}
330
9C8E
100
AcDbScale
 70
     0
300
1:100_3_2
140
1.0
141
0.1
290
     0
  0
SCALE
  5
2A103
102
{ACAD_REACTORS
330
9C8E
102
}
330
9C8E
100
AcDbScale
 70
     0
300
1:20_2_4
140
1.0
141
20.0
290
     0
  0
SCALE
  5
2A104
102
{ACAD_REACTORS
330
9C8E
102
}
330
9C8E
100
AcDbScale
 70
     0
300
1:100_1_4
140
1.0
141
100.0
290
     0
  0
SCALE
  5
2A122
102
{ACAD_REACTORS
330
9C8E
102
}
330
9C8E
100
AcDbScale
 70
     0
300
1:1_1_9
140
1.0
141
1.0
290
     0
  0
SCALE
  5
2A18C
102
{ACAD_REACTORS
330
9C8E
102
}
330
9C8E
100
AcDbScale
 70
     0
300
1:100_2_1
140
1.0
141
0.1
290
     0
  0
SCALE
  5
2A19C
102
{ACAD_REACTORS
330
9C8E
102
}
330
9C8E
100
AcDbScale
 70
     0
300
1:50_10_2
140
1.0
141
0.05
290
     0
  0
SCALE
  5
2A123
102
{ACAD_REACTORS
330
9C8E
102
}
330
9C8E
100
AcDbScale
 70
     0
300
1:10_3_1
140
1.0
141
0.01
290
     0
  0
SCALE
  5
2A162
102
{ACAD_REACTORS
330
9C8E
102
}
330
9C8E
100
AcDbScale
 70
     0
300
1:100_2_4
140
1.0
141
100.0
290
     0
  0
SCALE
  5
246AD
102
{ACAD_REACTORS
330
9C8E
102
}
330
9C8E
100
AcDbScale
 70
     0
300
6" = 1'-0"_XREF
140
6.0
141
12.0
290
     0
  0
SCALE
  5
2A0BE
102
{ACAD_REACTORS
330
9C8E
102
}
330
9C8E
100
AcDbScale
 70
     0
300
3/8" = 1'-0"_2
140
0.38
141
12.0
290
     0
  0
SCALE
  5
2A016
102
{ACAD_REACTORS
330
9C8E
102
}
330
9C8E
100
AcDbScale
 70
     0
300
1:50_9_2
140
1.0
141
0.05
290
     0
  0
SCALE
  5
2A04F
102
{ACAD_REACTORS
330
9C8E
102
}
330
9C8E
100
AcDbScale
 70
     0
300
1:20_3_3
140
1.0
141
0.02
290
     0
  0
SCALE
  5
2A124
102
{ACAD_REACTORS
330
9C8E
102
}
330
9C8E
100
AcDbScale
 70
     0
300
1:3_XREF
140
1.0
141
3.0
290
     0
  0
SCALE
  5
2A125
102
{ACAD_REACTORS
330
9C8E
102
}
330
9C8E
100
AcDbScale
 70
     0
300
1:1_11_3
140
1.0
141
1.0
290
     0
  0
SCALE
  5
2A013
102
{ACAD_REACTORS
330
9C8E
102
}
330
9C8E
100
AcDbScale
 70
     0
300
1:100_2_7
140
1.0
141
100.0
290
     0
  0
SCALE
  5
2A126
102
{ACAD_REACTORS
330
9C8E
102
}
330
9C8E
100
AcDbScale
 70
     0
300
1:50_2_5
140
1.0
141
50.0
290
     0
  0
SCALE
  5
2A127
102
{ACAD_REACTORS
330
9C8E
102
}
330
9C8E
100
AcDbScale
 70
     0
300
1:20_8
140
1.0
141
20.0
290
     0
  0
SCALE
  5
2A19D
102
{ACAD_REACTORS
330
9C8E
102
}
330
9C8E
100
AcDbScale
 70
     0
300
1:5_7
140
1.0
141
5.0
290
     0
  0
SCALE
  5
2A128
102
{ACAD_REACTORS
330
9C8E
102
}
330
9C8E
100
AcDbScale
 70
     0
300
1:16_XREF
140
1.0
141
16.0
290
     0
  0
SCALE
  5
2A06F
102
{ACAD_REACTORS
330
9C8E
102
}
330
9C8E
100
AcDbScale
 70
     0
300
1:1_3_4
140
1.0
141
0.001
290
     0
  0
SCALE
  5
2A163
102
{ACAD_REACTORS
330
9C8E
102
}
330
9C8E
100
AcDbScale
 70
     0
300
1:5_12
140
1.0
141
5.0
290
     0
  0
SCALE
  5
2A129
102
{ACAD_REACTORS
330
9C8E
102
}
330
9C8E
100
AcDbScale
 70
     0
300
1:50_2_6
140
1.0
141
50.0
290
     0
  0
SCALE
  5
2A192
102
{ACAD_REACTORS
330
9C8E
102
}
330
9C8E
100
AcDbScale
 70
     0
300
1:2_1_3
140
1.0
141
2.0
290
     0
  0
SCALE
  5
2A12A
102
{ACAD_REACTORS
330
9C8E
102
}
330
9C8E
100
AcDbScale
 70
     0
300
1:100_1_8
140
1.0
141
100.0
290
     0
  0
SCALE
  5
2A12B
102
{ACAD_REACTORS
330
9C8E
102
}
330
9C8E
100
AcDbScale
 70
     0
300
1/32" = 1'-0"_2
140
0.03
141
12.0
290
     0
  0
SCALE
  5
2A0BF
102
{ACAD_REACTORS
330
9C8E
102
}
330
9C8E
100
AcDbScale
 70
     0
300
1:20_2_3
140
1.0
141
20.0
290
     0
  0
SCALE
  5
2A12C
102
{ACAD_REACTORS
330
9C8E
102
}
330
9C8E
100
AcDbScale
 70
     0
300
1:30_XREF
140
1.0
141
30.0
290
     0
  0
SCALE
  5
2A12D
102
{ACAD_REACTORS
330
9C8E
102
}
330
9C8E
100
AcDbScale
 70
     0
300
1:150
140
1.0
141
150.0
290
     0
  0
SCALE
  5
2A106
102
{ACAD_REACTORS
330
9C8E
102
}
330
9C8E
100
AcDbScale
 70
     0
300
1:5_4_1_1
140
1.0
141
5.0
290
     0
  0
SCALE
  5
2A00D
102
{ACAD_REACTORS
330
9C8E
102
}
330
9C8E
100
AcDbScale
 70
     0
300
1:10_11_1
140
1.0
141
0.01
290
     0
  0
SCALE
  5
2A017
102
{ACAD_REACTORS
330
9C8E
102
}
330
9C8E
100
AcDbScale
 70
     0
300
1/64" = 1'-0"_2
140
0.02
141
12.0
290
     0
  0
SCALE
  5
2A12E
102
{ACAD_REACTORS
330
9C8E
102
}
330
9C8E
100
AcDbScale
 70
     0
300
1:100_7_2
140
1.0
141
0.1
290
     0
  0
SCALE
  5
2A12F
102
{ACAD_REACTORS
330
9C8E
102
}
330
9C8E
100
AcDbScale
 70
     0
300
1:8_XREF
140
1.0
141
8.0
290
     0
  0
SCALE
  5
2A050
102
{ACAD_REACTORS
330
9C8E
102
}
330
9C8E
100
AcDbScale
 70
     0
300
1:1000_5_1_1_1
140
1.0
141
1.0
290
     0
  0
SCALE
  5
2A164
102
{ACAD_REACTORS
330
9C8E
102
}
330
9C8E
100
AcDbScale
 70
     0
300
1:100_3_1
140
1.0
141
0.1
290
     0
  0
SCALE
  5
2A130
102
{ACAD_REACTORS
330
9C8E
102
}
330
9C8E
100
AcDbScale
 70
     0
300
1:5_11_3
140
1.0
141
5.0
290
     0
  0
SCALE
  5
2A131
102
{ACAD_REACTORS
330
9C8E
102
}
330
9C8E
100
AcDbScale
 70
     0
300
1:100_7_1
140
1.0
141
0.1
290
     0
  0
SCALE
  5
246A7
102
{ACAD_REACTORS
330
9C8E
102
}
330
9C8E
100
AcDbScale
 70
     0
300
3/8" = 1'-0"_XREF
140
0.375
141
12.0
290
     0
  0
SCALE
  5
2A132
102
{ACAD_REACTORS
330
9C8E
102
}
330
9C8E
100
AcDbScale
 70
     0
300
1:2_1_2
140
1.0
141
2.0
290
     0
  0
SCALE
  5
2A133
102
{ACAD_REACTORS
330
9C8E
102
}
330
9C8E
100
AcDbScale
 70
     0
300
1:2_12_1
140
1.0
141
2.0
290
     0
  0
SCALE
  5
246AC
102
{ACAD_REACTORS
330
9C8E
102
}
330
9C8E
100
AcDbScale
 70
     0
300
3" = 1'-0"_XREF
140
3.0
141
12.0
290
     0
  0
SCALE
  5
2A07A
102
{ACAD_REACTORS
330
9C8E
102
}
330
9C8E
100
AcDbScale
 70
     0
300
1:50_2_7_1
140
1.0
141
50.0
290
     0
  0
SCALE
  5
2A134
102
{ACAD_REACTORS
330
9C8E
102
}
330
9C8E
100
AcDbScale
 70
     0
300
1:1_12_1
140
1.0
141
0.001
290
     0
  0
SCALE
  5
2A107
102
{ACAD_REACTORS
330
9C8E
102
}
330
9C8E
100
AcDbScale
 70
     0
300
1:10_11
140
1.0
141
10.0
290
     0
  0
SCALE
  5
2A051
102
{ACAD_REACTORS
330
9C8E
102
}
330
9C8E
100
AcDbScale
 70
     0
300
1:50_1_1
140
1.0
141
50.0
290
     0
  0
SCALE
  5
2A135
102
{ACAD_REACTORS
330
9C8E
102
}
330
9C8E
100
AcDbScale
 70
     0
300
1:2_7_2
140
1.0
141
0.002
290
     0
  0
SCALE
  5
2A136
102
{ACAD_REACTORS
330
9C8E
102
}
330
9C8E
100
AcDbScale
 70
     0
300
1:5_4_1
140
1.0
141
0.005
290
     0
  0
SCALE
  5
2A0C1
102
{ACAD_REACTORS
330
9C8E
102
}
330
9C8E
100
AcDbScale
 70
     0
300
2:1_XREF
140
2.0
141
1.0
290
     0
  0
SCALE
  5
2A165
102
{ACAD_REACTORS
330
9C8E
102
}
330
9C8E
100
AcDbScale
 70
     0
300
1:2_7_1
140
1.0
141
0.002
290
     0
  0
SCALE
  5
2A137
102
{ACAD_REACTORS
330
9C8E
102
}
330
9C8E
100
AcDbScale
 70
     0
300
1:10_12_2
140
1.0
141
10.0
290
     0
  0
SCALE
  5
2A018
102
{ACAD_REACTORS
330
9C8E
102
}
330
9C8E
100
AcDbScale
 70
     0
300
1:10_2_1
140
1.0
141
0.01
290
     0
  0
SCALE
  5
2A138
102
{ACAD_REACTORS
330
9C8E
102
}
330
9C8E
100
AcDbScale
 70
     0
300
1:2_3_2
140
1.0
141
0.002
290
     0
  0
SCALE
  5
2A139
102
{ACAD_REACTORS
330
9C8E
102
}
330
9C8E
100
AcDbScale
 70
     0
300
1:10_2_2
140
1.0
141
10.0
290
     0
  0
SCALE
  5
2A19E
102
{ACAD_REACTORS
330
9C8E
102
}
330
9C8E
100
AcDbScale
 70
     0
300
1:2_14
140
1.0
141
0.002
290
     0
  0
SCALE
  5
2A13A
102
{ACAD_REACTORS
330
9C8E
102
}
330
9C8E
100
AcDbScale
 70
     0
300
1:2_9_2
140
1.0
141
0.002
290
     0
  0
SCALE
  5
246A4
102
{ACAD_REACTORS
330
9C8E
102
}
330
9C8E
100
AcDbScale
 70
     0
300
1/8" = 1'-0"_XREF
140
0.125
141
12.0
290
     0
  0
SCALE
  5
2A070
102
{ACAD_REACTORS
330
9C8E
102
}
330
9C8E
100
AcDbScale
 70
     0
300
1:50_5
140
1.0
141
50.0
290
     0
  0
SCALE
  5
2A13B
102
{ACAD_REACTORS
330
9C8E
102
}
330
9C8E
100
AcDbScale
 70
     0
300
1:5_8_1
140
1.0
141
0.005
290
     0
  0
SCALE
  5
2A00C
102
{ACAD_REACTORS
330
9C8E
102
}
330
9C8E
100
AcDbScale
 70
     0
300
1:100_2_8
140
1.0
141
0.1
290
     0
  0
SCALE
  5
2A108
102
{ACAD_REACTORS
330
9C8E
102
}
330
9C8E
100
AcDbScale
 70
     0
300
1:50_9
140
1.0
141
50.0
290
     0
  0
SCALE
  5
2A13C
102
{ACAD_REACTORS
330
9C8E
102
}
330
9C8E
100
AcDbScale
 70
     0
300
1:20_1_8
140
1.0
141
20.0
290
     0
  0
SCALE
  5
2A0C4
102
{ACAD_REACTORS
330
9C8E
102
}
330
9C8E
100
AcDbScale
 70
     0
300
1:1000_11
140
1.0
141
1.0
290
     0
  0
SCALE
  5
2A13D
102
{ACAD_REACTORS
330
9C8E
102
}
330
9C8E
100
AcDbScale
 70
     0
300
1:50_3_3
140
1.0
141
0.05
290
     0
  0
SCALE
  5
2A13E
102
{ACAD_REACTORS
330
9C8E
102
}
330
9C8E
100
AcDbScale
 70
     0
300
1:1_1_2
140
1.0
141
1.0
290
     0
  0
SCALE
  5
2A13F
102
{ACAD_REACTORS
330
9C8E
102
}
330
9C8E
100
AcDbScale
 70
     0
300
1:5_4
140
1.0
141
5.0
290
     0
  0
SCALE
  5
2A10B
102
{ACAD_REACTORS
330
9C8E
102
}
330
9C8E
100
AcDbScale
 70
     0
300
1:5_8
140
1.0
141
5.0
290
     0
  0
SCALE
  5
2A080
102
{ACAD_REACTORS
330
9C8E
102
}
330
9C8E
100
AcDbScale
 70
     0
300
1:5_3_1
140
1.0
141
0.005
290
     0
  0
SCALE
  5
2A140
102
{ACAD_REACTORS
330
9C8E
102
}
330
9C8E
100
AcDbScale
 70
     0
300
1:2_11
140
1.0
141
2.0
290
     0
  0
SCALE
  5
2A141
102
{ACAD_REACTORS
330
9C8E
102
}
330
9C8E
100
AcDbScale
 70
     0
300
1:1000_1_2
140
1.0
141
1.0
290
     0
  0
SCALE
  5
2A019
102
{ACAD_REACTORS
330
9C8E
102
}
330
9C8E
100
AcDbScale
 70
     0
300
1:100_1_3
140
1.0
141
100.0
290
     0
  0
SCALE
  5
2A142
102
{ACAD_REACTORS
330
9C8E
102
}
330
9C8E
100
AcDbScale
 70
     0
300
1:10_9_1
140
1.0
141
0.01
290
     0
  0
SCALE
  5
2A143
102
{ACAD_REACTORS
330
9C8E
102
}
330
9C8E
100
AcDbScale
 70
     0
300
1:1000_1_6
140
1.0
141
1.0
290
     0
  0
SCALE
  5
2A071
102
{ACAD_REACTORS
330
9C8E
102
}
330
9C8E
100
AcDbScale
 70
     0
300
1:20_4
140
1.0
141
20.0
290
     0
  0
SCALE
  5
2A109
102
{ACAD_REACTORS
330
9C8E
102
}
330
9C8E
100
AcDbScale
 70
     0
300
1:7_XREF
140
1.0
141
7.0
290
     0
  0
SCALE
  5
2A166
102
{ACAD_REACTORS
330
9C8E
102
}
330
9C8E
100
AcDbScale
 70
     0
300
1:10_1_8
140
1.0
141
10.0
290
     0
  0
SCALE
  5
2A0C0
102
{ACAD_REACTORS
330
9C8E
102
}
330
9C8E
100
AcDbScale
 70
     0
300
1:20_2_6
140
1.0
141
20.0
290
     0
  0
SCALE
  5
2A144
102
{ACAD_REACTORS
330
9C8E
102
}
330
9C8E
100
AcDbScale
 70
     0
300
1:20_2_5
140
1.0
141
20.0
290
     0
  0
SCALE
  5
2A157
102
{ACAD_REACTORS
330
9C8E
102
}
330
9C8E
100
AcDbScale
 70
     0
300
1:50_2_8
140
1.0
141
0.05
290
     0
  0
SCALE
  5
2A19F
102
{ACAD_REACTORS
330
9C8E
102
}
330
9C8E
100
AcDbScale
 70
     0
300
1:20_12
140
1.0
141
20.0
290
     0
  0
SCALE
  5
2A145
102
{ACAD_REACTORS
330
9C8E
102
}
330
9C8E
100
AcDbScale
 70
     0
300
1:2_1
140
1.0
141
0.002
290
     0
  0
SCALE
  5
2A146
102
{ACAD_REACTORS
330
9C8E
102
}
330
9C8E
100
AcDbScale
 70
     0
300
1:50_6
140
1.0
141
50.0
290
     0
  0
SCALE
  5
2A147
102
{ACAD_REACTORS
330
9C8E
102
}
330
9C8E
100
AcDbScale
 70
     0
300
1/8" = 1'-0"_2
140
0.13
141
12.0
290
     0
  0
SCALE
  5
2A148
102
{ACAD_REACTORS
330
9C8E
102
}
330
9C8E
100
AcDbScale
 70
     0
300
1:50_2_1
140
1.0
141
50.0
290
     0
  0
SCALE
  5
2A149
102
{ACAD_REACTORS
330
9C8E
102
}
330
9C8E
100
AcDbScale
 70
     0
300
1:20_1_7
140
1.0
141
20.0
290
     0
  0
SCALE
  5
2A14A
102
{ACAD_REACTORS
330
9C8E
102
}
330
9C8E
100
AcDbScale
 70
     0
300
1:10_2_3
140
1.0
141
10.0
290
     0
  0
SCALE
  5
2A14B
102
{ACAD_REACTORS
330
9C8E
102
}
330
9C8E
100
AcDbScale
 70
     0
300
1:50_7_1
140
1.0
141
0.05
290
     0
  0
SCALE
  5
2A01A
102
{ACAD_REACTORS
330
9C8E
102
}
330
9C8E
100
AcDbScale
 70
     0
300
1:2_1_1
140
1.0
141
2.0
290
     0
  0
SCALE
  5
2A167
102
{ACAD_REACTORS
330
9C8E
102
}
330
9C8E
100
AcDbScale
 70
     0
300
1:10_8_1
140
1.0
141
0.01
290
     0
  0
SCALE
  5
2A044
102
{ACAD_REACTORS
330
9C8E
102
}
330
9C8E
100
AcDbScale
 70
     0
300
1:1_5
140
1.0
141
1.0
290
     0
  0
SCALE
  5
2A052
102
{ACAD_REACTORS
330
9C8E
102
}
330
9C8E
100
AcDbScale
 70
     0
300
1:100_11_1
140
1.0
141
100.0
290
     0
  0
SCALE
  5
2A168
102
{ACAD_REACTORS
330
9C8E
102
}
330
9C8E
100
AcDbScale
 70
     0
300
1:5_1_3
140
1.0
141
5.0
290
     0
  0
SCALE
  5
2A1A0
102
{ACAD_REACTORS
330
9C8E
102
}
330
9C8E
100
AcDbScale
 70
     0
300
1:100_3_4
140
1.0
141
0.1
290
     0
  0
SCALE
  5
2A05C
102
{ACAD_REACTORS
330
9C8E
102
}
330
9C8E
100
AcDbScale
 70
     0
300
1:1_1_1
140
1.0
141
1.0
290
     0
  0
SCALE
  5
2A10D
102
{ACAD_REACTORS
330
9C8E
102
}
330
9C8E
100
AcDbScale
 70
     0
300
1:10_1_3
140
1.0
141
10.0
290
     0
  0
SCALE
  5
2A075
102
{ACAD_REACTORS
330
9C8E
102
}
330
9C8E
100
AcDbScale
 70
     0
300
1:2_6
140
1.0
141
2.0
290
     0
  0
SCALE
  5
2A169
102
{ACAD_REACTORS
330
9C8E
102
}
330
9C8E
100
AcDbScale
 70
     0
300
1:1000_1_3
140
1.0
141
1.0
290
     0
  0
SCALE
  5
2A01D
102
{ACAD_REACTORS
330
9C8E
102
}
330
9C8E
100
AcDbScale
 70
     0
300
1:1_1_4
140
1.0
141
1.0
290
     0
  0
SCALE
  5
2A072
102
{ACAD_REACTORS
330
9C8E
102
}
330
9C8E
100
AcDbScale
 70
     0
300
1:100_5
140
1.0
141
100.0
290
     0
  0
SCALE
  5
2A16A
102
{ACAD_REACTORS
330
9C8E
102
}
330
9C8E
100
AcDbScale
 70
     0
300
1:1_10_1
140
1.0
141
0.001
290
     0
  0
SCALE
  5
2A16B
102
{ACAD_REACTORS
330
9C8E
102
}
330
9C8E
100
AcDbScale
 70
     0
300
1:1000_10
140
1.0
141
1.0
290
     0
  0
SCALE
  5
2A053
102
{ACAD_REACTORS
330
9C8E
102
}
330
9C8E
100
AcDbScale
 70
     0
300
1:20_6
140
1.0
141
20.0
290
     0
  0
SCALE
  5
2A16C
102
{ACAD_REACTORS
330
9C8E
102
}
330
9C8E
100
AcDbScale
 70
     0
300
1:100_2_6
140
1.0
141
100.0
290
     0
  0
SCALE
  5
2A0C5
102
{ACAD_REACTORS
330
9C8E
102
}
330
9C8E
100
AcDbScale
 70
     0
300
1:20_11_2
140
1.0
141
20.0
290
     0
  0
SCALE
  5
2A1A1
102
{ACAD_REACTORS
330
9C8E
102
}
330
9C8E
100
AcDbScale
 70
     0
300
1:500
140
1.0
141
500.0
290
     0
  0
SCALE
  5
2A16D
102
{ACAD_REACTORS
330
9C8E
102
}
330
9C8E
100
AcDbScale
 70
     0
300
1:100_9_1
140
1.0
141
0.1
290
     0
  0
SCALE
  5
2A16E
102
{ACAD_REACTORS
330
9C8E
102
}
330
9C8E
100
AcDbScale
 70
     0
300
1/8" = 1'-0"_1
140
0.13
141
12.0
290
     0
  0
SCALE
  5
2A16F
102
{ACAD_REACTORS
330
9C8E
102
}
330
9C8E
100
AcDbScale
 70
     0
300
1:10_3_2
140
1.0
141
0.01
290
     0
  0
SCALE
  5
2A10E
102
{ACAD_REACTORS
330
9C8E
102
}
330
9C8E
100
AcDbScale
 70
     0
300
1:10_10_2
140
1.0
141
0.01
290
     0
  0
SCALE
  5
2A170
102
{ACAD_REACTORS
330
9C8E
102
}
330
9C8E
100
AcDbScale
 70
     0
300
1:100_2
140
1.0
141
100.0
290
     0
  0
SCALE
  5
2A171
102
{ACAD_REACTORS
330
9C8E
102
}
330
9C8E
100
AcDbScale
 70
     0
300
1:20_5
140
1.0
141
20.0
290
     0
  0
SCALE
  5
2A14D
102
{ACAD_REACTORS
330
9C8E
102
}
330
9C8E
100
AcDbScale
 70
     0
300
1:5_1_9
140
1.0
141
5.0
290
     0
  0
SCALE
  5
2A06D
102
{ACAD_REACTORS
330
9C8E
102
}
330
9C8E
100
AcDbScale
 70
     0
300
1:20_10_2
140
1.0
141
0.02
290
     0
  0
SCALE
  5
2A076
102
{ACAD_REACTORS
330
9C8E
102
}
330
9C8E
100
AcDbScale
 70
     0
300
1:50_4
140
1.0
141
50.0
290
     0
  0
SCALE
  5
2A172
102
{ACAD_REACTORS
330
9C8E
102
}
330
9C8E
100
AcDbScale
 70
     0
300
1:2_12_3
140
1.0
141
2.0
290
     0
  0
SCALE
  5
2A173
102
{ACAD_REACTORS
330
9C8E
102
}
330
9C8E
100
AcDbScale
 70
     0
300
1:50_7
140
1.0
141
50.0
290
     0
  0
SCALE
  5
2A1A2
102
{ACAD_REACTORS
330
9C8E
102
}
330
9C8E
100
AcDbScale
 70
     0
300
1:2_2_6
140
1.0
141
2.0
290
     0
  0
SCALE
  5
2A01E
102
{ACAD_REACTORS
330
9C8E
102
}
330
9C8E
100
AcDbScale
 70
     0
300
1:1_10_2
140
1.0
141
0.001
290
     0
  0
SCALE
  5
2A174
102
{ACAD_REACTORS
330
9C8E
102
}
330
9C8E
100
AcDbScale
 70
     0
300
1:20_XREF
140
1.0
141
20.0
290
     0
  0
SCALE
  5
2A065
102
{ACAD_REACTORS
330
9C8E
102
}
330
9C8E
100
AcDbScale
 70
     0
300
1/64" = 1'-0"_1
140
0.02
141
12.0
290
     0
  0
SCALE
  5
2A175
102
{ACAD_REACTORS
330
9C8E
102
}
330
9C8E
100
AcDbScale
 70
     0
300
1:1000_1_5
140
1.0
141
1.0
290
     0
  0
SCALE
  5
2A176
102
{ACAD_REACTORS
330
9C8E
102
}
330
9C8E
100
AcDbScale
 70
     0
300
1:10_3_4
140
1.0
141
0.01
290
     0
  0
SCALE
  5
246A5
102
{ACAD_REACTORS
330
9C8E
102
}
330
9C8E
100
AcDbScale
 70
     0
300
3/16" = 1'-0"_XREF
140
0.1875
141
12.0
290
     0
  0
SCALE
  5
2A0CF
102
{ACAD_REACTORS
330
9C8E
102
}
330
9C8E
100
AcDbScale
 70
     0
300
1:100_1
140
1.0
141
0.1
290
     0
  0
SCALE
  5
2A177
102
{ACAD_REACTORS
330
9C8E
102
}
330
9C8E
100
AcDbScale
 70
     0
300
1:5_1
140
1.0
141
0.005
290
     0
  0
SCALE
  5
2A14E
102
{ACAD_REACTORS
330
9C8E
102
}
330
9C8E
100
AcDbScale
 70
     0
300
1:50_8_1
140
1.0
141
0.05
290
     0
  0
SCALE
  5
2A178
102
{ACAD_REACTORS
330
9C8E
102
}
330
9C8E
100
AcDbScale
 70
     0
300
1:20_10_1
140
1.0
141
0.02
290
     0
  0
SCALE
  5
2A179
102
{ACAD_REACTORS
330
9C8E
102
}
330
9C8E
100
AcDbScale
 70
     0
300
1:5_2
140
1.0
141
5.0
290
     0
  0
SCALE
  5
2A014
102
{ACAD_REACTORS
330
9C8E
102
}
330
9C8E
100
AcDbScale
 70
     0
300
1:1000_12
140
1.0
141
1000.0
290
     0
  0
SCALE
  5
2A1A3
102
{ACAD_REACTORS
330
9C8E
102
}
330
9C8E
100
AcDbScale
 70
     0
300
1:100_12_2
140
1.0
141
0.1
290
     0
  0
SCALE
  5
2A17A
102
{ACAD_REACTORS
330
9C8E
102
}
330
9C8E
100
AcDbScale
 70
     0
300
1:200
140
1.0
141
200.0
290
     0
  0
SCALE
  5
2A077
102
{ACAD_REACTORS
330
9C8E
102
}
330
9C8E
100
AcDbScale
 70
     0
300
1:10_9_2
140
1.0
141
0.01
290
     0
  0
SCALE
  5
2A17B
102
{ACAD_REACTORS
330
9C8E
102
}
330
9C8E
100
AcDbScale
 70
     0
300
1:5_4_7
140
1.0
141
5.0
290
     0
  0
SCALE
  5
2A17C
102
{ACAD_REACTORS
330
9C8E
102
}
330
9C8E
100
AcDbScale
 70
     0
300
1:5_12_1
140
1.0
141
0.005
290
     0
  0
SCALE
  5
2A054
102
{ACAD_REACTORS
330
9C8E
102
}
330
9C8E
100
AcDbScale
 70
     0
300
1:50_2_2
140
1.0
141
50.0
290
     0
  0
SCALE
  5
2A17D
102
{ACAD_REACTORS
330
9C8E
102
}
330
9C8E
100
AcDbScale
 70
     0
300
1:50_14
140
1.0
141
0.05
290
     0
  0
SCALE
  5
2A0C6
102
{ACAD_REACTORS
330
9C8E
102
}
330
9C8E
100
AcDbScale
 70
     0
300
1:2_7
140
1.0
141
2.0
290
     0
  0
SCALE
  5
2A01F
102
{ACAD_REACTORS
330
9C8E
102
}
330
9C8E
100
AcDbScale
 70
     0
300
1:20_1_9
140
1.0
141
20.0
290
     0
  0
SCALE
  5
2A06C
102
{ACAD_REACTORS
330
9C8E
102
}
330
9C8E
100
AcDbScale
 70
     0
300
1:20_3_5
140
1.0
141
0.02
290
     0
  0
SCALE
  5
2A14F
102
{ACAD_REACTORS
330
9C8E
102
}
330
9C8E
100
AcDbScale
 70
     0
300
1:10_2_1_1
140
1.0
141
10.0
290
     0
  0
SCALE
  5
2A17E
102
{ACAD_REACTORS
330
9C8E
102
}
330
9C8E
100
AcDbScale
 70
     0
300
1:2_1_4
140
1.0
141
2.0
290
     0
  0
SCALE
  5
2A112
102
{ACAD_REACTORS
330
9C8E
102
}
330
9C8E
100
AcDbScale
 70
     0
300
1:5_1_6
140
1.0
141
5.0
290
     0
  0
SCALE
  5
2A17F
102
{ACAD_REACTORS
330
9C8E
102
}
330
9C8E
100
AcDbScale
 70
     0
300
1:50_10
140
1.0
141
50.0
290
     0
  0
SCALE
  5
2A180
102
{ACAD_REACTORS
330
9C8E
102
}
330
9C8E
100
AcDbScale
 70
     0
300
1:5_4_6
140
1.0
141
5.0
290
     0
  0
SCALE
  5
2A181
102
{ACAD_REACTORS
330
9C8E
102
}
330
9C8E
100
AcDbScale
 70
     0
300
1:100_3_5
140
1.0
141
0.1
290
     0
  0
SCALE
  5
2A152
102
{ACAD_REACTORS
330
9C8E
102
}
330
9C8E
100
AcDbScale
 70
     0
300
1:20_2_1
140
1.0
141
0.02
290
     0
  0
SCALE
  5
2A182
102
{ACAD_REACTORS
330
9C8E
102
}
330
9C8E
100
AcDbScale
 70
     0
300
1:10_12
140
1.0
141
0.01
290
     0
  0
SCALE
  5
2A183
102
{ACAD_REACTORS
330
9C8E
102
}
330
9C8E
100
AcDbScale
 70
     0
300
1:10_14
140
1.0
141
0.01
290
     0
  0
SCALE
  5
2A078
102
{ACAD_REACTORS
330
9C8E
102
}
330
9C8E
100
AcDbScale
 70
     0
300
1:100_14
140
1.0
141
0.1
290
     0
  0
SCALE
  5
2A184
102
{ACAD_REACTORS
330
9C8E
102
}
330
9C8E
100
AcDbScale
 70
     0
300
1:5_7_2
140
1.0
141
0.005
290
     0
  0
SCALE
  5
2A185
102
{ACAD_REACTORS
330
9C8E
102
}
330
9C8E
100
AcDbScale
 70
     0
300
1:5_9_2
140
1.0
141
0.005
290
     0
  0
SCALE
  5
2A0C7
102
{ACAD_REACTORS
330
9C8E
102
}
330
9C8E
100
AcDbScale
 70
     0
300
1:50_2_3
140
1.0
141
50.0
290
     0
  0
SCALE
  5
2A150
102
{ACAD_REACTORS
330
9C8E
102
}
330
9C8E
100
AcDbScale
 70
     0
300
1:10_1_6
140
1.0
141
10.0
290
     0
  0
SCALE
  5
2A1A4
102
{ACAD_REACTORS
330
9C8E
102
}
330
9C8E
100
AcDbScale
 70
     0
300
1:1000_6
140
1.0
141
1.0
290
     0
  0
SCALE
  5
2A10F
102
{ACAD_REACTORS
330
9C8E
102
}
330
9C8E
100
AcDbScale
 70
     0
300
1:1_2
140
1.0
141
1.0
290
     0
  0
SCALE
  5
2A186
102
{ACAD_REACTORS
330
9C8E
102
}
330
9C8E
100
AcDbScale
 70
     0
300
1:5_1_1
140
1.0
141
5.0
290
     0
  0
SCALE
  5
2A055
102
{ACAD_REACTORS
330
9C8E
102
}
330
9C8E
100
AcDbScale
 70
     0
300
1:20_2_2
140
1.0
141
20.0
290
     0
  0
SCALE
  5
2A187
102
{ACAD_REACTORS
330
9C8E
102
}
330
9C8E
100
AcDbScale
 70
     0
300
1:50_9_1
140
1.0
141
0.05
290
     0
  0
SCALE
  5
246AE
102
{ACAD_REACTORS
330
9C8E
102
}
330
9C8E
100
AcDbScale
 70
     0
300
1'-0" = 1'-0"_XREF
140
12.0
141
12.0
290
     0
  0
SCALE
  5
2A020
102
{ACAD_REACTORS
330
9C8E
102
}
330
9C8E
100
AcDbScale
 70
     0
300
1:5_10_2
140
1.0
141
0.005
290
     0
  0
SCALE
  5
2A188
102
{ACAD_REACTORS
330
9C8E
102
}
330
9C8E
100
AcDbScale
 70
     0
300
1:100_11
140
1.0
141
0.1
290
     0
  0
SCALE
  5
2A189
102
{ACAD_REACTORS
330
9C8E
102
}
330
9C8E
100
AcDbScale
 70
     0
300
1:100_1_7
140
1.0
141
100.0
290
     0
  0
SCALE
  5
2A18A
102
{ACAD_REACTORS
330
9C8E
102
}
330
9C8E
100
AcDbScale
 70
     0
300
1:5_3
140
1.0
141
5.0
290
     0
  0
SCALE
  5
2A18B
102
{ACAD_REACTORS
330
9C8E
102
}
330
9C8E
100
AcDbScale
 70
     0
300
1:1_1_7
140
1.0
141
1.0
290
     0
  0
SCALE
  5
2A079
102
{ACAD_REACTORS
330
9C8E
102
}
330
9C8E
100
AcDbScale
 70
     0
300
1:5_5
140
1.0
141
5.0
290
     0
  0
SCALE
  5
2A1A5
102
{ACAD_REACTORS
330
9C8E
102
}
330
9C8E
100
AcDbScale
 70
     0
300
1:2_9
140
1.0
141
2.0
290
     0
  0
SCALE
  5
2A023
102
{ACAD_REACTORS
330
9C8E
102
}
330
9C8E
100
AcDbScale
 70
     0
300
1:10_1_5
140
1.0
141
10.0
290
     0
  0
SCALE
  5
2A056
102
{ACAD_REACTORS
330
9C8E
102
}
330
9C8E
100
AcDbScale
 70
     0
300
1:20_1
140
1.0
141
0.02
290
     0
  0
SCALE
  5
2A0B5
102
{ACAD_REACTORS
330
9C8E
102
}
330
9C8E
100
AcDbScale
 70
     0
300
10:1_XREF
140
10.0
141
1.0
290
     0
  0
SCALE
  5
2A154
102
{ACAD_REACTORS
330
9C8E
102
}
330
9C8E
100
AcDbScale
 70
     0
300
1:1_7_1
140
1.0
141
0.001
290
     0
  0
SCALE
  5
2A0CA
102
{ACAD_REACTORS
330
9C8E
102
}
330
9C8E
100
AcDbScale
 70
     0
300
1:1_3_2
140
1.0
141
0.001
290
     0
  0
SCALE
  5
2A024
102
{ACAD_REACTORS
330
9C8E
102
}
330
9C8E
100
AcDbScale
 70
     0
300
1:20_1_1
140
1.0
141
20.0
290
     0
  0
SCALE
  5
2A07B
102
{ACAD_REACTORS
330
9C8E
102
}
330
9C8E
100
AcDbScale
 70
     0
300
1:1_9_1
140
1.0
141
0.001
290
     0
  0
SCALE
  5
2A0C8
102
{ACAD_REACTORS
330
9C8E
102
}
330
9C8E
100
AcDbScale
 70
     0
300
1:100_2_3
140
1.0
141
100.0
290
     0
  0
SCALE
  5
2A025
102
{ACAD_REACTORS
330
9C8E
102
}
330
9C8E
100
AcDbScale
 70
     0
300
1:1_4
140
1.0
141
1.0
290
     0
  0
SCALE
  5
2A026
102
{ACAD_REACTORS
330
9C8E
102
}
330
9C8E
100
AcDbScale
 70
     0
300
1:10_7
140
1.0
141
10.0
290
     0
  0
SCALE
  5
2A027
102
{ACAD_REACTORS
330
9C8E
102
}
330
9C8E
100
AcDbScale
 70
     0
300
1:20_2_8
140
1.0
141
0.02
290
     0
  0
SCALE
  5
2A113
102
{ACAD_REACTORS
330
9C8E
102
}
330
9C8E
100
AcDbScale
 70
     0
300
1:20_2
140
1.0
141
20.0
290
     0
  0
SCALE
  5
2A057
102
{ACAD_REACTORS
330
9C8E
102
}
330
9C8E
100
AcDbScale
 70
     0
300
1:1_6
140
1.0
141
1.0
290
     0
  0
SCALE
  5
2A028
102
{ACAD_REACTORS
330
9C8E
102
}
330
9C8E
100
AcDbScale
 70
     0
300
1:2_4
140
1.0
141
2.0
290
     0
  0
SCALE
  5
2A029
102
{ACAD_REACTORS
330
9C8E
102
}
330
9C8E
100
AcDbScale
 70
     0
300
1:10_1_7
140
1.0
141
10.0
290
     0
  0
SCALE
  5
246AF
102
{ACAD_REACTORS
330
9C8E
102
}
330
9C8E
100
AcDbScale
 70
     0
300
1/64" = 1'-0"_XREF
140
0.015625
141
12.0
290
     0
  0
SCALE
  5
2A155
102
{ACAD_REACTORS
330
9C8E
102
}
330
9C8E
100
AcDbScale
 70
     0
300
1:2_2_2
140
1.0
141
2.0
290
     0
  0
SCALE
  5
2A02A
102
{ACAD_REACTORS
330
9C8E
102
}
330
9C8E
100
AcDbScale
 70
     0
300
1:5_7_1
140
1.0
141
0.005
290
     0
  0
SCALE
  5
2A02B
102
{ACAD_REACTORS
330
9C8E
102
}
330
9C8E
100
AcDbScale
 70
     0
300
1:50_12
140
1.0
141
50.0
290
     0
  0
SCALE
  5
2A18D
102
{ACAD_REACTORS
330
9C8E
102
}
330
9C8E
100
AcDbScale
 70
     0
300
1:3
140
1.0
141
3.0
290
     0
  0
SCALE
  5
2A0CB
102
{ACAD_REACTORS
330
9C8E
102
}
330
9C8E
100
AcDbScale
 70
     0
300
3/16" = 1'-0"_2
140
0.19
141
12.0
290
     0
  0
SCALE
  5
2A02C
102
{ACAD_REACTORS
330
9C8E
102
}
330
9C8E
100
AcDbScale
 70
     0
300
1:100_10
140
1.0
141
100.0
290
     0
  0
SCALE
  5
2A02D
102
{ACAD_REACTORS
330
9C8E
102
}
330
9C8E
100
AcDbScale
 70
     0
300
1:100_1_6
140
1.0
141
100.0
290
     0
  0
SCALE
  5
2A058
102
{ACAD_REACTORS
330
9C8E
102
}
330
9C8E
100
AcDbScale
 70
     0
300
3/32" = 1'-0"_2
140
0.09
141
12.0
290
     0
  0
SCALE
  5
2A07C
102
{ACAD_REACTORS
330
9C8E
102
}
330
9C8E
100
AcDbScale
 70
     0
300
1:1000_5
140
1.0
141
1000.0
290
     0
  0
SCALE
  5
2A02E
102
{ACAD_REACTORS
330
9C8E
102
}
330
9C8E
100
AcDbScale
 70
     0
300
1:5_11
140
1.0
141
0.005
290
     0
  0
SCALE
  5
2A0BD
102
{ACAD_REACTORS
330
9C8E
102
}
330
9C8E
100
AcDbScale
 70
     0
300
1:5_4_3
140
1.0
141
5.0
290
     0
  0
SCALE
  5
2A02F
102
{ACAD_REACTORS
330
9C8E
102
}
330
9C8E
100
AcDbScale
 70
     0
300
1:300
140
1.0
141
300.0
290
     0
  0
SCALE
  5
2A030
102
{ACAD_REACTORS
330
9C8E
102
}
330
9C8E
100
AcDbScale
 70
     0
300
1:2_3_1
140
1.0
141
0.002
290
     0
  0
SCALE
  5
2A063
102
{ACAD_REACTORS
330
9C8E
102
}
330
9C8E
100
AcDbScale
 70
     0
300
1:1000_3
140
1.0
141
1.0
290
     0
  0
SCALE
  5
2A031
102
{ACAD_REACTORS
330
9C8E
102
}
330
9C8E
100
AcDbScale
 70
     0
300
1:5_4_1_2
140
1.0
141
5.0
290
     0
  0
SCALE
  5
2A18E
102
{ACAD_REACTORS
330
9C8E
102
}
330
9C8E
100
AcDbScale
 70
     0
300
1:5_3_2
140
1.0
141
0.005
290
     0
  0
SCALE
  5
2A032
102
{ACAD_REACTORS
330
9C8E
102
}
330
9C8E
100
AcDbScale
 70
     0
300
1:50_1_7
140
1.0
141
50.0
290
     0
  0
SCALE
  5
2A033
102
{ACAD_REACTORS
330
9C8E
102
}
330
9C8E
100
AcDbScale
 70
     0
300
1:2_8
140
1.0
141
2.0
290
     0
  0
SCALE
  5
2A073
102
{ACAD_REACTORS
330
9C8E
102
}
330
9C8E
100
AcDbScale
 70
     0
300
1:10_2
140
1.0
141
10.0
290
     0
  0
SCALE
  5
2A059
102
{ACAD_REACTORS
330
9C8E
102
}
330
9C8E
100
AcDbScale
 70
     0
300
1:1_1
140
1.0
141
0.001
290
     0
  0
SCALE
  5
246B0
102
{ACAD_REACTORS
330
9C8E
102
}
330
9C8E
100
AcDbScale
 70
     0
300
1/32" = 1'-0"_XREF
140
0.03125
141
12.0
290
     0
  0
SCALE
  5
2A0CC
102
{ACAD_REACTORS
330
9C8E
102
}
330
9C8E
100
AcDbScale
 70
     0
300
1:20_11
140
1.0
141
0.02
290
     0
  0
SCALE
  5
2A034
102
{ACAD_REACTORS
330
9C8E
102
}
330
9C8E
100
AcDbScale
 70
     0
300
1:50_11
140
1.0
141
0.05
290
     0
  0
SCALE
  5
2A035
102
{ACAD_REACTORS
330
9C8E
102
}
330
9C8E
100
AcDbScale
 70
     0
300
1:40_XREF
140
1.0
141
40.0
290
     0
  0
SCALE
  5
2A036
102
{ACAD_REACTORS
330
9C8E
102
}
330
9C8E
100
AcDbScale
 70
     0
300
1:1000_5_1_1
140
1.0
141
1000.0
290
     0
  0
SCALE
  5
2A114
102
{ACAD_REACTORS
330
9C8E
102
}
330
9C8E
100
AcDbScale
 70
     0
300
1:100_8_2
140
1.0
141
0.1
290
     0
  0
SCALE
  5
2A07D
102
{ACAD_REACTORS
330
9C8E
102
}
330
9C8E
100
AcDbScale
 70
     0
300
1:5_10
140
1.0
141
5.0
290
     0
  0
SCALE
  5
2A0C2
102
{ACAD_REACTORS
330
9C8E
102
}
330
9C8E
100
AcDbScale
 70
     0
300
1:2_11_2
140
1.0
141
0.002
290
     0
  0
SCALE
  5
2A18F
102
{ACAD_REACTORS
330
9C8E
102
}
330
9C8E
100
AcDbScale
 70
     0
300
1:1000_5_1
140
1.0
141
1.0
290
     0
  0
SCALE
  5
2A037
102
{ACAD_REACTORS
330
9C8E
102
}
330
9C8E
100
AcDbScale
 70
     0
300
1:5_11_1
140
1.0
141
5.0
290
     0
  0
SCALE
  5
2A158
102
{ACAD_REACTORS
330
9C8E
102
}
330
9C8E
100
AcDbScale
 70
     0
300
1:1_10
140
1.0
141
1.0
290
     0
  0
SCALE
  5
2A038
102
{ACAD_REACTORS
330
9C8E
102
}
330
9C8E
100
AcDbScale
 70
     0
300
1:4_XREF
140
1.0
141
4.0
290
     0
  0
SCALE
  5
2A039
102
{ACAD_REACTORS
330
9C8E
102
}
330
9C8E
100
AcDbScale
 70
     0
300
1:1_3_3
140
1.0
141
0.001
290
     0
  0
SCALE
  5
2A03A
102
{ACAD_REACTORS
330
9C8E
102
}
330
9C8E
100
AcDbScale
 70
     0
300
1:10_12_3
140
1.0
141
10.0
290
     0
  0
SCALE
  5
2A03B
102
{ACAD_REACTORS
330
9C8E
102
}
330
9C8E
100
AcDbScale
 70
     0
300
1:1_1_5
140
1.0
141
1.0
290
     0
  0
SCALE
  5
2A03C
102
{ACAD_REACTORS
330
9C8E
102
}
330
9C8E
100
AcDbScale
 70
     0
300
1:5_1_4
140
1.0
141
5.0
290
     0
  0
SCALE
  5
2A0CD
102
{ACAD_REACTORS
330
9C8E
102
}
330
9C8E
100
AcDbScale
 70
     0
300
1:5_3_4
140
1.0
141
0.005
290
     0
  0
SCALE
  5
2A03D
102
{ACAD_REACTORS
330
9C8E
102
}
330
9C8E
100
AcDbScale
 70
     0
300
1:100_1_2
140
1.0
141
100.0
290
     0
  0
SCALE
  5
246B1
102
{ACAD_REACTORS
330
9C8E
102
}
330
9C8E
100
AcDbScale
 70
     0
300
1/16" = 1'-0"_XREF
140
0.0625
141
12.0
290
     0
  0
SCALE
  5
2A115
102
{ACAD_REACTORS
330
9C8E
102
}
330
9C8E
100
AcDbScale
 70
     0
300
1:400
140
1.0
141
400.0
290
     0
  0
SCALE
  5
2A190
102
{ACAD_REACTORS
330
9C8E
102
}
330
9C8E
100
AcDbScale
 70
     0
300
1:2_2_3
140
1.0
141
2.0
290
     0
  0
SCALE
  5
2A05A
102
{ACAD_REACTORS
330
9C8E
102
}
330
9C8E
100
AcDbScale
 70
     0
300
1:20_7_2
140
1.0
141
0.02
290
     0
  0
SCALE
  5
2A01B
102
{ACAD_REACTORS
330
9C8E
102
}
330
9C8E
100
AcDbScale
 70
     0
300
1:50_3_1
140
1.0
141
0.05
290
     0
  0
SCALE
  5
2A03E
102
{ACAD_REACTORS
330
9C8E
102
}
330
9C8E
100
AcDbScale
 70
     0
300
4:1_XREF
140
4.0
141
1.0
290
     0
  0
SCALE
  5
2A03F
102
{ACAD_REACTORS
330
9C8E
102
}
330
9C8E
100
AcDbScale
 70
     0
300
1:50_1_9
140
1.0
141
50.0
290
     0
  0
SCALE
  5
2A05D
102
{ACAD_REACTORS
330
9C8E
102
}
330
9C8E
100
AcDbScale
 70
     0
300
1:5_9
140
1.0
141
5.0
290
     0
  0
SCALE
  5
2A07E
102
{ACAD_REACTORS
330
9C8E
102
}
330
9C8E
100
AcDbScale
 70
     0
300
1:1_12_2
140
1.0
141
0.001
290
     0
  0
SCALE
  5
2A040
102
{ACAD_REACTORS
330
9C8E
102
}
330
9C8E
100
AcDbScale
 70
     0
300
1:6
140
1.0
141
6.0
290
     0
  0
SCALE
  5
2A041
102
{ACAD_REACTORS
330
9C8E
102
}
330
9C8E
100
AcDbScale
 70
     0
300
1:5_13
140
1.0
141
0.005
290
     0
  0
SCALE
  5
2A042
102
{ACAD_REACTORS
330
9C8E
102
}
330
9C8E
100
AcDbScale
 70
     0
300
1:10_XREF
140
1.0
141
10.0
290
     0
  0
SCALE
  5
2A043
102
{ACAD_REACTORS
330
9C8E
102
}
330
9C8E
100
AcDbScale
 70
     0
300
1:2_10_1
140
1.0
141
0.002
290
     0
  0
SCALE
  5
2A0CE
102
{ACAD_REACTORS
330
9C8E
102
}
330
9C8E
100
AcDbScale
 70
     0
300
1:20_9_1
140
1.0
141
0.02
290
     0
  0
SCALE
  5
2A05B
102
{ACAD_REACTORS
330
9C8E
102
}
330
9C8E
100
AcDbScale
 70
     0
300
1:2_1_9
140
1.0
141
2.0
290
     0
  0
SCALE
  5
2A081
102
{ACAD_REACTORS
330
9C8E
102
}
330
9C8E
100
AcDbScale
 70
     0
300
1:100_12
140
1.0
141
100.0
290
     0
  0
SCALE
  5
2A105
102
{ACAD_REACTORS
330
9C8E
102
}
330
9C8E
100
AcDbScale
 70
     0
300
1:2_1_6
140
1.0
141
2.0
290
     0
  0
SCALE
  5
2A193
102
{ACAD_REACTORS
330
9C8E
102
}
330
9C8E
100
AcDbScale
 70
     0
300
100:1_XREF
140
100.0
141
1.0
290
     0
  0
SCALE
  5
2A118
102
{ACAD_REACTORS
330
9C8E
102
}
330
9C8E
100
AcDbScale
 70
     0
300
1:20_13
140
1.0
141
0.02
290
     0
  0
SCALE
  5
2A082
102
{ACAD_REACTORS
330
9C8E
102
}
330
9C8E
100
AcDbScale
 70
     0
300
1:1000_8
140
1.0
141
1.0
290
     0
  0
SCALE
  5
2A0D0
102
{ACAD_REACTORS
330
9C8E
102
}
330
9C8E
100
AcDbScale
 70
     0
300
1:20_1_5
140
1.0
141
20.0
290
     0
  0
SCALE
  5
2A116
102
{ACAD_REACTORS
330
9C8E
102
}
330
9C8E
100
AcDbScale
 70
     0
300
1:50_3_5
140
1.0
141
0.05
290
     0
  0
SCALE
  5
2A083
102
{ACAD_REACTORS
330
9C8E
102
}
330
9C8E
100
AcDbScale
 70
     0
300
1:2_2_8
140
1.0
141
0.002
290
     0
  0
SCALE
  5
246A9
102
{ACAD_REACTORS
330
9C8E
102
}
330
9C8E
100
AcDbScale
 70
     0
300
3/4" = 1'-0"_XREF
140
0.75
141
12.0
290
     0
  0
SCALE
  5
2A084
102
{ACAD_REACTORS
330
9C8E
102
}
330
9C8E
100
AcDbScale
 70
     0
300
1:50_7_2
140
1.0
141
0.05
290
     0
  0
SCALE
  5
2A159
102
{ACAD_REACTORS
330
9C8E
102
}
330
9C8E
100
AcDbScale
 70
     0
300
1:2_3_5
140
1.0
141
0.002
290
     0
  0
SCALE
  5
2A085
102
{ACAD_REACTORS
330
9C8E
102
}
330
9C8E
100
AcDbScale
 70
     0
300
1:50_1_3
140
1.0
141
50.0
290
     0
  0
SCALE
  5
2A086
102
{ACAD_REACTORS
330
9C8E
102
}
330
9C8E
100
AcDbScale
 70
     0
300
1:100_2_1_2
140
1.0
141
100.0
290
     0
  0
SCALE
  5
2A05E
102
{ACAD_REACTORS
330
9C8E
102
}
330
9C8E
100
AcDbScale
 70
     0
300
1:20_11_1
140
1.0
141
20.0
290
     0
  0
SCALE
  5
2A194
102
{ACAD_REACTORS
330
9C8E
102
}
330
9C8E
100
AcDbScale
 70
     0
300
1:2_2_5
140
1.0
141
2.0
290
     0
  0
SCALE
  5
2A087
102
{ACAD_REACTORS
330
9C8E
102
}
330
9C8E
100
AcDbScale
 70
     0
300
1:5_4_4
140
1.0
141
5.0
290
     0
  0
SCALE
  5
2A088
102
{ACAD_REACTORS
330
9C8E
102
}
330
9C8E
100
AcDbScale
 70
     0
300
1:5_1_7
140
1.0
141
5.0
290
     0
  0
SCALE
  5
2A045
102
{ACAD_REACTORS
330
9C8E
102
}
330
9C8E
100
AcDbScale
 70
     0
300
1:100_10_2
140
1.0
141
0.1
290
     0
  0
SCALE
  5
2A119
102
{ACAD_REACTORS
330
9C8E
102
}
330
9C8E
100
AcDbScale
 70
     0
300
1:7
140
1.0
141
7.0
290
     0
  0
SCALE
  5
2A089
102
{ACAD_REACTORS
330
9C8E
102
}
330
9C8E
100
AcDbScale
 70
     0
300
1:50_8_2
140
1.0
141
0.05
290
     0
  0
SCALE
  5
2A08A
102
{ACAD_REACTORS
330
9C8E
102
}
330
9C8E
100
AcDbScale
 70
     0
300
1:1_9_2
140
1.0
141
0.001
290
     0
  0
SCALE
  5
2A0D1
102
{ACAD_REACTORS
330
9C8E
102
}
330
9C8E
100
AcDbScale
 70
     0
300
1:2_13
140
1.0
141
0.002
290
     0
  0
SCALE
  5
2A08B
102
{ACAD_REACTORS
330
9C8E
102
}
330
9C8E
100
AcDbScale
 70
     0
300
1:50_12_2
140
1.0
141
0.05
290
     0
  0
SCALE
  5
2A10C
102
{ACAD_REACTORS
330
9C8E
102
}
330
9C8E
100
AcDbScale
 70
     0
300
1:10_4
140
1.0
141
10.0
290
     0
  0
SCALE
  5
2A08C
102
{ACAD_REACTORS
330
9C8E
102
}
330
9C8E
100
AcDbScale
 70
     0
300
3/8" = 1'-0"_1
140
0.38
141
12.0
290
     0
  0
SCALE
  5
2A08D
102
{ACAD_REACTORS
330
9C8E
102
}
330
9C8E
100
AcDbScale
 70
     0
300
1:100_1_1
140
1.0
141
100.0
290
     0
  0
SCALE
  5
2A0BB
102
{ACAD_REACTORS
330
9C8E
102
}
330
9C8E
100
AcDbScale
 70
     0
300
1:1000
140
1.0
141
1000.0
290
     0
  0
SCALE
  5
246AA
102
{ACAD_REACTORS
330
9C8E
102
}
330
9C8E
100
AcDbScale
 70
     0
300
1" = 1'-0"_XREF
140
1.0
141
12.0
290
     0
  0
SCALE
  5
2A046
102
{ACAD_REACTORS
330
9C8E
102
}
330
9C8E
100
AcDbScale
 70
     0
300
1:1_7
140
1.0
141
1.0
290
     0
  0
SCALE
  5
2A08E
102
{ACAD_REACTORS
330
9C8E
102
}
330
9C8E
100
AcDbScale
 70
     0
300
1:2_2
140
1.0
141
2.0
290
     0
  0
SCALE
  5
2A08F
102
{ACAD_REACTORS
330
9C8E
102
}
330
9C8E
100
AcDbScale
 70
     0
300
1:100_8
140
1.0
141
100.0
290
     0
  0
SCALE
  5
2A05F
102
{ACAD_REACTORS
330
9C8E
102
}
330
9C8E
100
AcDbScale
 70
     0
300
1:10_1_1
140
1.0
141
10.0
290
     0
  0
SCALE
  5
2A015
102
{ACAD_REACTORS
330
9C8E
102
}
330
9C8E
100
AcDbScale
 70
     0
300
1:10_2_8
140
1.0
141
0.01
290
     0
  0
SCALE
  5
2A090
102
{ACAD_REACTORS
330
9C8E
102
}
330
9C8E
100
AcDbScale
 70
     0
300
1:50_1_5
140
1.0
141
50.0
290
     0
  0
SCALE
  5
2A091
102
{ACAD_REACTORS
330
9C8E
102
}
330
9C8E
100
AcDbScale
 70
     0
300
1:10_10
140
1.0
141
10.0
290
     0
  0
SCALE
  5
2A092
102
{ACAD_REACTORS
330
9C8E
102
}
330
9C8E
100
AcDbScale
 70
     0
300
1:10_3
140
1.0
141
10.0
290
     0
  0
SCALE
  5
2A15A
102
{ACAD_REACTORS
330
9C8E
102
}
330
9C8E
100
AcDbScale
 70
     0
300
1:5_4_2
140
1.0
141
5.0
290
     0
  0
SCALE
  5
2A0D2
102
{ACAD_REACTORS
330
9C8E
102
}
330
9C8E
100
AcDbScale
 70
     0
300
1:10_1_2
140
1.0
141
10.0
290
     0
  0
SCALE
  5
2A110
102
{ACAD_REACTORS
330
9C8E
102
}
330
9C8E
100
AcDbScale
 70
     0
300
1:20_8_2
140
1.0
141
0.02
290
     0
  0
SCALE
  5
2A047
102
{ACAD_REACTORS
330
9C8E
102
}
330
9C8E
100
AcDbScale
 70
     0
300
1:100_8_1
140
1.0
141
0.1
290
     0
  0
SCALE
  5
2A093
102
{ACAD_REACTORS
330
9C8E
102
}
330
9C8E
100
AcDbScale
 70
     0
300
1:1_13
140
1.0
141
0.001
290
     0
  0
SCALE
  5
2A094
102
{ACAD_REACTORS
330
9C8E
102
}
330
9C8E
100
AcDbScale
 70
     0
300
1/128" = 1'-0"_1
140
0.01
141
12.0
290
     0
  0
SCALE
  5
2A095
102
{ACAD_REACTORS
330
9C8E
102
}
330
9C8E
100
AcDbScale
 70
     0
300
1:100_XREF
140
1.0
141
100.0
290
     0
  0
SCALE
  5
2A096
102
{ACAD_REACTORS
330
9C8E
102
}
330
9C8E
100
AcDbScale
 70
     0
300
1:3_XREF_XREF
140
1.0
141
3.0
290
     0
  0
SCALE
  5
2A097
102
{ACAD_REACTORS
330
9C8E
102
}
330
9C8E
100
AcDbScale
 70
     0
300
1:1_1_8
140
1.0
141
1.0
290
     0
  0
SCALE
  5
246AB
102
{ACAD_REACTORS
330
9C8E
102
}
330
9C8E
100
AcDbScale
 70
     0
300
1-1/2" = 1'-0"_XREF
140
1.5
141
12.0
290
     0
  0
SCALE
  5
2A11A
102
{ACAD_REACTORS
330
9C8E
102
}
330
9C8E
100
AcDbScale
 70
     0
300
1:20_11_3
140
1.0
141
20.0
290
     0
  0
SCALE
  5
2A098
102
{ACAD_REACTORS
330
9C8E
102
}
330
9C8E
100
AcDbScale
 70
     0
300
1:50_3_4
140
1.0
141
0.05
290
     0
  0
SCALE
  5
2A060
102
{ACAD_REACTORS
330
9C8E
102
}
330
9C8E
100
AcDbScale
 70
     0
300
1:20_7
140
1.0
141
20.0
290
     0
  0
SCALE
  5
2A15B
102
{ACAD_REACTORS
330
9C8E
102
}
330
9C8E
100
AcDbScale
 70
     0
300
1:2_8_1
140
1.0
141
0.002
290
     0
  0
SCALE
  5
246B2
102
{ACAD_REACTORS
330
9C8E
102
}
330
9C8E
100
AcDbScale
 70
     0
300
3/32" = 1'-0"_XREF
140
0.09375
141
12.0
290
     0
  0
SCALE
  5
246A8
102
{ACAD_REACTORS
330
9C8E
102
}
330
9C8E
100
AcDbScale
 70
     0
300
1/2" = 1'-0"_XREF
140
0.5
141
12.0
290
     0
  0
SCALE
  5
2A099
102
{ACAD_REACTORS
330
9C8E
102
}
330
9C8E
100
AcDbScale
 70
     0
300
1:20_7_1
140
1.0
141
0.02
290
     0
  0
SCALE
  5
2A09A
102
{ACAD_REACTORS
330
9C8E
102
}
330
9C8E
100
AcDbScale
 70
     0
300
8:1_XREF
140
8.0
141
1.0
290
     0
  0
SCALE
  5
2A00B
102
{ACAD_REACTORS
330
9C8E
102
}
330
9C8E
100
AcDbScale
 70
     0
300
1:10_2_7
140
1.0
141
10.0
290
     0
  0
SCALE
  5
2A0D3
102
{ACAD_REACTORS
330
9C8E
102
}
330
9C8E
100
AcDbScale
 70
     0
300
1:100_11_2
140
1.0
141
100.0
290
     0
  0
SCALE
  5
2A09B
102
{ACAD_REACTORS
330
9C8E
102
}
330
9C8E
100
AcDbScale
 70
     0
300
1:20_1_2
140
1.0
141
20.0
290
     0
  0
SCALE
  5
2A09C
102
{ACAD_REACTORS
330
9C8E
102
}
330
9C8E
100
AcDbScale
 70
     0
300
1:10_12_1
140
1.0
141
10.0
290
     0
  0
SCALE
  5
2A09D
102
{ACAD_REACTORS
330
9C8E
102
}
330
9C8E
100
AcDbScale
 70
     0
300
1:50_2
140
1.0
141
50.0
290
     0
  0
SCALE
  5
2A09E
102
{ACAD_REACTORS
330
9C8E
102
}
330
9C8E
100
AcDbScale
 70
     0
300
1:20_3_1
140
1.0
141
0.02
290
     0
  0
SCALE
  5
2A11B
102
{ACAD_REACTORS
330
9C8E
102
}
330
9C8E
100
AcDbScale
 70
     0
300
1:2_3_4
140
1.0
141
0.002
290
     0
  0
SCALE
  5
9C8F
102
{ACAD_REACTORS
330
9C8E
102
}
330
9C8E
100
AcDbScale
 70
     0
300
1:1
140
1.0
141
1.0
290
     1
  0
SCALE
  5
244FB
102
{ACAD_REACTORS
330
9C8E
102
}
330
9C8E
100
AcDbScale
 70
     0
300
1:2
140
1.0
141
2.0
290
     0
  0
SCALE
  5
244FC
102
{ACAD_REACTORS
330
9C8E
102
}
330
9C8E
100
AcDbScale
 70
     0
300
1:4
140
1.0
141
4.0
290
     0
  0
SCALE
  5
244FD
102
{ACAD_REACTORS
330
9C8E
102
}
330
9C8E
100
AcDbScale
 70
     0
300
1:5
140
1.0
141
5.0
290
     0
  0
SCALE
  5
244FE
102
{ACAD_REACTORS
330
9C8E
102
}
330
9C8E
100
AcDbScale
 70
     0
300
1:8
140
1.0
141
8.0
290
     0
  0
SCALE
  5
244FF
102
{ACAD_REACTORS
330
9C8E
102
}
330
9C8E
100
AcDbScale
 70
     0
300
1:10
140
1.0
141
10.0
290
     0
  0
SCALE
  5
24500
102
{ACAD_REACTORS
330
9C8E
102
}
330
9C8E
100
AcDbScale
 70
     0
300
1:16
140
1.0
141
16.0
290
     0
  0
SCALE
  5
24501
102
{ACAD_REACTORS
330
9C8E
102
}
330
9C8E
100
AcDbScale
 70
     0
300
1:20
140
1.0
141
20.0
290
     0
  0
SCALE
  5
24502
102
{ACAD_REACTORS
330
9C8E
102
}
330
9C8E
100
AcDbScale
 70
     0
300
1:30
140
1.0
141
30.0
290
     0
  0
SCALE
  5
24503
102
{ACAD_REACTORS
330
9C8E
102
}
330
9C8E
100
AcDbScale
 70
     0
300
1:40
140
1.0
141
40.0
290
     0
  0
SCALE
  5
24504
102
{ACAD_REACTORS
330
9C8E
102
}
330
9C8E
100
AcDbScale
 70
     0
300
1:50
140
1.0
141
50.0
290
     0
  0
SCALE
  5
24505
102
{ACAD_REACTORS
330
9C8E
102
}
330
9C8E
100
AcDbScale
 70
     0
300
1:100
140
1.0
141
100.0
290
     0
  0
SCALE
  5
24506
102
{ACAD_REACTORS
330
9C8E
102
}
330
9C8E
100
AcDbScale
 70
     0
300
2:1
140
2.0
141
1.0
290
     0
  0
SCALE
  5
24507
102
{ACAD_REACTORS
330
9C8E
102
}
330
9C8E
100
AcDbScale
 70
     0
300
4:1
140
4.0
141
1.0
290
     0
  0
SCALE
  5
24508
102
{ACAD_REACTORS
330
9C8E
102
}
330
9C8E
100
AcDbScale
 70
     0
300
8:1
140
8.0
141
1.0
290
     0
  0
SCALE
  5
24509
102
{ACAD_REACTORS
330
9C8E
102
}
330
9C8E
100
AcDbScale
 70
     0
300
10:1
140
10.0
141
1.0
290
     0
  0
SCALE
  5
2450A
102
{ACAD_REACTORS
330
9C8E
102
}
330
9C8E
100
AcDbScale
 70
     0
300
100:1
140
100.0
141
1.0
290
     0
  0
SCALE
  5
2450B
102
{ACAD_REACTORS
330
9C8E
102
}
330
9C8E
100
AcDbScale
 70
     0
300
1/128" = 1'-0"
140
0.0078125
141
12.0
290
     0
  0
SCALE
  5
2450C
102
{ACAD_REACTORS
330
9C8E
102
}
330
9C8E
100
AcDbScale
 70
     0
300
1/64" = 1'-0"
140
0.015625
141
12.0
290
     0
  0
SCALE
  5
2450D
102
{ACAD_REACTORS
330
9C8E
102
}
330
9C8E
100
AcDbScale
 70
     0
300
1/32" = 1'-0"
140
0.03125
141
12.0
290
     0
  0
SCALE
  5
2450E
102
{ACAD_REACTORS
330
9C8E
102
}
330
9C8E
100
AcDbScale
 70
     0
300
1/16" = 1'-0"
140
0.0625
141
12.0
290
     0
  0
SCALE
  5
2450F
102
{ACAD_REACTORS
330
9C8E
102
}
330
9C8E
100
AcDbScale
 70
     0
300
3/32" = 1'-0"
140
0.09375
141
12.0
290
     0
  0
SCALE
  5
24510
102
{ACAD_REACTORS
330
9C8E
102
}
330
9C8E
100
AcDbScale
 70
     0
300
1/8" = 1'-0"
140
0.125
141
12.0
290
     0
  0
SCALE
  5
24511
102
{ACAD_REACTORS
330
9C8E
102
}
330
9C8E
100
AcDbScale
 70
     0
300
3/16" = 1'-0"
140
0.1875
141
12.0
290
     0
  0
SCALE
  5
24512
102
{ACAD_REACTORS
330
9C8E
102
}
330
9C8E
100
AcDbScale
 70
     0
300
1/4" = 1'-0"
140
0.25
141
12.0
290
     0
  0
SCALE
  5
24513
102
{ACAD_REACTORS
330
9C8E
102
}
330
9C8E
100
AcDbScale
 70
     0
300
3/8" = 1'-0"
140
0.375
141
12.0
290
     0
  0
SCALE
  5
24514
102
{ACAD_REACTORS
330
9C8E
102
}
330
9C8E
100
AcDbScale
 70
     0
300
1/2" = 1'-0"
140
0.5
141
12.0
290
     0
  0
SCALE
  5
24515
102
{ACAD_REACTORS
330
9C8E
102
}
330
9C8E
100
AcDbScale
 70
     0
300
3/4" = 1'-0"
140
0.75
141
12.0
290
     0
  0
SCALE
  5
24516
102
{ACAD_REACTORS
330
9C8E
102
}
330
9C8E
100
AcDbScale
 70
     0
300
1" = 1'-0"
140
1.0
141
12.0
290
     0
  0
SCALE
  5
24517
102
{ACAD_REACTORS
330
9C8E
102
}
330
9C8E
100
AcDbScale
 70
     0
300
1-1/2" = 1'-0"
140
1.5
141
12.0
290
     0
  0
SCALE
  5
24518
102
{ACAD_REACTORS
330
9C8E
102
}
330
9C8E
100
AcDbScale
 70
     0
300
3" = 1'-0"
140
3.0
141
12.0
290
     0
  0
SCALE
  5
24519
102
{ACAD_REACTORS
330
9C8E
102
}
330
9C8E
100
AcDbScale
 70
     0
300
6" = 1'-0"
140
6.0
141
12.0
290
     0
  0
SCALE
  5
2451A
102
{ACAD_REACTORS
330
9C8E
102
}
330
9C8E
100
AcDbScale
 70
     0
300
1'-0" = 1'-0"
140
12.0
141
12.0
290
     0
  0
TABLESTYLE
  5
9C8D
102
{ACAD_XDICTIONARY
360
A6AD
102
}
102
{ACAD_REACTORS
330
9C8C
102
}
330
9C8C
100
AcDbTableStyle
  3
Standard
 70
     0
 71
     0
 40
1.5
 41
1.5
280
     0
281
     0
  7
Standard
140
4.5
170
     2
 62
     0
 63
     7
283
     0
274
    -2
284
     1
 64
     0
275
    -2
285
     1
 65
     0
276
    -2
286
     1
 66
     0
277
    -2
287
     1
 67
     0
278
    -2
288
     1
 68
     0
279
    -2
289
     1
 69
     0
  7
Standard
140
6.0
170
     5
 62
     0
 63
     7
283
     0
274
    -2
284
     1
 64
     0
275
    -2
285
     1
 65
     0
276
    -2
286
     1
 66
     0
277
    -2
287
     1
 67
     0
278
    -2
288
     1
 68
     0
279
    -2
289
     1
 69
     0
  7
Standard
140
4.5
170
     5
 62
     0
 63
     7
283
     0
274
    -2
284
     1
 64
     0
275
    -2
285
     1
 65
     0
276
    -2
286
     1
 66
     0
277
    -2
287
     1
 67
     0
278
    -2
288
     1
 68
     0
279
    -2
289
     1
 69
     0
  0
VISUALSTYLE
  5
9C80
102
{ACAD_REACTORS
330
9C7A
102
}
330
9C7A
100
AcDbVisualStyle
  2
2dWireframe
 70
     4
 71
     0
 72
     2
 73
     0
 90
        0
 40
-0.6
 41
-30.0
 62
     5
 63
     7
 74
     1
 91
        4
 64
     7
 65
   257
 75
     1
175
     1
 42
1.0
 92
        0
 66
   257
 43
1.0
 76
     1
 77
     6
 78
     2
 67
     7
 79
     5
170
     0
171
     0
290
     0
174
     0
 93
        1
 44
0.0
173
     0
291
     0
 45
0.0
1001
ACAD
1000
AcDbSavedByObjectVersion
1070
     0
  0
VISUALSTYLE
  5
9C82
102
{ACAD_REACTORS
330
9C7A
102
}
330
9C7A
100
AcDbVisualStyle
  2
3D Hidden
 70
     6
 71
     1
 72
     2
 73
     2
 90
        0
 40
-0.6
 41
-30.0
 62
     5
 63
     7
 74
     2
 91
        2
 64
     7
 65
   257
 75
     2
175
     1
 42
40.0
 92
        0
 66
   257
 43
1.0
 76
     1
 77
     6
 78
     2
 67
     7
 79
     3
170
     0
171
     0
290
     0
174
     0
 93
        1
 44
0.0
173
     0
291
     0
 45
0.0
1001
ACAD
1000
AcDbSavedByObjectVersion
1070
     0
  0
VISUALSTYLE
  5
9C81
102
{ACAD_REACTORS
330
9C7A
102
}
330
9C7A
100
AcDbVisualStyle
  2
3dWireframe
 70
     5
 71
     0
 72
     2
 73
     0
 90
        0
 40
-0.6
 41
-30.0
 62
     5
 63
     7
 74
     1
 91
        4
 64
     7
 65
   257
 75
     1
175
     1
 42
1.0
 92
        0
 66
   257
 43
1.0
 76
     1
 77
     6
 78
     2
 67
     7
 79
     5
170
     0
171
     0
290
     0
174
     0
 93
        1
 44
0.0
173
     0
291
     0
 45
0.0
1001
ACAD
1000
AcDbSavedByObjectVersion
1070
     0
  0
VISUALSTYLE
  5
9C7F
102
{ACAD_REACTORS
330
9C7A
102
}
330
9C7A
100
AcDbVisualStyle
  2
Basic
 70
     7
 71
     1
 72
     0
 73
     1
 90
        0
 40
-0.6
 41
-30.0
 62
     5
 63
     7
 74
     0
 91
        4
 64
     7
 65
   257
 75
     1
175
     1
 42
1.0
 92
        8
 66
     7
 43
1.0
 76
     1
 77
     6
 78
     2
 67
     7
 79
     5
170
     0
171
     0
290
     0
174
     0
 93
        1
 44
0.0
173
     0
291
     1
 45
0.0
1001
ACAD
1000
AcDbSavedByObjectVersion
1070
     0
  0
VISUALSTYLE
  5
9C86
102
{ACAD_REACTORS
330
9C7A
102
}
330
9C7A
100
AcDbVisualStyle
  2
Brighten
 70
    12
 71
     2
 72
     2
 73
     0
 90
        0
 40
-0.6
 41
-30.0
 62
     5
 63
     7
 74
     1
 91
        4
 64
     7
 65
   257
 75
     1
175
     1
 42
1.0
 92
        8
 66
     7
 43
1.0
 76
     1
 77
     6
 78
     2
 67
     7
 79
     5
170
     0
171
     0
290
     0
174
     0
 93
        1
 44
50.0
173
     0
291
     1
 45
0.0
1001
ACAD
1000
AcDbSavedByObjectVersion
1070
     0
  0
VISUALSTYLE
  5
9C8A
102
{ACAD_REACTORS
330
9C7A
102
}
330
9C7A
100
AcDbVisualStyle
  2
ColorChange
 70
    16
 71
     2
 72
     2
 73
     3
 90
        0
 40
-0.6
 41
-30.0
 62
     5
 63
     8
 74
     1
 91
        4
 64
     7
 65
   257
 75
     1
175
     1
 42
1.0
 92
        8
 66
     8
 43
1.0
 76
     1
 77
     6
 78
     2
 67
     7
 79
     5
170
     0
171
     0
290
     0
174
     0
 93
        1
 44
0.0
173
     0
291
     1
 45
0.0
1001
ACAD
1000
AcDbSavedByObjectVersion
1070
     0
  0
VISUALSTYLE
  5
9C83
102
{ACAD_REACTORS
330
9C7A
102
}
330
9C7A
100
AcDbVisualStyle
  2
Conceptual
 70
     9
 71
     3
 72
     2
 73
     0
 90
        0
 40
-0.6
 41
-30.0
 62
     5
 63
     7
 74
     2
 91
        2
 64
     7
 65
   257
 75
     1
175
     1
 42
40.0
 92
        8
 66
     7
 43
1.0
 76
     1
 77
     6
 78
     2
 67
     7
 79
     3
170
     0
171
     0
290
     0
174
     0
 93
        1
 44
0.0
173
     0
291
     0
 45
0.0
1001
ACAD
1000
AcDbSavedByObjectVersion
1070
     0
  0
VISUALSTYLE
  5
9C85
102
{ACAD_REACTORS
330
9C7A
102
}
330
9C7A
100
AcDbVisualStyle
  2
Dim
 70
    11
 71
     2
 72
     2
 73
     0
 90
        0
 40
-0.6
 41
-30.0
 62
     5
 63
     7
 74
     1
 91
        4
 64
     7
 65
   257
 75
     1
175
     1
 42
1.0
 92
        8
 66
     7
 43
1.0
 76
     1
 77
     6
 78
     2
 67
     7
 79
     5
170
     0
171
     0
290
     0
174
     0
 93
        1
 44
-50.0
173
     0
291
     1
 45
0.0
1001
ACAD
1000
AcDbSavedByObjectVersion
1070
     0
  0
VISUALSTYLE
  5
9C89
102
{ACAD_REACTORS
330
9C7A
102
}
330
9C7A
100
AcDbVisualStyle
  2
Facepattern
 70
    15
 71
     2
 72
     2
 73
     0
 90
        0
 40
-0.6
 41
-30.0
 62
     5
 63
     7
 74
     1
 91
        4
 64
     7
 65
   257
 75
     1
175
     1
 42
1.0
 92
        8
 66
     7
 43
1.0
 76
     1
 77
     6
 78
     2
 67
     7
 79
     5
170
     0
171
     0
290
     0
174
     0
 93
        1
 44
0.0
173
     0
291
     1
 45
0.0
1001
ACAD
1000
AcDbSavedByObjectVersion
1070
     0
  0
VISUALSTYLE
  5
9C7B
102
{ACAD_REACTORS
330
9C7A
102
}
330
9C7A
100
AcDbVisualStyle
  2
Flat
 70
     0
 71
     2
 72
     1
 73
     1
 90
        2
 40
-0.6
 41
30.0
 62
     5
 63
     7
 74
     0
 91
        4
 64
     7
 65
   257
 75
     1
175
     1
 42
1.0
 92
        8
 66
     7
 43
1.0
 76
     1
 77
     6
 78
     2
 67
     7
 79
     5
170
     0
171
     0
290
     0
174
     0
 93
       13
 44
0.0
173
     0
291
     1
 45
0.0
1001
ACAD
1000
AcDbSavedByObjectVersion
1070
     0
  0
VISUALSTYLE
  5
9C7C
102
{ACAD_REACTORS
330
9C7A
102
}
330
9C7A
100
AcDbVisualStyle
  2
FlatWithEdges
 70
     1
 71
     2
 72
     1
 73
     1
 90
        2
 40
-0.6
 41
30.0
 62
     5
 63
     7
 74
     1
 91
        4
 64
     7
 65
   257
 75
     1
175
     1
 42
1.0
 92
        0
 66
   257
 43
1.0
 76
     1
 77
     6
 78
     2
 67
     7
 79
     5
170
     0
171
     0
290
     0
174
     0
 93
       13
 44
0.0
173
     0
291
     1
 45
0.0
1001
ACAD
1000
AcDbSavedByObjectVersion
1070
     0
  0
VISUALSTYLE
  5
9C7D
102
{ACAD_REACTORS
330
9C7A
102
}
330
9C7A
100
AcDbVisualStyle
  2
Gouraud
 70
     2
 71
     2
 72
     2
 73
     1
 90
        2
 40
-0.6
 41
30.0
 62
     5
 63
     7
 74
     0
 91
        4
 64
     7
 65
   257
 75
     1
175
     1
 42
1.0
 92
        0
 66
     7
 43
1.0
 76
     1
 77
     6
 78
     2
 67
     7
 79
     5
170
     0
171
     0
290
     0
174
     0
 93
       13
 44
0.0
173
     0
291
     1
 45
0.0
1001
ACAD
1000
AcDbSavedByObjectVersion
1070
     0
  0
VISUALSTYLE
  5
9C7E
102
{ACAD_REACTORS
330
9C7A
102
}
330
9C7A
100
AcDbVisualStyle
  2
GouraudWithEdges
 70
     3
 71
     2
 72
     2
 73
     1
 90
        2
 40
-0.6
 41
30.0
 62
     5
 63
     7
 74
     1
 91
        4
 64
     7
 65
   257
 75
     1
175
     1
 42
1.0
 92
        0
 66
   257
 43
1.0
 76
     1
 77
     6
 78
     2
 67
     7
 79
     5
170
     0
171
     0
290
     0
174
     0
 93
       13
 44
0.0
173
     0
291
     1
 45
0.0
1001
ACAD
1000
AcDbSavedByObjectVersion
1070
     0
  0
VISUALSTYLE
  5
9C88
102
{ACAD_REACTORS
330
9C7A
102
}
330
9C7A
100
AcDbVisualStyle
  2
Linepattern
 70
    14
 71
     2
 72
     2
 73
     0
 90
        0
 40
-0.6
 41
-30.0
 62
     5
 63
     7
 74
     1
 91
        4
 64
     7
 65
   257
 75
     7
175
     7
 42
1.0
 92
        8
 66
     7
 43
1.0
 76
     1
 77
     6
 78
     2
 67
     7
 79
     5
170
     0
171
     0
290
     0
174
     0
 93
        1
 44
0.0
173
     0
291
     1
 45
0.0
1001
ACAD
1000
AcDbSavedByObjectVersion
1070
     0
  0
VISUALSTYLE
  5
9C84
102
{ACAD_REACTORS
330
9C7A
102
}
330
9C7A
100
AcDbVisualStyle
  2
Realistic
 70
     8
 71
     2
 72
     2
 73
     0
 90
        0
 40
-0.6
 41
-30.0
 62
     5
 63
     7
 74
     1
 91
        0
 64
     7
 65
   257
 75
     1
175
     1
 42
1.0
 92
        8
 66
     8
 43
1.0
 76
     1
 77
     6
 78
     2
 67
     7
 79
     5
170
     0
171
     0
290
     0
174
     0
 93
       13
 44
0.0
173
     0
291
     0
 45
0.0
1001
ACAD
1000
AcDbSavedByObjectVersion
1070
     0
  0
VISUALSTYLE
  5
9C87
102
{ACAD_REACTORS
330
9C7A
102
}
330
9C7A
100
AcDbVisualStyle
  2
Thicken
 70
    13
 71
     2
 72
     2
 73
     0
 90
        0
 40
-0.6
 41
-30.0
 62
     5
 63
     7
 74
     1
 91
        4
 64
     7
 65
   257
 75
     1
175
     1
 42
1.0
 92
       12
 66
     7
 43
1.0
 76
     1
 77
     6
 78
     2
 67
     7
 79
     5
170
     0
171
     0
290
     0
174
     0
 93
        1
 44
0.0
173
     0
291
     1
 45
0.0
1001
ACAD
1000
AcDbSavedByObjectVersion
1070
     0
  0
DICTIONARYVAR
  5
A6CD
102
{ACAD_REACTORS
330
A6CA
102
}
330
A6CA
100
DictionaryVariables
280
     0
  1
1:1
  0
DICTIONARYVAR
  5
A6CC
102
{ACAD_REACTORS
330
A6CA
102
}
330
A6CA
100
DictionaryVariables
280
     0
  1
STANDARD
  0
DICTIONARYVAR
  5
A6CB
102
{ACAD_REACTORS
330
A6CA
102
}
330
A6CA
100
DictionaryVariables
280
     0
  1
STANDARD
  0
DICTIONARYVAR
  5
A6D0
102
{ACAD_REACTORS
330
A6CA
102
}
330
A6CA
100
DictionaryVariables
280
     0
  1
1
  0
DICTIONARYVAR
  5
A6CF
102
{ACAD_REACTORS
330
A6CA
102
}
330
A6CA
100
DictionaryVariables
280
     0
  1
0
  0
DICTIONARYVAR
  5
2A20C
102
{ACAD_REACTORS
330
A6CA
102
}
330
A6CA
100
DictionaryVariables
280
     0
  1
0
  0
DICTIONARYVAR
  5
2A20B
102
{ACAD_REACTORS
330
A6CA
102
}
330
A6CA
100
DictionaryVariables
280
     0
  1
0
  0
DICTIONARYVAR
  5
A6CE
102
{ACAD_REACTORS
330
A6CA
102
}
330
A6CA
100
DictionaryVariables
280
     0
  1
127
  0
DICTIONARY
  5
2A26E
330
22
100
AcDbDictionary
280
     1
281
     1
  3
ACAD_XREC_ROUNDTRIP
360
2A26F
  0
DICTIONARY
  5
2A26C
330
1E
100
AcDbDictionary
280
     1
281
     1
  3
ACAD_XREC_ROUNDTRIP
360
2A26D
  0
DICTIONARY
  5
2A270
330
26
100
AcDbDictionary
280
     1
281
     1
  3
ACAD_XREC_ROUNDTRIP
360
2A271
  0
DICTIONARY
  5
9C6B
330
9C6A
100
AcDbDictionary
280
     1
281
     1
  3
ACAD_XREC_ROUNDTRIP
360
2A273
  3
BUMPTILE
360
9C6D
  3
DIFFUSETILE
360
9C6C
  3
OPACITYTILE
360
9C70
  3
REFLECTIONTILE
360
9C6F
  3
REFRACTIONTILE
360
9C71
  3
SPECULARTILE
360
9C6E
  0
DICTIONARY
  5
9C63
330
9C62
100
AcDbDictionary
280
     1
281
     1
  3
ACAD_XREC_ROUNDTRIP
360
2A272
  3
BUMPTILE
360
9C65
  3
DIFFUSETILE
360
9C64
  3
OPACITYTILE
360
9C68
  3
REFLECTIONTILE
360
9C67
  3
REFRACTIONTILE
360
9C69
  3
SPECULARTILE
360
9C66
  0
DICTIONARY
  5
9C73
330
9C72
100
AcDbDictionary
280
     1
281
     1
  3
ACAD_XREC_ROUNDTRIP
360
2A274
  3
BUMPTILE
360
9C75
  3
DIFFUSETILE
360
9C74
  3
OPACITYTILE
360
9C78
  3
REFLECTIONTILE
360
9C77
  3
REFRACTIONTILE
360
9C79
  3
SPECULARTILE
360
9C76
  0
DICTIONARY
  5
A6AD
330
9C8D
100
AcDbDictionary
280
     1
281
     1
  3
ACAD_ROUNDTRIP_2008_TABLESTYLE_CELLSTYLEMAP
360
2A267
  3
ACAD_XREC_ROUNDTRIP
360
2A275
  0
XRECORD
  5
2A26F
102
{ACAD_REACTORS
330
2A26E
102
}
330
2A26E
100
AcDbXrecord
280
     1
102
SHADEPLOT
 70
     0
102
SHADEPLOTRESLEVEL
 70
     2
102
SHADEPLOTCUSTOMDPI
 70
   300
  0
XRECORD
  5
2A26D
102
{ACAD_REACTORS
330
2A26C
102
}
330
2A26C
100
AcDbXrecord
280
     1
102
SHADEPLOT
 70
     0
102
SHADEPLOTRESLEVEL
 70
     2
102
SHADEPLOTCUSTOMDPI
 70
   300
  0
XRECORD
  5
2A271
102
{ACAD_REACTORS
330
2A270
102
}
330
2A270
100
AcDbXrecord
280
     1
102
SHADEPLOT
 70
     0
102
SHADEPLOTRESLEVEL
 70
     2
102
SHADEPLOTCUSTOMDPI
 70
   300
  0
XRECORD
  5
2A273
102
{ACAD_REACTORS
330
9C6B
102
}
330
9C6B
100
AcDbXrecord
280
     1
102
MATERIAL
148
0.0
149
0.0
149
0.0
 93
        0
 94
      127
282
     0
 72
     0
 77
     0
171
     0
175
     0
179
     0
273
     0
  0
XRECORD
  5
9C6D
102
{ACAD_REACTORS
330
9C6B
102
}
330
9C6B
100
AcDbXrecord
280
     1
270
     1
271
     1
  0
XRECORD
  5
9C6C
102
{ACAD_REACTORS
330
9C6B
102
}
330
9C6B
100
AcDbXrecord
280
     1
270
     1
271
     1
  0
XRECORD
  5
9C70
102
{ACAD_REACTORS
330
9C6B
102
}
330
9C6B
100
AcDbXrecord
280
     1
270
     1
271
     1
  0
XRECORD
  5
9C6F
102
{ACAD_REACTORS
330
9C6B
102
}
330
9C6B
100
AcDbXrecord
280
     1
270
     1
271
     1
  0
XRECORD
  5
9C71
102
{ACAD_REACTORS
330
9C6B
102
}
330
9C6B
100
AcDbXrecord
280
     1
270
     1
271
     1
  0
XRECORD
  5
9C6E
102
{ACAD_REACTORS
330
9C6B
102
}
330
9C6B
100
AcDbXrecord
280
     1
270
     1
271
     1
  0
XRECORD
  5
2A272
102
{ACAD_REACTORS
330
9C63
102
}
330
9C63
100
AcDbXrecord
280
     1
102
MATERIAL
148
0.0
149
0.0
149
0.0
 93
        0
 94
      127
282
     0
 72
     0
 77
     0
171
     0
175
     0
179
     0
273
     0
  0
XRECORD
  5
9C65
102
{ACAD_REACTORS
330
9C63
102
}
330
9C63
100
AcDbXrecord
280
     1
270
     1
271
     1
  0
XRECORD
  5
9C64
102
{ACAD_REACTORS
330
9C63
102
}
330
9C63
100
AcDbXrecord
280
     1
270
     1
271
     1
  0
XRECORD
  5
9C68
102
{ACAD_REACTORS
330
9C63
102
}
330
9C63
100
AcDbXrecord
280
     1
270
     1
271
     1
  0
XRECORD
  5
9C67
102
{ACAD_REACTORS
330
9C63
102
}
330
9C63
100
AcDbXrecord
280
     1
270
     1
271
     1
  0
XRECORD
  5
9C69
102
{ACAD_REACTORS
330
9C63
102
}
330
9C63
100
AcDbXrecord
280
     1
270
     1
271
     1
  0
XRECORD
  5
9C66
102
{ACAD_REACTORS
330
9C63
102
}
330
9C63
100
AcDbXrecord
280
     1
270
     1
271
     1
  0
XRECORD
  5
2A274
102
{ACAD_REACTORS
330
9C73
102
}
330
9C73
100
AcDbXrecord
280
     1
102
MATERIAL
148
0.0
149
0.0
149
0.0
 93
        0
 94
      127
282
     0
 72
     0
 77
     0
171
     0
175
     0
179
     0
273
     0
  0
XRECORD
  5
9C75
102
{ACAD_REACTORS
330
9C73
102
}
330
9C73
100
AcDbXrecord
280
     1
270
     1
271
     1
  0
XRECORD
  5
9C74
102
{ACAD_REACTORS
330
9C73
102
}
330
9C73
100
AcDbXrecord
280
     1
270
     1
271
     1
  0
XRECORD
  5
9C78
102
{ACAD_REACTORS
330
9C73
102
}
330
9C73
100
AcDbXrecord
280
     1
270
     1
271
     1
  0
XRECORD
  5
9C77
102
{ACAD_REACTORS
330
9C73
102
}
330
9C73
100
AcDbXrecord
280
     1
270
     1
271
     1
  0
XRECORD
  5
9C79
102
{ACAD_REACTORS
330
9C73
102
}
330
9C73
100
AcDbXrecord
280
     1
270
     1
271
     1
  0
XRECORD
  5
9C76
102
{ACAD_REACTORS
330
9C73
102
}
330
9C73
100
AcDbXrecord
280
     1
270
     1
271
     1
  0
CELLSTYLEMAP
  5
2A267
102
{ACAD_REACTORS
330
A6AD
102
}
330
A6AD
100
AcDbCellStyleMap
 90
        3
300
CELLSTYLE
  1
TABLEFORMAT_BEGIN
 90
        5
170
     1
 91
        0
 92
    32768
 62
   257
 93
        1
300
CONTENTFORMAT
  1
CONTENTFORMAT_BEGIN
 90
        0
 91
        0
 92
      512
 93
        0
300

 40
0.0
140
1.0
 94
        5
 62
     0
340
11
144
6.0
309
CONTENTFORMAT_END
171
     1
301
MARGIN
  1
CELLMARGIN_BEGIN
 40
1.5
 40
1.5
 40
1.5
 40
1.5
 40
0.18
 40
0.18
309
CELLMARGIN_END
 94
        6
 95
        1
302
GRIDFORMAT
  1
GRIDFORMAT_BEGIN
 90
        0
 91
        1
 62
     0
 92
       -2
340
0
 93
        0
 40
1.125
309
GRIDFORMAT_END
 95
        2
302
GRIDFORMAT
  1
GRIDFORMAT_BEGIN
 90
        0
 91
        1
 62
     0
 92
       -2
340
0
 93
        0
 40
1.125
309
GRIDFORMAT_END
 95
        4
302
GRIDFORMAT
  1
GRIDFORMAT_BEGIN
 90
        0
 91
        1
 62
     0
 92
       -2
340
0
 93
        0
 40
1.125
309
GRIDFORMAT_END
 95
        8
302
GRIDFORMAT
  1
GRIDFORMAT_BEGIN
 90
        0
 91
        1
 62
     0
 92
       -2
340
0
 93
        0
 40
1.125
309
GRIDFORMAT_END
 95
       16
302
GRIDFORMAT
  1
GRIDFORMAT_BEGIN
 90
        0
 91
        1
 62
     0
 92
       -2
340
0
 93
        0
 40
1.125
309
GRIDFORMAT_END
 95
       32
302
GRIDFORMAT
  1
GRIDFORMAT_BEGIN
 90
        0
 91
        1
 62
     0
 92
       -2
340
0
 93
        0
 40
1.125
309
GRIDFORMAT_END
309
TABLEFORMAT_END
  1
CELLSTYLE_BEGIN
 90
        1
 91
        1
300
_TITLE
309
CELLSTYLE_END
300
CELLSTYLE
  1
TABLEFORMAT_BEGIN
 90
        5
170
     1
 91
        0
 92
        0
 62
   257
 93
        1
300
CONTENTFORMAT
  1
CONTENTFORMAT_BEGIN
 90
        0
 91
        0
 92
      512
 93
        0
300

 40
0.0
140
1.0
 94
        5
 62
     0
340
11
144
4.5
309
CONTENTFORMAT_END
171
     1
301
MARGIN
  1
CELLMARGIN_BEGIN
 40
1.5
 40
1.5
 40
1.5
 40
1.5
 40
0.18
 40
0.18
309
CELLMARGIN_END
 94
        6
 95
        1
302
GRIDFORMAT
  1
GRIDFORMAT_BEGIN
 90
        0
 91
        1
 62
     0
 92
       -2
340
0
 93
        0
 40
1.125
309
GRIDFORMAT_END
 95
        2
302
GRIDFORMAT
  1
GRIDFORMAT_BEGIN
 90
        0
 91
        1
 62
     0
 92
       -2
340
0
 93
        0
 40
1.125
309
GRIDFORMAT_END
 95
        4
302
GRIDFORMAT
  1
GRIDFORMAT_BEGIN
 90
        0
 91
        1
 62
     0
 92
       -2
340
0
 93
        0
 40
1.125
309
GRIDFORMAT_END
 95
        8
302
GRIDFORMAT
  1
GRIDFORMAT_BEGIN
 90
        0
 91
        1
 62
     0
 92
       -2
340
0
 93
        0
 40
1.125
309
GRIDFORMAT_END
 95
       16
302
GRIDFORMAT
  1
GRIDFORMAT_BEGIN
 90
        0
 91
        1
 62
     0
 92
       -2
340
0
 93
        0
 40
1.125
309
GRIDFORMAT_END
 95
       32
302
GRIDFORMAT
  1
GRIDFORMAT_BEGIN
 90
        0
 91
        1
 62
     0
 92
       -2
340
0
 93
        0
 40
1.125
309
GRIDFORMAT_END
309
TABLEFORMAT_END
  1
CELLSTYLE_BEGIN
 90
        2
 91
        1
300
_HEADER
309
CELLSTYLE_END
300
CELLSTYLE
  1
TABLEFORMAT_BEGIN
 90
        5
170
     1
 91
        0
 92
        0
 62
   257
 93
        1
300
CONTENTFORMAT
  1
CONTENTFORMAT_BEGIN
 90
        0
 91
        0
 92
      512
 93
        0
300

 40
0.0
140
1.0
 94
        2
 62
     0
340
11
144
4.5
309
CONTENTFORMAT_END
171
     1
301
MARGIN
  1
CELLMARGIN_BEGIN
 40
1.5
 40
1.5
 40
1.5
 40
1.5
 40
0.18
 40
0.18
309
CELLMARGIN_END
 94
        6
 95
        1
302
GRIDFORMAT
  1
GRIDFORMAT_BEGIN
 90
        0
 91
        1
 62
     0
 92
       -2
340
0
 93
        0
 40
1.125
309
GRIDFORMAT_END
 95
        2
302
GRIDFORMAT
  1
GRIDFORMAT_BEGIN
 90
        0
 91
        1
 62
     0
 92
       -2
340
0
 93
        0
 40
1.125
309
GRIDFORMAT_END
 95
        4
302
GRIDFORMAT
  1
GRIDFORMAT_BEGIN
 90
        0
 91
        1
 62
     0
 92
       -2
340
0
 93
        0
 40
1.125
309
GRIDFORMAT_END
 95
        8
302
GRIDFORMAT
  1
GRIDFORMAT_BEGIN
 90
        0
 91
        1
 62
     0
 92
       -2
340
0
 93
        0
 40
1.125
309
GRIDFORMAT_END
 95
       16
302
GRIDFORMAT
  1
GRIDFORMAT_BEGIN
 90
        0
 91
        1
 62
     0
 92
       -2
340
0
 93
        0
 40
1.125
309
GRIDFORMAT_END
 95
       32
302
GRIDFORMAT
  1
GRIDFORMAT_BEGIN
 90
        0
 91
        1
 62
     0
 92
       -2
340
0
 93
        0
 40
1.125
309
GRIDFORMAT_END
309
TABLEFORMAT_END
  1
CELLSTYLE_BEGIN
 90
        3
 91
        2
300
_DATA
309
CELLSTYLE_END
  0
XRECORD
  5
2A275
102
{ACAD_REACTORS
330
A6AD
102
}
330
A6AD
100
AcDbXrecord
280
     1
102
ACAD_ROUNDTRIP_PRE2007_TABLESTYLE
 90
      512
 91
        0
  1

 92
      512
 93
        0
  2

 94
      512
 95
        0
  3

  0
ENDSEC
  0
EOF
