  0
SECTION
  2
HEADER
  9
$ACADVER
  1
AC1015
  9
$ACADMAINTVER
 70
    20
  9
$DWGCODEPAGE
  3
ANSI_932
  9
$INSBASE
 10
0.0
 20
0.0
 30
0.0
  9
$EXTMIN
 10
-19.26284375907214
 20
49.00000000000003
 30
0.0
  9
$EXTMAX
 10
1132.737156240927
 20
867.0
 30
0.0
  9
$LIMMIN
 10
0.0
 20
0.0
  9
$LIMMAX
 10
420.0
 20
297.0
  9
$ORTHOMODE
 70
     0
  9
$REGENMODE
 70
     1
  9
$FILLMODE
 70
     1
  9
$QTEXTMODE
 70
     0
  9
$MIRRTEXT
 70
     0
  9
$LTSCALE
 40
3.0
  9
$ATTMODE
 70
     1
  9
$TEXTSIZE
 40
3.0
  9
$TRACEWID
 40
1.0
  9
$TEXTSTYLE
  7
ｺﾞｼｯｸ（縦）
  9
$CLAYER
  8
003
  9
$CELTYPE
  6
ByLayer
  9
$CECOLOR
 62
   256
  9
$CELTSCALE
 40
0.2
  9
$DISPSILH
 70
     0
  9
$DIMSCALE
 40
2.1
  9
$DIMASZ
 40
1.5
  9
$DIMEXO
 40
1.5
  9
$DIMDLI
 40
7.0
  9
$DIMRND
 40
0.0
  9
$DIMDLE
 40
0.0
  9
$DIMEXE
 40
1.0
  9
$DIMTP
 40
0.0
  9
$DIMTM
 40
0.0
  9
$DIMTXT
 40
3.0
  9
$DIMCEN
 40
0.0
  9
$DIMTSZ
 40
0.0
  9
$DIMTOL
 70
     0
  9
$DIMLIM
 70
     0
  9
$DIMTIH
 70
     0
  9
$DIMTOH
 70
     0
  9
$DIMSE1
 70
     0
  9
$DIMSE2
 70
     0
  9
$DIMTAD
 70
     1
  9
$DIMZIN
 70
     8
  9
$DIMBLK
  1
Open30
  9
$DIMASO
 70
     1
  9
$DIMSHO
 70
     1
  9
$DIMPOST
  1

  9
$DIMAPOST
  1

  9
$DIMALT
 70
     0
  9
$DIMALTD
 70
     3
  9
$DIMALTF
 40
0.03937007874016
  9
$DIMLFAC
 40
1.0
  9
$DIMTOFL
 70
     1
  9
$DIMTVP
 40
0.0
  9
$DIMTIX
 70
     0
  9
$DIMSOXD
 70
     0
  9
$DIMSAH
 70
     0
  9
$DIMBLK1
  1

  9
$DIMBLK2
  1

  9
$DIMSTYLE
  2
DIM
  9
$DIMCLRD
 70
     4
  9
$DIMCLRE
 70
     4
  9
$DIMCLRT
 70
     7
  9
$DIMTFAC
 40
1.0
  9
$DIMGAP
 40
1.0
  9
$DIMJUST
 70
     0
  9
$DIMSD1
 70
     0
  9
$DIMSD2
 70
     0
  9
$DIMTOLJ
 70
     0
  9
$DIMTZIN
 70
     8
  9
$DIMALTZ
 70
     0
  9
$DIMALTTZ
 70
     0
  9
$DIMUPT
 70
     0
  9
$DIMDEC
 70
     2
  9
$DIMTDEC
 70
     2
  9
$DIMALTU
 70
     2
  9
$DIMALTTD
 70
     3
  9
$DIMTXSTY
  7
DIM
  9
$DIMAUNIT
 70
     0
  9
$DIMADEC
 70
     2
  9
$DIMALTRND
 40
0.0
  9
$DIMAZIN
 70
     2
  9
$DIMDSEP
 70
    46
  9
$DIMATFIT
 70
     3
  9
$DIMFRAC
 70
     0
  9
$DIMLDRBLK
  1
Open30
  9
$DIMLUNIT
 70
     2
  9
$DIMLWD
 70
    20
  9
$DIMLWE
 70
    20
  9
$DIMTMOVE
 70
     0
  9
$LUNITS
 70
     2
  9
$LUPREC
 70
     4
  9
$SKETCHINC
 40
1.0
  9
$FILLETRAD
 40
0.0
  9
$AUNITS
 70
     0
  9
$AUPREC
 70
     0
  9
$MENU
  1
.
  9
$ELEVATION
 40
0.0
  9
$PELEVATION
 40
0.0
  9
$THICKNESS
 40
0.0
  9
$LIMCHECK
 70
     0
  9
$CHAMFERA
 40
10.0
  9
$CHAMFERB
 40
10.0
  9
$CHAMFERC
 40
20.0
  9
$CHAMFERD
 40
0.0
  9
$SKPOLY
 70
     0
  9
$TDCREATE
 40
2452888.428849190
  9
$TDUCREATE
 40
2452888.053849190
  9
$TDUPDATE
 40
2457913.539532547
  9
$TDUUPDATE
 40
2457913.164532547
  9
$TDINDWG
 40
0.7025925231
  9
$TDUSRTIMER
 40
0.7025925231
  9
$USRTIMER
 70
     1
  9
$ANGBASE
 50
0.0
  9
$ANGDIR
 70
     0
  9
$PDMODE
 70
     0
  9
$PDSIZE
 40
0.0
  9
$PLINEWID
 40
0.0
  9
$SPLFRAME
 70
     0
  9
$SPLINETYPE
 70
     6
  9
$SPLINESEGS
 70
     8
  9
$HANDSEED
  5
2EE6E
  9
$SURFTAB1
 70
     6
  9
$SURFTAB2
 70
     6
  9
$SURFTYPE
 70
     6
  9
$SURFU
 70
     6
  9
$SURFV
 70
     6
  9
$UCSBASE
  2

  9
$UCSNAME
  2

  9
$UCSORG
 10
0.0
 20
0.0
 30
0.0
  9
$UCSXDIR
 10
1.0
 20
0.0
 30
0.0
  9
$UCSYDIR
 10
0.0
 20
1.0
 30
0.0
  9
$UCSORTHOREF
  2

  9
$UCSORTHOVIEW
 70
     0
  9
$UCSORGTOP
 10
0.0
 20
0.0
 30
0.0
  9
$UCSORGBOTTOM
 10
0.0
 20
0.0
 30
0.0
  9
$UCSORGLEFT
 10
0.0
 20
0.0
 30
0.0
  9
$UCSORGRIGHT
 10
0.0
 20
0.0
 30
0.0
  9
$UCSORGFRONT
 10
0.0
 20
0.0
 30
0.0
  9
$UCSORGBACK
 10
0.0
 20
0.0
 30
0.0
  9
$PUCSBASE
  2

  9
$PUCSNAME
  2

  9
$PUCSORG
 10
0.0
 20
0.0
 30
0.0
  9
$PUCSXDIR
 10
1.0
 20
0.0
 30
0.0
  9
$PUCSYDIR
 10
0.0
 20
1.0
 30
0.0
  9
$PUCSORTHOREF
  2

  9
$PUCSORTHOVIEW
 70
     0
  9
$PUCSORGTOP
 10
0.0
 20
0.0
 30
0.0
  9
$PUCSORGBOTTOM
 10
0.0
 20
0.0
 30
0.0
  9
$PUCSORGLEFT
 10
0.0
 20
0.0
 30
0.0
  9
$PUCSORGRIGHT
 10
0.0
 20
0.0
 30
0.0
  9
$PUCSORGFRONT
 10
0.0
 20
0.0
 30
0.0
  9
$PUCSORGBACK
 10
0.0
 20
0.0
 30
0.0
  9
$USERI1
 70
     0
  9
$USERI2
 70
     0
  9
$USERI3
 70
     0
  9
$USERI4
 70
     0
  9
$USERI5
 70
     0
  9
$USERR1
 40
0.0
  9
$USERR2
 40
0.0
  9
$USERR3
 40
0.0
  9
$USERR4
 40
0.0
  9
$USERR5
 40
0.0
  9
$WORLDVIEW
 70
     1
  9
$SHADEDGE
 70
     3
  9
$SHADEDIF
 70
    70
  9
$TILEMODE
 70
     1
  9
$MAXACTVP
 70
    64
  9
$PINSBASE
 10
0.0
 20
0.0
 30
0.0
  9
$PLIMCHECK
 70
     0
  9
$PEXTMIN
 10
1.000000000000000E+20
 20
1.000000000000000E+20
 30
1.000000000000000E+20
  9
$PEXTMAX
 10
-1.000000000000000E+20
 20
-1.000000000000000E+20
 30
-1.000000000000000E+20
  9
$PLIMMIN
 10
0.0
 20
0.0
  9
$PLIMMAX
 10
420.0
 20
297.0
  9
$UNITMODE
 70
     0
  9
$VISRETAIN
 70
     1
  9
$PLINEGEN
 70
     0
  9
$PSLTSCALE
 70
     0
  9
$TREEDEPTH
 70
  3020
  9
$CMLSTYLE
  2
Standard
  9
$CMLJUST
 70
     0
  9
$CMLSCALE
 40
20.0
  9
$PROXYGRAPHICS
 70
     1
  9
$MEASUREMENT
 70
     1
  9
$CELWEIGHT
370
    -1
  9
$ENDCAPS
280
     0
  9
$JOINSTYLE
280
     0
  9
$LWDISPLAY
290
     0
  9
$INSUNITS
 70
     4
  9
$HYPERLINKBASE
  1

  9
$STYLESHEET
  1
monochrome.ctb
  9
$XEDIT
290
     1
  9
$CEPSNTYPE
380
     0
  9
$PSTYLEMODE
290
     1
  9
$FINGERPRINTGUID
  2
{9AEAB59C-DF80-11D7-8237-004026CDA8AB}
  9
$VERSIONGUID
  2
{7292C5B2-3582-4BC2-B89B-F800E31A19E2}
  9
$EXTNAMES
290
     1
  9
$PSVPSCALE
 40
0.0
  9
$OLESTARTUP
290
     0
  0
ENDSEC
  0
SECTION
  2
CLASSES
  0
CLASS
  1
ACDBDICTIONARYWDFLT
  2
AcDbDictionaryWithDefault
  3
ObjectDBX Classes
 90
        0
280
     0
281
     0
  0
CLASS
  1
ACDBPLACEHOLDER
  2
AcDbPlaceHolder
  3
ObjectDBX Classes
 90
        0
280
     0
281
     0
  0
CLASS
  1
LAYOUT
  2
AcDbLayout
  3
ObjectDBX Classes
 90
        0
280
     0
281
     0
  0
CLASS
  1
MATERIAL
  2
AcDbMaterial
  3
ObjectDBX Classes
 90
     1153
280
     0
281
     0
  0
CLASS
  1
VISUALSTYLE
  2
AcDbVisualStyle
  3
ObjectDBX Classes
 90
     4095
280
     0
281
     0
  0
CLASS
  1
TABLESTYLE
  2
AcDbTableStyle
  3
ObjectDBX Classes
 90
     4095
280
     0
281
     0
  0
CLASS
  1
SCALE
  2
AcDbScale
  3
ObjectDBX Classes
 90
     1153
280
     0
281
     0
  0
CLASS
  1
MLEADERSTYLE
  2
AcDbMLeaderStyle
  3
ACDB_MLEADERSTYLE_CLASS
 90
     4095
280
     0
281
     0
  0
CLASS
  1
SORTENTSTABLE
  2
AcDbSortentsTable
  3
ObjectDBX Classes
 90
        0
280
     0
281
     0
  0
CLASS
  1
CELLSTYLEMAP
  2
AcDbCellStyleMap
  3
ObjectDBX Classes
 90
     1152
280
     0
281
     0
  0
CLASS
  1
DICTIONARYVAR
  2
AcDbDictionaryVar
  3
ObjectDBX Classes
 90
        0
280
     0
281
     0
  0
CLASS
  1
WIPEOUT
  2
AcDbWipeout
  3
"WipeOut|Product Desc: Object Enabler for WipeOut entity                        |Company: Autodesk, Inc.                        |WEB Address: www.autodesk.com"
 90
    34943
280
     0
281
     1
  0
CLASS
  1
WIPEOUTVARIABLES
  2
AcDbWipeoutVariables
  3
"WipeOut|Product Desc:     WipeOut Dbx Application|Company:          Autodesk, Inc.|WEB Address:      www.autodesk.com"
 90
        0
280
     0
281
     0
  0
CLASS
  1
ACDB_TEXTOBJECTCONTEXTDATA_CLASS
  2
AcDbTextObjectContextData
  3
ObjectDBX Classes
 90
    33921
280
     0
281
     0
  0
CLASS
  1
EXACXREFPANELOBJECT
  2
ExAcXREFPanelObject
  3
EXAC_ESW
 90
    33793
280
     0
281
     0
  0
CLASS
  1
NPOCOLLECTION
  2
AcDbImpNonPersistentObjectsCollection
  3
ObjectDBX Classes
 90
    33921
280
     0
281
     0
  0
ENDSEC
  0
SECTION
  2
TABLES
  0
TABLE
  2
VPORT
  5
8
102
{ACAD_XDICTIONARY
360
A6B1
102
}
330
0
100
AcDbSymbolTable
 70
     1
  0
VPORT
  5
2ED8B
330
8
100
AcDbSymbolTableRecord
100
AcDbViewportTableRecord
  2
*Active
 70
     0
 10
0.0
 20
0.0
 11
1.0
 21
1.0
 12
587.0746003242604
 22
460.8744224384626
 13
0.0
 23
0.0
 14
10.0
 24
10.0
 15
10.0
 25
10.0
 16
0.0
 26
0.0
 36
1.0
 17
0.0
 27
0.0
 37
0.0
 40
928.8035821879304
 41
1.577777777777777
 42
50.0
 43
0.0
 44
0.0
 50
0.0
 51
0.0
 71
     0
 72
   100
 73
     1
 74
     3
 75
     0
 76
     0
 77
     0
 78
     0
281
     0
 65
     1
110
0.0
120
0.0
130
0.0
111
1.0
121
0.0
131
0.0
112
0.0
122
1.0
132
0.0
 79
     0
146
0.0
  0
ENDTAB
  0
TABLE
  2
LTYPE
  5
5
330
0
100
AcDbSymbolTable
 70
     3
  0
LTYPE
  5
14
330
5
100
AcDbSymbolTableRecord
100
AcDbLinetypeTableRecord
  2
ByBlock
 70
     0
  3

 72
    65
 73
     0
 40
0.0
  0
LTYPE
  5
15
330
5
100
AcDbSymbolTableRecord
100
AcDbLinetypeTableRecord
  2
ByLayer
 70
     0
  3

 72
    65
 73
     0
 40
0.0
  0
LTYPE
  5
16
330
5
100
AcDbSymbolTableRecord
100
AcDbLinetypeTableRecord
  2
Continuous
 70
     0
  3
Solid line
 72
    65
 73
     0
 40
0.0
  0
LTYPE
  5
19D
330
5
100
AcDbSymbolTableRecord
100
AcDbLinetypeTableRecord
  2
ACAD_ISO04W100
 70
     0
  3
ISO long-dash dot ____ . ____ . ____ . ____ . _
 72
    65
 73
     4
 40
30.0
 49
24.0
 74
     0
 49
-3.0
 74
     0
 49
0.0
 74
     0
 49
-3.0
 74
     0
  0
LTYPE
  5
19E
330
5
100
AcDbSymbolTableRecord
100
AcDbLinetypeTableRecord
  2
ACAD_ISO02W100
 70
     0
  3
ISO dash __ __ __ __ __ __ __ __ __ __ __ __ __
 72
    65
 73
     2
 40
15.0
 49
12.0
 74
     0
 49
-3.0
 74
     0
  0
ENDTAB
  0
TABLE
  2
LAYER
  5
2
102
{ACAD_XDICTIONARY
360
6C5
102
}
330
0
100
AcDbSymbolTable
 70
    11
  0
LAYER
  5
10
102
{ACAD_XDICTIONARY
360
9F26
102
}
330
2
100
AcDbSymbolTableRecord
100
AcDbLayerTableRecord
  2
0
 70
     0
 62
     7
  6
Continuous
370
    25
390
F
  0
LAYER
  5
32
102
{ACAD_XDICTIONARY
360
9F2A
102
}
330
2
100
AcDbSymbolTableRecord
100
AcDbLayerTableRecord
  2
002
 70
     0
 62
     6
  6
Continuous
370
    35
390
F
  0
LAYER
  5
33
102
{ACAD_XDICTIONARY
360
9F2C
102
}
330
2
100
AcDbSymbolTableRecord
100
AcDbLayerTableRecord
  2
003
 70
     0
 62
     2
  6
Continuous
370
    25
390
F
  0
LAYER
  5
1A4
102
{ACAD_XDICTIONARY
360
9F32
102
}
330
2
100
AcDbSymbolTableRecord
100
AcDbLayerTableRecord
  2
006
 70
     0
 62
     4
  6
ACAD_ISO04W100
370
    20
390
F
  0
LAYER
  5
1A5
102
{ACAD_XDICTIONARY
360
9F34
102
}
330
2
100
AcDbSymbolTableRecord
100
AcDbLayerTableRecord
  2
007
 70
     0
 62
     4
  6
ACAD_ISO02W100
370
    20
390
F
  0
LAYER
  5
1A8
330
2
100
AcDbSymbolTableRecord
100
AcDbLayerTableRecord
  2
Defpoints
 70
     0
 62
   151
  6
Continuous
290
     0
370
    25
390
F
  0
LAYER
  5
2B1
102
{ACAD_XDICTIONARY
360
9F3A
102
}
330
2
100
AcDbSymbolTableRecord
100
AcDbLayerTableRecord
  2
010
 70
     0
 62
     4
  6
Continuous
370
    20
390
F
  0
LAYER
  5
11A3A
330
2
100
AcDbSymbolTableRecord
100
AcDbLayerTableRecord
  2
0000躯体
 70
     0
 62
   253
  6
Continuous
370
    -3
390
F
1001
AcAecLayerStandard
1000

1000

  0
LAYER
  5
11A59
330
2
100
AcDbSymbolTableRecord
100
AcDbLayerTableRecord
  2
0000寸法
 70
     0
 62
   255
  6
Continuous
370
    20
390
F
1001
AcAecLayerStandard
1000

1000

  0
LAYER
  5
2E17C
102
{ACAD_XDICTIONARY
360
2E17D
102
}
330
2
100
AcDbSymbolTableRecord
100
AcDbLayerTableRecord
  2
001
 70
     0
 62
     5
  6
Continuous
370
    70
390
F
  0
LAYER
  5
2E17F
330
2
100
AcDbSymbolTableRecord
100
AcDbLayerTableRecord
  2
2
 70
     0
 62
     7
  6
Continuous
370
    -3
390
F
  0
ENDTAB
  0
TABLE
  2
STYLE
  5
3
330
0
100
AcDbSymbolTable
 70
     5
  0
STYLE
  5
11
330
3
100
AcDbSymbolTableRecord
100
AcDbTextStyleTableRecord
  2
Standard
 70
     0
 40
0.0
 41
1.0
 50
0.0
 71
     0
 42
2.5
  3
txt
  4

  0
STYLE
  5
34
330
3
100
AcDbSymbolTableRecord
100
AcDbTextStyleTableRecord
  2
DIM
 70
     0
 40
0.0
 41
0.75
 50
0.0
 71
     0
 42
60.0
  3
romans.shx
  4
extfont.shx
  0
STYLE
  5
35
330
3
100
AcDbSymbolTableRecord
100
AcDbTextStyleTableRecord
  2
AT_VECTOR
 70
     0
 40
0.0
 41
1.0
 50
0.0
 71
     0
 42
3.0
  3
romans.shx
  4
extfont.shx
  0
STYLE
  5
18343
330
3
100
AcDbSymbolTableRecord
100
AcDbTextStyleTableRecord
  2
ｺﾞｼｯｸ（横）
 70
     0
 40
0.0
 41
1.0
 50
0.0
 71
     0
 42
3.0
  3

  4

1001
ACAD
1000
MS PGothic
1071
    32818
  0
STYLE
  5
1834F
330
3
100
AcDbSymbolTableRecord
100
AcDbTextStyleTableRecord
  2
ｺﾞｼｯｸ（縦）
 70
     0
 40
0.0
 41
1.0
 50
0.0
 71
     0
 42
3.0
  3

  4

1001
ACAD
1000
@MS PGothic
1071
    32818
  0
ENDTAB
  0
TABLE
  2
VIEW
  5
6
330
0
100
AcDbSymbolTable
 70
     0
  0
ENDTAB
  0
TABLE
  2
UCS
  5
7
330
0
100
AcDbSymbolTable
 70
     0
  0
ENDTAB
  0
TABLE
  2
APPID
  5
9
330
0
100
AcDbSymbolTable
 70
    28
  0
APPID
  5
12
330
9
100
AcDbSymbolTableRecord
100
AcDbRegAppTableRecord
  2
ACAD
 70
     0
  0
APPID
  5
9CB2
330
9
100
AcDbSymbolTableRecord
100
AcDbRegAppTableRecord
  2
ACAD_MLEADERVER
 70
     0
  0
APPID
  5
9D67
330
9
100
AcDbSymbolTableRecord
100
AcDbRegAppTableRecord
  2
ACAD_PSEXT
 70
     0
  0
APPID
  5
9D68
330
9
100
AcDbSymbolTableRecord
100
AcDbRegAppTableRecord
  2
ACAD_DSTYLE_DIMJAG
 70
     0
  0
APPID
  5
9D69
330
9
100
AcDbSymbolTableRecord
100
AcDbRegAppTableRecord
  2
ACAD_DSTYLE_DIMTALN
 70
     0
  0
APPID
  5
9F0E
330
9
100
AcDbSymbolTableRecord
100
AcDbRegAppTableRecord
  2
ACAD_EXEMPT_FROM_CAD_STANDARDS
 70
     0
  0
APPID
  5
A7A1
330
9
100
AcDbSymbolTableRecord
100
AcDbRegAppTableRecord
  2
AcAecLayerStandard
 70
     0
  0
APPID
  5
A7A2
330
9
100
AcDbSymbolTableRecord
100
AcDbRegAppTableRecord
  2
ACAD_DSTYLE_DIMJOGGED_JOGANGLE_SYMBOL
 70
     0
  0
APPID
  5
CA00
330
9
100
AcDbSymbolTableRecord
100
AcDbRegAppTableRecord
  2
ACAD_DSTYLE_DIMRADIAL_EXTENSION
 70
     0
  0
APPID
  5
CA01
330
9
100
AcDbSymbolTableRecord
100
AcDbRegAppTableRecord
  2
ACAD_DSTYLE_DIMTEXT_FILL
 70
     0
  0
APPID
  5
CF93
330
9
100
AcDbSymbolTableRecord
100
AcDbRegAppTableRecord
  2
GENIUS_GENODEF_13
 70
     0
  0
APPID
  5
CF94
330
9
100
AcDbSymbolTableRecord
100
AcDbRegAppTableRecord
  2
GENIUS_GENOBJ-N-FIL_13
 70
     0
  0
APPID
  5
CF95
330
9
100
AcDbSymbolTableRecord
100
AcDbRegAppTableRecord
  2
GENIUS_GENOBJ-N-HTC_13
 70
     0
  0
APPID
  5
CF96
330
9
100
AcDbSymbolTableRecord
100
AcDbRegAppTableRecord
  2
GENIUS_GENHATCH_13
 70
     0
  0
APPID
  5
CF97
330
9
100
AcDbSymbolTableRecord
100
AcDbRegAppTableRecord
  2
GENIUS_GENREC_14
 70
     0
  0
APPID
  5
CF98
330
9
100
AcDbSymbolTableRecord
100
AcDbRegAppTableRecord
  2
GENIUS_GENOBJ-N-REC_13
 70
     0
  0
APPID
  5
CF99
330
9
100
AcDbSymbolTableRecord
100
AcDbRegAppTableRecord
  2
YALIB
 70
     0
  0
APPID
  5
CF9A
330
9
100
AcDbSymbolTableRecord
100
AcDbRegAppTableRecord
  2
MYHANDLE
 70
     0
  0
APPID
  5
CF9B
330
9
100
AcDbSymbolTableRecord
100
AcDbRegAppTableRecord
  2
GROUP
 70
     0
  0
APPID
  5
CF9C
330
9
100
AcDbSymbolTableRecord
100
AcDbRegAppTableRecord
  2
YOBJCUT10114081642
 70
     0
  0
APPID
  5
CF9D
330
9
100
AcDbSymbolTableRecord
100
AcDbRegAppTableRecord
  2
YOBJCUT10114103941
 70
     0
  0
APPID
  5
CF9E
330
9
100
AcDbSymbolTableRecord
100
AcDbRegAppTableRecord
  2
YOBJCUT10114103945
 70
     0
  0
APPID
  5
F5BD
330
9
100
AcDbSymbolTableRecord
100
AcDbRegAppTableRecord
  2
YOBJCUT10209125520
 70
     0
  0
APPID
  5
F5BE
330
9
100
AcDbSymbolTableRecord
100
AcDbRegAppTableRecord
  2
YOBJCUT10209131805
 70
     0
  0
APPID
  5
F5BF
330
9
100
AcDbSymbolTableRecord
100
AcDbRegAppTableRecord
  2
AEC_XDATA_BOUND_SPACE
 70
     0
  0
APPID
  5
F5C0
330
9
100
AcDbSymbolTableRecord
100
AcDbRegAppTableRecord
  2
APCAD3_KATACH
 70
     0
  0
APPID
  5
17D29
330
9
100
AcDbSymbolTableRecord
100
AcDbRegAppTableRecord
  2
AcadAnnotative
 70
     0
  0
APPID
  5
18344
330
9
100
AcDbSymbolTableRecord
100
AcDbRegAppTableRecord
  2
AcadAnnoPO
 70
     0
  0
ENDTAB
  0
TABLE
  2
DIMSTYLE
  5
A
330
0
100
AcDbSymbolTable
 70
     2
100
AcDbDimStyleTable
 71
     2
340
38
340
1A9
  0
DIMSTYLE
105
38
102
{ACAD_REACTORS
330
272B2
330
2E94D
330
2E95A
330
2E967
330
2EA8A
330
2EA97
330
2EAA4
330
2EAD5
102
}
330
A
100
AcDbSymbolTableRecord
100
AcDbDimStyleTableRecord
  2
DIM
 70
     0
 41
1.5
 42
1.5
 43
7.0
 44
1.0
 73
     0
 74
     0
 77
     1
 78
     8
140
3.0
141
0.0
143
0.03937007874016
147
1.0
171
     3
172
     1
176
     4
177
     4
178
     7
271
     2
272
     2
274
     3
283
     0
284
     8
340
34
341
2B
342
2B
371
    20
372
    20
  0
DIMSTYLE
105
1A9
330
A
100
AcDbSymbolTableRecord
100
AcDbDimStyleTableRecord
  2
Standard
 70
     0
340
11
  0
ENDTAB
  0
TABLE
  2
BLOCK_RECORD
  5
1
330
0
100
AcDbSymbolTable
 70
    11
  0
BLOCK_RECORD
  5
1F
102
{ACAD_XDICTIONARY
360
9EA6
102
}
330
1
100
AcDbSymbolTableRecord
100
AcDbBlockTableRecord
  2
*Model_Space
340
22
  0
BLOCK_RECORD
  5
1B
330
1
100
AcDbSymbolTableRecord
100
AcDbBlockTableRecord
  2
*Paper_Space
340
1E
  0
BLOCK_RECORD
  5
23
330
1
100
AcDbSymbolTableRecord
100
AcDbBlockTableRecord
  2
*Paper_Space0
340
26
  0
BLOCK_RECORD
  5
2B
330
1
100
AcDbSymbolTableRecord
100
AcDbBlockTableRecord
  2
_Open30
340
0
102
{BLKREFS
331
28EF6
331
28EF7
331
2E981
331
2E982
331
2E98A
331
2E98B
331
2E9AE
331
2E9AF
331
2E9FF
331
2EA00
331
2EA8F
331
2EA90
331
2EAB4
331
2EAB5
331
2EAC6
331
2EAC7
331
2EB1D
331
2EB1E
102
}
  0
BLOCK_RECORD
  5
272B3
330
1
100
AcDbSymbolTableRecord
100
AcDbBlockTableRecord
  2
*D2
340
0
  0
BLOCK_RECORD
  5
2E94E
330
1
100
AcDbSymbolTableRecord
100
AcDbBlockTableRecord
  2
*D3
340
0
  0
BLOCK_RECORD
  5
2E95B
330
1
100
AcDbSymbolTableRecord
100
AcDbBlockTableRecord
  2
*D4
340
0
  0
BLOCK_RECORD
  5
2E968
330
1
100
AcDbSymbolTableRecord
100
AcDbBlockTableRecord
  2
*D5
340
0
  0
BLOCK_RECORD
  5
2E9FB
330
1
100
AcDbSymbolTableRecord
100
AcDbBlockTableRecord
  2
*D6
340
0
  0
BLOCK_RECORD
  5
2EA8B
330
1
100
AcDbSymbolTableRecord
100
AcDbBlockTableRecord
  2
*D7
340
0
  0
BLOCK_RECORD
  5
2EA98
330
1
100
AcDbSymbolTableRecord
100
AcDbBlockTableRecord
  2
*D8
340
0
  0
BLOCK_RECORD
  5
2EAA5
330
1
100
AcDbSymbolTableRecord
100
AcDbBlockTableRecord
  2
*D9
340
0
  0
BLOCK_RECORD
  5
2EB0E
330
1
100
AcDbSymbolTableRecord
100
AcDbBlockTableRecord
  2
*D10
340
0
  0
ENDTAB
  0
ENDSEC
  0
SECTION
  2
BLOCKS
  0
BLOCK
  5
20
330
1F
100
AcDbEntity
  8
0
100
AcDbBlockBegin
  2
*Model_Space
 70
     0
 10
0.0
 20
0.0
 30
0.0
  3
*Model_Space
  1

  0
ENDBLK
  5
21
330
1F
100
AcDbEntity
  8
0
100
AcDbBlockEnd
  0
BLOCK
  5
1C
330
1B
100
AcDbEntity
 67
     1
  8
0
100
AcDbBlockBegin
  2
*Paper_Space
 70
     0
 10
0.0
 20
0.0
 30
0.0
  3
*Paper_Space
  1

  0
ENDBLK
  5
1D
330
1B
100
AcDbEntity
 67
     1
  8
0
100
AcDbBlockEnd
  0
BLOCK
  5
24
330
23
100
AcDbEntity
 67
     1
  8
0
100
AcDbBlockBegin
  2
*Paper_Space0
 70
     0
 10
0.0
 20
0.0
 30
0.0
  3
*Paper_Space0
  1

  0
ENDBLK
  5
25
330
23
100
AcDbEntity
 67
     1
  8
0
100
AcDbBlockEnd
  0
BLOCK
  5
2F
330
2B
100
AcDbEntity
  8
0
100
AcDbBlockBegin
  2
_Open30
 70
     0
 10
0.0
 20
0.0
 30
0.0
  3
_Open30
  1

  0
LINE
  5
2C
330
2B
100
AcDbEntity
  8
0
  6
ByBlock
 62
     0
370
    -2
100
AcDbLine
 10
-1.0
 20
0.26794919
 30
0.0
 11
0.0
 21
0.0
 31
0.0
  0
LINE
  5
2D
330
2B
100
AcDbEntity
  8
0
  6
ByBlock
 62
     0
370
    -2
100
AcDbLine
 10
0.0
 20
0.0
 30
0.0
 11
-1.0
 21
-0.26794919
 31
0.0
  0
LINE
  5
2E
330
2B
100
AcDbEntity
  8
0
  6
ByBlock
 62
     0
370
    -2
100
AcDbLine
 10
0.0
 20
0.0
 30
0.0
 11
-1.0
 21
0.0
 31
0.0
  0
ENDBLK
  5
30
330
2B
100
AcDbEntity
  8
0
100
AcDbBlockEnd
  0
BLOCK
  5
272B4
330
272B3
100
AcDbEntity
  8
0
 48
0.2
100
AcDbBlockBegin
  2
*D2
 70
     1
 10
0.0
 20
0.0
 30
0.0
  3
*D2
  1

  0
LINE
  5
28EF3
330
272B3
100
AcDbEntity
  8
003
 62
     4
 48
0.2
370
    20
100
AcDbLine
 10
973.0908128471735
 20
485.7439010538277
 30
0.0
 11
973.0908128471735
 21
449.0823118498255
 31
0.0
  0
LINE
  5
28EF4
330
272B3
100
AcDbEntity
  8
003
 62
     4
 48
0.2
370
    20
100
AcDbLine
 10
793.0908128471736
 20
485.7439010538277
 30
0.0
 11
793.0908128471736
 21
449.0823118498255
 31
0.0
  0
LINE
  5
28EF5
330
272B3
100
AcDbEntity
  8
003
 62
     4
 48
0.2
370
    20
100
AcDbLine
 10
969.9408128471736
 20
451.1823118498255
 30
0.0
 11
796.2408128471736
 21
451.1823118498255
 31
0.0
  0
INSERT
  5
28EF6
330
272B3
100
AcDbEntity
  8
003
 62
     4
 48
0.2
370
    20
100
AcDbBlockReference
  2
_Open30
 10
973.0908128471735
 20
451.1823118498255
 30
0.0
 41
3.15
 42
3.15
 43
3.15
  0
INSERT
  5
28EF7
330
272B3
100
AcDbEntity
  8
003
 62
     4
 48
0.2
370
    20
100
AcDbBlockReference
  2
_Open30
 10
793.0908128471736
 20
451.1823118498255
 30
0.0
 41
3.15
 42
3.15
 43
3.15
 50
180.0
  0
MTEXT
  5
28EF8
330
272B3
100
AcDbEntity
  8
003
 62
     7
 48
0.2
100
AcDbMText
 10
883.0908128471735
 20
456.4323118498255
 30
0.0
 40
6.3
 41
0.0
 71
     5
 72
     1
  1
開口W
  7
DIM
 73
     1
 44
1.0
1001
ACAD
1000
MTEXTBEGIN
1070
    73
1070
     1
1070
    44
1040
1.0
1070
    74
1070
     0
1000
MTEXTEND
1000
ACAD_MTEXT_BBRT
1070
    91
1071
        3
1070
    46
1040
1.1
1070
    64
1071
-1027028792
1070
    65
1000

1070
    66
1000

1070
   442
1071
 16712587
1000
ACAD_MTEXT_BERT
  0
POINT
  5
28EF9
330
272B3
100
AcDbEntity
  8
Defpoints
 62
     0
 48
0.2
100
AcDbPoint
 10
973.0908128471735
 20
488.8939010538276
 30
0.0
  0
POINT
  5
28EFA
330
272B3
100
AcDbEntity
  8
Defpoints
 62
     0
 48
0.2
100
AcDbPoint
 10
793.0908128471736
 20
488.8939010538276
 30
0.0
  0
POINT
  5
28EFB
330
272B3
100
AcDbEntity
  8
Defpoints
 62
     0
 48
0.2
100
AcDbPoint
 10
793.0908128471736
 20
451.1823118498255
 30
0.0
  0
ENDBLK
  5
272B5
330
272B3
100
AcDbEntity
  8
0
 48
0.2
100
AcDbBlockEnd
  0
BLOCK
  5
2E958
330
2E94E
100
AcDbEntity
  8
0
 48
0.2
100
AcDbBlockBegin
  2
*D3
 70
     1
 10
0.0
 20
0.0
 30
0.0
  3
*D3
  1

  0
LINE
  5
2E987
330
2E94E
100
AcDbEntity
  8
003
 62
     4
 48
0.2
370
    20
100
AcDbLine
 10
252.5140261248957
 20
641.6340894430755
 30
0.0
 11
252.5140261248957
 21
648.0846983191035
 31
0.0
  0
LINE
  5
2E988
330
2E94E
100
AcDbEntity
  8
003
 62
     4
 48
0.2
370
    20
100
AcDbLine
 10
285.5140261248955
 20
641.6340894430755
 30
0.0
 11
285.5140261248955
 21
648.0846983191035
 31
0.0
  0
LINE
  5
2E989
330
2E94E
100
AcDbEntity
  8
003
 62
     4
 48
0.2
370
    20
100
AcDbLine
 10
255.6640261248957
 20
645.9846983191035
 30
0.0
 11
282.3640261248955
 21
645.9846983191035
 31
0.0
  0
INSERT
  5
2E98A
330
2E94E
100
AcDbEntity
  8
003
 62
     4
 48
0.2
370
    20
100
AcDbBlockReference
  2
_Open30
 10
252.5140261248957
 20
645.9846983191035
 30
0.0
 41
3.15
 42
3.15
 43
3.15
 50
180.0
  0
INSERT
  5
2E98B
330
2E94E
100
AcDbEntity
  8
003
 62
     4
 48
0.2
370
    20
100
AcDbBlockReference
  2
_Open30
 10
285.5140261248955
 20
645.9846983191035
 30
0.0
 41
3.15
 42
3.15
 43
3.15
  0
MTEXT
  5
2E98C
330
2E94E
100
AcDbEntity
  8
003
 62
     7
 48
0.2
100
AcDbMText
 10
269.0140261248956
 20
651.2346983191036
 30
0.0
 40
6.3
 41
0.0
 71
     5
 72
     1
  1
33
  7
DIM
 73
     1
 44
1.0
1001
ACAD
1000
MTEXTBEGIN
1070
    73
1070
     1
1070
    44
1040
1.0
1070
    74
1070
     0
1000
MTEXTEND
  0
POINT
  5
2E98D
330
2E94E
100
AcDbEntity
  8
Defpoints
 62
     0
 48
0.2
100
AcDbPoint
 10
252.5140261248957
 20
638.4840894430754
 30
0.0
  0
POINT
  5
2E98E
330
2E94E
100
AcDbEntity
  8
Defpoints
 62
     0
 48
0.2
100
AcDbPoint
 10
285.5140261248955
 20
638.4840894430754
 30
0.0
  0
POINT
  5
2E98F
330
2E94E
100
AcDbEntity
  8
Defpoints
 62
     0
 48
0.2
100
AcDbPoint
 10
285.5140261248955
 20
645.9846983191035
 30
0.0
  0
ENDBLK
  5
2E959
330
2E94E
100
AcDbEntity
  8
0
 48
0.2
100
AcDbBlockEnd
  0
BLOCK
  5
2E965
330
2E95B
100
AcDbEntity
  8
0
 48
0.2
100
AcDbBlockBegin
  2
*D4
 70
     1
 10
0.0
 20
0.0
 30
0.0
  3
*D4
  1

  0
LINE
  5
2E97E
330
2E95B
100
AcDbEntity
  8
003
 62
     4
 48
0.2
370
    20
100
AcDbLine
 10
250.2640261248957
 20
641.6340894430755
 30
0.0
 11
250.2640261248957
 21
661.5217307527441
 31
0.0
  0
LINE
  5
2E97F
330
2E95B
100
AcDbEntity
  8
003
 62
     4
 48
0.2
370
    20
100
AcDbLine
 10
287.7640261248957
 20
641.6340894430755
 30
0.0
 11
287.7640261248957
 21
661.5217307527441
 31
0.0
  0
LINE
  5
2E980
330
2E95B
100
AcDbEntity
  8
003
 62
     4
 48
0.2
370
    20
100
AcDbLine
 10
253.4140261248957
 20
659.4217307527441
 30
0.0
 11
284.6140261248958
 21
659.4217307527441
 31
0.0
  0
INSERT
  5
2E981
330
2E95B
100
AcDbEntity
  8
003
 62
     4
 48
0.2
370
    20
100
AcDbBlockReference
  2
_Open30
 10
250.2640261248957
 20
659.4217307527441
 30
0.0
 41
3.15
 42
3.15
 43
3.15
 50
180.0
  0
INSERT
  5
2E982
330
2E95B
100
AcDbEntity
  8
003
 62
     4
 48
0.2
370
    20
100
AcDbBlockReference
  2
_Open30
 10
287.7640261248957
 20
659.4217307527441
 30
0.0
 41
3.15
 42
3.15
 43
3.15
  0
MTEXT
  5
2E983
330
2E95B
100
AcDbEntity
  8
003
 62
     7
 48
0.2
100
AcDbMText
 10
269.0140261248957
 20
664.6717307527441
 30
0.0
 40
6.3
 41
0.0
 71
     5
 72
     1
  1
37.5
  7
DIM
 73
     1
 44
1.0
1001
ACAD
1000
MTEXTBEGIN
1070
    73
1070
     1
1070
    44
1040
1.0
1070
    74
1070
     0
1000
MTEXTEND
  0
POINT
  5
2E984
330
2E95B
100
AcDbEntity
  8
Defpoints
 62
     0
 48
0.2
100
AcDbPoint
 10
250.2640261248957
 20
638.4840894430754
 30
0.0
  0
POINT
  5
2E985
330
2E95B
100
AcDbEntity
  8
Defpoints
 62
     0
 48
0.2
100
AcDbPoint
 10
287.7640261248957
 20
638.4840894430754
 30
0.0
  0
POINT
  5
2E986
330
2E95B
100
AcDbEntity
  8
Defpoints
 62
     0
 48
0.2
100
AcDbPoint
 10
287.7640261248957
 20
659.4217307527441
 30
0.0
  0
ENDBLK
  5
2E966
330
2E95B
100
AcDbEntity
  8
0
 48
0.2
100
AcDbBlockEnd
  0
BLOCK
  5
2E972
330
2E968
100
AcDbEntity
  8
0
 48
0.2
100
AcDbBlockBegin
  2
*D5
 70
     1
 10
0.0
 20
0.0
 30
0.0
  3
*D5
  1

  0
LINE
  5
2E9AB
330
2E968
100
AcDbEntity
  8
003
 62
     4
 48
0.2
370
    20
100
AcDbLine
 10
247.1140261248957
 20
638.4840894430754
 30
0.0
 11
236.5758179306354
 21
638.4840894430754
 31
0.0
  0
LINE
  5
2E9AC
330
2E968
100
AcDbEntity
  8
003
 62
     4
 48
0.2
370
    20
100
AcDbLine
 10
265.8640261248958
 20
599.4840894430756
 30
0.0
 11
236.5758179306354
 21
599.4840894430757
 31
0.0
  0
LINE
  5
2E9AD
330
2E968
100
AcDbEntity
  8
003
 62
     4
 48
0.2
370
    20
100
AcDbLine
 10
238.6758179306354
 20
635.3340894430755
 30
0.0
 11
238.6758179306354
 21
602.6340894430757
 31
0.0
  0
INSERT
  5
2E9AE
330
2E968
100
AcDbEntity
  8
003
 62
     4
 48
0.2
370
    20
100
AcDbBlockReference
  2
_Open30
 10
238.6758179306354
 20
638.4840894430754
 30
0.0
 41
3.15
 42
3.15
 43
3.15
 50
90.0
  0
INSERT
  5
2E9AF
330
2E968
100
AcDbEntity
  8
003
 62
     4
 48
0.2
370
    20
100
AcDbBlockReference
  2
_Open30
 10
238.6758179306354
 20
599.4840894430757
 30
0.0
 41
3.15
 42
3.15
 43
3.15
 50
270.0
  0
MTEXT
  5
2E9B0
330
2E968
100
AcDbEntity
  8
003
 62
     7
 48
0.2
100
AcDbMText
 10
233.4258179306353
 20
618.9840894430756
 30
0.0
 40
6.3
 41
0.0
 71
     5
 72
     1
  1
39
  7
DIM
 11
0.0000000000000001
 21
1.0
 31
0.0
 73
     1
 44
1.0
1001
ACAD
1000
MTEXTBEGIN
1070
    73
1070
     1
1070
    44
1040
1.0
1070
    74
1070
     0
1000
MTEXTEND
  0
POINT
  5
2E9B1
330
2E968
100
AcDbEntity
  8
Defpoints
 62
     0
 48
0.2
100
AcDbPoint
 10
250.2640261248957
 20
638.4840894430754
 30
0.0
  0
POINT
  5
2E9B2
330
2E968
100
AcDbEntity
  8
Defpoints
 62
     0
 48
0.2
100
AcDbPoint
 10
269.0140261248957
 20
599.4840894430756
 30
0.0
  0
POINT
  5
2E9B3
330
2E968
100
AcDbEntity
  8
Defpoints
 62
     0
 48
0.2
100
AcDbPoint
 10
238.6758179306354
 20
599.4840894430757
 30
0.0
  0
ENDBLK
  5
2E973
330
2E968
100
AcDbEntity
  8
0
 48
0.2
100
AcDbBlockEnd
  0
BLOCK
  5
2EA05
330
2E9FB
100
AcDbEntity
  8
0
 48
0.2
100
AcDbBlockBegin
  2
*D6
 70
     1
 10
0.0
 20
0.0
 30
0.0
  3
*D6
  1

  0
LINE
  5
2E9FC
330
2E9FB
100
AcDbEntity
  8
003
 62
     4
 48
0.2
370
    20
100
AcDbLine
 10
793.0908128471736
 20
445.9323118498256
 30
0.0
 11
793.0908128471736
 21
384.4803920250837
 31
0.0
  0
LINE
  5
2E9FD
330
2E9FB
100
AcDbEntity
  8
003
 62
     4
 48
0.2
370
    20
100
AcDbLine
 10
973.0908128471735
 20
445.9323118498256
 30
0.0
 11
973.0908128471735
 21
384.4803920250837
 31
0.0
  0
LINE
  5
2E9FE
330
2E9FB
100
AcDbEntity
  8
003
 62
     4
 48
0.2
370
    20
100
AcDbLine
 10
796.2408128471736
 20
386.5803920250837
 30
0.0
 11
969.9408128471736
 21
386.5803920250837
 31
0.0
  0
INSERT
  5
2E9FF
330
2E9FB
100
AcDbEntity
  8
003
 62
     4
 48
0.2
370
    20
100
AcDbBlockReference
  2
_Open30
 10
793.0908128471736
 20
386.5803920250837
 30
0.0
 41
3.15
 42
3.15
 43
3.15
 50
180.0
  0
INSERT
  5
2EA00
330
2E9FB
100
AcDbEntity
  8
003
 62
     4
 48
0.2
370
    20
100
AcDbBlockReference
  2
_Open30
 10
973.0908128471735
 20
386.5803920250837
 30
0.0
 41
3.15
 42
3.15
 43
3.15
  0
MTEXT
  5
2EA01
330
2E9FB
100
AcDbEntity
  8
003
 62
     7
 48
0.2
100
AcDbMText
 10
883.0908128471735
 20
391.8303920250837
 30
0.0
 40
6.3
 41
0.0
 71
     5
 72
     1
  1
180
  7
DIM
 73
     1
 44
1.0
1001
ACAD
1000
MTEXTBEGIN
1070
    73
1070
     1
1070
    44
1040
1.0
1070
    74
1070
     0
1000
MTEXTEND
  0
POINT
  5
2EA02
330
2E9FB
100
AcDbEntity
  8
Defpoints
 62
     0
 48
0.2
100
AcDbPoint
 10
793.0908128471736
 20
449.0823118498255
 30
0.0
  0
POINT
  5
2EA03
330
2E9FB
100
AcDbEntity
  8
Defpoints
 62
     0
 48
0.2
100
AcDbPoint
 10
973.0908128471735
 20
449.0823118498255
 30
0.0
  0
POINT
  5
2EA04
330
2E9FB
100
AcDbEntity
  8
Defpoints
 62
     0
 48
0.2
100
AcDbPoint
 10
973.0908128471735
 20
386.5803920250837
 30
0.0
  0
ENDBLK
  5
2EA06
330
2E9FB
100
AcDbEntity
  8
0
 48
0.2
100
AcDbBlockEnd
  0
BLOCK
  5
2EA95
330
2EA8B
100
AcDbEntity
  8
0
 48
0.2
100
AcDbBlockBegin
  2
*D7
 70
     1
 10
0.0
 20
0.0
 30
0.0
  3
*D7
  1

  0
LINE
  5
2EA8C
330
2EA8B
100
AcDbEntity
  8
003
 62
     4
 48
0.2
370
    20
100
AcDbLine
 10
793.0908128471737
 20
475.040180730889
 30
0.0
 11
793.0908128471737
 21
463.7823118498255
 31
0.0
  0
LINE
  5
2EA8D
330
2EA8B
100
AcDbEntity
  8
003
 62
     4
 48
0.2
370
    20
100
AcDbLine
 10
821.0908128471736
 20
496.9939010538285
 30
0.0
 11
821.0908128471736
 21
463.7823118498255
 31
0.0
  0
LINE
  5
2EA8E
330
2EA8B
100
AcDbEntity
  8
003
 62
     4
 48
0.2
370
    20
100
AcDbLine
 10
796.2408128471737
 20
465.8823118498255
 30
0.0
 11
817.9408128471735
 21
465.8823118498255
 31
0.0
  0
INSERT
  5
2EA8F
330
2EA8B
100
AcDbEntity
  8
003
 62
     4
 48
0.2
370
    20
100
AcDbBlockReference
  2
_Open30
 10
793.0908128471737
 20
465.8823118498255
 30
0.0
 41
3.15
 42
3.15
 43
3.15
 50
180.0
  0
INSERT
  5
2EA90
330
2EA8B
100
AcDbEntity
  8
003
 62
     4
 48
0.2
370
    20
100
AcDbBlockReference
  2
_Open30
 10
821.0908128471736
 20
465.8823118498255
 30
0.0
 41
3.15
 42
3.15
 43
3.15
  0
MTEXT
  5
2EA91
330
2EA8B
100
AcDbEntity
  8
003
 62
     7
 48
0.2
100
AcDbMText
 10
807.0908128471737
 20
471.1323118498255
 30
0.0
 40
6.3
 41
0.0
 71
     5
 72
     1
  1
28
  7
DIM
 73
     1
 44
1.0
1001
ACAD
1000
MTEXTBEGIN
1070
    73
1070
     1
1070
    44
1040
1.0
1070
    74
1070
     0
1000
MTEXTEND
  0
POINT
  5
2EA92
330
2EA8B
100
AcDbEntity
  8
Defpoints
 62
     0
 48
0.2
100
AcDbPoint
 10
793.0908128471737
 20
478.190180730889
 30
0.0
  0
POINT
  5
2EA93
330
2EA8B
100
AcDbEntity
  8
Defpoints
 62
     0
 48
0.2
100
AcDbPoint
 10
821.0908128471736
 20
500.1439010538285
 30
0.0
  0
POINT
  5
2EA94
330
2EA8B
100
AcDbEntity
  8
Defpoints
 62
     0
 48
0.2
100
AcDbPoint
 10
821.0908128471736
 20
465.8823118498255
 30
0.0
  0
ENDBLK
  5
2EA96
330
2EA8B
100
AcDbEntity
  8
0
 48
0.2
100
AcDbBlockEnd
  0
BLOCK
  5
2EAA2
330
2EA98
100
AcDbEntity
  8
0
 48
0.2
100
AcDbBlockBegin
  2
*D8
 70
     1
 10
0.0
 20
0.0
 30
0.0
  3
*D8
  1

  0
LINE
  5
2EAC3
330
2EA98
100
AcDbEntity
  8
003
 62
     4
 48
0.2
370
    20
100
AcDbLine
 10
853.8911725567706
 20
534.8939010538286
 30
0.0
 11
865.6238921318015
 21
534.8939010538286
 31
0.0
  0
LINE
  5
2EAC4
330
2EA98
100
AcDbEntity
  8
003
 62
     4
 48
0.2
370
    20
100
AcDbLine
 10
855.3911725567706
 20
502.8939010538285
 30
0.0
 11
865.6238921318015
 21
502.8939010538285
 31
0.0
  0
LINE
  5
2EAC5
330
2EA98
100
AcDbEntity
  8
003
 62
     4
 48
0.2
370
    20
100
AcDbLine
 10
863.5238921318014
 20
531.7439010538286
 30
0.0
 11
863.5238921318014
 21
506.0439010538285
 31
0.0
  0
INSERT
  5
2EAC6
330
2EA98
100
AcDbEntity
  8
003
 62
     4
 48
0.2
370
    20
100
AcDbBlockReference
  2
_Open30
 10
863.5238921318014
 20
534.8939010538286
 30
0.0
 41
3.15
 42
3.15
 43
3.15
 50
90.0
  0
INSERT
  5
2EAC7
330
2EA98
100
AcDbEntity
  8
003
 62
     4
 48
0.2
370
    20
100
AcDbBlockReference
  2
_Open30
 10
863.5238921318014
 20
502.8939010538285
 30
0.0
 41
3.15
 42
3.15
 43
3.15
 50
270.0
  0
MTEXT
  5
2EAC8
330
2EA98
100
AcDbEntity
  8
003
 62
     7
 48
0.2
100
AcDbMText
 10
858.2738921318014
 20
518.8939010538287
 30
0.0
 40
6.3
 41
0.0
 71
     5
 72
     1
  1
32φ
  7
DIM
 11
0.0000000000000001
 21
1.0
 31
0.0
 73
     1
 44
1.0
1001
ACAD
1000
MTEXTBEGIN
1070
    73
1070
     1
1070
    44
1040
1.0
1070
    74
1070
     0
1000
MTEXTEND
  0
POINT
  5
2EAC9
330
2EA98
100
AcDbEntity
  8
Defpoints
 62
     0
 48
0.2
100
AcDbPoint
 10
850.7411725567706
 20
534.8939010538286
 30
0.0
  0
POINT
  5
2EACA
330
2EA98
100
AcDbEntity
  8
Defpoints
 62
     0
 48
0.2
100
AcDbPoint
 10
852.2411725567705
 20
502.8939010538285
 30
0.0
  0
POINT
  5
2EACB
330
2EA98
100
AcDbEntity
  8
Defpoints
 62
     0
 48
0.2
100
AcDbPoint
 10
863.5238921318014
 20
502.8939010538285
 30
0.0
  0
ENDBLK
  5
2EAA3
330
2EA98
100
AcDbEntity
  8
0
 48
0.2
100
AcDbBlockEnd
  0
BLOCK
  5
2EAAF
330
2EAA5
100
AcDbEntity
  8
0
 48
0.2
100
AcDbBlockBegin
  2
*D9
 70
     1
 10
0.0
 20
0.0
 30
0.0
  3
*D9
  1

  0
LINE
  5
2EAB1
330
2EAA5
100
AcDbEntity
  8
003
 62
     4
 48
0.2
370
    20
100
AcDbLine
 10
825.7408128471734
 20
537.6439010538286
 30
0.0
 11
838.7280817465436
 21
537.6439010538286
 31
0.0
  0
LINE
  5
2EAB2
330
2EAA5
100
AcDbEntity
  8
003
 62
     4
 48
0.2
370
    20
100
AcDbLine
 10
825.7408128471734
 20
500.1439010538285
 30
0.0
 11
838.7280817465436
 21
500.1439010538285
 31
0.0
  0
LINE
  5
2EAB3
330
2EAA5
100
AcDbEntity
  8
003
 62
     4
 48
0.2
370
    20
100
AcDbLine
 10
836.6280817465435
 20
534.4939010538285
 30
0.0
 11
836.6280817465435
 21
503.2939010538284
 31
0.0
  0
INSERT
  5
2EAB4
330
2EAA5
100
AcDbEntity
  8
003
 62
     4
 48
0.2
370
    20
100
AcDbBlockReference
  2
_Open30
 10
836.6280817465435
 20
537.6439010538286
 30
0.0
 41
3.15
 42
3.15
 43
3.15
 50
90.0
  0
INSERT
  5
2EAB5
330
2EAA5
100
AcDbEntity
  8
003
 62
     4
 48
0.2
370
    20
100
AcDbBlockReference
  2
_Open30
 10
836.6280817465435
 20
500.1439010538285
 30
0.0
 41
3.15
 42
3.15
 43
3.15
 50
270.0
  0
MTEXT
  5
2EAB6
330
2EAA5
100
AcDbEntity
  8
003
 62
     7
 48
0.2
100
AcDbMText
 10
831.3780817465435
 20
518.8939010538287
 30
0.0
 40
6.3
 41
0.0
 71
     5
 72
     1
  1
37.5
  7
DIM
 11
0.0000000000000001
 21
1.0
 31
0.0
 73
     1
 44
1.0
1001
ACAD
1000
MTEXTBEGIN
1070
    73
1070
     1
1070
    44
1040
1.0
1070
    74
1070
     0
1000
MTEXTEND
  0
POINT
  5
2EAB7
330
2EAA5
100
AcDbEntity
  8
Defpoints
 62
     0
 48
0.2
100
AcDbPoint
 10
822.5908128471735
 20
537.6439010538286
 30
0.0
  0
POINT
  5
2EAB8
330
2EAA5
100
AcDbEntity
  8
Defpoints
 62
     0
 48
0.2
100
AcDbPoint
 10
822.5908128471735
 20
500.1439010538285
 30
0.0
  0
POINT
  5
2EAB9
330
2EAA5
100
AcDbEntity
  8
Defpoints
 62
     0
 48
0.2
100
AcDbPoint
 10
836.6280817465435
 20
500.1439010538285
 30
0.0
  0
ENDBLK
  5
2EAB0
330
2EAA5
100
AcDbEntity
  8
0
 48
0.2
100
AcDbBlockEnd
  0
BLOCK
  5
2EB18
330
2EB0E
100
AcDbEntity
  8
0
 48
0.2
100
AcDbBlockBegin
  2
*D10
 70
     1
 10
0.0
 20
0.0
 30
0.0
  3
*D10
  1

  0
LINE
  5
2EB1A
330
2EB0E
100
AcDbEntity
  8
003
 62
     4
 48
0.2
370
    20
100
AcDbLine
 10
973.0908128471735
 20
496.1439010538287
 30
0.0
 11
973.0908128471735
 21
467.9864604079494
 31
0.0
  0
LINE
  5
2EB1B
330
2EB0E
100
AcDbEntity
  8
003
 62
     4
 48
0.2
370
    20
100
AcDbLine
 10
945.0908128471736
 20
498.6439010538284
 30
0.0
 11
945.0908128471736
 21
467.9864604079494
 31
0.0
  0
LINE
  5
2EB1C
330
2EB0E
100
AcDbEntity
  8
003
 62
     4
 48
0.2
370
    20
100
AcDbLine
 10
971.5908128471735
 20
468.9864604079494
 30
0.0
 11
946.5908128471735
 21
468.9864604079494
 31
0.0
  0
INSERT
  5
2EB1D
330
2EB0E
100
AcDbEntity
  8
003
 62
     4
 48
0.2
370
    20
100
AcDbBlockReference
  2
_Open30
 10
973.0908128471735
 20
468.9864604079494
 30
0.0
 41
1.5
 42
1.5
 43
1.5
  0
INSERT
  5
2EB1E
330
2EB0E
100
AcDbEntity
  8
003
 62
     4
 48
0.2
370
    20
100
AcDbBlockReference
  2
_Open30
 10
945.0908128471736
 20
468.9864604079494
 30
0.0
 41
1.5
 42
1.5
 43
1.5
 50
180.0
  0
MTEXT
  5
2EB1F
330
2EB0E
100
AcDbEntity
  8
003
 62
     7
 48
0.2
100
AcDbMText
 10
959.0908128471735
 20
471.4864604079493
 30
0.0
 40
3.0
 41
0.0
 71
     5
 72
     1
  1
28
  7
DIM
 73
     1
 44
1.0
1001
ACAD
1000
MTEXTBEGIN
1070
    73
1070
     1
1070
    44
1040
1.0
1070
    74
1070
     0
1000
MTEXTEND
  0
POINT
  5
2EB20
330
2EB0E
100
AcDbEntity
  8
Defpoints
 62
     0
 48
0.2
100
AcDbPoint
 10
973.0908128471735
 20
497.6439010538288
 30
0.0
  0
POINT
  5
2EB21
330
2EB0E
100
AcDbEntity
  8
Defpoints
 62
     0
 48
0.2
100
AcDbPoint
 10
945.0908128471736
 20
500.1439010538284
 30
0.0
  0
POINT
  5
2EB22
330
2EB0E
100
AcDbEntity
  8
Defpoints
 62
     0
 48
0.2
100
AcDbPoint
 10
945.0908128471736
 20
468.9864604079494
 30
0.0
  0
ENDBLK
  5
2EB19
330
2EB0E
100
AcDbEntity
  8
0
 48
0.2
100
AcDbBlockEnd
  0
ENDSEC
  0
SECTION
  2
ENTITIES
  0
LINE
  5
F01B
330
1F
100
AcDbEntity
  8
0000躯体
 48
0.5
100
AcDbLine
 10
68.01402597350409
 20
456.8771056567539
 30
0.0
 11
68.01402597350409
 21
424.7035242618304
 31
0.0
  0
LINE
  5
F01C
330
1F
100
AcDbEntity
  8
0000躯体
 48
0.5
100
AcDbLine
 10
50.01402597350409
 20
449.5043039460283
 30
0.0
 11
68.01402597350409
 21
449.5043039460283
 31
0.0
  0
LINE
  5
11929
330
1F
100
AcDbEntity
  8
0000躯体
 48
0.5
100
AcDbLine
 10
248.0140261248952
 20
549.7540894430759
 30
0.0
 11
248.0140261248952
 21
552.9840894430757
 31
0.0
  0
LINE
  5
1192D
330
1F
100
AcDbEntity
  8
0000躯体
 48
0.5
100
AcDbLine
 10
248.0140261248952
 20
552.9840894430757
 30
0.0
 11
298.0140261248952
 21
552.9840894430757
 31
0.0
  0
LINE
  5
1192E
330
1F
100
AcDbEntity
  8
0000躯体
 48
0.5
100
AcDbLine
 10
298.0140261248952
 20
552.9840894430757
 30
0.0
 11
298.0140261248952
 21
527.9840894430757
 31
0.0
  0
LINE
  5
1192F
330
1F
100
AcDbEntity
  8
0000躯体
 48
0.5
100
AcDbLine
 10
298.0140261248952
 20
527.9840894430757
 30
0.0
 11
288.0140261248952
 21
527.9840894430757
 31
0.0
  0
LINE
  5
11930
330
1F
100
AcDbEntity
  8
0000躯体
 48
0.5
100
AcDbLine
 10
288.0140261248952
 20
527.9840894430757
 30
0.0
 11
288.0140261248952
 21
532.9840894430757
 31
0.0
  0
LINE
  5
11931
330
1F
100
AcDbEntity
  8
0000躯体
 48
0.5
100
AcDbLine
 10
288.0140261248952
 20
532.9840894430757
 30
0.0
 11
275.5140261248952
 21
532.9840894430757
 31
0.0
  0
LINE
  5
11932
330
1F
100
AcDbEntity
  8
0000躯体
 48
0.5
100
AcDbLine
 10
275.5140261248952
 20
532.9840894430757
 30
0.0
 11
275.5140261248952
 21
527.9840894430757
 31
0.0
  0
LINE
  5
11933
330
1F
100
AcDbEntity
  8
0000躯体
 48
0.5
100
AcDbLine
 10
275.5140261248952
 20
527.9840894430757
 30
0.0
 11
231.0140261248952
 21
527.9840894430757
 31
0.0
  0
LINE
  5
11934
330
1F
100
AcDbEntity
  8
0000躯体
 48
0.5
100
AcDbLine
 10
231.0140261248952
 20
527.9840894430757
 30
0.0
 11
231.0140261248952
 21
549.7540894430759
 31
0.0
  0
LINE
  5
11935
330
1F
100
AcDbEntity
  8
0000躯体
 48
0.5
100
AcDbLine
 10
231.0140261248952
 20
549.7540894430759
 30
0.0
 11
248.0140261248952
 21
549.7540894430759
 31
0.0
  0
LINE
  5
11936
330
1F
100
AcDbEntity
  8
0000躯体
 48
0.5
100
AcDbLine
 10
248.0140261248952
 20
549.7540894430759
 30
0.0
 11
248.0140261248952
 21
552.9840894430757
 31
0.0
  0
LINE
  5
1193E
330
1F
100
AcDbEntity
  8
0000躯体
 48
0.5
100
AcDbLine
 10
288.0140261248952
 20
532.9840894430757
 30
0.0
 11
288.0140261248952
 21
424.7035242618304
 31
0.0
  0
LINE
  5
1193F
330
1F
100
AcDbEntity
  8
0000躯体
 48
0.5
100
AcDbLine
 10
278.5140261248951
 20
424.7035242618304
 30
0.0
 11
278.5140261248951
 21
532.9840894430757
 31
0.0
  0
LINE
  5
11940
330
1F
100
AcDbEntity
  8
0000躯体
 48
0.5
100
AcDbLine
 10
278.5140261248951
 20
532.9840894430757
 30
0.0
 11
288.0140261248952
 21
532.9840894430757
 31
0.0
  0
LINE
  5
11943
330
1F
100
AcDbEntity
  8
0000躯体
 48
0.5
100
AcDbLine
 10
228.0140261248952
 20
424.7035242618304
 30
0.0
 11
228.0140261248952
 21
462.4840894430755
 31
0.0
  0
LINE
  5
11944
330
1F
100
AcDbEntity
  8
0000躯体
 48
0.5
100
AcDbLine
 10
228.0140261248952
 20
462.4840894430755
 30
0.0
 11
68.01402612489517
 21
437.4840894430755
 31
0.0
  0
LINE
  5
11945
330
1F
100
AcDbEntity
  8
0000躯体
 48
0.5
100
AcDbLine
 10
228.0140261248952
 20
507.9840894430757
 30
0.0
 11
228.0140261248952
 21
462.4840894430755
 31
0.0
  0
LINE
  5
11946
330
1F
100
AcDbEntity
  8
0000躯体
 48
0.5
100
AcDbLine
 10
253.0140261248952
 20
527.9840894430755
 30
0.0
 11
253.0140261248952
 21
424.7035242618304
 31
0.0
  0
LINE
  5
11948
330
1F
100
AcDbEntity
  8
0000躯体
 48
0.5
100
AcDbLine
 10
231.0140261248952
 20
527.9840894430757
 30
0.0
 11
228.0140261248952
 21
527.9840894430757
 31
0.0
  0
LINE
  5
11968
330
1F
100
AcDbEntity
  8
0000躯体
 48
0.5
100
AcDbLine
 10
228.0140261248952
 20
781.8499053564909
 30
0.0
 11
228.0140261248952
 21
762.9840894430757
 31
0.0
  0
LINE
  5
11969
330
1F
100
AcDbEntity
  8
0000躯体
 48
0.5
100
AcDbLine
 10
228.0140261248952
 20
762.9840894430757
 30
0.0
 11
143.0140261248951
 21
762.9840894430757
 31
0.0
  0
LINE
  5
1196A
330
1F
100
AcDbEntity
  8
0000躯体
 48
0.5
100
AcDbLine
 10
143.0140261248951
 20
762.9840894430757
 30
0.0
 11
143.0140261248951
 21
722.9840894430757
 31
0.0
  0
LINE
  5
1196B
330
1F
100
AcDbEntity
  8
0000躯体
 48
0.5
100
AcDbLine
 10
143.0140261248951
 20
722.9840894430757
 30
0.0
 11
83.01402612489516
 21
722.9840894430757
 31
0.0
  0
LINE
  5
1196C
330
1F
100
AcDbEntity
  8
0000躯体
 48
0.5
100
AcDbLine
 10
83.01402612489516
 20
722.9840894430757
 30
0.0
 11
68.01402612489517
 21
737.9840894430757
 31
0.0
  0
LINE
  5
1196D
330
1F
100
AcDbEntity
  8
0000躯体
 48
0.5
100
AcDbLine
 10
68.01402612489517
 20
737.9840894430757
 30
0.0
 11
68.01402612489517
 21
781.8499053564909
 31
0.0
  0
LINE
  5
1197F
330
1F
100
AcDbEntity
  8
0000躯体
 48
0.5
100
AcDbLine
 10
228.0140261248952
 20
737.9840894430757
 30
0.0
 11
228.0140261248952
 21
762.9840894430757
 31
0.0
  0
LINE
  5
11980
330
1F
100
AcDbEntity
  8
0000躯体
 48
0.5
100
AcDbLine
 10
253.0140261248952
 20
742.9840894430757
 30
0.0
 11
253.0140261248952
 21
781.8499053564909
 31
0.0
  0
LINE
  5
11985
330
1F
100
AcDbEntity
  8
0000躯体
 48
0.5
100
AcDbLine
 10
248.0140261248952
 20
717.9840894430757
 30
0.0
 11
298.0140261248952
 21
717.9840894430757
 31
0.0
  0
LINE
  5
11986
330
1F
100
AcDbEntity
  8
0000躯体
 48
0.5
100
AcDbLine
 10
298.0140261248952
 20
717.9840894430757
 30
0.0
 11
298.014026124895
 21
742.9840894430757
 31
0.0
  0
LINE
  5
11987
330
1F
100
AcDbEntity
  8
0000躯体
 48
0.5
100
AcDbLine
 10
275.5140261248952
 20
742.9840894430757
 30
0.0
 11
233.0140261248952
 21
742.9840894430757
 31
0.0
  0
LINE
  5
11988
330
1F
100
AcDbEntity
  8
0000躯体
 48
0.5
100
AcDbLine
 10
233.0140261248952
 20
742.9840894430757
 30
0.0
 11
233.0140261248952
 21
720.9840894430757
 31
0.0
  0
LINE
  5
11989
330
1F
100
AcDbEntity
  8
0000躯体
 48
0.5
100
AcDbLine
 10
233.0140261248952
 20
720.9840894430757
 30
0.0
 11
248.0140261248952
 21
720.9840894430757
 31
0.0
  0
LINE
  5
1198A
330
1F
100
AcDbEntity
  8
0000躯体
 48
0.5
100
AcDbLine
 10
248.0140261248952
 20
720.9840894430757
 30
0.0
 11
248.0140261248952
 21
717.9840894430757
 31
0.0
  0
LINE
  5
119A2
330
1F
100
AcDbEntity
  8
0000躯体
 48
0.5
100
AcDbLine
 10
288.0140261248952
 20
752.4840894430757
 30
0.0
 11
288.0140261248952
 21
742.9840894430757
 31
0.0
  0
LINE
  5
119E8
330
1F
100
AcDbEntity
  8
0000躯体
 48
0.5
100
AcDbLine
 10
288.0140261248952
 20
742.9840894430757
 30
0.0
 11
288.0140261248952
 21
737.9840894430757
 31
0.0
  0
LINE
  5
119E9
330
1F
100
AcDbEntity
  8
0000躯体
 48
0.5
100
AcDbLine
 10
288.0140261248952
 20
737.9840894430757
 30
0.0
 11
275.5140261248952
 21
737.9840894430757
 31
0.0
  0
LINE
  5
119EA
330
1F
100
AcDbEntity
  8
0000躯体
 48
0.5
100
AcDbLine
 10
275.5140261248952
 20
737.9840894430757
 30
0.0
 11
275.5140261248952
 21
742.9840894430757
 31
0.0
  0
LINE
  5
119EB
330
1F
100
AcDbEntity
  8
0000躯体
 48
0.5
100
AcDbLine
 10
288.0140261248952
 20
737.9840894430757
 30
0.0
 11
288.0140261248952
 21
781.8499053564909
 31
0.0
  0
LINE
  5
119F0
330
1F
100
AcDbEntity
  8
0000躯体
 48
0.5
100
AcDbLine
 10
278.5140261248951
 20
781.8499053564909
 30
0.0
 11
278.5140261248951
 21
737.9840894430757
 31
0.0
  0
LINE
  5
119F1
330
1F
100
AcDbEntity
  8
0000躯体
 48
0.5
100
AcDbLine
 10
278.5140261248951
 20
737.9840894430757
 30
0.0
 11
288.0140261248952
 21
737.9840894430757
 31
0.0
  0
LINE
  5
11A36
330
1F
100
AcDbEntity
  8
0000躯体
 48
0.5
100
AcDbLine
 10
298.014026124895
 20
742.9840894430757
 30
0.0
 11
288.0140261248952
 21
742.9840894430757
 31
0.0
  0
LINE
  5
11A39
330
1F
100
AcDbEntity
  8
0000躯体
 48
0.5
100
AcDbLine
 10
143.0140261248951
 20
723.9840894430757
 30
0.0
 11
158.0140261248951
 21
723.9840894430757
 31
0.0
  0
LINE
  5
15715
330
1F
100
AcDbEntity
  8
0000躯体
  6
Continuous
100
AcDbLine
 10
1034.092243859599
 20
558.8939010538276
 30
0.0
 11
1013.090812847173
 21
558.8939010538276
 31
0.0
  0
LINE
  5
15716
330
1F
100
AcDbEntity
  8
0000躯体
  6
Continuous
100
AcDbLine
 10
1013.090812847173
 20
558.8939010538276
 30
0.0
 11
1013.090812847173
 21
643.8939010538277
 31
0.0
  0
LINE
  5
15717
330
1F
100
AcDbEntity
  8
0000躯体
  6
Continuous
100
AcDbLine
 10
1013.090812847173
 20
643.8939010538277
 30
0.0
 11
973.0908128471735
 21
643.8939010538277
 31
0.0
  0
LINE
  5
15718
330
1F
100
AcDbEntity
  8
0000躯体
  6
Continuous
100
AcDbLine
 10
973.0908128471735
 20
643.8939010538277
 30
0.0
 11
973.0908128471734
 21
703.8939010538276
 31
0.0
  0
LINE
  5
15719
330
1F
100
AcDbEntity
  8
0000躯体
  6
Continuous
100
AcDbLine
 10
973.0908128471735
 20
703.8939010538276
 30
0.0
 11
988.0908128471736
 21
718.8939010538277
 31
0.0
  0
LINE
  5
1571A
330
1F
100
AcDbEntity
  8
0000躯体
  6
Continuous
100
AcDbLine
 10
988.0908128471736
 20
718.8939010538277
 30
0.0
 11
1034.092243859599
 21
718.8939010538277
 31
0.0
  0
LINE
  5
1571B
330
1F
100
AcDbEntity
  8
0000躯体
  6
Continuous
100
AcDbLine
 10
983.0908128471735
 20
558.8939010538276
 30
0.0
 11
1013.090812847173
 21
558.8939010538276
 31
0.0
  0
LINE
  5
1571C
330
1F
100
AcDbEntity
  8
0000躯体
  6
Continuous
100
AcDbLine
 10
1034.092243859599
 20
533.8939010538276
 30
0.0
 11
998.0908128471735
 21
533.8939010538276
 31
0.0
  0
LINE
  5
1571D
330
1F
100
AcDbEntity
  8
0000躯体
  6
Continuous
100
AcDbLine
 10
973.0908128471735
 20
538.8939010538276
 30
0.0
 11
973.0908128471735
 21
488.8939010538276
 31
0.0
  0
LINE
  5
1571E
330
1F
100
AcDbEntity
  8
0000躯体
  6
Continuous
100
AcDbLine
 10
973.0908128471735
 20
488.8939010538276
 30
0.0
 11
998.0908128471735
 21
488.8939010538276
 31
0.0
  0
LINE
  5
1571F
330
1F
100
AcDbEntity
  8
0000躯体
  6
Continuous
100
AcDbLine
 10
998.0908128471735
 20
511.3939010538277
 30
0.0
 11
998.0908128471735
 21
553.8939010538276
 31
0.0
  0
LINE
  5
15720
330
1F
100
AcDbEntity
  8
0000躯体
  6
Continuous
100
AcDbLine
 10
998.0908128471735
 20
553.8939010538276
 30
0.0
 11
976.0908128471735
 21
553.8939010538276
 31
0.0
  0
LINE
  5
15721
330
1F
100
AcDbEntity
  8
0000躯体
  6
Continuous
100
AcDbLine
 10
993.0908128471735
 20
498.8939010538277
 30
0.0
 11
1034.092243859599
 21
498.8939010538277
 31
0.0
  0
LINE
  5
15722
330
1F
100
AcDbEntity
  8
0000躯体
  6
Continuous
100
AcDbLine
 10
998.0908128471735
 20
498.8939010538277
 30
0.0
 11
993.0908128471735
 21
498.8939010538277
 31
0.0
  0
LINE
  5
15723
330
1F
100
AcDbEntity
  8
0000躯体
  6
Continuous
100
AcDbLine
 10
993.0908128471735
 20
498.8939010538277
 30
0.0
 11
993.0908128471735
 21
511.3939010538277
 31
0.0
  0
LINE
  5
15724
330
1F
100
AcDbEntity
  8
0000躯体
  6
Continuous
100
AcDbLine
 10
993.0908128471735
 20
511.3939010538277
 30
0.0
 11
998.0908128471735
 21
511.3939010538277
 31
0.0
  0
LINE
  5
15725
330
1F
100
AcDbEntity
  8
0000躯体
  6
Continuous
100
AcDbLine
 10
1034.092243859599
 20
508.3939010538276
 30
0.0
 11
993.0908128471735
 21
508.3939010538276
 31
0.0
  0
LINE
  5
15726
330
1F
100
AcDbEntity
  8
0000躯体
  6
Continuous
100
AcDbLine
 10
993.0908128471735
 20
508.3939010538276
 30
0.0
 11
993.0908128471735
 21
498.8939010538277
 31
0.0
  0
LINE
  5
15727
330
1F
100
AcDbEntity
  8
0000躯体
  6
Continuous
100
AcDbLine
 10
998.0908128471735
 20
488.8939010538276
 30
0.0
 11
998.0908128471735
 21
498.8939010538277
 31
0.0
  0
LINE
  5
15728
330
1F
100
AcDbEntity
  8
0000躯体
  6
Continuous
100
AcDbLine
 10
976.0908128471735
 20
553.8939010538276
 30
0.0
 11
976.0908128471735
 21
538.8939010538275
 31
0.0
  0
LINE
  5
15729
330
1F
100
AcDbEntity
  8
0000躯体
  6
Continuous
100
AcDbLine
 10
976.0908128471735
 20
538.8939010538275
 30
0.0
 11
973.0908128471735
 21
538.8939010538275
 31
0.0
  0
LINE
  5
1572C
330
1F
100
AcDbEntity
  8
0000躯体
 48
0.5
100
AcDbLine
 10
974.0908128471735
 20
643.8939010538277
 30
0.0
 11
974.0908128471735
 21
628.8939010538277
 31
0.0
  0
LINE
  5
1572D
330
1F
100
AcDbEntity
  8
0000躯体
  6
Continuous
100
AcDbLine
 10
732.0893818347484
 20
558.8939010538276
 30
0.0
 11
753.0908128471736
 21
558.8939010538276
 31
0.0
  0
LINE
  5
1572E
330
1F
100
AcDbEntity
  8
0000躯体
  6
Continuous
100
AcDbLine
 10
753.0908128471736
 20
558.8939010538276
 30
0.0
 11
753.0908128471736
 21
643.8939010538277
 31
0.0
  0
LINE
  5
1572F
330
1F
100
AcDbEntity
  8
0000躯体
  6
Continuous
100
AcDbLine
 10
753.0908128471736
 20
643.8939010538277
 30
0.0
 11
793.0908128471736
 21
643.8939010538277
 31
0.0
  0
LINE
  5
15730
330
1F
100
AcDbEntity
  8
0000躯体
  6
Continuous
100
AcDbLine
 10
793.0908128471736
 20
643.8939010538277
 30
0.0
 11
793.0908128471736
 21
703.8939010538276
 31
0.0
  0
LINE
  5
15731
330
1F
100
AcDbEntity
  8
0000躯体
  6
Continuous
100
AcDbLine
 10
793.0908128471736
 20
703.8939010538276
 30
0.0
 11
778.0908128471736
 21
718.8939010538277
 31
0.0
  0
LINE
  5
15732
330
1F
100
AcDbEntity
  8
0000躯体
  6
Continuous
100
AcDbLine
 10
778.0908128471736
 20
718.8939010538277
 30
0.0
 11
732.0893818347484
 21
718.8939010538277
 31
0.0
  0
LINE
  5
15733
330
1F
100
AcDbEntity
  8
0000躯体
  6
Continuous
100
AcDbLine
 10
783.0908128471736
 20
558.8939010538276
 30
0.0
 11
753.0908128471736
 21
558.8939010538276
 31
0.0
  0
LINE
  5
15734
330
1F
100
AcDbEntity
  8
0000躯体
  6
Continuous
100
AcDbLine
 10
732.0893818347484
 20
533.8939010538276
 30
0.0
 11
768.0908128471736
 21
533.8939010538276
 31
0.0
  0
LINE
  5
15735
330
1F
100
AcDbEntity
  8
0000躯体
  6
Continuous
100
AcDbLine
 10
793.0908128471736
 20
538.8939010538276
 30
0.0
 11
793.0908128471736
 21
488.8939010538276
 31
0.0
  0
LINE
  5
15736
330
1F
100
AcDbEntity
  8
0000躯体
  6
Continuous
100
AcDbLine
 10
793.0908128471736
 20
488.8939010538276
 30
0.0
 11
768.0908128471736
 21
488.8939010538276
 31
0.0
  0
LINE
  5
15737
330
1F
100
AcDbEntity
  8
0000躯体
  6
Continuous
100
AcDbLine
 10
768.0908128471736
 20
511.3939010538277
 30
0.0
 11
768.0908128471736
 21
553.8939010538276
 31
0.0
  0
LINE
  5
15738
330
1F
100
AcDbEntity
  8
0000躯体
  6
Continuous
100
AcDbLine
 10
768.0908128471736
 20
553.8939010538276
 30
0.0
 11
790.0908128471736
 21
553.8939010538276
 31
0.0
  0
LINE
  5
15739
330
1F
100
AcDbEntity
  8
0000躯体
  6
Continuous
100
AcDbLine
 10
773.0908128471736
 20
498.8939010538277
 30
0.0
 11
732.0893818347484
 21
498.8939010538277
 31
0.0
  0
LINE
  5
1573A
330
1F
100
AcDbEntity
  8
0000躯体
  6
Continuous
100
AcDbLine
 10
768.0908128471736
 20
498.8939010538277
 30
0.0
 11
773.0908128471736
 21
498.8939010538277
 31
0.0
  0
LINE
  5
1573B
330
1F
100
AcDbEntity
  8
0000躯体
  6
Continuous
100
AcDbLine
 10
773.0908128471736
 20
498.8939010538277
 30
0.0
 11
773.0908128471736
 21
511.3939010538277
 31
0.0
  0
LINE
  5
1573C
330
1F
100
AcDbEntity
  8
0000躯体
  6
Continuous
100
AcDbLine
 10
773.0908128471736
 20
511.3939010538277
 30
0.0
 11
768.0908128471736
 21
511.3939010538277
 31
0.0
  0
LINE
  5
1573D
330
1F
100
AcDbEntity
  8
0000躯体
  6
Continuous
100
AcDbLine
 10
732.0893818347484
 20
508.3939010538276
 30
0.0
 11
773.0908128471736
 21
508.3939010538276
 31
0.0
  0
LINE
  5
1573E
330
1F
100
AcDbEntity
  8
0000躯体
  6
Continuous
100
AcDbLine
 10
773.0908128471736
 20
508.3939010538276
 30
0.0
 11
773.0908128471736
 21
498.8939010538277
 31
0.0
  0
LINE
  5
1573F
330
1F
100
AcDbEntity
  8
0000躯体
  6
Continuous
100
AcDbLine
 10
768.0908128471736
 20
488.8939010538276
 30
0.0
 11
768.0908128471736
 21
498.8939010538277
 31
0.0
  0
LINE
  5
15740
330
1F
100
AcDbEntity
  8
0000躯体
  6
Continuous
100
AcDbLine
 10
790.0908128471736
 20
553.8939010538276
 30
0.0
 11
790.0908128471736
 21
538.8939010538275
 31
0.0
  0
LINE
  5
15741
330
1F
100
AcDbEntity
  8
0000躯体
  6
Continuous
100
AcDbLine
 10
790.0908128471736
 20
538.8939010538275
 30
0.0
 11
793.0908128471736
 21
538.8939010538275
 31
0.0
  0
LINE
  5
15742
330
1F
100
AcDbEntity
  8
0000躯体
 48
0.5
100
AcDbLine
 10
792.0908128471737
 20
643.8939010538277
 30
0.0
 11
792.0908128471737
 21
628.8939010538277
 31
0.0
  0
LINE
  5
17E2E
330
1F
100
AcDbEntity
  8
0000躯体
 48
0.5
100
AcDbLine
 10
228.0140261248952
 20
742.9840894430757
 30
0.0
 11
233.0140261248952
 21
742.9840894430757
 31
0.0
  0
LINE
  5
17E2F
330
1F
100
AcDbEntity
  8
0000躯体
  6
Continuous
100
AcDbLine
 10
768.0908128471736
 20
558.8939010538276
 30
0.0
 11
768.0908128471736
 21
553.8939010538276
 31
0.0
  0
LINE
  5
17E30
330
1F
100
AcDbEntity
  8
0000躯体
  6
Continuous
100
AcDbLine
 10
998.0908128471735
 20
558.8939010538276
 30
0.0
 11
998.0908128471735
 21
553.8939010538276
 31
0.0
  0
LINE
  5
18110
330
1F
100
AcDbEntity
  8
002
100
AcDbLine
 10
-13.26284375907214
 20
861.0
 30
0.0
 11
1126.737156240927
 21
861.0
 31
0.0
  0
LINE
  5
18111
330
1F
100
AcDbEntity
  8
002
100
AcDbLine
 10
-13.26284375907237
 20
60.0
 30
0.0
 11
1126.737156240927
 21
60.0
 31
0.0
  0
LINE
  5
18112
330
1F
100
AcDbEntity
  8
002
100
AcDbLine
 10
-13.26284375907214
 20
861.0
 30
0.0
 11
-13.26284375907237
 21
60.0
 31
0.0
  0
LINE
  5
18113
330
1F
100
AcDbEntity
  8
002
100
AcDbLine
 10
1126.737156240927
 20
861.0
 30
0.0
 11
1126.737156240927
 21
60.0
 31
0.0
  0
LINE
  5
18114
330
1F
100
AcDbEntity
  8
0
100
AcDbLine
 10
381.2371562409272
 20
81.0
 30
0.0
 11
580.7371562409271
 21
81.0
 31
0.0
  0
LINE
  5
18115
330
1F
100
AcDbEntity
  8
002
100
AcDbLine
 10
-13.26284375907237
 20
102.0
 30
0.0
 11
1126.737156240927
 21
102.0
 31
0.0
  0
TEXT
  5
18116
330
1F
100
AcDbEntity
  8
Defpoints
100
AcDbText
 10
147.5149097513486
 20
76.0
 30
0.0
 40
10.0
  1
ＡＡＡＡＡＡＡＡＡ
  7
ｺﾞｼｯｸ（横）
 11
147.5149097513486
 21
81.0
 31
0.0
100
AcDbText
 73
     2
  0
LINE
  5
18117
330
1F
100
AcDbEntity
  8
0
100
AcDbLine
 10
127.1371562409271
 20
70.5
 30
0.0
 11
-0.6628437590724623
 21
70.5
 31
0.0
  0
LINE
  5
18118
330
1F
100
AcDbEntity
  8
0
100
AcDbLine
 10
127.1371562409271
 20
91.5
 30
0.0
 11
-0.6628437590724623
 21
91.5
 31
0.0
  0
LINE
  5
18119
330
1F
100
AcDbEntity
  8
0
100
AcDbLine
 10
127.1371562409271
 20
81.0
 30
0.0
 11
-0.6628437590724623
 21
81.0
 31
0.0
  0
LINE
  5
1811B
330
1F
100
AcDbEntity
  8
0
100
AcDbLine
 10
-2.762843759072371
 20
102.0
 30
0.0
 11
-2.762843759072371
 21
60.0
 31
0.0
  0
TEXT
  5
1811C
330
1F
100
AcDbEntity
  8
0
100
AcDbText
 10
131.2476676045635
 20
97.5375
 30
0.0
 40
6.299999999999998
  1
工 事 名
 50
270.0
  7
ｺﾞｼｯｸ（縦）
 72
     4
 11
134.4871562409271
 21
81.0
 31
0.0
100
AcDbText
  0
LINE
  5
1811D
330
1F
100
AcDbEntity
  8
0
100
AcDbLine
 10
139.7371562409271
 20
102.0
 30
0.0
 11
139.7371562409271
 21
60.0
 31
0.0
  0
LINE
  5
1811E
330
1F
100
AcDbEntity
  8
0
100
AcDbLine
 10
129.2371562409271
 20
102.0
 30
0.0
 11
129.2371562409271
 21
60.0
 31
0.0
  0
TEXT
  5
1811F
330
1F
100
AcDbEntity
  8
0
100
AcDbText
 10
353.6296100921161
 20
76.79999999999999
 30
0.0
 40
8.4
  1
工事
  7
ｺﾞｼｯｸ（横）
 72
     2
 11
378.0659737284797
 21
81.0
 31
0.0
100
AcDbText
 73
     2
  0
LINE
  5
18121
330
1F
100
AcDbEntity
  8
0
100
AcDbLine
 10
391.7371562409272
 20
102.0
 30
0.0
 11
391.7371562409272
 21
60.0
 31
0.0
  0
LINE
  5
18122
330
1F
100
AcDbEntity
  8
0
100
AcDbLine
 10
381.2371562409272
 20
102.0
 30
0.0
 11
381.2371562409272
 21
60.0
 31
0.0
  0
LINE
  5
18124
330
1F
100
AcDbEntity
  8
0
100
AcDbLine
 10
977.637156240927
 20
91.5
 30
0.0
 11
931.4371562409272
 21
91.5
 31
0.0
  0
TEXT
  5
18125
330
1F
100
AcDbEntity
  8
Defpoints
100
AcDbText
 10
938.9303380591089
 20
62.1
 30
0.0
 40
6.299999999999998
  1
00.00.00
  7
ｺﾞｼｯｸ（横）
 72
     1
 11
954.5371562409272
 21
65.25
 31
0.0
100
AcDbText
 73
     2
  0
LINE
  5
18126
330
1F
100
AcDbEntity
  8
0
100
AcDbLine
 10
977.637156240927
 20
70.5
 30
0.0
 11
931.4371562409272
 21
70.5
 31
0.0
  0
LINE
  5
18127
330
1F
100
AcDbEntity
  8
0
100
AcDbLine
 10
929.3371562409271
 20
81.0
 30
0.0
 11
1126.737156240927
 21
81.0
 31
0.0
  0
TEXT
  5
18128
330
1F
100
AcDbEntity
  8
0
100
AcDbText
 10
567.3083309350337
 20
87.47880713460409
 30
0.0
 40
8.4
  1
殿
  7
ｺﾞｼｯｸ（横）
 72
     1
 11
573.4174218441246
 21
91.67880713460409
 31
0.0
100
AcDbText
 73
     2
  0
LINE
  5
1812A
330
1F
100
AcDbEntity
  8
0
100
AcDbLine
 10
591.2371562409272
 20
102.0
 30
0.0
 11
591.2371562409272
 21
60.0
 31
0.0
  0
LINE
  5
1812B
330
1F
100
AcDbEntity
  8
0
100
AcDbLine
 10
580.7371562409271
 20
102.0
 30
0.0
 11
580.7371562409271
 21
60.0
 31
0.0
  0
TEXT
  5
1812C
330
1F
100
AcDbEntity
  8
0
100
AcDbText
 10
567.3083309350337
 20
66.47880713460408
 30
0.0
 40
8.4
  1
殿
  7
ｺﾞｼｯｸ（横）
 72
     1
 11
573.4174218441246
 21
70.67880713460408
 31
0.0
100
AcDbText
 73
     2
  0
TEXT
  5
1812E
330
1F
100
AcDbEntity
  8
0
100
AcDbText
 10
784.978452695202
 20
62.453750830227
 30
0.0
 40
6.299999999999998
  1
年　　　月　　　日
  7
ｺﾞｼｯｸ（横）
 72
     1
 11
816.9795890588384
 21
65.603750830227
 31
0.0
100
AcDbText
 73
     2
  0
TEXT
  5
1812F
330
1F
100
AcDbEntity
  8
0
100
AcDbText
 10
758.7837471500181
 20
93.59999999999999
 30
0.0
 40
6.299999999999998
  1
お　客　様　受　領　印
  7
ｺﾞｼｯｸ（横）
 72
     1
 11
801.2371562409272
 21
96.75
 31
0.0
100
AcDbText
 73
     2
  0
LINE
  5
18130
330
1F
100
AcDbEntity
  8
0
100
AcDbLine
 10
748.7371562409272
 20
91.5
 30
0.0
 11
929.3371562409271
 21
91.5
 31
0.0
  0
LINE
  5
18131
330
1F
100
AcDbEntity
  8
0
100
AcDbLine
 10
748.7371562409272
 20
102.0
 30
0.0
 11
748.7371562409272
 21
60.0
 31
0.0
  0
LINE
  5
18132
330
1F
100
AcDbEntity
  8
0
100
AcDbLine
 10
853.7371562409273
 20
102.0
 30
0.0
 11
853.7371562409273
 21
60.0
 31
0.0
  0
TEXT
  5
18133
330
1F
100
AcDbEntity
  8
0
100
AcDbText
 10
860.4309062409271
 20
93.59999999999999
 30
0.0
 40
6.299999999999998
  1
担　当
  7
ｺﾞｼｯｸ（横）
 72
     1
 11
872.6371562409271
 21
96.75
 31
0.0
100
AcDbText
 73
     2
  0
LINE
  5
18134
330
1F
100
AcDbEntity
  8
0
100
AcDbLine
 10
929.3371562409271
 20
102.0
 30
0.0
 11
929.3371562409271
 21
60.0
 31
0.0
  0
LINE
  5
18135
330
1F
100
AcDbEntity
  8
0
100
AcDbLine
 10
891.5371562409271
 20
102.0
 30
0.0
 11
891.5371562409271
 21
60.0
 31
0.0
  0
TEXT
  5
18136
330
1F
100
AcDbEntity
  8
Defpoints
100
AcDbText
 10
894.9735198772909
 20
71.55
 30
0.0
 40
8.4
  1
AAAA
  7
ｺﾞｼｯｸ（横）
 72
     1
 11
910.4371562409273
 21
75.75
 31
0.0
100
AcDbText
 73
     2
  0
TEXT
  5
18137
330
1F
100
AcDbEntity
  8
0
100
AcDbText
 10
898.2309062409273
 20
93.59999999999999
 30
0.0
 40
6.299999999999998
  1
作　図
  7
ｺﾞｼｯｸ（横）
 72
     1
 11
910.4371562409273
 21
96.75
 31
0.0
100
AcDbText
 73
     2
  0
TEXT
  5
18138
330
1F
100
AcDbEntity
  8
0
100
AcDbText
 10
1016.131812950899
 20
66.9630905889267
 30
0.0
 40
8.4
  1
株式会社
  7
ｺﾞｼｯｸ（横）
 72
     1
 11
1040.568176587263
 21
71.16309058892671
 31
0.0
100
AcDbText
 73
     2
  0
LINE
  5
1813A
330
1F
100
AcDbEntity
  8
0
100
AcDbLine
 10
983.4060579628202
 20
71.9011475359182
 30
0.0
 11
1001.99297610282
 21
61.89755939591805
 31
0.0
  0
LINE
  5
1813B
330
1F
100
AcDbEntity
  8
0
100
AcDbLine
 10
983.0675522428206
 20
68.91666239591836
 30
0.0
 11
1001.99297610282
 21
79.10243939591805
 31
0.0
  0
LINE
  5
1813C
330
1F
100
AcDbEntity
  8
0
100
AcDbLine
 10
979.7371562409272
 20
102.0
 30
0.0
 11
979.7371562409272
 21
60.0
 31
0.0
  0
TEXT
  5
1813D
330
1F
100
AcDbEntity
  8
Defpoints
100
AcDbText
 10
940.7917016954726
 20
83.1
 30
0.0
 40
6.299999999999998
  1
000000
  7
ｺﾞｼｯｸ（横）
 72
     1
 11
954.5371562409272
 21
86.25
 31
0.0
100
AcDbText
 73
     2
  0
TEXT
  5
1813E
330
1F
100
AcDbEntity
  8
0
100
AcDbText
 10
940.7917016954726
 20
72.59999999999999
 30
0.0
 40
6.299999999999998
  1
作成日
  7
ｺﾞｼｯｸ（横）
 72
     1
 11
954.5371562409272
 21
75.75
 31
0.0
100
AcDbText
 73
     2
  0
TEXT
  5
1813F
330
1F
100
AcDbEntity
  8
0
100
AcDbText
 10
949.2752244227453
 20
93.59999999999999
 30
0.0
 40
6.299999999999998
  1
No
  7
ｺﾞｼｯｸ（横）
 72
     1
 11
954.5371562409272
 21
96.75
 31
0.0
100
AcDbText
 73
     2
  0
LINE
  5
18140
330
1F
100
AcDbEntity
  8
0
100
AcDbLine
 10
990.2371562409271
 20
102.0
 30
0.0
 11
990.2371562409271
 21
81.0
 31
0.0
  0
TEXT
  5
18141
330
1F
100
AcDbEntity
  8
0
100
AcDbText
 10
1012.573519877291
 20
87.3
 30
0.0
 40
8.4
  1
1/3
  7
ｺﾞｼｯｸ（横）
 72
     1
 11
1021.737156240927
 21
91.5
 31
0.0
100
AcDbText
 73
     2
  0
LINE
  5
18142
330
1F
100
AcDbEntity
  8
0
100
AcDbLine
 10
995.8273786228206
 20
62.04924869591764
 30
0.0
 11
1014.75279954282
 21
72.23502569591778
 31
0.0
  0
LINE
  5
18143
330
1F
100
AcDbEntity
  8
0
100
AcDbLine
 10
996.4477274428205
 20
61.71537347591812
 30
0.0
 11
1015.373151302821
 21
71.9011475359182
 31
0.0
  0
LINE
  5
18144
330
1F
100
AcDbEntity
  8
0
100
AcDbLine
 10
996.7862361028204
 20
79.10243939591805
 30
0.0
 11
1015.711657022821
 21
68.91666239591836
 31
0.0
  0
LINE
  5
18145
330
1F
100
AcDbEntity
  8
0
100
AcDbLine
 10
996.1658843428203
 20
78.76856417591785
 30
0.0
 11
1015.091308202821
 21
68.58278717591748
 31
0.0
  0
LINE
  5
18146
330
1F
100
AcDbEntity
  8
0
100
AcDbLine
 10
983.6879040028206
 20
68.58278717591748
 30
0.0
 11
1002.613324922821
 21
78.76856417591785
 31
0.0
  0
TEXT
  5
18147
330
1F
100
AcDbEntity
  8
0
100
AcDbText
 10
993.906870662821
 20
66.09000233591746
 30
0.0
 40
8.819999999999998
  1
ＡＬ
 41
0.6360784961240127
  7
ｺﾞｼｯｸ（横）
 72
     5
 11
1004.87228568282
 21
66.09000233591746
 31
0.0
100
AcDbText
  0
LINE
  5
18148
330
1F
100
AcDbEntity
  8
0
100
AcDbLine
 10
984.0264097228207
 20
72.23502569591778
 30
0.0
 11
1002.95183358282
 21
62.04924869591764
 31
0.0
  0
POINT
  5
18149
330
1F
100
AcDbEntity
  8
0
100
AcDbPoint
 10
999.3896061028207
 20
70.49999939591771
 30
0.0
  0
TEXT
  5
1814A
330
1F
100
AcDbEntity
  8
0
100
AcDbText
 10
1072.101575109979
 20
64.2
 30
0.0
 40
12.6
  1
丸　忠
  7
ｺﾞｼｯｸ（横）
 72
     1
 11
1096.514075109979
 21
70.5
 31
0.0
100
AcDbText
 73
     2
  0
LINE
  5
1814C
330
1F
100
AcDbEntity
  8
0
100
AcDbLine
 10
1053.237156240927
 20
102.0
 30
0.0
 11
1053.237156240927
 21
81.0
 31
0.0
  0
LINE
  5
1814D
330
1F
100
AcDbEntity
  8
0
100
AcDbLine
 10
1063.737156240927
 20
102.0
 30
0.0
 11
1063.737156240927
 21
81.0
 31
0.0
  0
POINT
  5
18154
330
1F
100
AcDbEntity
  8
0000寸法
 48
0.5
100
AcDbPoint
 10
-19.26284375907214
 20
867.0
 30
0.0
  0
TEXT
  5
18353
330
1F
100
AcDbEntity
  8
0
100
AcDbText
 10
-11.3060255772542
 20
93.20624999999999
 30
0.0
 40
6.299999999999998
  1
特　記
 50
270.0
  7
ｺﾞｼｯｸ（縦）
 72
     4
 11
-8.012843759072381
 21
81.0
 31
0.0
100
AcDbText
  0
TEXT
  5
18355
330
1F
100
AcDbEntity
  8
0
100
AcDbText
 10
384.1476676045635
 20
101.3181818181818
 30
0.0
 40
4.5
  1
御設計
 50
270.0
  7
ｺﾞｼｯｸ（縦）
 72
     4
 11
386.4871562409271
 21
91.5
 31
0.0
100
AcDbText
  0
TEXT
  5
18357
330
1F
100
AcDbEntity
  8
0
100
AcDbText
 10
384.1476676045635
 20
80.31818181818181
 30
0.0
 40
4.5
  1
御施行
 50
270.0
  7
ｺﾞｼｯｸ（縦）
 72
     4
 11
386.4871562409271
 21
70.5
 31
0.0
100
AcDbText
  0
TEXT
  5
18358
330
1F
100
AcDbEntity
  8
0
100
AcDbText
 10
582.6402812409273
 20
99.32727272727273
 30
0.0
 40
6.299999999999998
  1
図面名称
 50
270.0
  7
ｺﾞｼｯｸ（縦）
 72
     4
 11
585.9871562409272
 21
81.0
 31
0.0
100
AcDbText
  0
TEXT
  5
1835B
330
1F
100
AcDbEntity
  8
0
100
AcDbText
 10
982.4445426045636
 20
98.77272727272728
 30
0.0
 40
5.0
  1
縮尺
 50
270.0
  7
ｺﾞｼｯｸ（縦）
 72
     4
 11
984.9871562409273
 21
91.5
 31
0.0
100
AcDbText
  0
TEXT
  5
1835D
330
1F
100
AcDbEntity
  8
0
100
AcDbText
 10
1055.930338059109
 20
98.77272727272728
 30
0.0
 40
5.0
  1
図番
 50
270.0
  7
ｺﾞｼｯｸ（縦）
 72
     4
 11
1058.487156240927
 21
91.5
 31
0.0
100
AcDbText
  0
LINE
  5
1FAA1
330
1F
100
AcDbEntity
  8
0
100
AcDbLine
 10
228.0140261248952
 20
552.9840894430757
 30
0.0
 11
228.0140261248952
 21
677.5911114814443
 31
0.0
  0
LINE
  5
1FAA2
330
1F
100
AcDbEntity
  8
0
100
AcDbLine
 10
158.0140261248951
 20
505.904089443076
 30
0.0
 11
158.0140261248951
 21
677.5911114814443
 31
0.0
  0
LINE
  5
1FAA3
330
1F
100
AcDbEntity
  8
0
100
AcDbLine
 10
186.0040261248949
 20
501.6840894430759
 30
0.0
 11
206.0240261248949
 21
501.6840894430759
 31
0.0
  0
LINE
  5
1FAA4
330
1F
100
AcDbEntity
  8
0
100
AcDbLine
 10
178.0240261248949
 20
503.6240894430758
 30
0.0
 11
206.0440261248949
 21
503.6240894430758
 31
0.0
  0
LINE
  5
1FAAD
330
1F
100
AcDbEntity
  8
0
100
AcDbLine
 10
176.0240261248949
 20
497.704089443076
 30
0.0
 11
176.0240261248949
 21
513.6240894430758
 31
0.0
  0
LINE
  5
1FAAE
330
1F
100
AcDbEntity
  8
0
100
AcDbLine
 10
160.0240261248949
 20
495.9840894430757
 30
0.0
 11
160.0240261248949
 21
505.9040894430758
 31
0.0
  0
LINE
  5
1FAAF
330
1F
100
AcDbEntity
  8
0
100
AcDbLine
 10
158.0140261248951
 20
495.7940894430759
 30
0.0
 11
158.0140261248951
 21
505.9040894430758
 31
0.0
  0
LINE
  5
1FAB0
330
1F
100
AcDbEntity
  8
0
100
AcDbLine
 10
160.0240261248949
 20
495.9940894430759
 30
0.0
 11
176.0240261248949
 21
497.704089443076
 31
0.0
  0
LINE
  5
1FAB1
330
1F
100
AcDbEntity
  8
0
100
AcDbLine
 10
158.0140261248951
 20
493.5357779438037
 30
0.0
 11
165.154026124895
 21
494.4191840573408
 31
0.0
  0
LINE
  5
1FAB3
330
1F
100
AcDbEntity
  8
0
100
AcDbLine
 10
169.154026124895
 20
482.9840894430757
 30
0.0
 11
169.154026124895
 21
494.9140894430757
 31
0.0
  0
LINE
  5
1FAC6
330
1F
100
AcDbEntity
  8
0
100
AcDbLine
 10
158.0140261248951
 20
493.5357779438037
 30
0.0
 11
158.0140261248951
 21
495.7940894430759
 31
0.0
  0
LINE
  5
1FAD6
330
1F
100
AcDbEntity
  8
0
100
AcDbLine
 10
182.884026124895
 20
501.6840894430759
 30
0.0
 11
186.0040261248949
 21
501.6840894430759
 31
0.0
  0
LINE
  5
1FAD7
330
1F
100
AcDbEntity
  8
0
100
AcDbLine
 10
183.7440261248952
 20
498.9840894430757
 30
0.0
 11
187.1640261248952
 21
498.9840894430757
 31
0.0
  0
LINE
  5
1FAD8
330
1F
100
AcDbEntity
  8
0
100
AcDbLine
 10
182.6040261248951
 20
497.4840894430757
 30
0.0
 11
187.1640261248952
 21
497.4840894430757
 31
0.0
  0
LINE
  5
1FAD9
330
1F
100
AcDbEntity
  8
0
100
AcDbLine
 10
183.3040261248951
 20
500.3140894430758
 30
0.0
 11
183.7440261248952
 21
498.9840894430757
 31
0.0
  0
ARC
  5
1FADA
330
1F
100
AcDbEntity
  8
0
100
AcDbCircle
 10
179.8340261248951
 20
499.9440894430757
 30
0.0
 40
3.49
100
AcDbArc
 50
6.086351300003053
 51
29.86691599999636
  0
ARC
  5
1FADB
330
1F
100
AcDbEntity
  8
0
100
AcDbCircle
 10
179.654026124895
 20
499.9440894430757
 30
0.0
 40
1.98
100
AcDbArc
 50
355.3567200000061
 51
277.8434200000051
  0
ARC
  5
1FADC
330
1F
100
AcDbEntity
  8
0
100
AcDbCircle
 10
179.8340261248951
 20
499.9440894430757
 30
0.0
 40
3.49
100
AcDbArc
 50
238.2206000000093
 51
273.7812899999978
  0
LINE
  5
1FADD
330
1F
100
AcDbEntity
  8
0
100
AcDbLine
 10
177.9940261248952
 20
495.7640894430759
 30
0.0
 11
177.9940261248952
 21
496.9740894430759
 31
0.0
  0
LINE
  5
1FADE
330
1F
100
AcDbEntity
  8
0
100
AcDbLine
 10
176.0240261248949
 20
495.7640894430759
 30
0.0
 11
177.9940261248952
 21
495.7640894430759
 31
0.0
  0
ARC
  5
1FADF
330
1F
100
AcDbEntity
  8
0
100
AcDbCircle
 10
179.3540261248951
 20
497.164089443076
 30
0.0
 40
1.0
100
AcDbArc
 50
315.4063400000012
 51
54.72757799999691
  0
ARC
  5
1FAE0
330
1F
100
AcDbEntity
  8
0
100
AcDbCircle
 10
182.444026124895
 20
500.3640894430758
 30
0.0
 40
1.0
100
AcDbArc
 50
214.8040100000061
 51
215.2724200000171
  0
LINE
  5
1FAE1
330
1F
100
AcDbEntity
  8
0
100
AcDbLine
 10
181.624026124895
 20
499.7940894430759
 30
0.0
 11
182.6040261248951
 21
497.4840894430757
 31
0.0
  0
LINE
  5
1FAE5
330
1F
100
AcDbEntity
  8
0
100
AcDbLine
 10
187.1640261248952
 20
497.4840894430757
 30
0.0
 11
187.1640261248952
 21
498.9840894430757
 31
0.0
  0
LINE
  5
1FAEA
330
1F
100
AcDbEntity
  8
0
100
AcDbLine
 10
158.0140261248951
 20
505.9040894430758
 30
0.0
 11
160.0240261248949
 21
505.9040894430758
 31
0.0
  0
LINE
  5
1FAEB
330
1F
100
AcDbEntity
  8
0
100
AcDbLine
 10
178.0240261248949
 20
503.6240894430758
 30
0.0
 11
178.0240261248949
 21
513.6240894430758
 31
0.0
  0
LINE
  5
1FAEC
330
1F
100
AcDbEntity
  8
0
100
AcDbLine
 10
176.0240261248949
 20
513.6240894430758
 30
0.0
 11
178.0240261248949
 21
513.6240894430758
 31
0.0
  0
LINE
  5
1FAED
330
1F
100
AcDbEntity
  8
0
100
AcDbLine
 10
226.0140261248952
 20
531.9840894430757
 30
0.0
 11
226.0140261248952
 21
552.9840894430757
 31
0.0
  0
LINE
  5
1FAEE
330
1F
100
AcDbEntity
  8
0
100
AcDbLine
 10
228.0140261248952
 20
531.9840894430757
 30
0.0
 11
228.0140261248952
 21
551.9840894430757
 31
0.0
  0
LINE
  5
1FAEF
330
1F
100
AcDbEntity
  8
0
100
AcDbLine
 10
207.6040261248951
 20
501.6840894430759
 30
0.0
 11
207.6040261248951
 21
512.1740894430757
 31
0.0
  0
LINE
  5
1FAF4
330
1F
100
AcDbEntity
  8
0
100
AcDbLine
 10
203.5640261248951
 20
501.6840894430759
 30
0.0
 11
207.6040261248951
 21
501.6840894430759
 31
0.0
  0
LINE
  5
1FAF5
330
1F
100
AcDbEntity
  8
0
100
AcDbLine
 10
212.0240261248949
 20
520.6240894430758
 30
0.0
 11
226.0240261248949
 21
520.6240894430758
 31
0.0
  0
LINE
  5
1FAF6
330
1F
100
AcDbEntity
  8
0
100
AcDbLine
 10
215.1340261248951
 20
518.5940894430758
 30
0.0
 11
226.0240261248949
 21
518.5940894430758
 31
0.0
  0
LINE
  5
1FAF7
330
1F
100
AcDbEntity
  8
0
100
AcDbLine
 10
208.2440261248952
 20
513.6240894430758
 30
0.0
 11
208.2440261248952
 21
520.6240894430758
 31
0.0
  0
LINE
  5
1FAF8
330
1F
100
AcDbEntity
  8
0
100
AcDbLine
 10
201.9140261248952
 20
512.5640894430758
 30
0.0
 11
208.2440261248952
 21
513.6240894430758
 31
0.0
  0
LINE
  5
1FAF9
330
1F
100
AcDbEntity
  8
0
100
AcDbLine
 10
206.0440261248949
 20
503.6240894430758
 30
0.0
 11
206.0440261248949
 21
511.914089443076
 31
0.0
  0
LINE
  5
1FAFA
330
1F
100
AcDbEntity
  8
0
100
AcDbLine
 10
203.3640261248951
 20
510.2340894430757
 30
0.0
 11
203.3640261248951
 21
511.4640894430757
 31
0.0
  0
LINE
  5
1FAFB
330
1F
100
AcDbEntity
  8
0
100
AcDbLine
 10
201.9140261248952
 20
510.2340894430757
 30
0.0
 11
201.9140261248952
 21
512.5640894430758
 31
0.0
  0
LINE
  5
1FAFC
330
1F
100
AcDbEntity
  8
0
100
AcDbLine
 10
201.9140261248952
 20
510.2340894430757
 30
0.0
 11
203.464026124895
 21
510.2340894430757
 31
0.0
  0
LINE
  5
1FAFD
330
1F
100
AcDbEntity
  8
0
100
AcDbLine
 10
201.9140261248952
 20
510.2340894430757
 30
0.0
 11
203.464026124895
 21
510.2340894430757
 31
0.0
  0
LINE
  5
1FAFE
330
1F
100
AcDbEntity
  8
0
100
AcDbLine
 10
203.3640261248951
 20
511.4640894430757
 30
0.0
 11
206.0440261248949
 21
511.914089443076
 31
0.0
  0
ARC
  5
1FAFF
330
1F
100
AcDbEntity
  8
0
100
AcDbCircle
 10
212.0240261248949
 20
516.9940894430759
 30
0.0
 40
1.98
100
AcDbArc
 50
0.0
 51
279.6051999999979
  0
ARC
  5
1FB00
330
1F
100
AcDbEntity
  8
0
100
AcDbCircle
 10
211.6540261248951
 20
514.3240894430759
 30
0.0
 40
1.0
100
AcDbArc
 50
317.0309100000003
 51
46.21887499999597
  0
LINE
  5
1FB01
330
1F
100
AcDbEntity
  8
0
100
AcDbLine
 10
207.6040261248951
 20
512.1740894430757
 30
0.0
 11
209.214026124895
 21
512.4440894430757
 31
0.0
  0
LINE
  5
1FB02
330
1F
100
AcDbEntity
  8
0
100
AcDbLine
 10
209.214026124895
 20
512.4440894430757
 30
0.0
 11
210.0240261248949
 21
512.5840894430758
 31
0.0
  0
LINE
  5
1FB03
330
1F
100
AcDbEntity
  8
0
100
AcDbLine
 10
210.0240261248949
 20
512.5840894430758
 30
0.0
 11
210.0240261248949
 21
514.2740894430759
 31
0.0
  0
ARC
  5
1FB04
330
1F
100
AcDbEntity
  8
0
100
AcDbCircle
 10
212.0240261248949
 20
517.0840894430758
 30
0.0
 40
3.459999999999999
100
AcDbArc
 50
234.6549700000028
 51
275.9743200000041
  0
ARC
  5
1FB05
330
1F
100
AcDbEntity
  8
0
100
AcDbCircle
 10
214.7640261248952
 20
517.6440894430758
 30
0.0
 40
1.0
100
AcDbArc
 50
220.5391499999991
 51
316.2188699999981
  0
ARC
  5
1FB06
330
1F
100
AcDbEntity
  8
0
100
AcDbCircle
 10
212.0240261248949
 20
517.0840894430758
 30
0.0
 40
3.459999999999999
100
AcDbArc
 50
357.6829299999963
 51
25.89798899998794
  0
LINE
  5
1FB07
330
1F
100
AcDbEntity
  8
0
100
AcDbLine
 10
212.0240261248949
 20
520.6240894430758
 30
0.0
 11
212.0240261248949
 21
530.6240894430758
 31
0.0
  0
LINE
  5
1FB08
330
1F
100
AcDbEntity
  8
0
100
AcDbLine
 10
210.0240261248949
 20
520.6240894430758
 30
0.0
 11
210.0240261248949
 21
530.6240894430758
 31
0.0
  0
LINE
  5
1FB09
330
1F
100
AcDbEntity
  8
0
100
AcDbLine
 10
208.2440261248952
 20
520.6240894430758
 30
0.0
 11
210.0240261248949
 21
520.6240894430758
 31
0.0
  0
LINE
  5
1FB0A
330
1F
100
AcDbEntity
  8
0
100
AcDbLine
 10
210.0240261248949
 20
530.6240894430758
 30
0.0
 11
212.0240261248949
 21
530.6240894430758
 31
0.0
  0
LINE
  5
1FB0B
330
1F
100
AcDbEntity
  8
0
100
AcDbLine
 10
228.0140261248952
 20
507.9840894430757
 30
0.0
 11
228.0140261248952
 21
531.9840894430757
 31
0.0
  0
LINE
  5
1FB0C
330
1F
100
AcDbEntity
  8
0
100
AcDbLine
 10
226.0240261248949
 20
509.4840894430757
 30
0.0
 11
226.0240261248949
 21
518.5940894430758
 31
0.0
  0
LINE
  5
1FB13
330
1F
100
AcDbEntity
  8
0
100
AcDbLine
 10
223.0140261248952
 20
507.9840894430757
 30
0.0
 11
223.0140261248952
 21
509.4840894430757
 31
0.0
  0
LINE
  5
1FB16
330
1F
100
AcDbEntity
  8
0
100
AcDbLine
 10
223.0140261248952
 20
509.4840894430757
 30
0.0
 11
226.0240261248949
 21
509.4840894430757
 31
0.0
  0
LINE
  5
1FB18
330
1F
100
AcDbEntity
  8
0
100
AcDbLine
 10
223.0140261248952
 20
507.9840894430757
 30
0.0
 11
228.0140261248952
 21
507.9840894430757
 31
0.0
  0
LINE
  5
1FB19
330
1F
100
AcDbEntity
  8
0
100
AcDbLine
 10
226.0140261248952
 20
520.6240894430758
 30
0.0
 11
226.0140261248952
 21
533.3840894430758
 31
0.0
  0
LINE
  5
1FB1A
330
1F
100
AcDbEntity
  8
0
100
AcDbLine
 10
228.0140261248952
 20
551.9840894430757
 30
0.0
 11
245.0540261248951
 21
551.9840894430757
 31
0.0
  0
LINE
  5
1FB1B
330
1F
100
AcDbEntity
  8
0
100
AcDbLine
 10
228.0140261248952
 20
552.9840894430757
 30
0.0
 11
248.0140261248952
 21
552.9840894430757
 31
0.0
  0
LINE
  5
1FB1C
330
1F
100
AcDbEntity
  8
0
100
AcDbLine
 10
226.0140261248952
 20
552.9840894430757
 30
0.0
 11
228.0140261248952
 21
552.9840894430757
 31
0.0
  0
LINE
  5
1FB1D
330
1F
100
AcDbEntity
  8
0
100
AcDbLine
 10
248.0140261248952
 20
549.7540894430759
 30
0.0
 11
248.0140261248952
 21
552.9840894430757
 31
0.0
  0
LINE
  5
1FB1E
330
1F
100
AcDbEntity
  8
0
100
AcDbLine
 10
245.0540261248951
 20
551.9840894430757
 30
0.0
 11
246.1140261248951
 21
551.9840894430757
 31
0.0
  0
LINE
  5
1FB1F
330
1F
100
AcDbEntity
  8
0
100
AcDbLine
 10
246.1140261248951
 20
549.7540894430759
 30
0.0
 11
246.1140261248951
 21
551.9840894430757
 31
0.0
  0
LINE
  5
1FB20
330
1F
100
AcDbEntity
  8
0
100
AcDbLine
 10
246.1140261248951
 20
549.7540894430759
 30
0.0
 11
248.0140261248952
 21
549.7540894430759
 31
0.0
  0
LINE
  5
1FD06
330
1F
100
AcDbEntity
  8
0
100
AcDbLine
 10
228.0140261248952
 20
682.5911114814442
 30
0.0
 11
228.0140261248952
 21
702.9840894430757
 31
0.0
  0
LINE
  5
1FD07
330
1F
100
AcDbEntity
  8
0
100
AcDbLine
 10
158.0140261248951
 20
682.5911114814442
 30
0.0
 11
158.0140261248951
 21
702.9840894430757
 31
0.0
  0
LINE
  5
1FD0A
330
1F
100
AcDbEntity
  8
0
100
AcDbLine
 10
213.3240261248951
 20
724.9040894430756
 30
0.0
 11
226.0240261248949
 21
724.9040894430756
 31
0.0
  0
LINE
  5
1FD0B
330
1F
100
AcDbEntity
  8
0
100
AcDbLine
 10
212.0140261248951
 20
722.9840894430757
 30
0.0
 11
226.0140261248952
 21
722.9840894430757
 31
0.0
  0
LINE
  5
1FD0C
330
1F
100
AcDbEntity
  8
0
100
AcDbLine
 10
158.0140261248951
 20
702.9840894430757
 30
0.0
 11
158.0140261248951
 21
737.9840894430757
 31
0.0
  0
LINE
  5
1FD10
330
1F
100
AcDbEntity
  8
0
100
AcDbLine
 10
160.0140261248951
 20
730.9840894430757
 30
0.0
 11
160.0140261248951
 21
736.4840894430757
 31
0.0
  0
LINE
  5
1FD12
330
1F
100
AcDbEntity
  8
0
100
AcDbLine
 10
160.0140261248951
 20
724.9840894430757
 30
0.0
 11
174.9940261248952
 21
724.9840894430757
 31
0.0
  0
LINE
  5
1FD13
330
1F
100
AcDbEntity
  8
0
100
AcDbLine
 10
160.0140261248951
 20
722.9840894430757
 30
0.0
 11
176.0140261248951
 21
722.9840894430757
 31
0.0
  0
LINE
  5
1FD1E
330
1F
100
AcDbEntity
  8
0
100
AcDbLine
 10
160.0140261248951
 20
702.9840894430757
 30
0.0
 11
160.0140261248951
 21
722.9840894430757
 31
0.0
  0
LINE
  5
1FD1F
330
1F
100
AcDbEntity
  8
0
100
AcDbLine
 10
158.0140261248951
 20
702.9840894430757
 30
0.0
 11
160.0140261248951
 21
702.9840894430757
 31
0.0
  0
LINE
  5
1FD2A
330
1F
100
AcDbEntity
  8
0
100
AcDbLine
 10
160.0140261248951
 20
724.9840894430757
 30
0.0
 11
160.0140261248951
 21
732.9840894430757
 31
0.0
  0
LINE
  5
1FD2B
330
1F
100
AcDbEntity
  8
0
100
AcDbLine
 10
181.124026124895
 20
729.0040894430757
 30
0.0
 11
206.7240261248952
 21
729.0040894430757
 31
0.0
  0
LINE
  5
1FD2C
330
1F
100
AcDbEntity
  8
0
100
AcDbLine
 10
182.0140261248951
 20
726.9840894430757
 30
0.0
 11
206.0140261248952
 21
726.9840894430757
 31
0.0
  0
LINE
  5
1FD2D
330
1F
100
AcDbEntity
  8
0
100
AcDbLine
 10
176.0140261248951
 20
702.9840894430757
 30
0.0
 11
176.0140261248951
 21
722.9840894430757
 31
0.0
  0
LINE
  5
1FD2E
330
1F
100
AcDbEntity
  8
0
100
AcDbLine
 10
178.0140261248951
 20
702.9840894430757
 30
0.0
 11
178.0140261248951
 21
722.9840894430757
 31
0.0
  0
LINE
  5
1FD2F
330
1F
100
AcDbEntity
  8
0
100
AcDbLine
 10
176.0140261248951
 20
702.9840894430757
 30
0.0
 11
178.0140261248951
 21
702.9840894430757
 31
0.0
  0
ARC
  5
1FD30
330
1F
100
AcDbEntity
  8
0
100
AcDbCircle
 10
178.0140261248951
 20
726.9840894430757
 30
0.0
 40
3.709999999999999
100
AcDbArc
 50
33.00443600000318
 51
122.5776600000082
  0
LINE
  5
1FD31
330
1F
100
AcDbEntity
  8
0
100
AcDbLine
 10
178.0140261248951
 20
722.9840894430757
 30
0.0
 11
184.0140261248951
 21
722.9840894430757
 31
0.0
  0
ARC
  5
1FD32
330
1F
100
AcDbEntity
  8
0
100
AcDbCircle
 10
176.9840261248949
 20
729.8540894430756
 30
0.0
 40
1.0
100
AcDbArc
 50
165.5475699999941
 51
270.5729299999937
  0
ARC
  5
1FD33
330
1F
100
AcDbEntity
  8
0
100
AcDbCircle
 10
178.0140261248951
 20
726.9840894430757
 30
0.0
 40
3.709999999999999
100
AcDbArc
 50
197.261820000006
 51
212.6609099999908
  0
ARC
  5
1FD34
330
1F
100
AcDbEntity
  8
0
100
AcDbCircle
 10
175.3640261248951
 20
725.4340894430757
 30
0.0
 40
1.0
100
AcDbArc
 50
47.0309140000042
 51
153.17801
  0
ARC
  5
1FD35
330
1F
100
AcDbEntity
  8
0
100
AcDbCircle
 10
178.0140261248951
 20
726.9840894430757
 30
0.0
 40
2.129999999999999
100
AcDbArc
 50
202.599210000001
 51
118.6104599999939
  0
LINE
  5
1FD36
330
1F
100
AcDbEntity
  8
0
100
AcDbLine
 10
182.0140261248951
 20
724.9840894430757
 30
0.0
 11
184.0140261248951
 21
724.9840894430757
 31
0.0
  0
LINE
  5
1FD37
330
1F
100
AcDbEntity
  8
0
100
AcDbLine
 10
182.0140261248951
 20
724.9840894430757
 30
0.0
 11
182.0140261248951
 21
726.9840894430757
 31
0.0
  0
LINE
  5
1FD38
330
1F
100
AcDbEntity
  8
0
100
AcDbLine
 10
184.0140261248951
 20
722.9840894430757
 30
0.0
 11
184.0140261248951
 21
724.9840894430757
 31
0.0
  0
LINE
  5
1FD39
330
1F
100
AcDbEntity
  8
0
100
AcDbLine
 10
212.0140261248951
 20
702.9840894430757
 30
0.0
 11
212.0140261248951
 21
722.9840894430757
 31
0.0
  0
LINE
  5
1FD3A
330
1F
100
AcDbEntity
  8
0
100
AcDbLine
 10
210.0140261248952
 20
702.9840894430757
 30
0.0
 11
210.0140261248952
 21
722.9840894430757
 31
0.0
  0
LINE
  5
1FD3B
330
1F
100
AcDbEntity
  8
0
100
AcDbLine
 10
210.0140261248952
 20
702.9840894430757
 30
0.0
 11
212.0140261248951
 21
702.9840894430757
 31
0.0
  0
ARC
  5
1FD3C
330
1F
100
AcDbEntity
  8
0
100
AcDbCircle
 10
211.3940261248953
 20
729.5840894430756
 30
0.0
 40
1.0
100
AcDbArc
 50
272.2906099999923
 51
46.21887499999597
  0
ARC
  5
1FD3D
330
1F
100
AcDbEntity
  8
0
100
AcDbCircle
 10
210.0140261248952
 20
726.9840894430757
 30
0.0
 40
3.91
100
AcDbArc
 50
56.67538600000565
 51
148.910650000012
  0
ARC
  5
1FD3E
330
1F
100
AcDbEntity
  8
0
100
AcDbCircle
 10
210.0140261248952
 20
726.9840894430757
 30
0.0
 40
3.91
100
AcDbArc
 50
327.854790000005
 51
341.5187299999806
  0
ARC
  5
1FD3F
330
1F
100
AcDbEntity
  8
0
100
AcDbCircle
 10
212.7540261248949
 20
725.4940894430757
 30
0.0
 40
1.0
100
AcDbArc
 50
14.45242800001459
 51
143.1300999999861
  0
LINE
  5
1FD40
330
1F
100
AcDbEntity
  8
0
100
AcDbLine
 10
204.0140261248952
 20
722.9840894430757
 30
0.0
 11
210.0140261248952
 21
722.9840894430757
 31
0.0
  0
LINE
  5
1FD41
330
1F
100
AcDbEntity
  8
0
100
AcDbLine
 10
204.0140261248952
 20
724.9840894430757
 30
0.0
 11
206.0140261248952
 21
724.9840894430757
 31
0.0
  0
LINE
  5
1FD42
330
1F
100
AcDbEntity
  8
0
100
AcDbLine
 10
204.0140261248952
 20
722.9840894430757
 30
0.0
 11
204.0140261248952
 21
724.9840894430757
 31
0.0
  0
LINE
  5
1FD43
330
1F
100
AcDbEntity
  8
0
100
AcDbLine
 10
206.0140261248952
 20
724.9840894430757
 30
0.0
 11
206.0140261248952
 21
726.9840894430757
 31
0.0
  0
ARC
  5
1FD44
330
1F
100
AcDbEntity
  8
0
100
AcDbCircle
 10
210.0140261248952
 20
726.9840894430757
 30
0.0
 40
2.14
100
AcDbArc
 50
48.21124799999438
 51
336.8014000000007
  0
LINE
  5
1FD45
330
1F
100
AcDbEntity
  8
0
100
AcDbLine
 10
158.0140261248951
 20
737.9840894430757
 30
0.0
 11
167.0140261248952
 21
737.9840894430757
 31
0.0
  0
LINE
  5
1FD47
330
1F
100
AcDbEntity
  8
0
100
AcDbLine
 10
167.0140261248952
 20
736.4840894430757
 30
0.0
 11
167.0140261248952
 21
737.9840894430757
 31
0.0
  0
LINE
  5
1FD4B
330
1F
100
AcDbEntity
  8
0
100
AcDbLine
 10
160.0140261248951
 20
736.4840894430757
 30
0.0
 11
167.0140261248952
 21
736.4840894430757
 31
0.0
  0
LINE
  5
1FD51
330
1F
100
AcDbEntity
  8
0
100
AcDbLine
 10
226.0240261248949
 20
724.9040894430756
 30
0.0
 11
226.0240261248949
 21
736.4840894430757
 31
0.0
  0
LINE
  5
1FD54
330
1F
100
AcDbEntity
  8
0
100
AcDbLine
 10
228.0140261248952
 20
737.9840894430757
 30
0.0
 11
228.0140261248952
 21
718.9840894430757
 31
0.0
  0
LINE
  5
1FD55
330
1F
100
AcDbEntity
  8
0
100
AcDbLine
 10
228.0140261248952
 20
717.9840894430757
 30
0.0
 11
248.0140261248952
 21
717.9840894430757
 31
0.0
  0
LINE
  5
1FD56
330
1F
100
AcDbEntity
  8
0
100
AcDbLine
 10
228.0140261248952
 20
718.9840894430757
 30
0.0
 11
246.9540261248952
 21
718.9840894430757
 31
0.0
  0
LINE
  5
1FD57
330
1F
100
AcDbEntity
  8
0
100
AcDbLine
 10
226.0140261248952
 20
704.7040894430757
 30
0.0
 11
226.0140261248952
 21
722.9840894430757
 31
0.0
  0
LINE
  5
1FD58
330
1F
100
AcDbEntity
  8
0
100
AcDbLine
 10
224.0540261248952
 20
702.9840894430757
 30
0.0
 11
228.0140261248952
 21
702.9840894430757
 31
0.0
  0
LINE
  5
1FD59
330
1F
100
AcDbEntity
  8
0
100
AcDbLine
 10
224.0540261248952
 20
702.9840894430757
 30
0.0
 11
224.0540261248952
 21
704.7040894430757
 31
0.0
  0
LINE
  5
1FD5A
330
1F
100
AcDbEntity
  8
0
100
AcDbLine
 10
224.0540261248952
 20
704.7040894430757
 30
0.0
 11
226.0140261248952
 21
704.7040894430757
 31
0.0
  0
LINE
  5
1FD5B
330
1F
100
AcDbEntity
  8
0
100
AcDbLine
 10
228.0140261248952
 20
717.9840894430757
 30
0.0
 11
228.0140261248952
 21
702.9840894430757
 31
0.0
  0
LINE
  5
1FD5E
330
1F
100
AcDbEntity
  8
0
100
AcDbLine
 10
248.0140261248952
 20
717.9840894430757
 30
0.0
 11
248.0140261248952
 21
720.9840894430757
 31
0.0
  0
LINE
  5
1FD5F
330
1F
100
AcDbEntity
  8
0
100
AcDbLine
 10
246.9540261248952
 20
720.9840894430757
 30
0.0
 11
248.0140261248952
 21
720.9840894430757
 31
0.0
  0
LINE
  5
1FD60
330
1F
100
AcDbEntity
  8
0
100
AcDbLine
 10
246.9540261248952
 20
718.9840894430757
 30
0.0
 11
246.9540261248952
 21
720.9840894430757
 31
0.0
  0
LINE
  5
1FD61
330
1F
100
AcDbEntity
  8
0
100
AcDbLine
 10
219.0140261248952
 20
737.9840894430757
 30
0.0
 11
228.0140261248952
 21
737.9840894430757
 31
0.0
  0
LINE
  5
1FD66
330
1F
100
AcDbEntity
  8
0
100
AcDbLine
 10
219.0140261248952
 20
736.4840894430757
 30
0.0
 11
219.0140261248952
 21
737.9840894430757
 31
0.0
  0
LINE
  5
1FD67
330
1F
100
AcDbEntity
  8
0
100
AcDbLine
 10
219.0140261248952
 20
736.4840894430757
 30
0.0
 11
226.0240261248949
 21
736.4840894430757
 31
0.0
  0
LINE
  5
21177
330
1F
100
AcDbEntity
  8
0
100
AcDbLine
 10
169.154026124895
 20
494.9140894430757
 30
0.0
 11
176.0240261248949
 21
495.7640894430759
 31
0.0
  0
LINE
  5
21178
330
1F
100
AcDbEntity
  8
0
 48
0.5
100
AcDbLine
 10
169.154026124895
 20
482.9840894430757
 30
0.0
 11
167.154026124895
 21
482.9840894430757
 31
0.0
  0
LINE
  5
211B8
330
1F
100
AcDbEntity
  8
0
 48
0.5
100
AcDbLine
 10
167.154026124895
 20
494.4191840573408
 30
0.0
 11
167.154026124895
 21
482.4810472305577
 31
0.0
  0
LINE
  5
211BA
330
1F
100
AcDbEntity
  8
0
 48
0.5
100
AcDbLine
 10
165.154026124895
 20
494.4191840573408
 30
0.0
 11
167.154026124895
 21
494.4191840573408
 31
0.0
  0
LINE
  5
211BD
330
1F
100
AcDbEntity
  8
0
 48
0.5
100
AcDbLine
 10
167.154026124895
 20
482.4810472305577
 30
0.0
 11
50.01402597350409
 21
461.8261046836738
 31
0.0
  0
LINE
  5
211BF
330
1F
100
AcDbEntity
  8
0
 48
0.5
100
AcDbLine
 10
165.154026124895
 20
494.4191840573408
 30
0.0
 11
165.1540261248948
 21
484.1592464929122
 31
0.0
  0
LINE
  5
2122B
330
1F
100
AcDbEntity
  8
0
 48
0.5
100
AcDbLine
 10
165.1540261248948
 20
484.1592464929122
 30
0.0
 11
48.01402597350431
 21
463.5043039460283
 31
0.0
  0
LINE
  5
2122F
330
1F
100
AcDbEntity
  8
0
 48
0.5
100
AcDbLine
 10
48.01402597350431
 20
448.5043039460284
 30
0.0
 11
48.01402597350431
 21
463.5043039460283
 31
0.0
  0
LINE
  5
21230
330
1F
100
AcDbEntity
  8
0
 48
0.5
100
AcDbLine
 10
50.01402597350409
 20
448.5043039460284
 30
0.0
 11
50.01402597350409
 21
461.8261046836738
 31
0.0
  0
LINE
  5
21232
330
1F
100
AcDbEntity
  8
0
 48
0.5
100
AcDbLine
 10
48.01402597350431
 20
448.5043039460284
 30
0.0
 11
50.01402597350409
 21
448.5043039460284
 31
0.0
  0
LINE
  5
21233
330
1F
100
AcDbEntity
  8
0000躯体
 48
0.5
100
AcDbLine
 10
159.0140261248951
 20
493.5357775954702
 30
0.0
 11
159.0140261248951
 21
483.0765988313622
 31
0.0
  0
LINE
  5
21262
330
1F
100
AcDbEntity
  8
0
100
AcDbLine
 10
784.5908128471735
 20
627.3939010538278
 30
0.0
 11
785.0908128471735
 21
627.3939010538278
 31
0.0
  0
LINE
  5
21263
330
1F
100
AcDbEntity
  8
0
100
AcDbLine
 10
783.0908128471735
 20
628.8939010538277
 30
0.0
 11
808.0908128471735
 21
628.8939010538277
 31
0.0
  0
LINE
  5
21267
330
1F
100
AcDbEntity
  8
0
100
AcDbLine
 10
784.5908128471735
 20
560.3939010538278
 30
0.0
 11
785.0908128471735
 21
560.3939010538278
 31
0.0
  0
LINE
  5
21269
330
1F
100
AcDbEntity
  8
0
100
AcDbLine
 10
783.0908128471735
 20
558.8939010538277
 30
0.0
 11
792.0908128471735
 21
558.8939010538277
 31
0.0
  0
LINE
  5
2126D
330
1F
100
AcDbEntity
  8
0
100
AcDbLine
 10
783.0908128471735
 20
558.8939010538277
 30
0.0
 11
783.0908128471735
 21
567.8939010538278
 31
0.0
  0
LINE
  5
2126E
330
1F
100
AcDbEntity
  8
0
100
AcDbLine
 10
783.0908128471735
 20
567.8939010538278
 30
0.0
 11
784.5908128471735
 21
567.8939010538278
 31
0.0
  0
LINE
  5
21273
330
1F
100
AcDbEntity
  8
0
100
AcDbLine
 10
784.5908128471735
 20
560.3939010538278
 30
0.0
 11
784.5908128471735
 21
567.8939010538278
 31
0.0
  0
LINE
  5
21279
330
1F
100
AcDbEntity
  8
0
100
AcDbLine
 10
783.0908128471735
 20
620.8939010538277
 30
0.0
 11
784.5908128471735
 21
620.8939010538277
 31
0.0
  0
LINE
  5
2127E
330
1F
100
AcDbEntity
  8
0
100
AcDbLine
 10
783.0908128471735
 20
620.8939010538277
 30
0.0
 11
783.0908128471735
 21
628.8939010538277
 31
0.0
  0
LINE
  5
2127F
330
1F
100
AcDbEntity
  8
0
100
AcDbLine
 10
784.5908128471735
 20
620.8939010538277
 30
0.0
 11
784.5908128471735
 21
627.3939010538278
 31
0.0
  0
LINE
  5
21280
330
1F
100
AcDbEntity
  8
0
100
AcDbLine
 10
793.0908128471735
 20
560.3939010538278
 30
0.0
 11
793.0908128471735
 21
591.3939010538277
 31
0.0
  0
LINE
  5
21281
330
1F
100
AcDbEntity
  8
0
100
AcDbLine
 10
791.5908128471735
 20
560.3939010538278
 30
0.0
 11
791.5908128471735
 21
627.3939010538278
 31
0.0
  0
LINE
  5
21282
330
1F
100
AcDbEntity
  8
0
100
AcDbLine
 10
793.0908128471735
 20
538.8939010538278
 30
0.0
 11
793.0908128471735
 21
558.8939010538277
 31
0.0
  0
LINE
  5
21283
330
1F
100
AcDbEntity
  8
0
100
AcDbLine
 10
792.0908128471735
 20
539.7039010538277
 30
0.0
 11
792.0908128471735
 21
558.8939010538277
 31
0.0
  0
LINE
  5
21284
330
1F
100
AcDbEntity
  8
0
100
AcDbLine
 10
790.0908128471735
 20
538.8939010538278
 30
0.0
 11
793.0908128471735
 21
538.8939010538278
 31
0.0
  0
LINE
  5
21285
330
1F
100
AcDbEntity
  8
0
100
AcDbLine
 10
790.0908128471735
 20
539.7039010538277
 30
0.0
 11
792.0908128471735
 21
539.7039010538277
 31
0.0
  0
LINE
  5
21286
330
1F
100
AcDbEntity
  8
0
100
AcDbLine
 10
790.0908128471735
 20
538.8939010538278
 30
0.0
 11
790.0908128471735
 21
539.7039010538277
 31
0.0
  0
LINE
  5
21287
330
1F
100
AcDbEntity
  8
0
100
AcDbLine
 10
793.0908128471735
 20
560.3939010538278
 30
0.0
 11
806.9708128471734
 21
560.3939010538278
 31
0.0
  0
LINE
  5
21288
330
1F
100
AcDbEntity
  8
0
100
AcDbLine
 10
793.0908128471735
 20
558.8939010538277
 30
0.0
 11
808.0908128471735
 21
558.8939010538277
 31
0.0
  0
LINE
  5
2128A
330
1F
100
AcDbEntity
  8
0
100
AcDbLine
 10
785.0908128471735
 20
560.3939010538278
 30
0.0
 11
791.5908128471735
 21
560.3939010538278
 31
0.0
  0
LINE
  5
2128B
330
1F
100
AcDbEntity
  8
0
100
AcDbLine
 10
808.0908128471735
 20
558.8939010538277
 30
0.0
 11
808.0908128471735
 21
561.0139010538277
 31
0.0
  0
LINE
  5
2128C
330
1F
100
AcDbEntity
  8
0
100
AcDbLine
 10
806.9708128471734
 20
560.3939010538278
 30
0.0
 11
806.9708128471734
 21
561.0139010538277
 31
0.0
  0
LINE
  5
2128D
330
1F
100
AcDbEntity
  8
0
100
AcDbLine
 10
806.9708128471734
 20
561.0139010538277
 30
0.0
 11
808.0908128471735
 21
561.0139010538277
 31
0.0
  0
LINE
  5
2128E
330
1F
100
AcDbEntity
  8
0
100
AcDbLine
 10
793.0908128471735
 20
612.3939010538277
 30
0.0
 11
793.0908128471735
 21
627.3939010538278
 31
0.0
  0
LINE
  5
2128F
330
1F
100
AcDbEntity
  8
0
100
AcDbLine
 10
793.0908128471735
 20
592.3939010538277
 30
0.0
 11
793.0908128471735
 21
610.8939010538278
 31
0.0
  0
LINE
  5
21290
330
1F
100
AcDbEntity
  8
0
100
AcDbLine
 10
800.0708128471735
 20
592.3939010538277
 30
0.0
 11
800.0708128471735
 21
593.1039010538277
 31
0.0
  0
LINE
  5
21291
330
1F
100
AcDbEntity
  8
0
100
AcDbLine
 10
800.0708128471735
 20
593.1039010538277
 30
0.0
 11
801.0908128471735
 21
593.1039010538277
 31
0.0
  0
LINE
  5
21292
330
1F
100
AcDbEntity
  8
0
100
AcDbLine
 10
801.0908128471735
 20
591.3939010538277
 30
0.0
 11
801.0908128471735
 21
593.1039010538277
 31
0.0
  0
LINE
  5
21293
330
1F
100
AcDbEntity
  8
0
100
AcDbLine
 10
793.0908128471735
 20
592.3939010538277
 30
0.0
 11
800.0708128471735
 21
592.3939010538277
 31
0.0
  0
LINE
  5
21294
330
1F
100
AcDbEntity
  8
0
100
AcDbLine
 10
793.0908128471735
 20
591.3939010538277
 30
0.0
 11
801.0908128471735
 21
591.3939010538277
 31
0.0
  0
LINE
  5
21295
330
1F
100
AcDbEntity
  8
0
100
AcDbLine
 10
793.0908128471735
 20
610.8939010538278
 30
0.0
 11
803.6808128471735
 21
610.8939010538278
 31
0.0
  0
LINE
  5
21296
330
1F
100
AcDbEntity
  8
0
100
AcDbLine
 10
793.0908128471735
 20
612.3939010538277
 30
0.0
 11
805.0908128471736
 21
612.3939010538277
 31
0.0
  0
LINE
  5
21297
330
1F
100
AcDbEntity
  8
0
100
AcDbLine
 10
805.0908128471736
 20
608.8939010538277
 30
0.0
 11
805.0908128471736
 21
612.3939010538277
 31
0.0
  0
LINE
  5
21298
330
1F
100
AcDbEntity
  8
0
100
AcDbLine
 10
803.6808128471735
 20
608.8939010538277
 30
0.0
 11
803.6808128471735
 21
610.8939010538278
 31
0.0
  0
LINE
  5
21299
330
1F
100
AcDbEntity
  8
0
100
AcDbLine
 10
803.6808128471735
 20
608.8939010538277
 30
0.0
 11
805.0908128471736
 21
608.8939010538277
 31
0.0
  0
LINE
  5
2129A
330
1F
100
AcDbEntity
  8
0
100
AcDbLine
 10
793.0908128471735
 20
627.3939010538278
 30
0.0
 11
808.0908128471735
 21
627.3939010538278
 31
0.0
  0
LINE
  5
2129B
330
1F
100
AcDbEntity
  8
0
100
AcDbLine
 10
785.0908128471735
 20
627.3939010538278
 30
0.0
 11
791.5908128471735
 21
627.3939010538278
 31
0.0
  0
LINE
  5
2129D
330
1F
100
AcDbEntity
  8
0
100
AcDbLine
 10
808.0908128471735
 20
627.3939010538278
 30
0.0
 11
808.0908128471735
 21
628.8939010538277
 31
0.0
  0
LINE
  5
2129E
330
1F
100
AcDbEntity
  8
0
100
AcDbLine
 10
973.0908128471735
 20
560.3939010538278
 30
0.0
 11
973.0908128471735
 21
575.3939010538277
 31
0.0
  0
LINE
  5
212A2
330
1F
100
AcDbEntity
  8
0
100
AcDbLine
 10
974.5908128471736
 20
560.3939010538278
 30
0.0
 11
974.5908128471736
 21
627.3939010538278
 31
0.0
  0
LINE
  5
212A5
330
1F
100
AcDbEntity
  8
0
100
AcDbLine
 10
974.5908128471736
 20
560.3939010538278
 30
0.0
 11
981.0908128471735
 21
560.3939010538278
 31
0.0
  0
LINE
  5
212A6
330
1F
100
AcDbEntity
  8
0
100
AcDbLine
 10
974.0908128471735
 20
558.8939010538277
 30
0.0
 11
983.0908128471735
 21
558.8939010538277
 31
0.0
  0
LINE
  5
212A7
330
1F
100
AcDbEntity
  8
0
100
AcDbLine
 10
973.0908128471735
 20
538.8939010538278
 30
0.0
 11
973.0908128471735
 21
558.8939010538277
 31
0.0
  0
LINE
  5
212A8
330
1F
100
AcDbEntity
  8
0
100
AcDbLine
 10
974.0908128471735
 20
539.7039010538277
 30
0.0
 11
974.0908128471735
 21
558.8939010538277
 31
0.0
  0
LINE
  5
212A9
330
1F
100
AcDbEntity
  8
0
100
AcDbLine
 10
976.0908128471735
 20
538.8939010538278
 30
0.0
 11
976.0908128471735
 21
539.7039010538277
 31
0.0
  0
LINE
  5
212AA
330
1F
100
AcDbEntity
  8
0
100
AcDbLine
 10
973.0908128471735
 20
538.8939010538278
 30
0.0
 11
976.0908128471735
 21
538.8939010538278
 31
0.0
  0
LINE
  5
212AB
330
1F
100
AcDbEntity
  8
0
100
AcDbLine
 10
974.0908128471735
 20
539.7039010538277
 30
0.0
 11
976.0908128471735
 21
539.7039010538277
 31
0.0
  0
LINE
  5
212AC
330
1F
100
AcDbEntity
  8
0
100
AcDbLine
 10
958.0908128471735
 20
558.8939010538277
 30
0.0
 11
973.0908128471735
 21
558.8939010538277
 31
0.0
  0
LINE
  5
212AD
330
1F
100
AcDbEntity
  8
0
100
AcDbLine
 10
959.2108128471734
 20
560.3939010538278
 30
0.0
 11
973.0908128471735
 21
560.3939010538278
 31
0.0
  0
LINE
  5
212AE
330
1F
100
AcDbEntity
  8
0
100
AcDbLine
 10
958.0908128471735
 20
558.8939010538277
 30
0.0
 11
958.0908128471735
 21
561.0139010538277
 31
0.0
  0
LINE
  5
212AF
330
1F
100
AcDbEntity
  8
0
100
AcDbLine
 10
959.2108128471734
 20
560.3939010538278
 30
0.0
 11
959.2108128471734
 21
561.0139010538277
 31
0.0
  0
LINE
  5
212B0
330
1F
100
AcDbEntity
  8
0
100
AcDbLine
 10
958.0908128471735
 20
561.0139010538277
 30
0.0
 11
959.2108128471734
 21
561.0139010538277
 31
0.0
  0
LINE
  5
212B2
330
1F
100
AcDbEntity
  8
0
100
AcDbLine
 10
983.0908128471735
 20
558.8939010538277
 30
0.0
 11
983.0908128471735
 21
567.8939010538278
 31
0.0
  0
LINE
  5
212B3
330
1F
100
AcDbEntity
  8
0
100
AcDbLine
 10
981.5908128471734
 20
567.8939010538278
 30
0.0
 11
983.0908128471735
 21
567.8939010538278
 31
0.0
  0
LINE
  5
212B7
330
1F
100
AcDbEntity
  8
0
100
AcDbLine
 10
981.0908128471735
 20
560.3939010538278
 30
0.0
 11
981.5908128471734
 21
560.3939010538278
 31
0.0
  0
LINE
  5
212B8
330
1F
100
AcDbEntity
  8
0
100
AcDbLine
 10
981.5908128471734
 20
560.3939010538278
 30
0.0
 11
981.5908128471734
 21
567.8939010538278
 31
0.0
  0
LINE
  5
212BA
330
1F
100
AcDbEntity
  8
0
100
AcDbLine
 10
973.0908128471735
 20
612.3939010538277
 30
0.0
 11
973.0908128471735
 21
627.3939010538278
 31
0.0
  0
LINE
  5
212BB
330
1F
100
AcDbEntity
  8
0
100
AcDbLine
 10
973.0908128471735
 20
592.3939010538277
 30
0.0
 11
973.0908128471735
 21
595.3939010538277
 31
0.0
  0
LINE
  5
212BC
330
1F
100
AcDbEntity
  8
0
100
AcDbLine
 10
961.0908128471734
 20
575.3939010538277
 30
0.0
 11
973.0908128471735
 21
575.3939010538277
 31
0.0
  0
LINE
  5
212BD
330
1F
100
AcDbEntity
  8
0
100
AcDbLine
 10
962.5008128471735
 20
576.8939010538278
 30
0.0
 11
973.0908128471735
 21
576.8939010538278
 31
0.0
  0
LINE
  5
212BE
330
1F
100
AcDbEntity
  8
0
100
AcDbLine
 10
961.0908128471734
 20
578.8939010538277
 30
0.0
 11
962.5008128471735
 21
578.8939010538277
 31
0.0
  0
LINE
  5
212BF
330
1F
100
AcDbEntity
  8
0
100
AcDbLine
 10
961.0908128471734
 20
575.3939010538277
 30
0.0
 11
961.0908128471734
 21
578.8939010538277
 31
0.0
  0
LINE
  5
212C0
330
1F
100
AcDbEntity
  8
0
100
AcDbLine
 10
962.5008128471735
 20
576.8939010538278
 30
0.0
 11
962.5008128471735
 21
578.8939010538277
 31
0.0
  0
LINE
  5
212C1
330
1F
100
AcDbEntity
  8
0
100
AcDbLine
 10
973.0908128471735
 20
576.8939010538278
 30
0.0
 11
973.0908128471735
 21
591.3939010538277
 31
0.0
  0
LINE
  5
212C2
330
1F
100
AcDbEntity
  8
0
100
AcDbLine
 10
973.0908128471735
 20
591.3939010538277
 30
0.0
 11
973.0908128471735
 21
592.3939010538277
 31
0.0
  0
LINE
  5
212C3
330
1F
100
AcDbEntity
  8
0
100
AcDbLine
 10
973.0908128471735
 20
596.3939010538277
 30
0.0
 11
973.0908128471735
 21
610.8939010538278
 31
0.0
  0
LINE
  5
212C4
330
1F
100
AcDbEntity
  8
0
100
AcDbLine
 10
966.1108128471735
 20
595.3939010538277
 30
0.0
 11
973.0908128471735
 21
595.3939010538277
 31
0.0
  0
LINE
  5
212C5
330
1F
100
AcDbEntity
  8
0
100
AcDbLine
 10
965.0908128471735
 20
596.3939010538277
 30
0.0
 11
973.0908128471735
 21
596.3939010538277
 31
0.0
  0
LINE
  5
212C6
330
1F
100
AcDbEntity
  8
0
100
AcDbLine
 10
965.0908128471735
 20
594.6839010538277
 30
0.0
 11
965.0908128471735
 21
596.3939010538277
 31
0.0
  0
LINE
  5
212C7
330
1F
100
AcDbEntity
  8
0
100
AcDbLine
 10
965.0908128471735
 20
594.6839010538277
 30
0.0
 11
966.1108128471735
 21
594.6839010538277
 31
0.0
  0
LINE
  5
212C8
330
1F
100
AcDbEntity
  8
0
100
AcDbLine
 10
966.1108128471735
 20
594.6839010538277
 30
0.0
 11
966.1108128471735
 21
595.3939010538277
 31
0.0
  0
LINE
  5
212C9
330
1F
100
AcDbEntity
  8
0
100
AcDbLine
 10
973.0908128471735
 20
610.8939010538278
 30
0.0
 11
973.0908128471735
 21
612.3939010538277
 31
0.0
  0
LINE
  5
212CF
330
1F
100
AcDbEntity
  8
0
100
AcDbLine
 10
974.5908128471736
 20
627.3939010538278
 30
0.0
 11
981.0908128471735
 21
627.3939010538278
 31
0.0
  0
LINE
  5
212D0
330
1F
100
AcDbEntity
  8
0
100
AcDbLine
 10
958.0908128471735
 20
628.8939010538277
 30
0.0
 11
983.0908128471735
 21
628.8939010538277
 31
0.0
  0
LINE
  5
212D3
330
1F
100
AcDbEntity
  8
0
100
AcDbLine
 10
958.0908128471735
 20
627.3939010538278
 30
0.0
 11
973.0908128471735
 21
627.3939010538278
 31
0.0
  0
LINE
  5
212D4
330
1F
100
AcDbEntity
  8
0
100
AcDbLine
 10
958.0908128471735
 20
627.3939010538278
 30
0.0
 11
958.0908128471735
 21
628.8939010538277
 31
0.0
  0
LINE
  5
212D7
330
1F
100
AcDbEntity
  8
0
100
AcDbLine
 10
981.0908128471735
 20
627.3939010538278
 30
0.0
 11
981.5908128471734
 21
627.3939010538278
 31
0.0
  0
LINE
  5
212D8
330
1F
100
AcDbEntity
  8
0
100
AcDbLine
 10
981.5908128471734
 20
620.8939010538277
 30
0.0
 11
983.0908128471735
 21
620.8939010538277
 31
0.0
  0
LINE
  5
212DD
330
1F
100
AcDbEntity
  8
0
100
AcDbLine
 10
981.5908128471734
 20
620.8939010538277
 30
0.0
 11
981.5908128471734
 21
627.3939010538278
 31
0.0
  0
LINE
  5
212DE
330
1F
100
AcDbEntity
  8
0
100
AcDbLine
 10
983.0908128471735
 20
620.8939010538277
 30
0.0
 11
983.0908128471735
 21
628.8939010538277
 31
0.0
  0
POINT
  5
22637
330
1F
100
AcDbEntity
  8
0
 48
0.5
100
AcDbPoint
 10
1132.737156240927
 20
49.00000000000003
 30
0.0
  0
TEXT
  5
22638
330
1F
100
AcDbEntity
  8
0
100
AcDbText
 10
1095.027332077367
 20
52.4583429741629
 30
0.0
 40
6.299999999999997
  1
170401
  7
ｺﾞｼｯｸ（横）
 72
     1
 11
1108.772786622821
 21
55.60834297416289
 31
0.0
100
AcDbText
 73
     2
  0
LINE
  5
243D2
330
1F
100
AcDbEntity
  8
0000躯体
 48
0.2
100
AcDbLine
 10
244.8552278470032
 20
742.9840894430757
 30
0.0
 11
233.0140261248952
 21
731.1428877209675
 31
0.0
  0
LINE
  5
243D3
330
1F
100
AcDbEntity
  8
0000躯体
 48
0.2
100
AcDbLine
 10
266.0684312825996
 20
742.9840894430757
 30
0.0
 11
244.0684312825996
 21
720.9840894430757
 31
0.0
  0
LINE
  5
243D4
330
1F
100
AcDbEntity
  8
0000躯体
 48
0.2
100
AcDbLine
 10
282.281634718196
 20
737.9840894430756
 30
0.0
 11
262.2816347181959
 21
717.9840894430757
 31
0.0
  0
LINE
  5
243D5
330
1F
100
AcDbEntity
  8
0000躯体
 48
0.2
100
AcDbLine
 10
298.0140261248952
 20
732.5032774141776
 30
0.0
 11
283.4948381537928
 21
717.9840894430757
 31
0.0
  0
LINE
  5
243D6
330
1F
100
AcDbEntity
  8
0000躯体
 48
0.2
100
AcDbLine
 10
241.6252278470036
 20
549.7540894430759
 30
0.0
 11
231.0140261248952
 21
539.1428877209675
 31
0.0
  0
LINE
  5
243D7
330
1F
100
AcDbEntity
  8
0000躯体
 48
0.2
100
AcDbLine
 10
266.0684312825996
 20
552.9840894430757
 30
0.0
 11
241.0684312825996
 21
527.9840894430757
 31
0.0
  0
LINE
  5
243D8
330
1F
100
AcDbEntity
  8
0000躯体
 48
0.2
100
AcDbLine
 10
287.2816347181959
 20
552.9840894430757
 30
0.0
 11
262.2816347181959
 21
527.9840894430757
 31
0.0
  0
LINE
  5
243D9
330
1F
100
AcDbEntity
  8
0000躯体
 48
0.2
100
AcDbLine
 10
298.014026124895
 20
542.5032774141776
 30
0.0
 11
288.0140261248952
 21
532.5032774141779
 31
0.0
  0
LINE
  5
243DA
330
1F
100
AcDbEntity
  8
0000躯体
 48
0.2
100
AcDbLine
 10
985.6657710012385
 20
553.8939010538276
 30
0.0
 11
976.0908128471735
 21
544.3189428997626
 31
0.0
  0
LINE
  5
243DB
330
1F
100
AcDbEntity
  8
0000躯体
 48
0.2
100
AcDbLine
 10
998.0908128471735
 20
545.1057394641662
 30
0.0
 11
973.0908128471735
 21
520.1057394641663
 31
0.0
  0
LINE
  5
243DC
330
1F
100
AcDbEntity
  8
0000躯体
 48
0.2
100
AcDbLine
 10
998.0908128471735
 20
523.8925360285699
 30
0.0
 11
973.0908128471735
 21
498.8925360285699
 31
0.0
  0
LINE
  5
243DD
330
1F
100
AcDbEntity
  8
0000躯体
 48
0.2
100
AcDbLine
 10
994.3053813080275
 20
498.8939010538275
 30
0.0
 11
984.3053813080276
 21
488.8939010538275
 31
0.0
  0
LINE
  5
243DE
330
1F
100
AcDbEntity
  8
0000躯体
 48
0.2
100
AcDbLine
 10
780.7225525324847
 20
553.8939010538276
 30
0.0
 11
768.0908128471736
 21
541.2621613685165
 31
0.0
  0
LINE
  5
243DF
330
1F
100
AcDbEntity
  8
0000躯体
 48
0.2
100
AcDbLine
 10
790.0908128471736
 20
542.0489579329202
 30
0.0
 11
768.0908128471736
 21
520.0489579329203
 31
0.0
  0
LINE
  5
243E0
330
1F
100
AcDbEntity
  8
0000躯体
 48
0.2
100
AcDbLine
 10
793.0908128471736
 20
523.8357544973238
 30
0.0
 11
773.0908128471736
 21
503.8357544973238
 31
0.0
  0
LINE
  5
243E1
330
1F
100
AcDbEntity
  8
0000躯体
 48
0.2
100
AcDbLine
 10
793.0908128471736
 20
502.6225510617273
 30
0.0
 11
779.362162839274
 21
488.8939010538276
 31
0.0
  0
LINE
  5
26C72
330
1F
100
AcDbEntity
  8
003
100
AcDbLine
 10
146.6280331228871
 20
394.9198349187561
 30
0.0
 11
230.6280331228867
 21
394.9198349187561
 31
0.0
  0
LINE
  5
26C73
330
1F
100
AcDbEntity
  8
003
100
AcDbLine
 10
146.6280331228871
 20
408.9198349187561
 30
0.0
 11
230.6280331228871
 21
408.9198349187561
 31
0.0
  0
LINE
  5
26C74
330
1F
100
AcDbEntity
  8
003
100
AcDbLine
 10
146.6280331228871
 20
394.9198349187561
 30
0.0
 11
146.6280331228871
 21
408.9198349187561
 31
0.0
  0
TEXT
  5
26C75
330
1F
100
AcDbEntity
  8
0
100
AcDbText
 10
169.8680331228871
 20
397.7198349187561
 30
0.0
 40
8.399999999999998
  1
縦断面図
  7
AT_VECTOR
 72
     1
 11
188.6280331228871
 21
401.919834918756
 31
0.0
100
AcDbText
 73
     2
  0
LINE
  5
26C76
330
1F
100
AcDbEntity
  8
003
100
AcDbLine
 10
230.6280331228867
 20
394.9198349187561
 30
0.0
 11
230.6280331228871
 21
408.9198349187561
 31
0.0
  0
TEXT
  5
26C77
330
1F
100
AcDbEntity
  8
0
100
AcDbText
 10
100.6231695572813
 20
701.4572474615037
 30
0.0
 40
6.3
  1
外　部
  7
AT_VECTOR
 72
     1
 11
111.1231695572813
 21
704.6072474615036
 31
0.0
100
AcDbText
 73
     2
  0
LINE
  5
26C78
330
1F
100
AcDbEntity
  8
003
100
AcDbLine
 10
95.37316955728135
 20
709.3322474615035
 30
0.0
 11
126.8731695572813
 21
709.3322474615035
 31
0.0
  0
LINE
  5
26C79
330
1F
100
AcDbEntity
  8
003
100
AcDbLine
 10
95.37316955728135
 20
699.8822474615035
 30
0.0
 11
126.8731695572813
 21
699.8822474615035
 31
0.0
  0
LINE
  5
26C7A
330
1F
100
AcDbEntity
  8
003
100
AcDbLine
 10
95.37316955728135
 20
709.3322474615035
 30
0.0
 11
95.37316955728135
 21
699.8822474615035
 31
0.0
  0
LINE
  5
26C7B
330
1F
100
AcDbEntity
  8
003
100
AcDbLine
 10
126.8731695572813
 20
709.3322474615035
 30
0.0
 11
126.8731695572813
 21
699.8822474615035
 31
0.0
  0
LINE
  5
26C7C
330
1F
100
AcDbEntity
  8
003
100
AcDbLine
 10
279.7609078213726
 20
696.2826618931491
 30
0.0
 11
279.7609078213726
 21
686.832661893149
 31
0.0
  0
TEXT
  5
26C7D
330
1F
100
AcDbEntity
  8
0
100
AcDbText
 10
253.3009078213726
 20
688.4076618931492
 30
0.0
 40
6.3
  1
内　部
  7
AT_VECTOR
 72
     1
 11
264.0109078213726
 21
691.5576618931492
 31
0.0
100
AcDbText
 73
     2
  0
LINE
  5
26C7E
330
1F
100
AcDbEntity
  8
003
100
AcDbLine
 10
248.2609078213726
 20
696.2826618931491
 30
0.0
 11
248.2609078213726
 21
686.832661893149
 31
0.0
  0
LINE
  5
26C7F
330
1F
100
AcDbEntity
  8
003
100
AcDbLine
 10
248.2609078213726
 20
686.832661893149
 30
0.0
 11
279.7609078213726
 21
686.832661893149
 31
0.0
  0
LINE
  5
26C80
330
1F
100
AcDbEntity
  8
003
100
AcDbLine
 10
248.2609078213726
 20
696.2826618931491
 30
0.0
 11
279.7609078213726
 21
696.2826618931491
 31
0.0
  0
TEXT
  5
26C81
330
1F
100
AcDbEntity
  8
0
100
AcDbText
 10
872.5908128471735
 20
650.2093185563136
 30
0.0
 40
6.3
  1
外　部
  7
AT_VECTOR
 72
     1
 11
883.0908128471733
 21
653.3593185563136
 31
0.0
100
AcDbText
 73
     2
  0
LINE
  5
26C82
330
1F
100
AcDbEntity
  8
003
100
AcDbLine
 10
867.3408128471734
 20
658.0843185563135
 30
0.0
 11
898.8408128471734
 21
658.0843185563135
 31
0.0
  0
LINE
  5
26C83
330
1F
100
AcDbEntity
  8
003
100
AcDbLine
 10
867.3408128471734
 20
648.6343185563135
 30
0.0
 11
898.8408128471734
 21
648.6343185563135
 31
0.0
  0
LINE
  5
26C84
330
1F
100
AcDbEntity
  8
003
100
AcDbLine
 10
867.3408128471734
 20
658.0843185563135
 30
0.0
 11
867.3408128471734
 21
648.6343185563135
 31
0.0
  0
LINE
  5
26C85
330
1F
100
AcDbEntity
  8
003
100
AcDbLine
 10
898.8408128471734
 20
658.0843185563135
 30
0.0
 11
898.8408128471734
 21
648.6343185563135
 31
0.0
  0
LINE
  5
26C86
330
1F
100
AcDbEntity
  8
003
100
AcDbLine
 10
898.8408128471736
 20
440.2833759496786
 30
0.0
 11
898.8408128471736
 21
430.8333759496786
 31
0.0
  0
TEXT
  5
26C87
330
1F
100
AcDbEntity
  8
0
100
AcDbText
 10
872.3808128471734
 20
432.4083759496788
 30
0.0
 40
6.3
  1
内　部
  7
AT_VECTOR
 72
     1
 11
883.0908128471735
 21
435.5583759496787
 31
0.0
100
AcDbText
 73
     2
  0
LINE
  5
26C88
330
1F
100
AcDbEntity
  8
003
100
AcDbLine
 10
867.3408128471734
 20
440.2833759496786
 30
0.0
 11
867.3408128471734
 21
430.8333759496786
 31
0.0
  0
LINE
  5
26C89
330
1F
100
AcDbEntity
  8
003
100
AcDbLine
 10
867.3408128471734
 20
430.8333759496786
 30
0.0
 11
898.8408128471736
 21
430.8333759496786
 31
0.0
  0
LINE
  5
26C8A
330
1F
100
AcDbEntity
  8
003
100
AcDbLine
 10
867.3408128471734
 20
440.2833759496786
 30
0.0
 11
898.8408128471736
 21
440.2833759496786
 31
0.0
  0
LINE
  5
26C8B
330
1F
100
AcDbEntity
  8
003
100
AcDbLine
 10
841.0908128471735
 20
405.8467421389819
 30
0.0
 11
925.0908128471731
 21
405.8467421389819
 31
0.0
  0
LINE
  5
26C8C
330
1F
100
AcDbEntity
  8
003
100
AcDbLine
 10
841.0908128471735
 20
419.8467421389818
 30
0.0
 11
925.0908128471735
 21
419.8467421389818
 31
0.0
  0
LINE
  5
26C8D
330
1F
100
AcDbEntity
  8
003
100
AcDbLine
 10
841.0908128471735
 20
405.8467421389819
 30
0.0
 11
841.0908128471735
 21
419.8467421389818
 31
0.0
  0
TEXT
  5
26C8E
330
1F
100
AcDbEntity
  8
0
100
AcDbText
 10
864.3308128471735
 20
408.6467421389818
 30
0.0
 40
8.399999999999998
  1
横断面図
  7
AT_VECTOR
 72
     1
 11
883.0908128471735
 21
412.8467421389818
 31
0.0
100
AcDbText
 73
     2
  0
LINE
  5
26C8F
330
1F
100
AcDbEntity
  8
003
100
AcDbLine
 10
925.0908128471731
 20
405.8467421389819
 30
0.0
 11
925.0908128471735
 21
419.8467421389818
 31
0.0
  0
LINE
  5
27188
330
1F
100
AcDbEntity
  8
Defpoints
 48
0.2
100
AcDbLine
 10
883.0908128471735
 20
750.9658065854217
 30
0.0
 11
883.0908128471735
 21
463.7928659122833
 31
0.0
  0
LINE
  5
27189
330
1F
100
AcDbEntity
  8
Defpoints
 48
0.2
100
AcDbLine
 10
885.5908128471735
 20
750.9658065854217
 30
0.0
 11
885.5908128471735
 21
463.7928659122833
 31
0.0
  0
LINE
  5
2718A
330
1F
100
AcDbEntity
  8
Defpoints
 48
0.2
100
AcDbLine
 10
880.5908128471735
 20
750.9658065854217
 30
0.0
 11
880.5908128471735
 21
463.7928659122833
 31
0.0
  0
LINE
  5
27275
330
1F
100
AcDbEntity
  8
0
 48
0.2
100
AcDbLine
 10
808.0908128471735
 20
628.8939010538277
 30
0.0
 11
880.5908128471736
 21
628.8939010538277
 31
0.0
  0
LINE
  5
27276
330
1F
100
AcDbEntity
  8
0
 48
0.2
100
AcDbLine
 10
808.0908128471735
 20
558.8939010538277
 30
0.0
 11
880.5908128471736
 21
558.8939010538279
 31
0.0
  0
LINE
  5
27278
330
1F
100
AcDbEntity
  8
0
 48
0.2
100
AcDbLine
 10
885.5908128471735
 20
558.8939010538279
 30
0.0
 11
958.0908128471735
 21
558.8939010538277
 31
0.0
  0
LINE
  5
27279
330
1F
100
AcDbEntity
  8
0
 48
0.2
100
AcDbLine
 10
885.5908128471735
 20
628.8939010538277
 30
0.0
 11
958.0908128471735
 21
628.8939010538277
 31
0.0
  0
LINE
  5
2727A
330
1F
100
AcDbEntity
  8
Defpoints
 48
0.2
100
AcDbLine
 10
973.0908128471735
 20
750.9658065854217
 30
0.0
 11
973.0908128471735
 21
463.7928659122833
 31
0.0
  0
LINE
  5
2727B
330
1F
100
AcDbEntity
  8
Defpoints
 48
0.2
100
AcDbLine
 10
793.0908128471735
 20
750.9658065854215
 30
0.0
 11
793.0908128471735
 21
463.7928659122832
 31
0.0
  0
DIMENSION
  5
272B2
330
1F
100
AcDbEntity
  8
003
 48
0.2
100
AcDbDimension
  2
*D2
 10
793.0908128471736
 20
451.1823118498255
 30
0.0
 11
883.0908128471735
 21
456.4323118498255
 31
0.0
 70
    32
  1
開口W
 71
     5
 42
179.9999999999999
  3
DIM
100
AcDbAlignedDimension
 13
973.0908128471735
 23
488.8939010538276
 33
0.0
 14
793.0908128471736
 24
488.8939010538276
 34
0.0
 50
180.0
100
AcDbRotatedDimension
1001
ACAD
1000
DSTYLE
1002
{
1070
    40
1040
2.1
1070
    50
1040
1.570796326794896
1070
    69
1070
     1
1070
    79
1070
     2
1070
   179
1070
     2
1002
}
  0
TEXT
  5
28EDF
330
1F
100
AcDbEntity
  8
0
100
AcDbText
 10
617.2633467171175
 20
84.70600406789776
 30
0.0
 40
8.0
  1
32Φ（ＳＵＳ）バー手摺
  7
ｺﾞｼｯｸ（横）
 72
     1
 11
669.9871562409271
 21
88.70600406789776
 31
0.0
100
AcDbText
 73
     2
  0
TEXT
  5
28EE0
330
1F
100
AcDbEntity
  8
0
100
AcDbText
 10
633.6292016954725
 20
71.15825698302796
 30
0.0
 40
6.0
  1
（脱着式・U型ソケット）
 41
0.9
  7
ｺﾞｼｯｸ（横）
 72
     1
 11
669.9871562409271
 21
74.15825698302796
 31
0.0
100
AcDbText
 73
     2
  0
LINE
  5
2D871
330
1F
100
AcDbEntity
  8
006
100
AcDbLine
 10
805.0908128471736
 20
518.8939010538283
 30
0.0
 11
773.2999113811728
 21
518.8939010538279
 31
0.0
  0
LINE
  5
2DAE2
330
1F
100
AcDbEntity
  8
006
100
AcDbLine
 10
961.0908128471734
 20
518.8939010538283
 30
0.0
 11
992.8817143131739
 21
518.8939010538279
 31
0.0
  0
LEADER
  5
2DE86
330
1F
100
AcDbEntity
  8
003
100
AcDbLeader
  3
DIM
 73
     0
 74
     0
 40
6.3
 41
30.55500000000002
 76
     3
 10
893.6778985482566
 20
506.8952219330565
 30
0.0
 10
898.3673935967233
 20
518.6957354622824
 30
0.0
 10
901.4735743302656
 20
518.6957354622824
 30
0.0
340
2DE87
1001
ACAD
1000
DSTYLE
1002
{
1070
   147
1040
1.0
1070
    77
1070
     1
1002
}
  0
MTEXT
  5
2DE87
102
{ACAD_REACTORS
330
2DE86
102
}
330
1F
100
AcDbEntity
  8
003
 62
     7
 48
0.2
100
AcDbMText
 10
902.4735743302656
 20
519.6957354622823
 30
0.0
 40
6.3
 41
0.0
 71
     7
 72
     1
  1
32φパイプ
  7
DIM
 73
     1
 44
1.0
1001
ACAD
1000
MTEXTBEGIN
1070
    73
1070
     1
1070
    44
1040
1.0
1070
    74
1070
     0
1000
MTEXTEND
  0
MTEXT
  5
2DE8E
330
1F
100
AcDbEntity
  8
003
 62
     7
 48
0.2
100
AcDbMText
 10
902.8202590446433
 20
509.501969526855
 30
0.0
 40
6.3
 41
0.0
 71
     7
 72
     1
  1
（SUS.HL）
  7
DIM
 73
     1
 44
1.0
1001
ACAD
1000
MTEXTBEGIN
1070
    73
1070
     1
1070
    44
1040
1.0
1070
    74
1070
     0
1000
MTEXTEND
  0
LINE
  5
2E6CE
330
1F
100
AcDbEntity
  8
003
100
AcDbLine
 10
194.3067520102622
 20
288.31599609009
 30
0.0
 11
194.3067520102622
 21
156.3110357135555
 31
0.0
  0
LINE
  5
2E6CF
330
1F
100
AcDbEntity
  8
003
100
AcDbLine
 10
675.3574257280379
 20
288.3159960900899
 30
0.0
 11
675.3574257280379
 21
156.3110357135554
 31
0.0
  0
LINE
  5
2E6D0
330
1F
100
AcDbEntity
  8
003
100
AcDbLine
 10
675.3574257280379
 20
156.3110357135554
 30
0.0
 11
194.3067520102622
 21
156.3110357135555
 31
0.0
  0
LINE
  5
2E6D1
330
1F
100
AcDbEntity
  8
003
100
AcDbLine
 10
194.3067520102622
 20
288.31599609009
 30
0.0
 11
675.3574257280379
 21
288.3159960900899
 31
0.0
  0
TEXT
  5
2E6D4
330
1F
100
AcDbEntity
  8
0
100
AcDbText
 10
203.6595347385273
 20
277.6487264082774
 30
0.0
 40
6.0
  1
脱着手順
  7
AT_VECTOR
 11
203.6595347385273
 21
280.6487264082774
 31
0.0
100
AcDbText
 73
     2
  0
LINE
  5
2E6D5
330
1F
100
AcDbEntity
  8
003
100
AcDbLine
 10
203.6595347385273
 20
275.6487264082774
 30
0.0
 11
231.6595347385273
 21
275.6487264082774
 31
0.0
  0
TEXT
  5
2E6D6
330
1F
100
AcDbEntity
  8
0
100
AcDbText
 10
203.6595347385273
 20
262.6487264082774
 30
0.0
 40
6.0
  1
（１）左右両端の上蓋をスライドさせ、取り外す
  7
AT_VECTOR
 11
203.6595347385273
 21
265.6487264082774
 31
0.0
100
AcDbText
 73
     2
  0
TEXT
  5
2E6D7
330
1F
100
AcDbEntity
  8
0
100
AcDbText
 10
203.6595347385273
 20
252.6487264082774
 30
0.0
 40
6.0
  1
（２）32φパイプを上に持ち上げ取り外す
  7
AT_VECTOR
 11
203.6595347385273
 21
255.6487264082774
 31
0.0
100
AcDbText
 73
     2
  0
CIRCLE
  5
2E6D8
330
1F
100
AcDbEntity
  8
003
100
AcDbCircle
 10
269.0140261248957
 20
618.5503432757554
 30
0.0
 40
16.0
  0
CIRCLE
  5
2E6D9
330
1F
100
AcDbEntity
  8
003
100
AcDbCircle
 10
269.0140261248957
 20
618.5503432757554
 30
0.0
 40
14.0
  0
LINE
  5
2E6DA
330
1F
100
AcDbEntity
  8
010
100
AcDbLine
 10
273.3539362003751
 20
633.9505114740822
 30
0.0
 11
271.6947236091978
 21
632.291298882905
 31
0.0
  0
LINE
  5
2E6DB
330
1F
100
AcDbEntity
  8
010
100
AcDbLine
 10
270.0014935409129
 20
634.5198425823181
 30
0.0
 11
267.9948476395464
 21
632.5131966809517
 31
0.0
  0
LINE
  5
2E6DC
330
1F
100
AcDbEntity
  8
010
100
AcDbLine
 10
265.7799631866715
 20
634.2200859957749
 30
0.0
 11
262.5051715299751
 21
630.9452943390787
 31
0.0
  0
LINE
  5
2E6DD
330
1F
100
AcDbEntity
  8
010
100
AcDbLine
 10
276.1807287253939
 20
632.8555302314024
 30
0.0
 11
274.6784457495439
 21
631.3532472555524
 31
0.0
  0
LINE
  5
2E6DE
330
1F
100
AcDbEntity
  8
010
100
AcDbLine
 10
278.6044740372791
 20
631.3575017755892
 30
0.0
 11
277.1736385445254
 21
629.9266662828356
 31
0.0
  0
LINE
  5
2E6DF
330
1F
100
AcDbEntity
  8
010
100
AcDbLine
 10
280.6747724935762
 20
629.5060264641879
 30
0.0
 11
279.2597736470593
 21
628.0910276176712
 31
0.0
  0
LINE
  5
2E6E0
330
1F
100
AcDbEntity
  8
010
100
AcDbLine
 10
282.402104637185
 20
627.3115848400987
 30
0.0
 11
280.9528326411392
 21
625.8623128440526
 31
0.0
  0
LINE
  5
2E6E1
330
1F
100
AcDbEntity
  8
010
100
AcDbLine
 10
283.7635552850093
 20
624.7512617202244
 30
0.0
 11
282.2175147436937
 21
623.2052211789087
 31
0.0
  0
LINE
  5
2E6E2
330
1F
100
AcDbEntity
  8
010
100
AcDbLine
 10
284.6896832761677
 20
621.7556159436845
 30
0.0
 11
282.9383260982483
 21
620.0042587657651
 31
0.0
  0
LINE
  5
2E6E3
330
1F
100
AcDbEntity
  8
010
100
AcDbLine
 10
285.009097939745
 20
618.1532568395632
 30
0.0
 11
282.7620676933912
 21
615.9062265932093
 31
0.0
  0
LINE
  5
2E6E4
330
1F
100
AcDbEntity
  8
010
100
AcDbLine
 10
284.1545693118062
 20
613.376954443926
 30
0.0
 11
274.1874149567248
 21
603.4098000888449
 31
0.0
  0
LINE
  5
2E6E5
330
1F
100
AcDbEntity
  8
010
100
AcDbLine
 10
256.6190750615726
 20
625.0591978706768
 30
0.0
 11
253.3442834048762
 21
621.7844062139806
 31
0.0
  0
LINE
  5
2E6E6
330
1F
100
AcDbEntity
  8
010
100
AcDbLine
 10
255.0511727196995
 20
619.5695217611048
 30
0.0
 11
253.044526818333
 21
617.5628758597384
 31
0.0
  0
LINE
  5
2E6E7
330
1F
100
AcDbEntity
  8
010
100
AcDbLine
 10
255.2730705177459
 20
615.8696457914532
 30
0.0
 11
253.6138579265689
 21
614.2104332002761
 31
0.0
  0
LINE
  5
2E6E8
330
1F
100
AcDbEntity
  8
010
100
AcDbLine
 10
256.2111221450987
 20
612.8859236511073
 30
0.0
 11
254.7088391692487
 21
611.3836406752573
 31
0.0
  0
LINE
  5
2E6E9
330
1F
100
AcDbEntity
  8
010
100
AcDbLine
 10
257.6377031178154
 20
610.3907308561258
 30
0.0
 11
256.2068676250619
 21
608.9598953633723
 31
0.0
  0
LINE
  5
2E6EA
330
1F
100
AcDbEntity
  8
010
100
AcDbLine
 10
259.4733417829798
 20
608.3045957535918
 30
0.0
 11
258.0583429364631
 21
606.889596907075
 31
0.0
  0
LINE
  5
2E6EB
330
1F
100
AcDbEntity
  8
010
100
AcDbLine
 10
261.7020565565986
 20
606.6115367595121
 30
0.0
 11
260.2527845605525
 21
605.162264763466
 31
0.0
  0
LINE
  5
2E6EC
330
1F
100
AcDbEntity
  8
010
100
AcDbLine
 10
264.3591482217421
 20
605.3468546569572
 30
0.0
 11
262.8131076804266
 21
603.8008141156417
 31
0.0
  0
LINE
  5
2E6ED
330
1F
100
AcDbEntity
  8
010
100
AcDbLine
 10
267.5601106348858
 20
604.6260433024029
 30
0.0
 11
265.8087534569665
 21
602.8746861244834
 31
0.0
  0
LINE
  5
2E6EE
330
1F
100
AcDbEntity
  8
010
100
AcDbLine
 10
271.6581428074414
 20
604.8023017072599
 30
0.0
 11
269.4111125610875
 21
602.5552714609059
 31
0.0
  0
LEADER
  5
2E6EF
330
1F
100
AcDbEntity
  8
003
100
AcDbLeader
  3
DIM
 73
     0
 74
     0
 40
6.0
 41
29.10000000000001
 76
     3
 10
268.4884743744074
 20
603.2567287524168
 30
0.0
 10
282.4454754579647
 20
586.289591069383
 30
0.0
 10
283.9454754579647
 20
586.289591069383
 30
0.0
340
2E6F0
213
-0.1438892295095684
223
-0.4382331240022382
233
0.0
1001
ACAD
1000
DSTYLE
1002
{
1070
   147
1040
1.0
1070
    77
1070
     1
1002
}
  0
MTEXT
  5
2E6F0
102
{ACAD_REACTORS
330
2E6EF
102
}
330
1F
100
AcDbEntity
  8
003
 62
     7
100
AcDbMText
 10
285.0893646874742
 20
587.7278241933852
 30
0.0
 40
6.0
 41
0.0
 71
     7
 72
     1
  1
32φパイプ
  7
DIM
 73
     1
 44
1.0
1001
ACAD
1000
MTEXTBEGIN
1070
    73
1070
     1
1070
    44
1040
1.0
1070
    74
1070
     0
1000
MTEXTEND
  0
MTEXT
  5
2E707
330
1F
100
AcDbEntity
  8
003
 62
     7
100
AcDbMText
 10
284.904865768764
 20
577.5340582579576
 30
0.0
 40
6.0
 41
0.0
 71
     7
 72
     1
  1
（SUS.HL）
  7
DIM
 73
     1
 44
1.0
1001
ACAD
1000
MTEXTBEGIN
1070
    73
1070
     1
1070
    44
1040
1.0
1070
    74
1070
     0
1000
MTEXTEND
  0
LINE
  5
2E708
330
1F
100
AcDbEntity
  8
003
100
AcDbLine
 10
495.405322588039
 20
231.3464285189076
 30
0.0
 11
497.655322588039
 21
231.3464285189076
 31
0.0
  0
LINE
  5
2E709
330
1F
100
AcDbEntity
  8
003
100
AcDbLine
 10
495.405322588039
 20
231.3464285189076
 30
0.0
 11
495.405322588039
 21
209.8464285189076
 31
0.0
  0
LINE
  5
2E70A
330
1F
100
AcDbEntity
  8
003
100
AcDbLine
 10
532.905322588039
 20
231.3464285189076
 30
0.0
 11
530.655322588039
 21
231.3464285189076
 31
0.0
  0
LINE
  5
2E70D
330
1F
100
AcDbEntity
  8
003
100
AcDbLine
 10
497.655322588039
 20
227.8464285189076
 30
0.0
 11
497.655322588039
 21
209.8464285189076
 31
0.0
  0
LINE
  5
2E70E
330
1F
100
AcDbEntity
  8
003
100
AcDbLine
 10
530.655322588039
 20
227.8464285189076
 30
0.0
 11
530.655322588039
 21
209.8464285189076
 31
0.0
  0
ARC
  5
2E70F
330
1F
100
AcDbEntity
  8
003
100
AcDbCircle
 10
514.155322588039
 20
211.1410713760504
 30
0.0
 40
18.7946428571428
100
AcDbArc
 50
183.9498680217639
 51
356.050131978236
  0
ARC
  5
2E710
330
1F
100
AcDbEntity
  8
003
100
AcDbCircle
 10
514.155322588039
 20
211.1476580271044
 30
0.0
 40
16.55122950819673
100
AcDbArc
 50
184.50914993187
 51
355.4908500681299
  0
LINE
  5
2E711
330
1F
100
AcDbEntity
  8
003
100
AcDbLine
 10
532.905322588039
 20
231.3464285189076
 30
0.0
 11
532.9053225880389
 21
209.8464285189076
 31
0.0
  0
LINE
  5
2E712
330
1F
100
AcDbEntity
  8
003
100
AcDbLine
 10
497.655322588039
 20
231.3464285189076
 30
0.0
 11
497.655322588039
 21
228.8464285189076
 31
0.0
  0
HATCH
  5
2E713
330
1F
100
AcDbEntity
  8
003
100
AcDbHatch
 10
0.0
 20
0.0
 30
0.0
210
0.0
220
0.0
230
1.0
  2
ANSI31
 70
     0
 71
     0
 91
        1
 92
        7
 72
     1
 73
     1
 93
        9
 10
530.455322588039
 20
227.8464285189076
 42
0.0
 10
530.455322588039
 20
229.8464285189076
 42
0.4142135623730951
 10
529.455322588039
 20
230.8464285189076
 42
0.0
 10
515.7043111101484
 20
230.8464285189076
 42
0.0
 10
514.014818861797
 20
229.5976249155103
 42
0.0
 10
514.558584093415
 20
230.8464285189076
 42
0.0
 10
498.8553225880391
 20
230.8464285189076
 42
0.4142135623730951
 10
497.8553225880391
 20
229.8464285189076
 42
0.0
 10
497.8553225880391
 20
227.8464285189076
 42
0.0
 97
        0
 75
     0
 76
     1
 52
0.0
 41
10.0
 77
     0
 78
     1
 53
45.0
 43
-18.75915580432843
 44
105.6664222474365
 45
-0.8838834764831842
 46
0.8838834764831844
 79
     0
 47
0.0195539186684035
 98
        1
 10
508.4893032279508
 20
228.7944348135578
1001
ACAD
1010
0.0
1020
0.0
1030
0.0
  0
HATCH
  5
2E714
330
1F
100
AcDbEntity
  8
003
100
AcDbHatch
 10
0.0
 20
0.0
 30
0.0
210
0.0
220
0.0
230
1.0
  2
ANSI31
 70
     0
 71
     0
 91
        1
 92
        7
 72
     0
 73
     1
 93
        5
 10
531.455322588039
 20
228.3464285189076
 10
530.455322588039
 20
228.3464285189076
 10
530.455322588039
 20
227.8464285189076
 10
530.655322588039
 20
227.8464285189076
 10
531.455322588039
 20
227.8464285189076
 97
        0
 75
     0
 76
     1
 52
0.0
 41
10.0
 77
     0
 78
     1
 53
45.0
 43
-18.75915580432843
 44
105.6664222474365
 45
-0.8838834764831842
 46
0.8838834764831844
 79
     0
 47
0.0195539186684035
 98
        1
 10
531.1110032396766
 20
227.9766181124472
1001
ACAD
1010
0.0
1020
0.0
1030
0.0
  0
HATCH
  5
2E715
330
1F
100
AcDbEntity
  8
003
100
AcDbHatch
 10
0.0
 20
0.0
 30
0.0
210
0.0
220
0.0
230
1.0
  2
ANSI31
 70
     0
 71
     0
 91
        1
 92
        7
 72
     0
 73
     1
 93
        5
 10
497.8553225880391
 20
228.3464285189076
 10
496.8553225880391
 20
228.3464285189076
 10
496.8553225880391
 20
227.8464285189076
 10
497.655322588039
 20
227.8464285189076
 10
497.8553225880391
 20
227.8464285189076
 97
        0
 75
     0
 76
     1
 52
0.0
 41
10.0
 77
     0
 78
     1
 53
45.0
 43
-18.75915580432843
 44
105.6664222474365
 45
-0.8838834764831842
 46
0.8838834764831844
 79
     0
 47
0.0195539186684035
 98
        1
 10
497.4086685761896
 20
228.1415169996531
1001
ACAD
1010
0.0
1020
0.0
1030
0.0
  0
LINE
  5
2E716
330
1F
100
AcDbEntity
  8
003
100
AcDbLine
 10
497.655322588039
 20
227.8464285189076
 30
0.0
 11
530.655322588039
 21
227.8464285189076
 31
0.0
  0
LINE
  5
2E717
330
1F
100
AcDbEntity
  8
003
100
AcDbLine
 10
497.655322588039
 20
227.8464285189076
 30
0.0
 11
496.6553225880391
 21
227.8464285189076
 31
0.0
  0
LINE
  5
2E718
330
1F
100
AcDbEntity
  8
003
100
AcDbLine
 10
496.6553225880391
 20
227.8464285189076
 30
0.0
 11
496.6553225880391
 21
228.8464285189076
 31
0.0
  0
LINE
  5
2E719
330
1F
100
AcDbEntity
  8
003
100
AcDbLine
 10
496.6553225880391
 20
228.8464285189076
 30
0.0
 11
497.655322588039
 21
228.8464285189076
 31
0.0
  0
LINE
  5
2E71A
330
1F
100
AcDbEntity
  8
003
100
AcDbLine
 10
530.655322588039
 20
227.8464285189076
 30
0.0
 11
531.655322588039
 21
227.8464285189076
 31
0.0
  0
LINE
  5
2E71B
330
1F
100
AcDbEntity
  8
003
100
AcDbLine
 10
531.655322588039
 20
227.8464285189076
 30
0.0
 11
531.655322588039
 21
228.8464285189076
 31
0.0
  0
LINE
  5
2E71C
330
1F
100
AcDbEntity
  8
003
100
AcDbLine
 10
531.655322588039
 20
228.8464285189076
 30
0.0
 11
530.655322588039
 21
228.8464285189076
 31
0.0
  0
LINE
  5
2E71D
330
1F
100
AcDbEntity
  8
003
100
AcDbLine
 10
530.655322588039
 20
228.8464285189076
 30
0.0
 11
530.655322588039
 21
231.3213910251057
 31
0.0
  0
LINE
  5
2E71E
330
1F
100
AcDbEntity
  8
003
100
AcDbLine
 10
531.655322588039
 20
227.8464285189076
 30
0.0
 11
531.455322588039
 21
227.8464285189076
 31
0.0
  0
LINE
  5
2E71F
330
1F
100
AcDbEntity
  8
003
100
AcDbLine
 10
531.455322588039
 20
227.8464285189076
 30
0.0
 11
531.455322588039
 21
228.3464285189076
 31
0.0
  0
LINE
  5
2E720
330
1F
100
AcDbEntity
  8
003
100
AcDbLine
 10
531.455322588039
 20
228.3464285189076
 30
0.0
 11
530.455322588039
 21
228.3464285189076
 31
0.0
  0
LINE
  5
2E721
330
1F
100
AcDbEntity
  8
003
100
AcDbLine
 10
530.455322588039
 20
228.3464285189076
 30
0.0
 11
530.455322588039
 21
227.8464285189076
 31
0.0
  0
LINE
  5
2E722
330
1F
100
AcDbEntity
  8
003
100
AcDbLine
 10
530.455322588039
 20
227.8464285189076
 30
0.0
 11
530.455322588039
 21
229.8464285189076
 31
0.0
  0
LINE
  5
2E723
330
1F
100
AcDbEntity
  8
003
100
AcDbLine
 10
529.455322588039
 20
230.8464285189076
 30
0.0
 11
498.8553225880391
 21
230.8464285189076
 31
0.0
  0
ARC
  5
2E724
330
1F
100
AcDbEntity
  8
003
100
AcDbCircle
 10
498.8553225880391
 20
229.8464285189076
 30
0.0
 40
1.0
100
AcDbArc
 50
90.0
 51
180.0
  0
ARC
  5
2E725
330
1F
100
AcDbEntity
  8
003
100
AcDbCircle
 10
529.455322588039
 20
229.8464285189076
 30
0.0
 40
1.0
100
AcDbArc
 50
0.0
 51
90.0
  0
LINE
  5
2E726
330
1F
100
AcDbEntity
  8
003
100
AcDbLine
 10
496.6553225880391
 20
227.8464285189076
 30
0.0
 11
496.8553225880391
 21
227.8464285189076
 31
0.0
  0
LINE
  5
2E727
330
1F
100
AcDbEntity
  8
003
100
AcDbLine
 10
496.8553225880391
 20
227.8464285189076
 30
0.0
 11
496.8553225880391
 21
228.3464285189076
 31
0.0
  0
LINE
  5
2E728
330
1F
100
AcDbEntity
  8
003
100
AcDbLine
 10
496.8553225880391
 20
228.3464285189076
 30
0.0
 11
497.8553225880391
 21
228.3464285189076
 31
0.0
  0
LINE
  5
2E729
330
1F
100
AcDbEntity
  8
003
100
AcDbLine
 10
497.8553225880391
 20
228.3464285189076
 30
0.0
 11
497.8553225880391
 21
227.8464285189076
 31
0.0
  0
LINE
  5
2E72A
330
1F
100
AcDbEntity
  8
003
100
AcDbLine
 10
497.8553225880391
 20
227.8464285189076
 30
0.0
 11
497.8553225880391
 21
229.8464285189076
 31
0.0
  0
LINE
  5
2E72D
330
1F
100
AcDbEntity
  8
003
100
AcDbLine
 10
514.155322588039
 20
227.8464285189076
 30
0.0
 11
518.155322588039
 21
227.8464285189076
 31
0.0
  0
LINE
  5
2E72E
330
1F
100
AcDbEntity
  8
003
100
AcDbLine
 10
518.155322588039
 20
227.8464285189076
 30
0.0
 11
518.155322588039
 21
225.8464285189076
 31
0.0
  0
LINE
  5
2E72F
330
1F
100
AcDbEntity
  8
003
100
AcDbLine
 10
518.155322588039
 20
225.8464285189076
 30
0.0
 11
510.155322588039
 21
225.8464285189076
 31
0.0
  0
LINE
  5
2E730
330
1F
100
AcDbEntity
  8
003
100
AcDbLine
 10
510.155322588039
 20
225.8464285189076
 30
0.0
 11
510.155322588039
 21
227.8464285189076
 31
0.0
  0
LINE
  5
2E731
330
1F
100
AcDbEntity
  8
003
100
AcDbLine
 10
250.2640261248957
 20
638.4840894430754
 30
0.0
 11
252.5140261248957
 21
638.4840894430754
 31
0.0
  0
LINE
  5
2E732
330
1F
100
AcDbEntity
  8
003
100
AcDbLine
 10
250.2640261248957
 20
638.4840894430754
 30
0.0
 11
250.2640261248957
 21
616.9840894430755
 31
0.0
  0
LINE
  5
2E733
330
1F
100
AcDbEntity
  8
003
100
AcDbLine
 10
287.7640261248957
 20
638.4840894430754
 30
0.0
 11
285.5140261248958
 21
638.4840894430754
 31
0.0
  0
LINE
  5
2E736
330
1F
100
AcDbEntity
  8
003
100
AcDbLine
 10
252.5140261248957
 20
634.9840894430755
 30
0.0
 11
252.5140261248957
 21
616.9840894430755
 31
0.0
  0
LINE
  5
2E737
330
1F
100
AcDbEntity
  8
003
100
AcDbLine
 10
285.5140261248958
 20
634.9840894430755
 30
0.0
 11
285.5140261248958
 21
616.9840894430755
 31
0.0
  0
ARC
  5
2E738
330
1F
100
AcDbEntity
  8
003
100
AcDbCircle
 10
269.0140261248957
 20
618.2787323002182
 30
0.0
 40
18.7946428571428
100
AcDbArc
 50
183.9498680217623
 51
356.0501319782377
  0
ARC
  5
2E739
330
1F
100
AcDbEntity
  8
003
100
AcDbCircle
 10
269.0140261248957
 20
618.2853189512723
 30
0.0
 40
16.55122950819673
100
AcDbArc
 50
184.5091499318684
 51
355.4908500681315
  0
LINE
  5
2E73A
330
1F
100
AcDbEntity
  8
003
100
AcDbLine
 10
287.7640261248957
 20
638.4840894430754
 30
0.0
 11
287.7640261248955
 21
616.9840894430755
 31
0.0
  0
LINE
  5
2E73B
330
1F
100
AcDbEntity
  8
003
100
AcDbLine
 10
252.5140261248957
 20
638.4840894430754
 30
0.0
 11
252.5140261248957
 21
635.9840894430755
 31
0.0
  0
LINE
  5
2E73C
330
1F
100
AcDbEntity
  8
003
100
AcDbLine
 10
252.5140261248957
 20
634.9840894430755
 30
0.0
 11
285.5140261248958
 21
634.9840894430755
 31
0.0
  0
LINE
  5
2E73D
330
1F
100
AcDbEntity
  8
003
100
AcDbLine
 10
252.5140261248957
 20
634.9840894430755
 30
0.0
 11
251.5140261248957
 21
634.9840894430755
 31
0.0
  0
LINE
  5
2E73E
330
1F
100
AcDbEntity
  8
003
100
AcDbLine
 10
251.5140261248957
 20
634.9840894430755
 30
0.0
 11
251.5140261248957
 21
635.9840894430755
 31
0.0
  0
LINE
  5
2E73F
330
1F
100
AcDbEntity
  8
003
100
AcDbLine
 10
251.5140261248957
 20
635.9840894430755
 30
0.0
 11
252.5140261248957
 21
635.9840894430755
 31
0.0
  0
LINE
  5
2E740
330
1F
100
AcDbEntity
  8
003
100
AcDbLine
 10
285.5140261248958
 20
634.9840894430755
 30
0.0
 11
286.5140261248957
 21
634.9840894430755
 31
0.0
  0
LINE
  5
2E741
330
1F
100
AcDbEntity
  8
003
100
AcDbLine
 10
286.5140261248957
 20
634.9840894430755
 30
0.0
 11
286.5140261248957
 21
635.9840894430755
 31
0.0
  0
LINE
  5
2E742
330
1F
100
AcDbEntity
  8
003
100
AcDbLine
 10
286.5140261248957
 20
635.9840894430755
 30
0.0
 11
285.5140261248958
 21
635.9840894430755
 31
0.0
  0
LINE
  5
2E743
330
1F
100
AcDbEntity
  8
003
100
AcDbLine
 10
285.5140261248958
 20
635.9840894430755
 30
0.0
 11
285.5140261248958
 21
638.4590519492737
 31
0.0
  0
LINE
  5
2E744
330
1F
100
AcDbEntity
  8
003
100
AcDbLine
 10
286.5140261248957
 20
634.9840894430755
 30
0.0
 11
286.3140261248957
 21
634.9840894430755
 31
0.0
  0
LINE
  5
2E745
330
1F
100
AcDbEntity
  8
003
100
AcDbLine
 10
286.3140261248957
 20
634.9840894430755
 30
0.0
 11
286.3140261248957
 21
635.4840894430755
 31
0.0
  0
LINE
  5
2E746
330
1F
100
AcDbEntity
  8
003
100
AcDbLine
 10
286.3140261248957
 20
635.4840894430755
 30
0.0
 11
285.3140261248957
 21
635.4840894430755
 31
0.0
  0
LINE
  5
2E747
330
1F
100
AcDbEntity
  8
003
100
AcDbLine
 10
285.3140261248957
 20
635.4840894430755
 30
0.0
 11
285.3140261248957
 21
634.9840894430755
 31
0.0
  0
LINE
  5
2E748
330
1F
100
AcDbEntity
  8
003
100
AcDbLine
 10
285.3140261248957
 20
634.9840894430755
 30
0.0
 11
285.3140261248957
 21
636.9840894430755
 31
0.0
  0
LINE
  5
2E749
330
1F
100
AcDbEntity
  8
003
100
AcDbLine
 10
284.3140261248957
 20
637.9840894430754
 30
0.0
 11
253.7140261248956
 21
637.9840894430754
 31
0.0
  0
ARC
  5
2E74A
330
1F
100
AcDbEntity
  8
003
100
AcDbCircle
 10
253.7140261248956
 20
636.9840894430755
 30
0.0
 40
1.0
100
AcDbArc
 50
90.0
 51
180.0
  0
ARC
  5
2E74B
330
1F
100
AcDbEntity
  8
003
100
AcDbCircle
 10
284.3140261248957
 20
636.9840894430755
 30
0.0
 40
1.0
100
AcDbArc
 50
0.0
 51
90.0
  0
LINE
  5
2E74C
330
1F
100
AcDbEntity
  8
003
100
AcDbLine
 10
251.5140261248957
 20
634.9840894430755
 30
0.0
 11
251.7140261248956
 21
634.9840894430755
 31
0.0
  0
LINE
  5
2E74D
330
1F
100
AcDbEntity
  8
003
100
AcDbLine
 10
251.7140261248956
 20
634.9840894430755
 30
0.0
 11
251.7140261248956
 21
635.4840894430755
 31
0.0
  0
LINE
  5
2E74E
330
1F
100
AcDbEntity
  8
003
100
AcDbLine
 10
251.7140261248956
 20
635.4840894430755
 30
0.0
 11
252.7140261248955
 21
635.4840894430755
 31
0.0
  0
LINE
  5
2E74F
330
1F
100
AcDbEntity
  8
003
100
AcDbLine
 10
252.7140261248955
 20
635.4840894430755
 30
0.0
 11
252.7140261248955
 21
634.9840894430755
 31
0.0
  0
LINE
  5
2E750
330
1F
100
AcDbEntity
  8
003
100
AcDbLine
 10
252.7140261248955
 20
634.9840894430755
 30
0.0
 11
252.7140261248955
 21
636.9840894430755
 31
0.0
  0
LINE
  5
2E753
330
1F
100
AcDbEntity
  8
003
100
AcDbLine
 10
269.0140261248957
 20
634.9840894430755
 30
0.0
 11
273.0140261248958
 21
634.9840894430755
 31
0.0
  0
LINE
  5
2E754
330
1F
100
AcDbEntity
  8
003
100
AcDbLine
 10
273.0140261248958
 20
634.9840894430755
 30
0.0
 11
273.0140261248958
 21
632.9840894430755
 31
0.0
  0
LINE
  5
2E755
330
1F
100
AcDbEntity
  8
003
100
AcDbLine
 10
273.0140261248958
 20
632.9840894430755
 30
0.0
 11
265.0140261248957
 21
632.9840894430755
 31
0.0
  0
LINE
  5
2E756
330
1F
100
AcDbEntity
  8
003
100
AcDbLine
 10
265.0140261248957
 20
632.9840894430755
 30
0.0
 11
265.0140261248957
 21
634.9840894430755
 31
0.0
  0
LINE
  5
2E7CB
330
1F
100
AcDbEntity
  8
0
100
AcDbLine
 10
408.898277356368
 20
231.1028108190678
 30
0.0
 11
408.898277356368
 21
251.1028108190678
 31
0.0
  0
LINE
  5
2E7CC
330
1F
100
AcDbEntity
  8
0
100
AcDbLine
 10
407.8982773563679
 20
231.9128108190677
 30
0.0
 11
407.8982773563679
 21
251.1028108190678
 31
0.0
  0
LINE
  5
2E7CD
330
1F
100
AcDbEntity
  8
0
100
AcDbLine
 10
405.898277356368
 20
231.1028108190678
 30
0.0
 11
408.898277356368
 21
231.1028108190678
 31
0.0
  0
LINE
  5
2E7CE
330
1F
100
AcDbEntity
  8
0
100
AcDbLine
 10
405.898277356368
 20
231.9128108190677
 30
0.0
 11
407.8982773563679
 21
231.9128108190677
 31
0.0
  0
LINE
  5
2E7CF
330
1F
100
AcDbEntity
  8
0
100
AcDbLine
 10
405.898277356368
 20
231.1028108190678
 30
0.0
 11
405.898277356368
 21
231.9128108190677
 31
0.0
  0
LINE
  5
2E7D0
330
1F
100
AcDbEntity
  8
0
100
AcDbLine
 10
408.8982773563682
 20
191.1028108190677
 30
0.0
 11
383.898277356368
 21
191.1028108190677
 31
0.0
  0
HATCH
  5
2E7D1
330
1F
100
AcDbEntity
  8
003
100
AcDbHatch
 10
0.0
 20
0.0
 30
0.0
210
0.0
220
0.0
230
1.0
  2
ANSI31
 70
     0
 71
     1
 91
        1
 92
        7
 72
     0
 73
     1
 93
        7
 10
436.8982773563679
 20
228.3528108190681
 10
429.8982773563677
 20
228.3528108190681
 10
412.8982773563682
 20
228.3528108190678
 10
412.898277356368
 20
196.3528108190678
 10
429.8982773563682
 20
196.3528108190681
 10
436.8982773563679
 20
196.3528108190681
 10
436.8982773563679
 20
212.3528108190681
 97
        7
330
2E7EB
330
2E7E8
330
2E7EA
330
2E7E9
330
2E7EC
330
2E7F1
330
2E7EF
 75
     0
 76
     1
 52
0.0
 41
10.0
 77
     0
 78
     1
 53
45.0
 43
-53.62372447125927
 44
119.7444085360247
 45
-0.8838834764831842
 46
0.8838834764831844
 79
     0
 47
0.0586840880809333
 98
        1
 10
430.2468374908285
 20
218.500715908746
1001
ACAD
1010
0.0
1020
0.0
1030
0.0
  0
HATCH
  5
2E7D2
330
1F
100
AcDbEntity
  8
003
100
AcDbHatch
 10
0.0
 20
0.0
 30
0.0
210
0.0
220
0.0
230
1.0
  2
ANSI31
 70
     0
 71
     0
 91
        1
 92
        7
 72
     0
 73
     1
 93
        4
 10
408.8982773563682
 20
195.8528108190681
 10
408.8982773563682
 20
195.6528108190681
 10
411.148277356368
 20
195.6528108190681
 10
411.148277356368
 20
195.8528108190681
 97
        0
 75
     0
 76
     1
 52
0.0
 41
10.0
 77
     0
 78
     1
 53
45.0
 43
-53.62372447125927
 44
119.7444085360247
 45
-0.8838834764831842
 46
0.8838834764831844
 79
     0
 47
0.0586840880809333
 98
        1
 10
409.6858650762519
 20
195.7629733920392
1001
ACAD
1010
0.0
1020
0.0
1030
0.0
  0
HATCH
  5
2E7D3
330
1F
100
AcDbEntity
  8
003
100
AcDbHatch
 10
0.0
 20
0.0
 30
0.0
210
0.0
220
0.0
230
1.0
  2
ANSI31
 70
     0
 71
     0
 91
        1
 92
        7
 72
     0
 73
     1
 93
        4
 10
411.148277356368
 20
195.8528108190681
 10
411.148277356368
 20
195.6528108190681
 10
436.8982773563679
 20
195.6528108190681
 10
436.8982773563679
 20
195.8528108190681
 97
        0
 75
     0
 76
     1
 52
0.0
 41
10.0
 77
     0
 78
     1
 53
45.0
 43
-53.62372447125927
 44
119.7444085360247
 45
-0.8838834764831842
 46
0.8838834764831844
 79
     0
 47
0.0586840880809333
 98
        1
 10
414.5926051306314
 20
195.7748975495957
1001
ACAD
1010
0.0
1020
0.0
1030
0.0
  0
HATCH
  5
2E7D4
330
1F
100
AcDbEntity
  8
003
100
AcDbHatch
 10
0.0
 20
0.0
 30
0.0
210
0.0
220
0.0
230
1.0
  2
ANSI31
 70
     0
 71
     1
 91
        1
 92
        7
 72
     0
 73
     1
 93
        7
 10
411.148277356368
 20
195.8528108190681
 10
436.8982773563679
 20
195.8528108190681
 10
436.8982773563679
 20
196.3528108190681
 10
429.8982773563682
 20
196.3528108190681
 10
412.8982773563679
 20
196.3528108190677
 10
412.898277356368
 20
212.3528108190678
 10
411.148277356368
 20
212.3528108190677
 97
        7
330
2E7E4
330
2E826
330
2E7F2
330
2E7F1
330
2E7EC
330
2E7E9
330
2E7EA
 75
     0
 76
     1
 52
0.0
 41
10.0
 77
     0
 78
     1
 53
45.0
 43
-53.62372447125927
 44
119.7444085360247
 45
-0.8838834764831842
 46
0.8838834764831844
 79
     0
 47
0.0586840880809333
 98
        1
 10
411.8802075110684
 20
203.0137086058277
1001
ACAD
1010
0.0
1020
0.0
1030
0.0
  0
HATCH
  5
2E7D5
330
1F
100
AcDbEntity
  8
003
100
AcDbHatch
 10
0.0
 20
0.0
 30
0.0
210
0.0
220
0.0
230
1.0
  2
ANSI31
 70
     0
 71
     1
 91
        1
 92
        7
 72
     0
 73
     1
 93
        5
 10
408.8982773563682
 20
195.8528108190681
 10
411.148277356368
 20
195.8528108190681
 10
411.148277356368
 20
208.8528108190677
 10
408.9482773563682
 20
210.3528108190678
 10
408.8982773563681
 20
210.3528108190678
 97
        5
330
2E80D
330
2E7F9
330
2E7DB
330
2E7F2
330
2E826
 75
     0
 76
     1
 52
0.0
 41
10.0
 77
     0
 78
     1
 53
45.0
 43
-53.62372447125927
 44
119.7444085360247
 45
-0.8838834764831842
 46
0.8838834764831844
 79
     0
 47
0.0586840880809333
 98
        1
 10
410.0013573361934
 20
203.9151442584106
1001
ACAD
1010
0.0
1020
0.0
1030
0.0
  0
HATCH
  5
2E7D6
330
1F
100
AcDbEntity
  8
003
100
AcDbHatch
 10
0.0
 20
0.0
 30
0.0
210
0.0
220
0.0
230
1.0
  2
ANSI31
 70
     0
 71
     1
 91
        1
 92
        7
 72
     0
 73
     1
 93
        6
 10
408.898277356368
 20
214.3528108190678
 10
408.9482773563682
 20
214.3528108190678
 10
411.148277356368
 20
215.8528108190677
 10
411.1482773563679
 20
219.8528108190683
 10
408.9482773563684
 20
221.3528108190681
 10
408.898277356368
 20
221.3528108190681
 97
        6
330
2E824
330
2E810
330
2E7DB
330
2E7F8
330
2E80C
330
2E826
 75
     0
 76
     1
 52
0.0
 41
10.0
 77
     0
 78
     1
 53
45.0
 43
-53.62372447125927
 44
119.7444085360247
 45
-0.8838834764831842
 46
0.8838834764831844
 79
     0
 47
0.0586840880809333
 98
        1
 10
409.7450341707803
 20
218.0470794799729
1001
ACAD
1010
0.0
1020
0.0
1030
0.0
  0
HATCH
  5
2E7D7
330
1F
100
AcDbEntity
  8
003
100
AcDbHatch
 10
0.0
 20
0.0
 30
0.0
210
0.0
220
0.0
230
1.0
  2
ANSI31
 70
     0
 71
     0
 91
        1
 92
        7
 72
     0
 73
     1
 93
        4
 10
436.8982773563682
 20
228.8528108190681
 10
436.8982773563679
 20
229.0528108190681
 10
411.148277356368
 20
229.0528108190681
 10
411.148277356368
 20
228.8528108190681
 97
        0
 75
     0
 76
     1
 52
0.0
 41
10.0
 77
     0
 78
     1
 53
45.0
 43
-53.62372447125927
 44
119.7444085360247
 45
-0.8838834764831842
 46
0.8838834764831844
 79
     0
 47
0.0586840880809333
 98
        1
 10
411.8898438821575
 20
228.9130580484358
1001
ACAD
1010
0.0
1020
0.0
1030
0.0
  0
HATCH
  5
2E7D8
330
1F
100
AcDbEntity
  8
003
100
AcDbHatch
 10
0.0
 20
0.0
 30
0.0
210
0.0
220
0.0
230
1.0
  2
ANSI31
 70
     0
 71
     0
 91
        1
 92
        7
 72
     0
 73
     1
 93
        4
 10
408.898277356368
 20
229.0528108190681
 10
408.898277356368
 20
228.8528108190681
 10
411.148277356368
 20
228.8528108190681
 10
411.148277356368
 20
229.0528108190681
 97
        0
 75
     0
 76
     1
 52
0.0
 41
10.0
 77
     0
 78
     1
 53
45.0
 43
38.46676847137997
 44
105.6664222474365
 45
-0.8838834764831842
 46
0.8838834764831844
 79
     0
 47
0.0586840880809333
 98
        1
 10
409.9800825107731
 20
229.0011604004743
1001
ACAD
1010
0.0
1020
0.0
1030
0.0
  0
HATCH
  5
2E7D9
330
1F
100
AcDbEntity
  8
003
100
AcDbHatch
 10
0.0
 20
0.0
 30
0.0
210
0.0
220
0.0
230
1.0
  2
ANSI31
 70
     0
 71
     1
 91
        1
 92
        7
 72
     0
 73
     1
 93
        5
 10
408.898277356368
 20
225.3528108190681
 10
408.9482773563684
 20
225.3528108190681
 10
411.1482773563679
 20
226.8528108190679
 10
411.148277356368
 20
228.8528108190681
 10
408.898277356368
 20
228.8528108190681
 97
        5
330
2E7F0
330
2E7DB
330
2E80F
330
2E823
330
2E826
 75
     0
 76
     1
 52
0.0
 41
10.0
 77
     0
 78
     1
 53
45.0
 43
-53.62372447125927
 44
119.7444085360247
 45
-0.8838834764831842
 46
0.8838834764831844
 79
     0
 47
0.0586840880809333
 98
        1
 10
409.8919397196473
 20
227.7383571505919
1001
ACAD
1010
0.0
1020
0.0
1030
0.0
  0
HATCH
  5
2E7DA
330
1F
100
AcDbEntity
  8
003
100
AcDbHatch
 10
0.0
 20
0.0
 30
0.0
210
0.0
220
0.0
230
1.0
  2
ANSI31
 70
     0
 71
     0
 91
        1
 92
        7
 72
     0
 73
     1
 93
        7
 10
436.8982773563679
 20
228.8528108190681
 10
411.148277356368
 20
228.8528108190681
 10
411.148277356368
 20
212.3528108190678
 10
412.898277356368
 20
212.3528108190678
 10
412.898277356368
 20
228.3528108190678
 10
429.8982773563677
 20
228.3528108190681
 10
436.8982773563679
 20
228.3528108190681
 97
        0
 75
     0
 76
     1
 52
0.0
 41
10.0
 77
     0
 78
     1
 53
45.0
 43
-53.62372447125927
 44
119.7444085360247
 45
-0.8838834764831842
 46
0.8838834764831844
 79
     0
 47
0.0586840880809333
 98
        1
 10
413.4764141224227
 20
228.707484745414
1001
ACAD
1010
0.0
1020
0.0
1030
0.0
  0
LINE
  5
2E7DB
102
{ACAD_REACTORS
330
2E7D5
330
2E7D6
330
2E7D9
102
}
330
1F
100
AcDbEntity
  8
003
100
AcDbLine
 10
408.898277356368
 20
231.1028108190678
 30
0.0
 11
408.8982773563682
 21
191.1028108190677
 31
0.0
  0
LINE
  5
2E7DC
330
1F
100
AcDbEntity
  8
003
100
AcDbLine
 10
383.898277356368
 20
251.1028108190678
 30
0.0
 11
383.8982773563682
 21
191.1028108190677
 31
0.0
  0
LINE
  5
2E7DD
330
1F
100
AcDbEntity
  8
003
100
AcDbLine
 10
405.898277356368
 20
231.1028108190678
 30
0.0
 11
405.898277356368
 21
251.1028108190678
 31
0.0
  0
LINE
  5
2E7DE
330
1F
100
AcDbEntity
  8
003
100
AcDbLine
 10
398.4850244380936
 20
251.1028108190678
 30
0.0
 11
383.898277356368
 21
236.5160637373421
 31
0.0
  0
LINE
  5
2E7DF
330
1F
100
AcDbEntity
  8
003
100
AcDbLine
 10
405.898277356368
 20
236.5160637373421
 30
0.0
 11
383.898277356368
 21
214.516063737342
 31
0.0
  0
LINE
  5
2E7E0
330
1F
100
AcDbEntity
  8
003
100
AcDbLine
 10
408.898277356368
 20
217.5160637373421
 30
0.0
 11
383.8982773563682
 21
192.5160637373419
 31
0.0
  0
HATCH
  5
2E7E1
330
1F
100
AcDbEntity
  8
003
100
AcDbHatch
 10
0.0
 20
0.0
 30
0.0
210
0.0
220
0.0
230
1.0
  2
ANSI31
 70
     0
 71
     0
 91
        1
 92
        7
 72
     0
 73
     1
 93
        4
 10
411.148277356368
 20
212.3528108190678
 10
408.9482773563681
 20
212.3528108190677
 10
408.9482773563681
 20
210.3528108190678
 10
411.148277356368
 20
208.8528108190678
 97
        0
 75
     0
 76
     1
 52
0.0
 41
10.0
 77
     0
 78
     1
 53
45.0
 43
38.46676847137997
 44
105.6664222474365
 45
-0.8838834764831842
 46
0.8838834764831844
 79
     0
 47
0.0615909106331963
 98
        1
 10
411.0432048582038
 20
211.1150067410732
1001
ACAD
1010
0.0
1020
0.0
1030
0.0
  0
HATCH
  5
2E7E2
330
1F
100
AcDbEntity
  8
003
100
AcDbHatch
 10
0.0
 20
0.0
 30
0.0
210
0.0
220
0.0
230
1.0
  2
ANSI31
 70
     0
 71
     1
 91
        1
 92
        7
 72
     0
 73
     1
 93
        4
 10
408.9482773563684
 20
221.352810819068
 10
411.1482773563679
 20
219.8528108190682
 10
411.1482773563679
 20
226.852810819068
 10
408.9482773563684
 20
225.3528108190681
 97
        4
330
2E823
330
2E821
330
2E824
330
2E826
 75
     0
 76
     1
 52
0.0
 41
10.0
 77
     0
 78
     1
 53
45.0
 43
38.46676847137997
 44
105.6664222474365
 45
-0.8838834764831842
 46
0.8838834764831844
 79
     0
 47
0.0615909106331963
 98
        1
 10
409.6875846074235
 20
223.6179621817693
1001
ACAD
1010
0.0
1020
0.0
1030
0.0
  0
HATCH
  5
2E7E3
330
1F
100
AcDbEntity
  8
003
100
AcDbHatch
 10
0.0
 20
0.0
 30
0.0
210
0.0
220
0.0
230
1.0
  2
ANSI31
 70
     0
 71
     0
 91
        1
 92
        7
 72
     0
 73
     1
 93
        4
 10
411.1482773563682
 20
215.8528108190678
 10
408.9482773563681
 20
214.3528108190678
 10
408.9482773563681
 20
212.3528108190677
 10
411.148277356368
 20
212.3528108190678
 97
        0
 75
     0
 76
     1
 52
0.0
 41
10.0
 77
     0
 78
     1
 53
45.0
 43
38.46676847137997
 44
105.6664222474365
 45
-0.8838834764831842
 46
0.8838834764831844
 79
     0
 47
0.0615909106331963
 98
        1
 10
410.7967306506757
 20
213.5170518924669
1001
ACAD
1010
0.0
1020
0.0
1030
0.0
  0
LINE
  5
2E7E4
102
{ACAD_REACTORS
330
2E7D4
102
}
330
1F
100
AcDbEntity
  8
006
100
AcDbLine
 10
419.148277356368
 20
212.3528108190679
 30
0.0
 11
387.3573758903676
 21
212.3528108190674
 31
0.0
  0
LINE
  5
2E7E5
330
1F
100
AcDbEntity
  8
003
100
AcDbLine
 10
436.8982773563679
 20
231.1028108190681
 30
0.0
 11
408.898277356368
 21
231.1028108190678
 31
0.0
  0
LINE
  5
2E7E6
330
1F
100
AcDbEntity
  8
003
100
AcDbLine
 10
436.8982773563679
 20
193.6028108190681
 30
0.0
 11
408.898277356368
 21
193.6028108190678
 31
0.0
  0
LINE
  5
2E7E7
330
1F
100
AcDbEntity
  8
003
100
AcDbLine
 10
436.8982773563679
 20
193.6028108190681
 30
0.0
 11
436.8982773563679
 21
231.1028108190681
 31
0.0
  0
LINE
  5
2E7E8
102
{ACAD_REACTORS
330
2E7D1
102
}
330
1F
100
AcDbEntity
  8
007
100
AcDbLine
 10
429.8982773563677
 20
228.3528108190681
 30
0.0
 11
412.8982773563682
 21
228.3528108190678
 31
0.0
  0
LINE
  5
2E7E9
102
{ACAD_REACTORS
330
2E7D1
330
2E7D4
102
}
330
1F
100
AcDbEntity
  8
007
100
AcDbLine
 10
429.8982773563682
 20
196.3528108190681
 30
0.0
 11
412.898277356368
 21
196.3528108190677
 31
0.0
  0
LINE
  5
2E7EA
102
{ACAD_REACTORS
330
2E7D1
330
2E7D4
102
}
330
1F
100
AcDbEntity
  8
007
100
AcDbLine
 10
412.898277356368
 20
196.3528108190677
 30
0.0
 11
412.8982773563682
 21
228.3528108190678
 31
0.0
  0
LINE
  5
2E7EB
102
{ACAD_REACTORS
330
2E7D1
102
}
330
1F
100
AcDbEntity
  8
003
100
AcDbLine
 10
429.8982773563677
 20
228.3528108190681
 30
0.0
 11
480.3063999898776
 21
228.3528108190681
 31
0.0
  0
LINE
  5
2E7EC
102
{ACAD_REACTORS
330
2E7D1
330
2E7D4
102
}
330
1F
100
AcDbEntity
  8
003
100
AcDbLine
 10
429.8982773563682
 20
196.3528108190681
 30
0.0
 11
480.3063999898776
 21
196.3528108190681
 31
0.0
  0
LINE
  5
2E7ED
330
1F
100
AcDbEntity
  8
003
100
AcDbLine
 10
408.898277356368
 20
195.5160637373417
 30
0.0
 11
404.4850244380941
 21
191.1028108190677
 31
0.0
  0
LINE
  5
2E7EE
330
1F
100
AcDbEntity
  8
003
100
AcDbLine
 10
436.8982773563679
 20
231.1028108190681
 30
0.0
 11
436.8982773563679
 21
212.3528108190681
 31
0.0
  0
LINE
  5
2E7EF
102
{ACAD_REACTORS
330
2E7D1
102
}
330
1F
100
AcDbEntity
  8
003
100
AcDbLine
 10
436.8982773563679
 20
212.3528108190681
 30
0.0
 11
436.8982773563679
 21
228.8528108190681
 31
0.0
  0
LINE
  5
2E7F0
102
{ACAD_REACTORS
330
2E7D9
102
}
330
1F
100
AcDbEntity
  8
003
100
AcDbLine
 10
436.8982773563679
 20
228.8528108190681
 30
0.0
 11
408.898277356368
 21
228.8528108190681
 31
0.0
  0
LINE
  5
2E7F1
102
{ACAD_REACTORS
330
2E7D1
330
2E7D4
102
}
330
1F
100
AcDbEntity
  8
003
100
AcDbLine
 10
436.8982773563679
 20
212.3528108190681
 30
0.0
 11
436.8982773563679
 21
195.8528108190681
 31
0.0
  0
LINE
  5
2E7F2
102
{ACAD_REACTORS
330
2E7D4
330
2E7D5
102
}
330
1F
100
AcDbEntity
  8
003
100
AcDbLine
 10
436.8982773563679
 20
195.8528108190681
 30
0.0
 11
408.898277356368
 21
195.8528108190681
 31
0.0
  0
LINE
  5
2E7F3
330
1F
100
AcDbEntity
  8
003
100
AcDbLine
 10
436.8982773563679
 20
228.8528108190681
 30
0.0
 11
436.8982773563679
 21
229.0528108190681
 31
0.0
  0
LINE
  5
2E7F4
330
1F
100
AcDbEntity
  8
003
100
AcDbLine
 10
436.8982773563679
 20
229.0528108190681
 30
0.0
 11
408.898277356368
 21
229.0528108190681
 31
0.0
  0
LINE
  5
2E7F5
330
1F
100
AcDbEntity
  8
003
100
AcDbLine
 10
436.8982773563679
 20
195.8528108190681
 30
0.0
 11
436.8982773563679
 21
195.6528108190681
 31
0.0
  0
LINE
  5
2E7F6
330
1F
100
AcDbEntity
  8
003
100
AcDbLine
 10
436.8982773563679
 20
195.6528108190681
 30
0.0
 11
408.898277356368
 21
195.6528108190681
 31
0.0
  0
LINE
  5
2E7F7
330
1F
100
AcDbEntity
  8
2
  6
Continuous
 62
     2
100
AcDbLine
 10
402.818277356368
 20
214.3528108190678
 30
0.0
 11
403.588277356368
 21
210.3528108190678
 31
0.0
  0
LINE
  5
2E7F8
102
{ACAD_REACTORS
330
2E7D6
102
}
330
1F
100
AcDbEntity
  8
2
  6
Continuous
 62
     2
100
AcDbLine
 10
393.148277356368
 20
214.3528108190678
 30
0.0
 11
408.9482773563681
 21
214.3528108190678
 31
0.0
  0
LINE
  5
2E7F9
102
{ACAD_REACTORS
330
2E7D5
102
}
330
1F
100
AcDbEntity
  8
2
  6
Continuous
 62
     2
100
AcDbLine
 10
393.148277356368
 20
210.3528108190678
 30
0.0
 11
408.9482773563681
 21
210.3528108190678
 31
0.0
  0
LINE
  5
2E7FA
330
1F
100
AcDbEntity
  8
2
  6
Continuous
 62
     2
100
AcDbLine
 10
393.2182773563681
 20
214.3528108190678
 30
0.0
 11
393.9882773563681
 21
210.3528108190678
 31
0.0
  0
LINE
  5
2E7FB
330
1F
100
AcDbEntity
  8
2
  6
Continuous
 62
     2
100
AcDbLine
 10
394.418277356368
 20
214.3528108190678
 30
0.0
 11
395.188277356368
 21
210.3528108190678
 31
0.0
  0
LINE
  5
2E7FC
330
1F
100
AcDbEntity
  8
2
  6
Continuous
 62
     2
100
AcDbLine
 10
395.618277356368
 20
214.3528108190678
 30
0.0
 11
396.388277356368
 21
210.3528108190678
 31
0.0
  0
LINE
  5
2E7FD
330
1F
100
AcDbEntity
  8
2
  6
Continuous
 62
     2
100
AcDbLine
 10
396.8182773563681
 20
214.3528108190678
 30
0.0
 11
397.5882773563681
 21
210.3528108190678
 31
0.0
  0
LINE
  5
2E7FE
330
1F
100
AcDbEntity
  8
2
  6
Continuous
 62
     2
100
AcDbLine
 10
398.0182773563679
 20
214.3528108190678
 30
0.0
 11
398.7882773563679
 21
210.3528108190678
 31
0.0
  0
LINE
  5
2E7FF
330
1F
100
AcDbEntity
  8
2
  6
Continuous
 62
     2
100
AcDbLine
 10
399.2182773563682
 20
214.3528108190678
 30
0.0
 11
399.9882773563681
 21
210.3528108190678
 31
0.0
  0
LINE
  5
2E800
330
1F
100
AcDbEntity
  8
2
  6
Continuous
 62
     2
100
AcDbLine
 10
400.4182773563679
 20
214.3528108190678
 30
0.0
 11
401.1882773563679
 21
210.3528108190678
 31
0.0
  0
LINE
  5
2E801
330
1F
100
AcDbEntity
  8
2
  6
Continuous
 62
     2
100
AcDbLine
 10
401.618277356368
 20
214.3528108190678
 30
0.0
 11
402.3882773563682
 21
210.3528108190678
 31
0.0
  0
LINE
  5
2E802
330
1F
100
AcDbEntity
  8
2
  6
Continuous
 62
     2
100
AcDbLine
 10
392.148277356368
 20
213.6828108190677
 30
0.0
 11
392.7382773563682
 21
210.632810819068
 31
0.0
  0
LINE
  5
2E803
330
1F
100
AcDbEntity
  8
2
  6
Continuous
 62
     2
100
AcDbLine
 10
391.0882773563681
 20
212.9728108190676
 30
0.0
 11
391.358277356368
 21
211.5428108190678
 31
0.0
  0
LINE
  5
2E804
330
1F
100
AcDbEntity
  8
2
  6
Continuous
 62
     2
100
AcDbLine
 10
390.148277356368
 20
212.3528108190678
 30
0.0
 11
393.148277356368
 21
210.3528108190678
 31
0.0
  0
LINE
  5
2E805
330
1F
100
AcDbEntity
  8
2
  6
Continuous
 62
     2
100
AcDbLine
 10
393.148277356368
 20
214.3528108190678
 30
0.0
 11
390.148277356368
 21
212.3528108190678
 31
0.0
  0
LINE
  5
2E806
330
1F
100
AcDbEntity
  8
2
  6
Continuous
 62
     2
100
AcDbLine
 10
404.0182773563678
 20
214.3528108190678
 30
0.0
 11
404.7882773563678
 21
210.3528108190678
 31
0.0
  0
LINE
  5
2E807
330
1F
100
AcDbEntity
  8
2
  6
Continuous
 62
     2
100
AcDbLine
 10
405.2182773563681
 20
214.3528108190678
 30
0.0
 11
405.9882773563681
 21
210.3528108190678
 31
0.0
  0
LINE
  5
2E808
330
1F
100
AcDbEntity
  8
2
  6
Continuous
 62
     2
100
AcDbLine
 10
406.4182773563679
 20
214.3528108190678
 30
0.0
 11
407.1882773563679
 21
210.3528108190678
 31
0.0
  0
LINE
  5
2E809
330
1F
100
AcDbEntity
  8
2
  6
Continuous
 62
     2
100
AcDbLine
 10
407.6182773563679
 20
214.3528108190678
 30
0.0
 11
408.3882773563682
 21
210.3528108190678
 31
0.0
  0
LINE
  5
2E80A
330
1F
100
AcDbEntity
  8
2
  6
Continuous
 62
     2
100
AcDbLine
 10
408.9482773563681
 20
214.3528108190678
 30
0.0
 11
408.9482773563681
 21
210.3528108190678
 31
0.0
  0
LINE
  5
2E80B
330
1F
100
AcDbEntity
  8
2
  6
Continuous
 62
     2
100
AcDbLine
 10
411.148277356368
 20
215.8528108190678
 30
0.0
 11
411.148277356368
 21
208.8528108190678
 31
0.0
  0
LINE
  5
2E80C
102
{ACAD_REACTORS
330
2E7D6
102
}
330
1F
100
AcDbEntity
  8
2
  6
Continuous
 62
     2
100
AcDbLine
 10
411.148277356368
 20
215.8528108190678
 30
0.0
 11
408.9482773563681
 21
214.3528108190678
 31
0.0
  0
LINE
  5
2E80D
102
{ACAD_REACTORS
330
2E7D5
102
}
330
1F
100
AcDbEntity
  8
2
  6
Continuous
 62
     2
100
AcDbLine
 10
408.9482773563681
 20
210.3528108190678
 30
0.0
 11
411.148277356368
 21
208.8528108190678
 31
0.0
  0
LINE
  5
2E80E
330
1F
100
AcDbEntity
  8
2
  6
Continuous
 62
     2
100
AcDbLine
 10
402.8182773563683
 20
225.3528108190681
 30
0.0
 11
403.5882773563683
 21
221.3528108190681
 31
0.0
  0
LINE
  5
2E80F
102
{ACAD_REACTORS
330
2E7D9
102
}
330
1F
100
AcDbEntity
  8
2
  6
Continuous
 62
     2
100
AcDbLine
 10
393.1482773563682
 20
225.3528108190681
 30
0.0
 11
408.9482773563684
 21
225.3528108190681
 31
0.0
  0
LINE
  5
2E810
102
{ACAD_REACTORS
330
2E7D6
102
}
330
1F
100
AcDbEntity
  8
2
  6
Continuous
 62
     2
100
AcDbLine
 10
393.1482773563682
 20
221.3528108190681
 30
0.0
 11
408.9482773563684
 21
221.3528108190681
 31
0.0
  0
LINE
  5
2E811
330
1F
100
AcDbEntity
  8
2
  6
Continuous
 62
     2
100
AcDbLine
 10
393.2182773563684
 20
225.3528108190681
 30
0.0
 11
393.9882773563684
 21
221.3528108190681
 31
0.0
  0
LINE
  5
2E812
330
1F
100
AcDbEntity
  8
2
  6
Continuous
 62
     2
100
AcDbLine
 10
394.4182773563682
 20
225.3528108190681
 30
0.0
 11
395.1882773563682
 21
221.3528108190681
 31
0.0
  0
LINE
  5
2E813
330
1F
100
AcDbEntity
  8
2
  6
Continuous
 62
     2
100
AcDbLine
 10
395.6182773563682
 20
225.3528108190681
 30
0.0
 11
396.3882773563682
 21
221.3528108190681
 31
0.0
  0
LINE
  5
2E814
330
1F
100
AcDbEntity
  8
2
  6
Continuous
 62
     2
100
AcDbLine
 10
396.8182773563683
 20
225.3528108190681
 30
0.0
 11
397.5882773563683
 21
221.3528108190681
 31
0.0
  0
LINE
  5
2E815
330
1F
100
AcDbEntity
  8
2
  6
Continuous
 62
     2
100
AcDbLine
 10
398.0182773563681
 20
225.3528108190681
 30
0.0
 11
398.7882773563681
 21
221.3528108190681
 31
0.0
  0
LINE
  5
2E816
330
1F
100
AcDbEntity
  8
2
  6
Continuous
 62
     2
100
AcDbLine
 10
399.2182773563684
 20
225.3528108190681
 30
0.0
 11
399.9882773563684
 21
221.3528108190681
 31
0.0
  0
LINE
  5
2E817
330
1F
100
AcDbEntity
  8
2
  6
Continuous
 62
     2
100
AcDbLine
 10
400.4182773563682
 20
225.3528108190681
 30
0.0
 11
401.1882773563682
 21
221.3528108190681
 31
0.0
  0
LINE
  5
2E818
330
1F
100
AcDbEntity
  8
2
  6
Continuous
 62
     2
100
AcDbLine
 10
401.6182773563683
 20
225.3528108190681
 30
0.0
 11
402.3882773563684
 21
221.3528108190681
 31
0.0
  0
LINE
  5
2E819
330
1F
100
AcDbEntity
  8
2
  6
Continuous
 62
     2
100
AcDbLine
 10
392.1482773563682
 20
224.682810819068
 30
0.0
 11
392.7382773563684
 21
221.6328108190683
 31
0.0
  0
LINE
  5
2E81A
330
1F
100
AcDbEntity
  8
2
  6
Continuous
 62
     2
100
AcDbLine
 10
391.0882773563683
 20
223.972810819068
 30
0.0
 11
391.3582773563683
 21
222.5428108190682
 31
0.0
  0
LINE
  5
2E81B
330
1F
100
AcDbEntity
  8
2
  6
Continuous
 62
     2
100
AcDbLine
 10
390.1482773563683
 20
223.3528108190681
 30
0.0
 11
393.1482773563682
 21
221.3528108190681
 31
0.0
  0
LINE
  5
2E81C
330
1F
100
AcDbEntity
  8
2
  6
Continuous
 62
     2
100
AcDbLine
 10
393.1482773563682
 20
225.3528108190681
 30
0.0
 11
390.1482773563683
 21
223.3528108190681
 31
0.0
  0
LINE
  5
2E81D
330
1F
100
AcDbEntity
  8
2
  6
Continuous
 62
     2
100
AcDbLine
 10
404.0182773563681
 20
225.3528108190681
 30
0.0
 11
404.7882773563681
 21
221.3528108190681
 31
0.0
  0
LINE
  5
2E81E
330
1F
100
AcDbEntity
  8
2
  6
Continuous
 62
     2
100
AcDbLine
 10
405.2182773563684
 20
225.3528108190681
 30
0.0
 11
405.9882773563684
 21
221.3528108190681
 31
0.0
  0
LINE
  5
2E81F
330
1F
100
AcDbEntity
  8
2
  6
Continuous
 62
     2
100
AcDbLine
 10
406.4182773563682
 20
225.3528108190681
 30
0.0
 11
407.1882773563682
 21
221.3528108190681
 31
0.0
  0
LINE
  5
2E820
330
1F
100
AcDbEntity
  8
2
  6
Continuous
 62
     2
100
AcDbLine
 10
407.6182773563682
 20
225.3528108190681
 30
0.0
 11
408.3882773563685
 21
221.3528108190681
 31
0.0
  0
LINE
  5
2E821
102
{ACAD_REACTORS
330
2E7E2
102
}
330
1F
100
AcDbEntity
  8
2
  6
Continuous
 62
     2
100
AcDbLine
 10
408.9482773563684
 20
225.3528108190681
 30
0.0
 11
408.9482773563684
 21
221.3528108190681
 31
0.0
  0
LINE
  5
2E822
330
1F
100
AcDbEntity
  8
2
  6
Continuous
 62
     2
100
AcDbLine
 10
411.1482773563682
 20
226.8528108190681
 30
0.0
 11
411.1482773563682
 21
219.8528108190681
 31
0.0
  0
LINE
  5
2E823
102
{ACAD_REACTORS
330
2E7D9
330
2E7E2
102
}
330
1F
100
AcDbEntity
  8
2
  6
Continuous
 62
     2
100
AcDbLine
 10
411.1482773563682
 20
226.8528108190681
 30
0.0
 11
408.9482773563684
 21
225.3528108190681
 31
0.0
  0
LINE
  5
2E824
102
{ACAD_REACTORS
330
2E7D6
330
2E7E2
102
}
330
1F
100
AcDbEntity
  8
2
  6
Continuous
 62
     2
100
AcDbLine
 10
408.9482773563684
 20
221.3528108190681
 30
0.0
 11
411.1482773563682
 21
219.8528108190681
 31
0.0
  0
LINE
  5
2E825
330
1F
100
AcDbEntity
  8
003
100
AcDbLine
 10
408.898277356368
 20
231.1028108190678
 30
0.0
 11
411.148277356368
 21
231.1028108190678
 31
0.0
  0
LINE
  5
2E826
102
{ACAD_REACTORS
330
2E7D4
330
2E7D5
330
2E7D6
330
2E7D9
330
2E7E2
102
}
330
1F
100
AcDbEntity
  8
003
  6
ACAD_ISO02W100
100
AcDbLine
 10
411.148277356368
 20
229.0528108190681
 30
0.0
 11
411.148277356368
 21
195.6528108190681
 31
0.0
  0
LINE
  5
2E827
330
1F
100
AcDbEntity
  8
003
370
    50
100
AcDbLine
 10
429.3667819753409
 20
212.3528108190679
 30
0.0
 11
446.8159142538179
 21
212.3528108190683
 31
0.0
  0
LINE
  5
2E828
330
1F
100
AcDbEntity
  8
003
370
    50
100
AcDbLine
 10
446.8159142538179
 20
212.3528108190683
 30
0.0
 11
439.7448464419523
 21
219.4238786309337
 31
0.0
  0
LINE
  5
2E829
330
1F
100
AcDbEntity
  8
003
370
    50
100
AcDbLine
 10
446.8159142538179
 20
212.3528108190683
 30
0.0
 11
439.7448464419523
 21
205.2817430072028
 31
0.0
  0
CIRCLE
  5
2E82F
330
1F
100
AcDbEntity
  8
003
100
AcDbCircle
 10
616.4225453555059
 20
198.2673491679098
 30
0.0
 40
16.0
  0
CIRCLE
  5
2E830
330
1F
100
AcDbEntity
  8
003
100
AcDbCircle
 10
616.4225453555059
 20
198.2673491679098
 30
0.0
 40
14.0
  0
LINE
  5
2E831
330
1F
100
AcDbEntity
  8
010
100
AcDbLine
 10
620.7624554309852
 20
213.6675173662366
 30
0.0
 11
619.103242839808
 21
212.0083047750594
 31
0.0
  0
LINE
  5
2E832
330
1F
100
AcDbEntity
  8
010
100
AcDbLine
 10
617.410012771523
 20
214.2368484744725
 30
0.0
 11
615.4033668701565
 21
212.2302025731062
 31
0.0
  0
LINE
  5
2E833
330
1F
100
AcDbEntity
  8
010
100
AcDbLine
 10
613.1884824172816
 20
213.9370918879294
 30
0.0
 11
609.9136907605853
 21
210.6623002312332
 31
0.0
  0
LINE
  5
2E834
330
1F
100
AcDbEntity
  8
010
100
AcDbLine
 10
623.5892479560041
 20
212.5725361235568
 30
0.0
 11
622.0869649801541
 21
211.0702531477068
 31
0.0
  0
LINE
  5
2E835
330
1F
100
AcDbEntity
  8
010
100
AcDbLine
 10
626.0129932678892
 20
211.0745076677436
 30
0.0
 11
624.5821577751355
 21
209.64367217499
 31
0.0
  0
LINE
  5
2E836
330
1F
100
AcDbEntity
  8
010
100
AcDbLine
 10
628.0832917241864
 20
209.2230323563423
 30
0.0
 11
626.6682928776694
 21
207.8080335098256
 31
0.0
  0
LINE
  5
2E837
330
1F
100
AcDbEntity
  8
010
100
AcDbLine
 10
629.8106238677951
 20
207.028590732253
 30
0.0
 11
628.3613518717493
 21
205.5793187362071
 31
0.0
  0
LINE
  5
2E838
330
1F
100
AcDbEntity
  8
010
100
AcDbLine
 10
631.1720745156194
 20
204.4682676123787
 30
0.0
 11
629.6260339743039
 21
202.9222270710631
 31
0.0
  0
LINE
  5
2E839
330
1F
100
AcDbEntity
  8
010
100
AcDbLine
 10
632.0982025067778
 20
201.4726218358388
 30
0.0
 11
630.3468453288585
 21
199.7212646579194
 31
0.0
  0
LINE
  5
2E83A
330
1F
100
AcDbEntity
  8
010
100
AcDbLine
 10
632.4176171703552
 20
197.8702627317177
 30
0.0
 11
630.1705869240013
 21
195.6232324853637
 31
0.0
  0
LINE
  5
2E83B
330
1F
100
AcDbEntity
  8
010
100
AcDbLine
 10
631.5630885424163
 20
193.0939603360804
 30
0.0
 11
621.5959341873349
 21
183.1268059809993
 31
0.0
  0
LINE
  5
2E83C
330
1F
100
AcDbEntity
  8
010
100
AcDbLine
 10
604.0275942921828
 20
204.7762037628311
 30
0.0
 11
600.7528026354864
 21
201.501412106135
 31
0.0
  0
LINE
  5
2E83D
330
1F
100
AcDbEntity
  8
010
100
AcDbLine
 10
602.4596919503096
 20
199.2865276532592
 30
0.0
 11
600.4530460489432
 21
197.2798817518928
 31
0.0
  0
LINE
  5
2E83E
330
1F
100
AcDbEntity
  8
010
100
AcDbLine
 10
602.6815897483561
 20
195.5866516836076
 30
0.0
 11
601.0223771571791
 21
193.9274390924305
 31
0.0
  0
LINE
  5
2E83F
330
1F
100
AcDbEntity
  8
010
100
AcDbLine
 10
603.6196413757088
 20
192.6029295432617
 30
0.0
 11
602.1173583998589
 21
191.1006465674117
 31
0.0
  0
LINE
  5
2E840
330
1F
100
AcDbEntity
  8
010
100
AcDbLine
 10
605.0462223484255
 20
190.1077367482801
 30
0.0
 11
603.6153868556721
 21
188.6769012555267
 31
0.0
  0
LINE
  5
2E841
330
1F
100
AcDbEntity
  8
010
100
AcDbLine
 10
606.8818610135899
 20
188.0216016457461
 30
0.0
 11
605.4668621670733
 21
186.6066027992293
 31
0.0
  0
LINE
  5
2E842
330
1F
100
AcDbEntity
  8
010
100
AcDbLine
 10
609.1105757872087
 20
186.3285426516664
 30
0.0
 11
607.6613037911624
 21
184.8792706556205
 31
0.0
  0
LINE
  5
2E843
330
1F
100
AcDbEntity
  8
010
100
AcDbLine
 10
611.7676674523522
 20
185.0638605491116
 30
0.0
 11
610.2216269110368
 21
183.5178200077961
 31
0.0
  0
LINE
  5
2E844
330
1F
100
AcDbEntity
  8
010
100
AcDbLine
 10
614.968629865496
 20
184.3430491945572
 30
0.0
 11
613.2172726875767
 21
182.5916920166378
 31
0.0
  0
LINE
  5
2E845
330
1F
100
AcDbEntity
  8
010
100
AcDbLine
 10
619.0666620380516
 20
184.5193075994143
 30
0.0
 11
616.8196317916977
 21
182.2722773530603
 31
0.0
  0
LINE
  5
2E846
330
1F
100
AcDbEntity
  8
003
100
AcDbLine
 10
597.6725453555059
 20
218.2010953352299
 30
0.0
 11
599.9225453555059
 21
218.2010953352299
 31
0.0
  0
LINE
  5
2E847
330
1F
100
AcDbEntity
  8
003
100
AcDbLine
 10
597.6725453555059
 20
218.2010953352299
 30
0.0
 11
597.6725453555059
 21
196.7010953352298
 31
0.0
  0
LINE
  5
2E848
330
1F
100
AcDbEntity
  8
003
100
AcDbLine
 10
635.1725453555059
 20
218.2010953352299
 30
0.0
 11
632.9225453555059
 21
218.2010953352299
 31
0.0
  0
LINE
  5
2E84B
330
1F
100
AcDbEntity
  8
003
100
AcDbLine
 10
599.9225453555059
 20
214.7010953352299
 30
0.0
 11
599.9225453555059
 21
196.7010953352298
 31
0.0
  0
LINE
  5
2E84C
330
1F
100
AcDbEntity
  8
003
100
AcDbLine
 10
632.9225453555059
 20
214.7010953352299
 30
0.0
 11
632.9225453555059
 21
196.7010953352298
 31
0.0
  0
ARC
  5
2E84D
330
1F
100
AcDbEntity
  8
003
100
AcDbCircle
 10
616.4225453555059
 20
197.9957381923727
 30
0.0
 40
18.7946428571428
100
AcDbArc
 50
183.9498680217623
 51
356.0501319782377
  0
ARC
  5
2E84E
330
1F
100
AcDbEntity
  8
003
100
AcDbCircle
 10
616.4225453555059
 20
198.0023248434266
 30
0.0
 40
16.55122950819673
100
AcDbArc
 50
184.5091499318684
 51
355.4908500681315
  0
LINE
  5
2E84F
330
1F
100
AcDbEntity
  8
003
100
AcDbLine
 10
635.1725453555059
 20
218.2010953352299
 30
0.0
 11
635.1725453555056
 21
196.7010953352298
 31
0.0
  0
LINE
  5
2E850
330
1F
100
AcDbEntity
  8
003
100
AcDbLine
 10
599.9225453555059
 20
218.2010953352299
 30
0.0
 11
599.9225453555059
 21
215.7010953352298
 31
0.0
  0
LINE
  5
2E851
330
1F
100
AcDbEntity
  8
003
100
AcDbLine
 10
599.9225453555059
 20
214.7010953352299
 30
0.0
 11
598.9225453555059
 21
214.7010953352299
 31
0.0
  0
LINE
  5
2E852
330
1F
100
AcDbEntity
  8
003
100
AcDbLine
 10
598.9225453555059
 20
214.7010953352299
 30
0.0
 11
598.9225453555059
 21
215.7010953352298
 31
0.0
  0
LINE
  5
2E853
330
1F
100
AcDbEntity
  8
003
100
AcDbLine
 10
598.9225453555059
 20
215.7010953352298
 30
0.0
 11
599.9225453555059
 21
215.7010953352298
 31
0.0
  0
LINE
  5
2E854
330
1F
100
AcDbEntity
  8
003
100
AcDbLine
 10
632.9225453555059
 20
214.7010953352299
 30
0.0
 11
633.9225453555059
 21
214.7010953352299
 31
0.0
  0
LINE
  5
2E855
330
1F
100
AcDbEntity
  8
003
100
AcDbLine
 10
633.9225453555059
 20
214.7010953352299
 30
0.0
 11
633.9225453555059
 21
215.7010953352298
 31
0.0
  0
LINE
  5
2E856
330
1F
100
AcDbEntity
  8
003
100
AcDbLine
 10
633.9225453555059
 20
215.7010953352298
 30
0.0
 11
632.9225453555059
 21
215.7010953352298
 31
0.0
  0
LINE
  5
2E857
330
1F
100
AcDbEntity
  8
003
100
AcDbLine
 10
632.9225453555059
 20
215.7010953352298
 30
0.0
 11
632.9225453555059
 21
218.176057841428
 31
0.0
  0
LINE
  5
2E858
330
1F
100
AcDbEntity
  8
003
100
AcDbLine
 10
633.9225453555059
 20
214.7010953352299
 30
0.0
 11
633.7225453555058
 21
214.7010953352299
 31
0.0
  0
LINE
  5
2E859
330
1F
100
AcDbEntity
  8
003
100
AcDbLine
 10
598.9225453555059
 20
214.7010953352299
 30
0.0
 11
599.1225453555057
 21
214.7010953352299
 31
0.0
  0
LINE
  5
2E85C
330
1F
100
AcDbEntity
  8
003
370
    50
100
AcDbLine
 10
616.4225453555059
 20
212.2673491679099
 30
0.0
 11
616.4225453555054
 21
229.7164814463869
 31
0.0
  0
LINE
  5
2E85D
330
1F
100
AcDbEntity
  8
003
370
    50
100
AcDbLine
 10
616.4225453555054
 20
229.7164814463869
 30
0.0
 11
609.3514775436399
 21
222.6454136345213
 31
0.0
  0
LINE
  5
2E85E
330
1F
100
AcDbEntity
  8
003
370
    50
100
AcDbLine
 10
616.4225453555054
 20
229.7164814463869
 30
0.0
 11
623.4936131673707
 21
222.6454136345213
 31
0.0
  0
CIRCLE
  5
2E85F
330
1F
100
AcDbEntity
  8
003
100
AcDbCircle
 10
616.422545355505
 20
245.7164814463869
 30
0.0
 40
16.0
  0
CIRCLE
  5
2E860
330
1F
100
AcDbEntity
  8
003
100
AcDbCircle
 10
616.422545355505
 20
245.7164814463869
 30
0.0
 40
14.0
  0
LINE
  5
2E861
330
1F
100
AcDbEntity
  8
010
100
AcDbLine
 10
620.7624554309843
 20
261.1166496447136
 30
0.0
 11
619.103242839807
 21
259.4574370535364
 31
0.0
  0
LINE
  5
2E862
330
1F
100
AcDbEntity
  8
010
100
AcDbLine
 10
617.4100127715221
 20
261.6859807529495
 30
0.0
 11
615.4033668701556
 21
259.6793348515832
 31
0.0
  0
LINE
  5
2E863
330
1F
100
AcDbEntity
  8
010
100
AcDbLine
 10
613.1884824172807
 20
261.3862241664064
 30
0.0
 11
609.9136907605843
 21
258.1114325097102
 31
0.0
  0
LINE
  5
2E864
330
1F
100
AcDbEntity
  8
010
100
AcDbLine
 10
623.5892479560032
 20
260.0216684020338
 30
0.0
 11
622.0869649801532
 21
258.5193854261838
 31
0.0
  0
LINE
  5
2E865
330
1F
100
AcDbEntity
  8
010
100
AcDbLine
 10
626.0129932678883
 20
258.5236399462206
 30
0.0
 11
624.5821577751346
 21
257.0928044534671
 31
0.0
  0
LINE
  5
2E866
330
1F
100
AcDbEntity
  8
010
100
AcDbLine
 10
628.0832917241855
 20
256.6721646348193
 30
0.0
 11
626.6682928776686
 21
255.2571657883026
 31
0.0
  0
LINE
  5
2E867
330
1F
100
AcDbEntity
  8
010
100
AcDbLine
 10
629.8106238677942
 20
254.47772301073
 30
0.0
 11
628.3613518717483
 21
253.0284510146841
 31
0.0
  0
LINE
  5
2E868
330
1F
100
AcDbEntity
  8
010
100
AcDbLine
 10
631.1720745156185
 20
251.9173998908557
 30
0.0
 11
629.626033974303
 21
250.3713593495402
 31
0.0
  0
LINE
  5
2E869
330
1F
100
AcDbEntity
  8
010
100
AcDbLine
 10
632.0982025067769
 20
248.9217541143158
 30
0.0
 11
630.3468453288576
 21
247.1703969363964
 31
0.0
  0
LINE
  5
2E86A
330
1F
100
AcDbEntity
  8
010
100
AcDbLine
 10
632.4176171703543
 20
245.3193950101947
 30
0.0
 11
630.1705869240004
 21
243.0723647638408
 31
0.0
  0
LINE
  5
2E86B
330
1F
100
AcDbEntity
  8
010
100
AcDbLine
 10
631.5630885424154
 20
240.5430926145574
 30
0.0
 11
621.595934187334
 21
230.5759382594763
 31
0.0
  0
LINE
  5
2E86C
330
1F
100
AcDbEntity
  8
010
100
AcDbLine
 10
604.0275942921819
 20
252.2253360413081
 30
0.0
 11
600.7528026354854
 21
248.950544384612
 31
0.0
  0
LINE
  5
2E86D
330
1F
100
AcDbEntity
  8
010
100
AcDbLine
 10
602.4596919503087
 20
246.7356599317363
 30
0.0
 11
600.4530460489422
 21
244.7290140303699
 31
0.0
  0
LINE
  5
2E86E
330
1F
100
AcDbEntity
  8
010
100
AcDbLine
 10
602.6815897483552
 20
243.0357839620847
 30
0.0
 11
601.0223771571782
 21
241.3765713709076
 31
0.0
  0
LINE
  5
2E86F
330
1F
100
AcDbEntity
  8
010
100
AcDbLine
 10
603.6196413757079
 20
240.0520618217387
 30
0.0
 11
602.1173583998579
 21
238.5497788458887
 31
0.0
  0
LINE
  5
2E870
330
1F
100
AcDbEntity
  8
010
100
AcDbLine
 10
605.0462223484246
 20
237.5568690267572
 30
0.0
 11
603.6153868556712
 21
236.1260335340037
 31
0.0
  0
LINE
  5
2E871
330
1F
100
AcDbEntity
  8
010
100
AcDbLine
 10
606.881861013589
 20
235.4707339242231
 30
0.0
 11
605.4668621670723
 21
234.0557350777063
 31
0.0
  0
LINE
  5
2E872
330
1F
100
AcDbEntity
  8
010
100
AcDbLine
 10
609.1105757872078
 20
233.7776749301434
 30
0.0
 11
607.6613037911616
 21
232.3284029340975
 31
0.0
  0
LINE
  5
2E873
330
1F
100
AcDbEntity
  8
010
100
AcDbLine
 10
611.7676674523513
 20
232.5129928275887
 30
0.0
 11
610.2216269110358
 21
230.9669522862732
 31
0.0
  0
LINE
  5
2E874
330
1F
100
AcDbEntity
  8
010
100
AcDbLine
 10
614.9686298654951
 20
231.7921814730342
 30
0.0
 11
613.2172726875758
 21
230.0408242951148
 31
0.0
  0
LINE
  5
2E875
330
1F
100
AcDbEntity
  8
010
100
AcDbLine
 10
619.0666620380507
 20
231.9684398778913
 30
0.0
 11
616.8196317916968
 21
229.7214096315374
 31
0.0
  0
LWPOLYLINE
  5
2E878
330
1F
100
AcDbEntity
  8
003
100
AcDbPolyline
 90
        4
 70
     1
 43
0.0
 10
444.7452506595645
 20
228.8528108190681
 10
472.7452506595645
 20
228.8528108190681
 10
472.7452506595645
 20
195.8528108190681
 10
444.7452506595645
 20
195.8528108190681
  0
CIRCLE
  5
2E922
330
1F
100
AcDbEntity
  8
003
100
AcDbCircle
 10
269.0140261248957
 20
618.9840894430755
 30
0.0
 40
3.4999998
  0
LINE
  5
2E923
330
1F
100
AcDbEntity
  8
006
100
AcDbLine
 10
269.0140261248957
 20
623.9840894430755
 30
0.0
 11
269.0140261248957
 21
613.9840894430754
 31
0.0
  0
ARC
  5
2E924
330
1F
100
AcDbEntity
  8
003
100
AcDbCircle
 10
270.1806927248958
 20
620.1507560430756
 30
0.0
 40
0.5833333000000001
100
AcDbArc
 50
180.0
 51
270.0
  0
ARC
  5
2E925
330
1F
100
AcDbEntity
  8
003
100
AcDbCircle
 10
270.1806927248958
 20
617.8174228430756
 30
0.0
 40
0.5833333000000001
100
AcDbArc
 50
90.0
 51
180.0
  0
LINE
  5
2E926
330
1F
100
AcDbEntity
  8
006
100
AcDbLine
 10
264.0140261248957
 20
618.9840894430755
 30
0.0
 11
274.0140261248957
 21
618.9840894430755
 31
0.0
  0
LINE
  5
2E927
330
1F
100
AcDbEntity
  8
003
100
AcDbLine
 10
269.5973594248958
 20
620.1507560430756
 30
0.0
 11
269.5973594248958
 21
621.3174226430754
 31
0.0
  0
ARC
  5
2E928
330
1F
100
AcDbEntity
  8
003
100
AcDbCircle
 10
267.8473595248956
 20
620.1507560430756
 30
0.0
 40
0.5833333000000001
100
AcDbArc
 50
270.0
 51
0.0
  0
LINE
  5
2E929
330
1F
100
AcDbEntity
  8
003
100
AcDbLine
 10
266.6806929248955
 20
619.5674227430755
 30
0.0
 11
267.8473595248956
 21
619.5674227430755
 31
0.0
  0
LINE
  5
2E92A
330
1F
100
AcDbEntity
  8
003
100
AcDbLine
 10
268.4306928248957
 20
620.1507560430756
 30
0.0
 11
268.4306928248957
 21
621.3174226430754
 31
0.0
  0
LINE
  5
2E92B
330
1F
100
AcDbEntity
  8
003
100
AcDbLine
 10
268.4306928248957
 20
621.3174226430754
 30
0.0
 11
269.5973594248958
 21
621.3174226430754
 31
0.0
  0
LINE
  5
2E92C
330
1F
100
AcDbEntity
  8
003
100
AcDbLine
 10
269.5973594248958
 20
616.6507562430755
 30
0.0
 11
269.5973594248958
 21
617.8174228430756
 31
0.0
  0
ARC
  5
2E92D
330
1F
100
AcDbEntity
  8
003
100
AcDbCircle
 10
267.8590261908957
 20
617.8174228430756
 30
0.0
 40
0.5833333000000001
100
AcDbArc
 50
0.0
 51
90.0
  0
LINE
  5
2E92E
330
1F
100
AcDbEntity
  8
003
100
AcDbLine
 10
266.6806929248955
 20
618.4007561430754
 30
0.0
 11
267.8590261908957
 21
618.4007561430754
 31
0.0
  0
LINE
  5
2E92F
330
1F
100
AcDbEntity
  8
003
100
AcDbLine
 10
268.4423594908958
 20
616.6507562430755
 30
0.0
 11
268.4423594908958
 21
617.8174228430756
 31
0.0
  0
LINE
  5
2E930
330
1F
100
AcDbEntity
  8
003
100
AcDbLine
 10
268.4423594908958
 20
616.6507562430755
 30
0.0
 11
269.5973594248958
 21
616.6507562430755
 31
0.0
  0
LINE
  5
2E931
330
1F
100
AcDbEntity
  8
003
100
AcDbLine
 10
266.6806929248955
 20
618.4007561430754
 30
0.0
 11
266.6806929248955
 21
619.5674227430755
 31
0.0
  0
LINE
  5
2E932
330
1F
100
AcDbEntity
  8
003
100
AcDbLine
 10
270.1806927248958
 20
619.5674227430755
 30
0.0
 11
271.3473593248955
 21
619.5674227430755
 31
0.0
  0
LINE
  5
2E933
330
1F
100
AcDbEntity
  8
003
100
AcDbLine
 10
270.1806927248958
 20
618.4007561430754
 30
0.0
 11
271.3473593248955
 21
618.4007561430754
 31
0.0
  0
LINE
  5
2E934
330
1F
100
AcDbEntity
  8
003
100
AcDbLine
 10
271.3473593248955
 20
619.5674227430755
 30
0.0
 11
271.3473593248955
 21
618.4007561430754
 31
0.0
  0
CIRCLE
  5
2E935
330
1F
100
AcDbEntity
  8
003
100
AcDbCircle
 10
278.9205962672427
 20
630.0235998355336
 30
0.0
 40
3.4999998
  0
LINE
  5
2E936
330
1F
100
AcDbEntity
  8
006
100
AcDbLine
 10
278.9205962672427
 20
635.0235998355336
 30
0.0
 11
278.9205962672427
 21
625.0235998355337
 31
0.0
  0
ARC
  5
2E937
330
1F
100
AcDbEntity
  8
003
100
AcDbCircle
 10
280.0872628672428
 20
631.1902664355337
 30
0.0
 40
0.5833333000000001
100
AcDbArc
 50
180.0
 51
270.0
  0
ARC
  5
2E938
330
1F
100
AcDbEntity
  8
003
100
AcDbCircle
 10
280.0872628672428
 20
628.8569332355337
 30
0.0
 40
0.5833333000000001
100
AcDbArc
 50
90.0
 51
180.0
  0
LINE
  5
2E939
330
1F
100
AcDbEntity
  8
006
100
AcDbLine
 10
273.9205962672427
 20
630.0235998355336
 30
0.0
 11
283.9205962672427
 21
630.0235998355336
 31
0.0
  0
LINE
  5
2E93A
330
1F
100
AcDbEntity
  8
003
100
AcDbLine
 10
279.5039295672427
 20
631.1902664355337
 30
0.0
 11
279.5039295672427
 21
632.3569330355336
 31
0.0
  0
ARC
  5
2E93B
330
1F
100
AcDbEntity
  8
003
100
AcDbCircle
 10
277.7539296672426
 20
631.1902664355337
 30
0.0
 40
0.5833333000000001
100
AcDbArc
 50
270.0
 51
0.0
  0
LINE
  5
2E93C
330
1F
100
AcDbEntity
  8
003
100
AcDbLine
 10
276.5872630672425
 20
630.6069331355337
 30
0.0
 11
277.7539296672426
 21
630.6069331355337
 31
0.0
  0
LINE
  5
2E93D
330
1F
100
AcDbEntity
  8
003
100
AcDbLine
 10
278.3372629672426
 20
631.1902664355337
 30
0.0
 11
278.3372629672426
 21
632.3569330355336
 31
0.0
  0
LINE
  5
2E93E
330
1F
100
AcDbEntity
  8
003
100
AcDbLine
 10
278.3372629672426
 20
632.3569330355336
 30
0.0
 11
279.5039295672427
 21
632.3569330355336
 31
0.0
  0
LINE
  5
2E93F
330
1F
100
AcDbEntity
  8
003
100
AcDbLine
 10
279.5039295672427
 20
627.6902666355336
 30
0.0
 11
279.5039295672427
 21
628.8569332355337
 31
0.0
  0
ARC
  5
2E940
330
1F
100
AcDbEntity
  8
003
100
AcDbCircle
 10
277.7655963332427
 20
628.8569332355337
 30
0.0
 40
0.5833333000000001
100
AcDbArc
 50
0.0
 51
90.0
  0
LINE
  5
2E941
330
1F
100
AcDbEntity
  8
003
100
AcDbLine
 10
276.5872630672425
 20
629.4402665355335
 30
0.0
 11
277.7655963332427
 21
629.4402665355335
 31
0.0
  0
LINE
  5
2E942
330
1F
100
AcDbEntity
  8
003
100
AcDbLine
 10
278.3489296332427
 20
627.6902666355336
 30
0.0
 11
278.3489296332427
 21
628.8569332355337
 31
0.0
  0
LINE
  5
2E943
330
1F
100
AcDbEntity
  8
003
100
AcDbLine
 10
278.3489296332427
 20
627.6902666355336
 30
0.0
 11
279.5039295672427
 21
627.6902666355336
 31
0.0
  0
LINE
  5
2E944
330
1F
100
AcDbEntity
  8
003
100
AcDbLine
 10
276.5872630672425
 20
629.4402665355335
 30
0.0
 11
276.5872630672425
 21
630.6069331355337
 31
0.0
  0
LINE
  5
2E945
330
1F
100
AcDbEntity
  8
003
100
AcDbLine
 10
280.0872628672428
 20
630.6069331355337
 30
0.0
 11
281.2539294672424
 21
630.6069331355337
 31
0.0
  0
LINE
  5
2E946
330
1F
100
AcDbEntity
  8
003
100
AcDbLine
 10
280.0872628672428
 20
629.4402665355335
 30
0.0
 11
281.2539294672424
 21
629.4402665355335
 31
0.0
  0
LINE
  5
2E947
330
1F
100
AcDbEntity
  8
003
100
AcDbLine
 10
281.2539294672424
 20
630.6069331355337
 30
0.0
 11
281.2539294672424
 21
629.4402665355335
 31
0.0
  0
DIMENSION
  5
2E94D
330
1F
100
AcDbEntity
  8
003
 48
0.2
100
AcDbDimension
  2
*D3
 10
285.5140261248955
 20
645.9846983191035
 30
0.0
 11
269.0140261248956
 21
651.2346983191036
 31
0.0
 70
    32
 71
     5
 42
32.99999999999978
  3
DIM
100
AcDbAlignedDimension
 13
252.5140261248957
 23
638.4840894430754
 33
0.0
 14
285.5140261248955
 24
638.4840894430754
 34
0.0
100
AcDbRotatedDimension
1001
ACAD
1000
DSTYLE
1002
{
1070
    40
1040
2.1
1070
    79
1070
     2
1070
   179
1070
     2
1002
}
  0
DIMENSION
  5
2E95A
330
1F
100
AcDbEntity
  8
003
 48
0.2
100
AcDbDimension
  2
*D4
 10
287.7640261248957
 20
659.4217307527441
 30
0.0
 11
269.0140261248957
 21
664.6717307527441
 31
0.0
 70
    32
 71
     5
 42
37.5
  3
DIM
100
AcDbAlignedDimension
 13
250.2640261248957
 23
638.4840894430754
 33
0.0
 14
287.7640261248957
 24
638.4840894430754
 34
0.0
100
AcDbRotatedDimension
1001
ACAD
1000
DSTYLE
1002
{
1070
    40
1040
2.1
1070
    79
1070
     2
1070
   179
1070
     2
1002
}
  0
DIMENSION
  5
2E967
330
1F
100
AcDbEntity
  8
003
 48
0.2
100
AcDbDimension
  2
*D5
 10
238.6758179306354
 20
599.4840894430757
 30
0.0
 11
233.4258179306353
 21
618.9840894430756
 31
0.0
 70
    32
 71
     5
 42
38.99999999999977
  3
DIM
100
AcDbAlignedDimension
 13
250.2640261248957
 23
638.4840894430754
 33
0.0
 14
269.0140261248957
 24
599.4840894430756
 34
0.0
 50
90.0
100
AcDbRotatedDimension
1001
ACAD
1000
DSTYLE
1002
{
1070
    40
1040
2.1
1070
    79
1070
     2
1070
   179
1070
     2
1002
}
  0
LEADER
  5
2E9B5
330
1F
100
AcDbEntity
  8
003
100
AcDbLeader
  3
DIM
 73
     0
 40
6.299999999999999
 41
10.89
 76
     3
 10
458.7452506595646
 20
228.8528108190681
 30
0.0
 10
456.0331778690781
 20
258.5797931314034
 30
0.0
 10
453.7751926071027
 20
258.5797931314034
 30
0.0
340
2E9B6
1001
ACAD
1000
DSTYLE
1002
{
1070
   147
1040
1.0
1070
    77
1070
     1
1002
}
  0
MTEXT
  5
2E9B6
102
{ACAD_REACTORS
330
2E9B5
102
}
330
1F
100
AcDbEntity
  8
003
 62
     7
100
AcDbMText
 10
452.7751926071028
 20
259.5797931314034
 30
0.0
 40
6.299999999999999
 41
0.0
 71
     9
 72
     1
  1
上蓋
  7
DIM
 73
     1
 44
1.0
1001
ACAD
1000
MTEXTBEGIN
1070
    73
1070
     1
1070
    44
1040
1.0
1070
    74
1070
     0
1000
MTEXTEND
  0
LEADER
  5
2E9B7
330
1F
100
AcDbEntity
  8
003
100
AcDbLeader
  3
DIM
 40
6.299999999999999
 41
13.05
 76
     3
 10
514.155322588039
 20
230.8464285189076
 30
0.0
 10
456.0331778690781
 20
258.5797931314034
 30
0.0
 10
453.7751926071027
 20
258.5797931314034
 30
0.0
1001
ACAD
1000
DSTYLE
1002
{
1070
   147
1040
1.0
1070
    77
1070
     1
1002
}
  0
CIRCLE
  5
2E9BA
330
1F
100
AcDbEntity
  8
003
100
AcDbCircle
 10
514.155322588039
 20
211.8464285189076
 30
0.0
 40
3.4999998
  0
LINE
  5
2E9BB
330
1F
100
AcDbEntity
  8
006
100
AcDbLine
 10
514.155322588039
 20
216.8464285189076
 30
0.0
 11
514.155322588039
 21
206.8464285189076
 31
0.0
  0
ARC
  5
2E9BC
330
1F
100
AcDbEntity
  8
003
100
AcDbCircle
 10
515.3219891880391
 20
213.0130951189077
 30
0.0
 40
0.5833333000000001
100
AcDbArc
 50
180.0
 51
270.0
  0
ARC
  5
2E9BD
330
1F
100
AcDbEntity
  8
003
100
AcDbCircle
 10
515.3219891880391
 20
210.6797619189077
 30
0.0
 40
0.5833333000000001
100
AcDbArc
 50
90.0
 51
180.0
  0
LINE
  5
2E9BE
330
1F
100
AcDbEntity
  8
006
100
AcDbLine
 10
509.1553225880391
 20
211.8464285189076
 30
0.0
 11
519.155322588039
 21
211.8464285189076
 31
0.0
  0
LINE
  5
2E9BF
330
1F
100
AcDbEntity
  8
003
100
AcDbLine
 10
514.7386558880391
 20
213.0130951189077
 30
0.0
 11
514.7386558880391
 21
214.1797617189076
 31
0.0
  0
ARC
  5
2E9C0
330
1F
100
AcDbEntity
  8
003
100
AcDbCircle
 10
512.9886559880389
 20
213.0130951189077
 30
0.0
 40
0.5833333000000001
100
AcDbArc
 50
270.0
 51
0.0
  0
LINE
  5
2E9C1
330
1F
100
AcDbEntity
  8
003
100
AcDbLine
 10
511.8219893880389
 20
212.4297618189077
 30
0.0
 11
512.9886559880389
 21
212.4297618189077
 31
0.0
  0
LINE
  5
2E9C2
330
1F
100
AcDbEntity
  8
003
100
AcDbLine
 10
513.571989288039
 20
213.0130951189077
 30
0.0
 11
513.571989288039
 21
214.1797617189076
 31
0.0
  0
LINE
  5
2E9C3
330
1F
100
AcDbEntity
  8
003
100
AcDbLine
 10
513.571989288039
 20
214.1797617189076
 30
0.0
 11
514.7386558880391
 21
214.1797617189076
 31
0.0
  0
LINE
  5
2E9C4
330
1F
100
AcDbEntity
  8
003
100
AcDbLine
 10
514.7386558880391
 20
209.5130953189076
 30
0.0
 11
514.7386558880391
 21
210.6797619189077
 31
0.0
  0
ARC
  5
2E9C5
330
1F
100
AcDbEntity
  8
003
100
AcDbCircle
 10
513.0003226540391
 20
210.6797619189077
 30
0.0
 40
0.5833333000000001
100
AcDbArc
 50
0.0
 51
90.0
  0
LINE
  5
2E9C6
330
1F
100
AcDbEntity
  8
003
100
AcDbLine
 10
511.8219893880389
 20
211.2630952189075
 30
0.0
 11
513.0003226540391
 21
211.2630952189075
 31
0.0
  0
LINE
  5
2E9C7
330
1F
100
AcDbEntity
  8
003
100
AcDbLine
 10
513.5836559540392
 20
209.5130953189076
 30
0.0
 11
513.5836559540392
 21
210.6797619189077
 31
0.0
  0
LINE
  5
2E9C8
330
1F
100
AcDbEntity
  8
003
100
AcDbLine
 10
513.5836559540392
 20
209.5130953189076
 30
0.0
 11
514.7386558880391
 21
209.5130953189076
 31
0.0
  0
LINE
  5
2E9C9
330
1F
100
AcDbEntity
  8
003
100
AcDbLine
 10
511.8219893880389
 20
211.2630952189075
 30
0.0
 11
511.8219893880389
 21
212.4297618189077
 31
0.0
  0
LINE
  5
2E9CA
330
1F
100
AcDbEntity
  8
003
100
AcDbLine
 10
515.3219891880391
 20
212.4297618189077
 30
0.0
 11
516.4886557880388
 21
212.4297618189077
 31
0.0
  0
LINE
  5
2E9CB
330
1F
100
AcDbEntity
  8
003
100
AcDbLine
 10
515.3219891880391
 20
211.2630952189075
 30
0.0
 11
516.4886557880388
 21
211.2630952189075
 31
0.0
  0
LINE
  5
2E9CC
330
1F
100
AcDbEntity
  8
003
100
AcDbLine
 10
516.4886557880388
 20
212.4297618189077
 30
0.0
 11
516.4886557880388
 21
211.2630952189075
 31
0.0
  0
CIRCLE
  5
2E9CD
330
1F
100
AcDbEntity
  8
003
100
AcDbCircle
 10
524.061892730386
 20
222.8859389113658
 30
0.0
 40
3.4999998
  0
LINE
  5
2E9CE
330
1F
100
AcDbEntity
  8
006
100
AcDbLine
 10
524.061892730386
 20
227.8859389113658
 30
0.0
 11
524.061892730386
 21
217.8859389113658
 31
0.0
  0
ARC
  5
2E9CF
330
1F
100
AcDbEntity
  8
003
100
AcDbCircle
 10
525.2285593303861
 20
224.0526055113658
 30
0.0
 40
0.5833333000000001
100
AcDbArc
 50
180.0
 51
270.0
  0
ARC
  5
2E9D0
330
1F
100
AcDbEntity
  8
003
100
AcDbCircle
 10
525.2285593303861
 20
221.7192723113659
 30
0.0
 40
0.5833333000000001
100
AcDbArc
 50
90.0
 51
180.0
  0
LINE
  5
2E9D1
330
1F
100
AcDbEntity
  8
006
100
AcDbLine
 10
519.061892730386
 20
222.8859389113658
 30
0.0
 11
529.061892730386
 21
222.8859389113658
 31
0.0
  0
LINE
  5
2E9D2
330
1F
100
AcDbEntity
  8
003
100
AcDbLine
 10
524.645226030386
 20
224.0526055113658
 30
0.0
 11
524.645226030386
 21
225.2192721113658
 31
0.0
  0
ARC
  5
2E9D3
330
1F
100
AcDbEntity
  8
003
100
AcDbCircle
 10
522.8952261303859
 20
224.0526055113658
 30
0.0
 40
0.5833333000000001
100
AcDbArc
 50
270.0
 51
0.0
  0
LINE
  5
2E9D4
330
1F
100
AcDbEntity
  8
003
100
AcDbLine
 10
521.7285595303858
 20
223.4692722113658
 30
0.0
 11
522.8952261303859
 21
223.4692722113658
 31
0.0
  0
LINE
  5
2E9D5
330
1F
100
AcDbEntity
  8
003
100
AcDbLine
 10
523.4785594303859
 20
224.0526055113658
 30
0.0
 11
523.4785594303859
 21
225.2192721113658
 31
0.0
  0
LINE
  5
2E9D6
330
1F
100
AcDbEntity
  8
003
100
AcDbLine
 10
523.4785594303859
 20
225.2192721113658
 30
0.0
 11
524.645226030386
 21
225.2192721113658
 31
0.0
  0
LINE
  5
2E9D7
330
1F
100
AcDbEntity
  8
003
100
AcDbLine
 10
524.645226030386
 20
220.5526057113658
 30
0.0
 11
524.645226030386
 21
221.7192723113659
 31
0.0
  0
ARC
  5
2E9D8
330
1F
100
AcDbEntity
  8
003
100
AcDbCircle
 10
522.906892796386
 20
221.7192723113659
 30
0.0
 40
0.5833333000000001
100
AcDbArc
 50
0.0
 51
90.0
  0
LINE
  5
2E9D9
330
1F
100
AcDbEntity
  8
003
100
AcDbLine
 10
521.7285595303858
 20
222.3026056113657
 30
0.0
 11
522.906892796386
 21
222.3026056113657
 31
0.0
  0
LINE
  5
2E9DA
330
1F
100
AcDbEntity
  8
003
100
AcDbLine
 10
523.4902260963861
 20
220.5526057113658
 30
0.0
 11
523.4902260963861
 21
221.7192723113659
 31
0.0
  0
LINE
  5
2E9DB
330
1F
100
AcDbEntity
  8
003
100
AcDbLine
 10
523.4902260963861
 20
220.5526057113658
 30
0.0
 11
524.645226030386
 21
220.5526057113658
 31
0.0
  0
LINE
  5
2E9DC
330
1F
100
AcDbEntity
  8
003
100
AcDbLine
 10
521.7285595303858
 20
222.3026056113657
 30
0.0
 11
521.7285595303858
 21
223.4692722113658
 31
0.0
  0
LINE
  5
2E9DD
330
1F
100
AcDbEntity
  8
003
100
AcDbLine
 10
525.2285593303861
 20
223.4692722113658
 30
0.0
 11
526.3952259303858
 21
223.4692722113658
 31
0.0
  0
LINE
  5
2E9DE
330
1F
100
AcDbEntity
  8
003
100
AcDbLine
 10
525.2285593303861
 20
222.3026056113657
 30
0.0
 11
526.3952259303858
 21
222.3026056113657
 31
0.0
  0
LINE
  5
2E9DF
330
1F
100
AcDbEntity
  8
003
100
AcDbLine
 10
526.3952259303858
 20
223.4692722113658
 30
0.0
 11
526.3952259303858
 21
222.3026056113657
 31
0.0
  0
LEADER
  5
2E9E3
330
1F
100
AcDbEntity
  8
003
100
AcDbLeader
  3
DIM
 73
     0
 40
6.299999999999999
 41
30.55500000000001
 76
     3
 10
611.5510865889334
 20
212.2996960595813
 30
0.0
 10
581.7945320932356
 20
236.4631818963655
 30
0.0
 10
579.5365468312602
 20
236.4631818963655
 30
0.0
340
2E9E4
1001
ACAD
1000
DSTYLE
1002
{
1070
   147
1040
1.0
1070
    77
1070
     1
1002
}
  0
MTEXT
  5
2E9E4
102
{ACAD_REACTORS
330
2E9E3
102
}
330
1F
100
AcDbEntity
  8
003
 62
     7
100
AcDbMText
 10
578.5365468312602
 20
237.4631818963655
 30
0.0
 40
6.299999999999999
 41
0.0
 71
     9
 72
     1
  1
32φパイプ
  7
DIM
 73
     1
 44
1.0
1001
ACAD
1000
MTEXTBEGIN
1070
    73
1070
     1
1070
    44
1040
1.0
1070
    74
1070
     0
1000
MTEXTEND
  0
LEADER
  5
2E9E5
330
1F
100
AcDbEntity
  8
003
100
AcDbLeader
  3
DIM
 40
6.299999999999999
 41
13.05
 76
     3
 10
600.2243761734712
 20
248.4221179225977
 30
0.0
 10
581.7945320932356
 20
236.4631818963655
 30
0.0
 10
579.5365468312602
 20
236.4631818963655
 30
0.0
1001
ACAD
1000
DSTYLE
1002
{
1070
   147
1040
1.0
1070
    77
1070
     1
1002
}
  0
TEXT
  5
2E9E7
330
1F
100
AcDbEntity
  8
0
100
AcDbText
 10
394.2413504366605
 20
271.7057875847503
 30
0.0
 40
6.0
  1
（１）
  7
AT_VECTOR
 11
394.2413504366605
 21
274.7057875847503
 31
0.0
100
AcDbText
 73
     2
  0
TEXT
  5
2E9E8
330
1F
100
AcDbEntity
  8
0
100
AcDbText
 10
575.5725604702856
 20
271.7057875847503
 30
0.0
 40
6.0
  1
（2）
  7
AT_VECTOR
 11
575.5725604702856
 21
274.7057875847503
 31
0.0
100
AcDbText
 73
     2
  0
LINE
  5
2EA07
330
1F
100
AcDbEntity
  8
006
100
AcDbLine
 10
803.3408128471736
 20
518.8939010538283
 30
0.0
 11
771.5499113811731
 21
518.8939010538279
 31
0.0
  0
LINE
  5
2EA08
330
1F
100
AcDbEntity
  8
003
100
AcDbLine
 10
821.0908128471736
 20
537.6439010538286
 30
0.0
 11
793.0908128471735
 21
537.6439010538281
 31
0.0
  0
LINE
  5
2EA09
330
1F
100
AcDbEntity
  8
003
100
AcDbLine
 10
821.0908128471736
 20
500.1439010538285
 30
0.0
 11
793.0908128471735
 21
500.1439010538281
 31
0.0
  0
LINE
  5
2EA0A
330
1F
100
AcDbEntity
  8
003
100
AcDbLine
 10
821.0908128471736
 20
500.1439010538285
 30
0.0
 11
821.0908128471736
 21
537.6439010538286
 31
0.0
  0
LINE
  5
2EA0B
330
1F
100
AcDbEntity
  8
007
100
AcDbLine
 10
814.0908128471732
 20
534.8939010538286
 30
0.0
 11
797.0908128471735
 21
534.8939010538281
 31
0.0
  0
LINE
  5
2EA0C
330
1F
100
AcDbEntity
  8
007
100
AcDbLine
 10
814.0908128471737
 20
502.8939010538285
 30
0.0
 11
797.0908128471735
 21
502.8939010538281
 31
0.0
  0
LINE
  5
2EA0D
330
1F
100
AcDbEntity
  8
007
100
AcDbLine
 10
797.0908128471735
 20
502.8939010538281
 30
0.0
 11
797.0908128471735
 21
534.8939010538281
 31
0.0
  0
LINE
  5
2EA0E
330
1F
100
AcDbEntity
  8
003
100
AcDbLine
 10
814.0908128471732
 20
534.8939010538286
 30
0.0
 11
880.5908128471735
 21
534.8939010538286
 31
0.0
  0
LINE
  5
2EA0F
330
1F
100
AcDbEntity
  8
003
100
AcDbLine
 10
814.0908128471737
 20
502.8939010538285
 30
0.0
 11
880.5908128471735
 21
502.8939010538285
 31
0.0
  0
LINE
  5
2EA13
330
1F
100
AcDbEntity
  8
003
100
AcDbLine
 10
821.0908128471736
 20
537.6439010538286
 30
0.0
 11
821.0908128471736
 21
518.8939010538286
 31
0.0
  0
LINE
  5
2EA14
330
1F
100
AcDbEntity
  8
003
100
AcDbLine
 10
821.0908128471736
 20
518.8939010538286
 30
0.0
 11
821.0908128471736
 21
535.3939010538286
 31
0.0
  0
LINE
  5
2EA15
330
1F
100
AcDbEntity
  8
003
100
AcDbLine
 10
821.0908128471736
 20
535.3939010538286
 30
0.0
 11
793.0908128471735
 21
535.3939010538286
 31
0.0
  0
LINE
  5
2EA16
330
1F
100
AcDbEntity
  8
003
100
AcDbLine
 10
821.0908128471736
 20
518.8939010538286
 30
0.0
 11
821.0908128471736
 21
502.3939010538285
 31
0.0
  0
LINE
  5
2EA17
330
1F
100
AcDbEntity
  8
003
100
AcDbLine
 10
821.0908128471736
 20
502.3939010538285
 30
0.0
 11
793.0908128471735
 21
502.3939010538285
 31
0.0
  0
LINE
  5
2EA18
330
1F
100
AcDbEntity
  8
003
100
AcDbLine
 10
821.0908128471736
 20
535.3939010538286
 30
0.0
 11
821.0908128471736
 21
535.5939010538285
 31
0.0
  0
LINE
  5
2EA19
330
1F
100
AcDbEntity
  8
003
100
AcDbLine
 10
821.0908128471736
 20
535.5939010538285
 30
0.0
 11
793.0908128471735
 21
535.5939010538285
 31
0.0
  0
LINE
  5
2EA1A
330
1F
100
AcDbEntity
  8
003
100
AcDbLine
 10
821.0908128471736
 20
502.3939010538285
 30
0.0
 11
821.0908128471736
 21
502.1939010538285
 31
0.0
  0
LINE
  5
2EA1B
330
1F
100
AcDbEntity
  8
003
100
AcDbLine
 10
821.0908128471736
 20
502.1939010538285
 30
0.0
 11
793.0908128471735
 21
502.1939010538285
 31
0.0
  0
LINE
  5
2EA1C
330
1F
100
AcDbEntity
  8
2
  6
Continuous
 62
     2
100
AcDbLine
 10
787.0108128471736
 20
520.8939010538281
 30
0.0
 11
787.7808128471736
 21
516.8939010538281
 31
0.0
  0
LINE
  5
2EA1D
330
1F
100
AcDbEntity
  8
2
  6
Continuous
 62
     2
100
AcDbLine
 10
777.3408128471735
 20
520.8939010538281
 30
0.0
 11
793.1408128471737
 21
520.8939010538281
 31
0.0
  0
LINE
  5
2EA1E
330
1F
100
AcDbEntity
  8
2
  6
Continuous
 62
     2
100
AcDbLine
 10
777.3408128471735
 20
516.8939010538281
 30
0.0
 11
793.1408128471737
 21
516.8939010538281
 31
0.0
  0
LINE
  5
2EA1F
330
1F
100
AcDbEntity
  8
2
  6
Continuous
 62
     2
100
AcDbLine
 10
777.4108128471737
 20
520.8939010538281
 30
0.0
 11
778.1808128471737
 21
516.8939010538281
 31
0.0
  0
LINE
  5
2EA20
330
1F
100
AcDbEntity
  8
2
  6
Continuous
 62
     2
100
AcDbLine
 10
778.6108128471735
 20
520.8939010538281
 30
0.0
 11
779.3808128471734
 21
516.8939010538281
 31
0.0
  0
LINE
  5
2EA21
330
1F
100
AcDbEntity
  8
2
  6
Continuous
 62
     2
100
AcDbLine
 10
779.8108128471735
 20
520.8939010538281
 30
0.0
 11
780.5808128471735
 21
516.8939010538281
 31
0.0
  0
LINE
  5
2EA22
330
1F
100
AcDbEntity
  8
2
  6
Continuous
 62
     2
100
AcDbLine
 10
781.0108128471735
 20
520.8939010538281
 30
0.0
 11
781.7808128471735
 21
516.8939010538281
 31
0.0
  0
LINE
  5
2EA23
330
1F
100
AcDbEntity
  8
2
  6
Continuous
 62
     2
100
AcDbLine
 10
782.2108128471734
 20
520.8939010538281
 30
0.0
 11
782.9808128471734
 21
516.8939010538281
 31
0.0
  0
LINE
  5
2EA24
330
1F
100
AcDbEntity
  8
2
  6
Continuous
 62
     2
100
AcDbLine
 10
783.4108128471736
 20
520.8939010538281
 30
0.0
 11
784.1808128471736
 21
516.8939010538281
 31
0.0
  0
LINE
  5
2EA25
330
1F
100
AcDbEntity
  8
2
  6
Continuous
 62
     2
100
AcDbLine
 10
784.6108128471735
 20
520.8939010538281
 30
0.0
 11
785.3808128471735
 21
516.8939010538281
 31
0.0
  0
LINE
  5
2EA26
330
1F
100
AcDbEntity
  8
2
  6
Continuous
 62
     2
100
AcDbLine
 10
785.8108128471736
 20
520.8939010538281
 30
0.0
 11
786.5808128471737
 21
516.8939010538281
 31
0.0
  0
LINE
  5
2EA27
330
1F
100
AcDbEntity
  8
2
  6
Continuous
 62
     2
100
AcDbLine
 10
776.3408128471735
 20
520.223901053828
 30
0.0
 11
776.9308128471736
 21
517.1739010538283
 31
0.0
  0
LINE
  5
2EA28
330
1F
100
AcDbEntity
  8
2
  6
Continuous
 62
     2
100
AcDbLine
 10
775.2808128471736
 20
519.513901053828
 30
0.0
 11
775.5508128471736
 21
518.0839010538281
 31
0.0
  0
LINE
  5
2EA29
330
1F
100
AcDbEntity
  8
2
  6
Continuous
 62
     2
100
AcDbLine
 10
774.3408128471735
 20
518.8939010538281
 30
0.0
 11
777.3408128471735
 21
516.8939010538281
 31
0.0
  0
LINE
  5
2EA2A
330
1F
100
AcDbEntity
  8
2
  6
Continuous
 62
     2
100
AcDbLine
 10
777.3408128471735
 20
520.8939010538281
 30
0.0
 11
774.3408128471735
 21
518.8939010538281
 31
0.0
  0
LINE
  5
2EA2B
330
1F
100
AcDbEntity
  8
2
  6
Continuous
 62
     2
100
AcDbLine
 10
788.2108128471734
 20
520.8939010538281
 30
0.0
 11
788.9808128471734
 21
516.8939010538281
 31
0.0
  0
LINE
  5
2EA2C
330
1F
100
AcDbEntity
  8
2
  6
Continuous
 62
     2
100
AcDbLine
 10
789.4108128471737
 20
520.8939010538281
 30
0.0
 11
790.1808128471737
 21
516.8939010538281
 31
0.0
  0
LINE
  5
2EA2D
330
1F
100
AcDbEntity
  8
2
  6
Continuous
 62
     2
100
AcDbLine
 10
790.6108128471735
 20
520.8939010538281
 30
0.0
 11
791.3808128471734
 21
516.8939010538281
 31
0.0
  0
LINE
  5
2EA2E
330
1F
100
AcDbEntity
  8
2
  6
Continuous
 62
     2
100
AcDbLine
 10
791.8108128471735
 20
520.8939010538281
 30
0.0
 11
792.5808128471738
 21
516.8939010538281
 31
0.0
  0
LINE
  5
2EA2F
330
1F
100
AcDbEntity
  8
2
  6
Continuous
 62
     2
100
AcDbLine
 10
793.1408128471737
 20
520.8939010538281
 30
0.0
 11
793.1408128471737
 21
516.8939010538281
 31
0.0
  0
LINE
  5
2EA30
330
1F
100
AcDbEntity
  8
2
  6
Continuous
 62
     2
100
AcDbLine
 10
795.3408128471735
 20
522.3939010538281
 30
0.0
 11
795.3408128471735
 21
515.3939010538281
 31
0.0
  0
LINE
  5
2EA31
330
1F
100
AcDbEntity
  8
2
  6
Continuous
 62
     2
100
AcDbLine
 10
795.3408128471735
 20
522.3939010538281
 30
0.0
 11
793.1408128471737
 21
520.8939010538281
 31
0.0
  0
LINE
  5
2EA32
330
1F
100
AcDbEntity
  8
2
  6
Continuous
 62
     2
100
AcDbLine
 10
793.1408128471737
 20
516.8939010538281
 30
0.0
 11
795.3408128471735
 21
515.3939010538281
 31
0.0
  0
LINE
  5
2EA33
330
1F
100
AcDbEntity
  8
2
  6
Continuous
 62
     2
100
AcDbLine
 10
787.0108128471736
 20
531.8939010538286
 30
0.0
 11
787.7808128471736
 21
527.8939010538286
 31
0.0
  0
LINE
  5
2EA34
330
1F
100
AcDbEntity
  8
2
  6
Continuous
 62
     2
100
AcDbLine
 10
777.3408128471735
 20
531.8939010538286
 30
0.0
 11
793.1408128471737
 21
531.8939010538286
 31
0.0
  0
LINE
  5
2EA35
330
1F
100
AcDbEntity
  8
2
  6
Continuous
 62
     2
100
AcDbLine
 10
777.3408128471735
 20
527.8939010538286
 30
0.0
 11
793.1408128471737
 21
527.8939010538286
 31
0.0
  0
LINE
  5
2EA36
330
1F
100
AcDbEntity
  8
2
  6
Continuous
 62
     2
100
AcDbLine
 10
777.4108128471737
 20
531.8939010538286
 30
0.0
 11
778.1808128471737
 21
527.8939010538286
 31
0.0
  0
LINE
  5
2EA37
330
1F
100
AcDbEntity
  8
2
  6
Continuous
 62
     2
100
AcDbLine
 10
778.6108128471735
 20
531.8939010538286
 30
0.0
 11
779.3808128471734
 21
527.8939010538286
 31
0.0
  0
LINE
  5
2EA38
330
1F
100
AcDbEntity
  8
2
  6
Continuous
 62
     2
100
AcDbLine
 10
779.8108128471738
 20
531.8939010538286
 30
0.0
 11
780.5808128471737
 21
527.8939010538286
 31
0.0
  0
LINE
  5
2EA39
330
1F
100
AcDbEntity
  8
2
  6
Continuous
 62
     2
100
AcDbLine
 10
781.0108128471735
 20
531.8939010538286
 30
0.0
 11
781.7808128471735
 21
527.8939010538286
 31
0.0
  0
LINE
  5
2EA3A
330
1F
100
AcDbEntity
  8
2
  6
Continuous
 62
     2
100
AcDbLine
 10
782.2108128471734
 20
531.8939010538286
 30
0.0
 11
782.9808128471734
 21
527.8939010538286
 31
0.0
  0
LINE
  5
2EA3B
330
1F
100
AcDbEntity
  8
2
  6
Continuous
 62
     2
100
AcDbLine
 10
783.4108128471736
 20
531.8939010538286
 30
0.0
 11
784.1808128471736
 21
527.8939010538286
 31
0.0
  0
LINE
  5
2EA3C
330
1F
100
AcDbEntity
  8
2
  6
Continuous
 62
     2
100
AcDbLine
 10
784.6108128471735
 20
531.8939010538286
 30
0.0
 11
785.3808128471735
 21
527.8939010538286
 31
0.0
  0
LINE
  5
2EA3D
330
1F
100
AcDbEntity
  8
2
  6
Continuous
 62
     2
100
AcDbLine
 10
785.8108128471737
 20
531.8939010538286
 30
0.0
 11
786.5808128471737
 21
527.8939010538286
 31
0.0
  0
LINE
  5
2EA3E
330
1F
100
AcDbEntity
  8
2
  6
Continuous
 62
     2
100
AcDbLine
 10
776.3408128471735
 20
531.2239010538284
 30
0.0
 11
776.9308128471736
 21
528.1739010538287
 31
0.0
  0
LINE
  5
2EA3F
330
1F
100
AcDbEntity
  8
2
  6
Continuous
 62
     2
100
AcDbLine
 10
775.2808128471736
 20
530.5139010538284
 30
0.0
 11
775.5508128471736
 21
529.0839010538286
 31
0.0
  0
LINE
  5
2EA40
330
1F
100
AcDbEntity
  8
2
  6
Continuous
 62
     2
100
AcDbLine
 10
774.3408128471735
 20
529.8939010538285
 30
0.0
 11
777.3408128471735
 21
527.8939010538286
 31
0.0
  0
LINE
  5
2EA41
330
1F
100
AcDbEntity
  8
2
  6
Continuous
 62
     2
100
AcDbLine
 10
777.3408128471735
 20
531.8939010538286
 30
0.0
 11
774.3408128471735
 21
529.8939010538285
 31
0.0
  0
LINE
  5
2EA42
330
1F
100
AcDbEntity
  8
2
  6
Continuous
 62
     2
100
AcDbLine
 10
788.2108128471734
 20
531.8939010538286
 30
0.0
 11
788.9808128471734
 21
527.8939010538286
 31
0.0
  0
LINE
  5
2EA43
330
1F
100
AcDbEntity
  8
2
  6
Continuous
 62
     2
100
AcDbLine
 10
789.4108128471737
 20
531.8939010538286
 30
0.0
 11
790.1808128471737
 21
527.8939010538286
 31
0.0
  0
LINE
  5
2EA44
330
1F
100
AcDbEntity
  8
2
  6
Continuous
 62
     2
100
AcDbLine
 10
790.6108128471735
 20
531.8939010538286
 30
0.0
 11
791.3808128471734
 21
527.8939010538286
 31
0.0
  0
LINE
  5
2EA45
330
1F
100
AcDbEntity
  8
2
  6
Continuous
 62
     2
100
AcDbLine
 10
791.8108128471738
 20
531.8939010538286
 30
0.0
 11
792.5808128471738
 21
527.8939010538286
 31
0.0
  0
LINE
  5
2EA46
330
1F
100
AcDbEntity
  8
2
  6
Continuous
 62
     2
100
AcDbLine
 10
793.1408128471737
 20
531.8939010538286
 30
0.0
 11
793.1408128471737
 21
527.8939010538286
 31
0.0
  0
LINE
  5
2EA47
330
1F
100
AcDbEntity
  8
2
  6
Continuous
 62
     2
100
AcDbLine
 10
795.3408128471735
 20
533.3939010538285
 30
0.0
 11
795.3408128471735
 21
526.3939010538286
 31
0.0
  0
LINE
  5
2EA48
330
1F
100
AcDbEntity
  8
2
  6
Continuous
 62
     2
100
AcDbLine
 10
795.3408128471735
 20
533.3939010538285
 30
0.0
 11
793.1408128471737
 21
531.8939010538286
 31
0.0
  0
LINE
  5
2EA49
330
1F
100
AcDbEntity
  8
2
  6
Continuous
 62
     2
100
AcDbLine
 10
793.1408128471737
 20
527.8939010538286
 30
0.0
 11
795.3408128471735
 21
526.3939010538286
 31
0.0
  0
LINE
  5
2EA4A
330
1F
100
AcDbEntity
  8
003
  6
ACAD_ISO02W100
100
AcDbLine
 10
795.3408128471735
 20
535.5939010538285
 30
0.0
 11
795.3408128471735
 21
502.1939010538285
 31
0.0
  0
DIMENSION
  5
2EA8A
330
1F
100
AcDbEntity
  8
003
 48
0.2
100
AcDbDimension
  2
*D7
 10
821.0908128471736
 20
465.8823118498255
 30
0.0
 11
807.0908128471737
 21
471.1323118498255
 31
0.0
 70
    32
 71
     5
 42
27.99999999999978
  3
DIM
100
AcDbAlignedDimension
 13
793.0908128471737
 23
478.190180730889
 33
0.0
 14
821.0908128471736
 24
500.1439010538285
 34
0.0
100
AcDbRotatedDimension
1001
ACAD
1000
DSTYLE
1002
{
1070
    40
1040
2.1
1070
    79
1070
     2
1070
   179
1070
     2
1002
}
  0
DIMENSION
  5
2EA97
330
1F
100
AcDbEntity
  8
003
 48
0.2
100
AcDbDimension
  2
*D8
 10
863.5238921318014
 20
502.8939010538285
 30
0.0
 11
858.2738921318014
 21
518.8939010538287
 31
0.0
 70
    32
  1
<>φ
 71
     5
 42
32.00000000000012
  3
DIM
100
AcDbAlignedDimension
 13
850.7411725567706
 23
534.8939010538286
 33
0.0
 14
852.2411725567705
 24
502.8939010538285
 34
0.0
 50
90.0
100
AcDbRotatedDimension
1001
ACAD
1000
DSTYLE
1002
{
1070
    40
1040
2.1
1070
    79
1070
     2
1070
   179
1070
     2
1002
}
  0
DIMENSION
  5
2EAA4
330
1F
100
AcDbEntity
  8
003
 48
0.2
100
AcDbDimension
  2
*D9
 10
836.6280817465435
 20
500.1439010538285
 30
0.0
 11
831.3780817465435
 21
518.8939010538287
 31
0.0
 70
    32
 71
     5
 42
37.50000000000011
  3
DIM
100
AcDbAlignedDimension
 13
822.5908128471735
 23
537.6439010538286
 33
0.0
 14
822.5908128471735
 24
500.1439010538285
 34
0.0
 50
90.0
100
AcDbRotatedDimension
1001
ACAD
1000
DSTYLE
1002
{
1070
    40
1040
2.1
1070
    79
1070
     2
1070
   179
1070
     2
1002
}
  0
LINE
  5
2EAD2
330
1F
100
AcDbEntity
  8
006
100
AcDbLine
 10
964.8408128471729
 20
518.8939010538282
 30
0.0
 11
996.6317143131734
 21
518.8939010538278
 31
0.0
  0
LINE
  5
2EAD3
330
1F
100
AcDbEntity
  8
003
100
AcDbLine
 10
950.0908128471731
 20
502.8939010538291
 30
0.0
 11
885.5908128471734
 21
502.8939010538291
 31
0.0
  0
LINE
  5
2EAD4
330
1F
100
AcDbEntity
  8
003
100
AcDbLine
 10
950.0908128471735
 20
534.8939010538291
 30
0.0
 11
885.5908128471734
 21
534.893901053829
 31
0.0
  0
DIMENSION
  5
2EAD5
330
1F
100
AcDbEntity
  8
003
100
AcDbDimension
  2
*D10
 10
945.0908128471736
 20
468.9864604079494
 30
0.0
 11
959.0908128471735
 21
471.4864604079493
 31
0.0
 70
    32
 71
     5
 42
28.0
  3
DIM
100
AcDbAlignedDimension
 13
973.0908128471735
 23
497.6439010538288
 33
0.0
 14
945.0908128471736
 24
500.1439010538284
 34
0.0
 50
180.0
100
AcDbRotatedDimension
  0
LINE
  5
2EAD6
330
1F
100
AcDbEntity
  8
006
100
AcDbLine
 10
962.8408128471734
 20
518.8939010538287
 30
0.0
 11
994.6317143131739
 21
518.8939010538291
 31
0.0
  0
LINE
  5
2EAD7
330
1F
100
AcDbEntity
  8
003
100
AcDbLine
 10
945.0908128471736
 20
500.1439010538284
 30
0.0
 11
973.0908128471735
 21
500.1439010538287
 31
0.0
  0
LINE
  5
2EAD8
330
1F
100
AcDbEntity
  8
003
100
AcDbLine
 10
945.0908128471736
 20
537.6439010538284
 30
0.0
 11
973.0908128471735
 21
537.6439010538287
 31
0.0
  0
LINE
  5
2EAD9
330
1F
100
AcDbEntity
  8
003
100
AcDbLine
 10
945.0908128471736
 20
537.6439010538284
 30
0.0
 11
945.0908128471736
 21
500.1439010538284
 31
0.0
  0
LINE
  5
2EADA
330
1F
100
AcDbEntity
  8
007
100
AcDbLine
 10
952.0908128471734
 20
502.8939010538285
 30
0.0
 11
969.0908128471734
 21
502.8939010538287
 31
0.0
  0
LINE
  5
2EADB
330
1F
100
AcDbEntity
  8
007
100
AcDbLine
 10
952.0908128471731
 20
534.8939010538284
 30
0.0
 11
969.0908128471734
 21
534.8939010538288
 31
0.0
  0
LINE
  5
2EADC
330
1F
100
AcDbEntity
  8
007
100
AcDbLine
 10
969.0908128471734
 20
534.8939010538288
 30
0.0
 11
969.0908128471734
 21
502.8939010538287
 31
0.0
  0
LINE
  5
2EADD
330
1F
100
AcDbEntity
  8
003
100
AcDbLine
 10
945.0908128471736
 20
502.3939010538284
 30
0.0
 11
973.0908128471735
 21
502.3939010538284
 31
0.0
  0
LINE
  5
2EADE
330
1F
100
AcDbEntity
  8
003
100
AcDbLine
 10
945.0908128471736
 20
535.3939010538284
 30
0.0
 11
973.0908128471735
 21
535.3939010538284
 31
0.0
  0
LINE
  5
2EADF
330
1F
100
AcDbEntity
  8
003
100
AcDbLine
 10
945.0908128471736
 20
502.1939010538284
 30
0.0
 11
973.0908128471735
 21
502.1939010538284
 31
0.0
  0
LINE
  5
2EAE0
330
1F
100
AcDbEntity
  8
003
100
AcDbLine
 10
945.0908128471736
 20
535.5939010538284
 30
0.0
 11
973.0908128471735
 21
535.5939010538284
 31
0.0
  0
LINE
  5
2EAE1
330
1F
100
AcDbEntity
  8
2
  6
Continuous
 62
     2
100
AcDbLine
 10
979.1708128471734
 20
516.8939010538288
 30
0.0
 11
978.4008128471734
 21
520.8939010538288
 31
0.0
  0
LINE
  5
2EAE2
330
1F
100
AcDbEntity
  8
2
  6
Continuous
 62
     2
100
AcDbLine
 10
988.8408128471736
 20
516.8939010538288
 30
0.0
 11
973.0408128471733
 21
516.8939010538288
 31
0.0
  0
LINE
  5
2EAE3
330
1F
100
AcDbEntity
  8
2
  6
Continuous
 62
     2
100
AcDbLine
 10
988.8408128471736
 20
520.8939010538288
 30
0.0
 11
973.0408128471733
 21
520.8939010538288
 31
0.0
  0
LINE
  5
2EAE4
330
1F
100
AcDbEntity
  8
2
  6
Continuous
 62
     2
100
AcDbLine
 10
988.7708128471734
 20
516.8939010538288
 30
0.0
 11
988.0008128471734
 21
520.8939010538288
 31
0.0
  0
LINE
  5
2EAE5
330
1F
100
AcDbEntity
  8
2
  6
Continuous
 62
     2
100
AcDbLine
 10
987.5708128471735
 20
516.8939010538288
 30
0.0
 11
986.8008128471736
 21
520.8939010538288
 31
0.0
  0
LINE
  5
2EAE6
330
1F
100
AcDbEntity
  8
2
  6
Continuous
 62
     2
100
AcDbLine
 10
986.3708128471733
 20
516.8939010538288
 30
0.0
 11
985.6008128471733
 21
520.8939010538288
 31
0.0
  0
LINE
  5
2EAE7
330
1F
100
AcDbEntity
  8
2
  6
Continuous
 62
     2
100
AcDbLine
 10
985.1708128471734
 20
516.8939010538288
 30
0.0
 11
984.4008128471735
 21
520.8939010538288
 31
0.0
  0
LINE
  5
2EAE8
330
1F
100
AcDbEntity
  8
2
  6
Continuous
 62
     2
100
AcDbLine
 10
983.9708128471736
 20
516.8939010538288
 30
0.0
 11
983.2008128471736
 21
520.8939010538288
 31
0.0
  0
LINE
  5
2EAE9
330
1F
100
AcDbEntity
  8
2
  6
Continuous
 62
     2
100
AcDbLine
 10
982.7708128471734
 20
516.8939010538288
 30
0.0
 11
982.0008128471734
 21
520.8939010538288
 31
0.0
  0
LINE
  5
2EAEA
330
1F
100
AcDbEntity
  8
2
  6
Continuous
 62
     2
100
AcDbLine
 10
981.5708128471735
 20
516.8939010538288
 30
0.0
 11
980.8008128471735
 21
520.8939010538288
 31
0.0
  0
LINE
  5
2EAEB
330
1F
100
AcDbEntity
  8
2
  6
Continuous
 62
     2
100
AcDbLine
 10
980.3708128471733
 20
516.8939010538288
 30
0.0
 11
979.6008128471733
 21
520.8939010538288
 31
0.0
  0
LINE
  5
2EAEC
330
1F
100
AcDbEntity
  8
2
  6
Continuous
 62
     2
100
AcDbLine
 10
989.8408128471736
 20
517.5639010538288
 30
0.0
 11
989.2508128471733
 21
520.6139010538286
 31
0.0
  0
LINE
  5
2EAED
330
1F
100
AcDbEntity
  8
2
  6
Continuous
 62
     2
100
AcDbLine
 10
990.9008128471734
 20
518.2739010538289
 30
0.0
 11
990.6308128471735
 21
519.7039010538287
 31
0.0
  0
LINE
  5
2EAEE
330
1F
100
AcDbEntity
  8
2
  6
Continuous
 62
     2
100
AcDbLine
 10
991.8408128471735
 20
518.8939010538287
 30
0.0
 11
988.8408128471736
 21
520.8939010538288
 31
0.0
  0
LINE
  5
2EAEF
330
1F
100
AcDbEntity
  8
2
  6
Continuous
 62
     2
100
AcDbLine
 10
988.8408128471736
 20
516.8939010538288
 30
0.0
 11
991.8408128471735
 21
518.8939010538287
 31
0.0
  0
LINE
  5
2EAF0
330
1F
100
AcDbEntity
  8
2
  6
Continuous
 62
     2
100
AcDbLine
 10
977.9708128471737
 20
516.8939010538288
 30
0.0
 11
977.2008128471737
 21
520.8939010538288
 31
0.0
  0
LINE
  5
2EAF1
330
1F
100
AcDbEntity
  8
2
  6
Continuous
 62
     2
100
AcDbLine
 10
976.7708128471733
 20
516.8939010538288
 30
0.0
 11
976.0008128471733
 21
520.8939010538288
 31
0.0
  0
LINE
  5
2EAF2
330
1F
100
AcDbEntity
  8
2
  6
Continuous
 62
     2
100
AcDbLine
 10
975.5708128471736
 20
516.8939010538288
 30
0.0
 11
974.8008128471736
 21
520.8939010538288
 31
0.0
  0
LINE
  5
2EAF3
330
1F
100
AcDbEntity
  8
2
  6
Continuous
 62
     2
100
AcDbLine
 10
974.3708128471732
 20
516.8939010538288
 30
0.0
 11
973.6008128471732
 21
520.8939010538288
 31
0.0
  0
LINE
  5
2EAF4
330
1F
100
AcDbEntity
  8
2
  6
Continuous
 62
     2
100
AcDbLine
 10
973.0408128471733
 20
516.8939010538288
 30
0.0
 11
973.0408128471733
 21
520.8939010538288
 31
0.0
  0
LINE
  5
2EAF5
330
1F
100
AcDbEntity
  8
2
  6
Continuous
 62
     2
100
AcDbLine
 10
970.8408128471734
 20
515.3939010538287
 30
0.0
 11
973.0408128471733
 21
516.8939010538288
 31
0.0
  0
LINE
  5
2EAF6
330
1F
100
AcDbEntity
  8
2
  6
Continuous
 62
     2
100
AcDbLine
 10
973.0408128471733
 20
520.8939010538288
 30
0.0
 11
970.8408128471734
 21
522.3939010538288
 31
0.0
  0
LINE
  5
2EAF7
330
1F
100
AcDbEntity
  8
2
  6
Continuous
 62
     2
100
AcDbLine
 10
979.1708128471734
 20
505.8939010538284
 30
0.0
 11
978.4008128471734
 21
509.8939010538284
 31
0.0
  0
LINE
  5
2EAF8
330
1F
100
AcDbEntity
  8
2
  6
Continuous
 62
     2
100
AcDbLine
 10
988.8408128471736
 20
505.8939010538284
 30
0.0
 11
973.0408128471733
 21
505.8939010538284
 31
0.0
  0
LINE
  5
2EAF9
330
1F
100
AcDbEntity
  8
2
  6
Continuous
 62
     2
100
AcDbLine
 10
988.8408128471736
 20
509.8939010538284
 30
0.0
 11
973.0408128471733
 21
509.8939010538284
 31
0.0
  0
LINE
  5
2EAFA
330
1F
100
AcDbEntity
  8
2
  6
Continuous
 62
     2
100
AcDbLine
 10
988.7708128471734
 20
505.8939010538284
 30
0.0
 11
988.0008128471734
 21
509.8939010538284
 31
0.0
  0
LINE
  5
2EAFB
330
1F
100
AcDbEntity
  8
2
  6
Continuous
 62
     2
100
AcDbLine
 10
987.5708128471735
 20
505.8939010538284
 30
0.0
 11
986.8008128471736
 21
509.8939010538284
 31
0.0
  0
LINE
  5
2EAFC
330
1F
100
AcDbEntity
  8
2
  6
Continuous
 62
     2
100
AcDbLine
 10
986.3708128471733
 20
505.8939010538284
 30
0.0
 11
985.6008128471733
 21
509.8939010538284
 31
0.0
  0
LINE
  5
2EAFD
330
1F
100
AcDbEntity
  8
2
  6
Continuous
 62
     2
100
AcDbLine
 10
985.1708128471734
 20
505.8939010538284
 30
0.0
 11
984.4008128471735
 21
509.8939010538284
 31
0.0
  0
LINE
  5
2EAFE
330
1F
100
AcDbEntity
  8
2
  6
Continuous
 62
     2
100
AcDbLine
 10
983.9708128471736
 20
505.8939010538284
 30
0.0
 11
983.2008128471736
 21
509.8939010538284
 31
0.0
  0
LINE
  5
2EAFF
330
1F
100
AcDbEntity
  8
2
  6
Continuous
 62
     2
100
AcDbLine
 10
982.7708128471734
 20
505.8939010538284
 30
0.0
 11
982.0008128471734
 21
509.8939010538284
 31
0.0
  0
LINE
  5
2EB00
330
1F
100
AcDbEntity
  8
2
  6
Continuous
 62
     2
100
AcDbLine
 10
981.5708128471735
 20
505.8939010538284
 30
0.0
 11
980.8008128471735
 21
509.8939010538284
 31
0.0
  0
LINE
  5
2EB01
330
1F
100
AcDbEntity
  8
2
  6
Continuous
 62
     2
100
AcDbLine
 10
980.3708128471733
 20
505.8939010538284
 30
0.0
 11
979.6008128471733
 21
509.8939010538284
 31
0.0
  0
LINE
  5
2EB02
330
1F
100
AcDbEntity
  8
2
  6
Continuous
 62
     2
100
AcDbLine
 10
989.8408128471736
 20
506.5639010538285
 30
0.0
 11
989.2508128471733
 21
509.6139010538283
 31
0.0
  0
LINE
  5
2EB03
330
1F
100
AcDbEntity
  8
2
  6
Continuous
 62
     2
100
AcDbLine
 10
990.9008128471734
 20
507.2739010538286
 30
0.0
 11
990.6308128471735
 21
508.7039010538283
 31
0.0
  0
LINE
  5
2EB04
330
1F
100
AcDbEntity
  8
2
  6
Continuous
 62
     2
100
AcDbLine
 10
991.8408128471735
 20
507.8939010538285
 30
0.0
 11
988.8408128471736
 21
509.8939010538284
 31
0.0
  0
LINE
  5
2EB05
330
1F
100
AcDbEntity
  8
2
  6
Continuous
 62
     2
100
AcDbLine
 10
988.8408128471736
 20
505.8939010538284
 30
0.0
 11
991.8408128471735
 21
507.8939010538285
 31
0.0
  0
LINE
  5
2EB06
330
1F
100
AcDbEntity
  8
2
  6
Continuous
 62
     2
100
AcDbLine
 10
977.9708128471737
 20
505.8939010538284
 30
0.0
 11
977.2008128471737
 21
509.8939010538284
 31
0.0
  0
LINE
  5
2EB07
330
1F
100
AcDbEntity
  8
2
  6
Continuous
 62
     2
100
AcDbLine
 10
976.7708128471733
 20
505.8939010538284
 30
0.0
 11
976.0008128471733
 21
509.8939010538284
 31
0.0
  0
LINE
  5
2EB08
330
1F
100
AcDbEntity
  8
2
  6
Continuous
 62
     2
100
AcDbLine
 10
975.5708128471736
 20
505.8939010538284
 30
0.0
 11
974.8008128471736
 21
509.8939010538284
 31
0.0
  0
LINE
  5
2EB09
330
1F
100
AcDbEntity
  8
2
  6
Continuous
 62
     2
100
AcDbLine
 10
974.3708128471732
 20
505.8939010538284
 30
0.0
 11
973.6008128471732
 21
509.8939010538284
 31
0.0
  0
LINE
  5
2EB0A
330
1F
100
AcDbEntity
  8
2
  6
Continuous
 62
     2
100
AcDbLine
 10
970.8408128471734
 20
504.3939010538284
 30
0.0
 11
970.8408128471734
 21
511.3939010538285
 31
0.0
  0
LINE
  5
2EB0B
330
1F
100
AcDbEntity
  8
2
  6
Continuous
 62
     2
100
AcDbLine
 10
970.8408128471734
 20
504.3939010538284
 30
0.0
 11
973.0408128471733
 21
505.8939010538284
 31
0.0
  0
LINE
  5
2EB0C
330
1F
100
AcDbEntity
  8
2
  6
Continuous
 62
     2
100
AcDbLine
 10
973.0408128471733
 20
509.8939010538284
 30
0.0
 11
970.8408128471734
 21
511.3939010538285
 31
0.0
  0
LINE
  5
2EB0D
330
1F
100
AcDbEntity
  8
003
  6
ACAD_ISO02W100
100
AcDbLine
 10
970.8408128471734
 20
535.5939010538284
 30
0.0
 11
970.8408128471734
 21
502.3939010538284
 31
0.0
  0
LEADER
  5
2EB4E
330
1F
100
AcDbEntity
  8
003
100
AcDbLeader
  3
DIM
 73
     0
 74
     0
 40
6.0
 41
15.55714285714286
 76
     3
 10
983.9708128471736
 20
505.8939010538284
 30
0.0
 10
996.4219160764116
 20
471.9267633707938
 30
0.0
 10
997.9219160764117
 20
471.9267633707938
 30
0.0
340
2EB4F
213
-0.1438892295095684
223
-0.4382331240022382
233
0.0
1001
ACAD
1000
DSTYLE
1002
{
1070
   147
1040
1.0
1070
    77
1070
     1
1002
}
  0
MTEXT
  5
2EB4F
102
{ACAD_REACTORS
330
2EB4E
102
}
330
1F
100
AcDbEntity
  8
003
 62
     7
100
AcDbMText
 10
999.0658053059211
 20
473.364996494796
 30
0.0
 40
6.0
 41
0.0
 71
     7
 72
     1
  1
木ビス
  7
DIM
 73
     1
 44
1.0
1001
ACAD
1000
MTEXTBEGIN
1070
    73
1070
     1
1070
    44
1040
1.0
1070
    74
1070
     0
1000
MTEXTEND
  0
TEXT
  5
2ED3C
330
1F
100
AcDbEntity
  8
0
100
AcDbText
 10
1082.538292604563
 20
88.49999999999978
 30
0.0
 40
6.0
  1
BRD03
  7
ｺﾞｼｯｸ（横）
 72
     1
 11
1095.237156240927
 21
91.49999999999977
 31
0.0
100
AcDbText
 73
     2
  0
LWPOLYLINE
  5
2ED88
330
1F
100
AcDbEntity
  8
0
100
AcDbPolyline
 90
        4
 70
     1
 43
0.0
 10
-6.331101883046528
 20
854.1929688705932
 10
476.9719766796641
 20
854.1929688705932
 10
476.9719766796641
 20
798.8473195186775
 10
-6.331101883046528
 20
798.8473195186775
  0
LWPOLYLINE
  5
2ED89
330
1F
100
AcDbEntity
  8
0
100
AcDbPolyline
 90
        4
 70
     1
 43
0.0
 10
-3.331101883046528
 20
851.1929688705931
 10
473.9719766796641
 20
851.1929688705931
 10
473.9719766796641
 20
801.8473195186775
 10
-3.331101883046528
 20
801.8473195186775
  0
TEXT
  5
2ED8A
330
1F
100
AcDbEntity
  8
0
100
AcDbText
 10
17.33337748355552
 20
819.1269790820937
 30
0.0
 40
14.04
  1
非常進入口対応　３２φバー手摺（ＳＵＳ）　（脱着式・Ｕ型ソケット）
 41
0.8
  7
AT_VECTOR
 11
17.33337748355552
 21
819.1269790820937
 31
0.0
100
AcDbText
 73
     1
  0
ENDSEC
  0
SECTION
  2
OBJECTS
  0
DICTIONARY
  5
C
330
0
100
AcDbDictionary
281
     1
  3
ACAD_2007HEADERVARS_RT
350
2EE61
  3
ACAD_COLOR
350
9C8B
  3
ACAD_GROUP
350
D
  3
ACAD_LAYOUT
350
1A
  3
ACAD_MATERIAL
350
9C61
  3
ACAD_MLEADERSTYLE
350
9CB0
  3
ACAD_MLINESTYLE
350
17
  3
ACAD_PLOTSETTINGS
350
19
  3
ACAD_PLOTSTYLENAME
350
E
  3
ACAD_SCALELIST
350
9C8E
  3
ACAD_TABLESTYLE
350
9C8C
  3
ACAD_VISUALSTYLE
350
9C7A
  3
ACAD_WIPEOUT_VARS
350
DD7A
  3
AcadDim
350
28E60
  3
ACDB_RECOMPOSE_DATA
350
A6AF
  3
AcDbVariableDictionary
350
A6CA
  3
DWGPROPS
350
2EE60
  0
DICTIONARY
  5
A6B1
330
8
100
AcDbDictionary
280
     1
281
     1
  0
DICTIONARY
  5
6C5
330
2
100
AcDbDictionary
280
     1
281
     1
  3
ACAD_LAYERFILTERS
360
15916
  3
ACAD_LAYERSTATES
360
6C6
  3
ACLYDICTIONARY
360
15915
  0
DICTIONARY
  5
9F26
330
10
100
AcDbDictionary
280
     1
281
     1
  3
ADSK_XREC_LAYER_RECONCILED
360
9F27
  0
DICTIONARY
  5
9F2A
330
32
100
AcDbDictionary
280
     1
281
     1
  3
ADSK_XREC_LAYER_RECONCILED
360
9F2B
  0
DICTIONARY
  5
9F2C
330
33
100
AcDbDictionary
280
     1
281
     1
  3
ADSK_XREC_LAYER_RECONCILED
360
9F2D
  0
DICTIONARY
  5
9F32
330
1A4
100
AcDbDictionary
280
     1
281
     1
  3
ADSK_XREC_LAYER_RECONCILED
360
9F33
  0
DICTIONARY
  5
9F34
330
1A5
100
AcDbDictionary
280
     1
281
     1
  3
ADSK_XREC_LAYER_RECONCILED
360
9F35
  0
DICTIONARY
  5
9F3A
330
2B1
100
AcDbDictionary
280
     1
281
     1
  3
ADSK_XREC_LAYER_RECONCILED
360
9F3B
  0
DICTIONARY
  5
2E17D
330
2E17C
100
AcDbDictionary
280
     1
281
     1
  3
ADSK_XREC_LAYER_RECONCILED
360
2E17E
  0
DICTIONARY
  5
9EA6
330
1F
100
AcDbDictionary
280
     1
281
     1
  3
ACAD_SORTENTS
360
9EA7
  0
DICTIONARY
  5
2EE61
102
{ACAD_REACTORS
330
C
102
}
330
C
100
AcDbDictionary
281
     1
  3
DIMJOGANG
350
2EE63
  3
DIMTFILL
350
2EE62
  0
DICTIONARY
  5
9C8B
102
{ACAD_REACTORS
330
C
102
}
330
C
100
AcDbDictionary
281
     1
  0
DICTIONARY
  5
D
102
{ACAD_REACTORS
330
C
102
}
330
C
100
AcDbDictionary
281
     1
  0
DICTIONARY
  5
1A
102
{ACAD_REACTORS
330
C
102
}
330
C
100
AcDbDictionary
281
     1
  3
Model
350
22
  3
ﾚｲｱｳﾄ1
350
1E
  3
ﾚｲｱｳﾄ2
350
26
  0
DICTIONARY
  5
9C61
102
{ACAD_REACTORS
330
C
102
}
330
C
100
AcDbDictionary
281
     1
  3
ByBlock
350
9C6A
  3
ByLayer
350
9C62
  3
Global
350
9C72
  0
DICTIONARY
  5
9CB0
102
{ACAD_REACTORS
330
C
102
}
330
C
100
AcDbDictionary
281
     1
  3
Standard
350
9CB1
  0
DICTIONARY
  5
17
102
{ACAD_REACTORS
330
C
102
}
330
C
100
AcDbDictionary
281
     1
  3
Standard
350
18
  0
DICTIONARY
  5
19
102
{ACAD_REACTORS
330
C
102
}
330
C
100
AcDbDictionary
281
     1
  0
ACDBDICTIONARYWDFLT
  5
E
102
{ACAD_REACTORS
330
C
102
}
330
C
100
AcDbDictionary
281
     1
  3
Normal
350
F
100
AcDbDictionaryWithDefault
340
F
  0
DICTIONARY
  5
9C8E
102
{ACAD_REACTORS
330
C
102
}
330
C
100
AcDbDictionary
281
     1
  3
*A1
350
2EB88
  3
*A10
350
2EBD7
  3
*A100
350
2EC2E
  3
*A101
350
2EC58
  3
*A102
350
2ECEB
  3
*A103
350
2EC2F
  3
*A104
350
2EC30
  3
*A105
350
2EB98
  3
*A106
350
2EBF0
  3
*A107
350
2EC31
  3
*A108
350
2EB9D
  3
*A109
350
2EC32
  3
*A11
350
2EC0E
  3
*A110
350
2EC33
  3
*A111
350
2EC34
  3
*A112
350
2ECE0
  3
*A113
350
2ED24
  3
*A114
350
2EBF3
  3
*A115
350
2ECEC
  3
*A116
350
2EC35
  3
*A117
350
2EC36
  3
*A118
350
2EC37
  3
*A119
350
2EC38
  3
*A12
350
2EBD8
  3
*A120
350
2EC39
  3
*A121
350
2EC3A
  3
*A122
350
2EBF1
  3
*A123
350
2EC63
  3
*A124
350
2ED25
  3
*A125
350
2EB99
  3
*A126
350
2EC3B
  3
*A127
350
2EC52
  3
*A128
350
2ECAB
  3
*A129
350
2EC3C
  3
*A13
350
2EBB0
  3
*A130
350
2EC3D
  3
*A131
350
2EC3E
  3
*A132
350
2EC3F
  3
*A133
350
2EC40
  3
*A134
350
2EC41
  3
*A135
350
2ED26
  3
*A136
350
2EC42
  3
*A137
350
2EC43
  3
*A138
350
2EC64
  3
*A139
350
2ECDB
  3
*A14
350
2EBD9
  3
*A140
350
2ECED
  3
*A141
350
2EC65
  3
*A142
350
2ECAC
  3
*A143
350
2EC66
  3
*A144
350
2EBF5
  3
*A145
350
2EC67
  3
*A146
350
2ED27
  3
*A147
350
2EC68
  3
*A148
350
2EC69
  3
*A149
350
2EC45
  3
*A15
350
2EBDA
  3
*A150
350
2EC6A
  3
*A151
350
2EC6B
  3
*A152
350
2ECEE
  3
*A153
350
2EC6C
  3
*A154
350
2EB9E
  3
*A155
350
2ECAD
  3
*A156
350
2EC6D
  3
*A157
350
2ECE2
  3
*A158
350
2EC6E
  3
*A159
350
2EC6F
  3
*A16
350
2EC99
  3
*A160
350
2EBF6
  3
*A161
350
2EC70
  3
*A162
350
2EC71
  3
*A163
350
2EC46
  3
*A164
350
2EC03
  3
*A165
350
2EC72
  3
*A166
350
2EC73
  3
*A167
350
2EC74
  3
*A168
350
2ED28
  3
*A169
350
2ECAE
  3
*A17
350
2ECE5
  3
*A170
350
2EC75
  3
*A171
350
2EC76
  3
*A172
350
2EB9F
  3
*A173
350
2EC77
  3
*A174
350
2EC78
  3
*A175
350
2EBF7
  3
*A176
350
2EBAB
  3
*A177
350
2EC79
  3
*A178
350
2EC47
  3
*A179
350
2ED29
  3
*A18
350
2EB92
  3
*A180
350
2EC7A
  3
*A181
350
2EC7B
  3
*A182
350
2EBFA
  3
*A183
350
2ECAF
  3
*A184
350
2EC7C
  3
*A185
350
2EC7D
  3
*A186
350
2EC7E
  3
*A187
350
2EC7F
  3
*A188
350
2ECEF
  3
*A189
350
2EC80
  3
*A19
350
2ECA6
  3
*A190
350
2ED2A
  3
*A191
350
2EBA0
  3
*A192
350
2EC81
  3
*A193
350
2EBF8
  3
*A194
350
2EC48
  3
*A195
350
2EC82
  3
*A196
350
2EBFD
  3
*A197
350
2EC83
  3
*A198
350
2EC84
  3
*A199
350
2EC85
  3
*A2
350
2ED20
  3
*A20
350
2EBDB
  3
*A200
350
2EC4B
  3
*A201
350
2EBB1
  3
*A202
350
2EC86
  3
*A203
350
2EC87
  3
*A204
350
2EC88
  3
*A205
350
2EC89
  3
*A206
350
2EC8A
  3
*A207
350
2EBA1
  3
*A208
350
2EC49
  3
*A209
350
2ECB0
  3
*A21
350
2EBDC
  3
*A210
350
2EBF9
  3
*A211
350
2EC8B
  3
*A212
350
2ECA0
  3
*A213
350
2ECF0
  3
*A214
350
2EC8C
  3
*A215
350
2EC8D
  3
*A216
350
2EC8E
  3
*A217
350
2EC8F
  3
*A218
350
2EC90
  3
*A219
350
2EC91
  3
*A22
350
2EBDD
  3
*A220
350
2EC92
  3
*A221
350
2EC93
  3
*A222
350
2ECB1
  3
*A223
350
2ED1B
  3
*A224
350
2ED2B
  3
*A225
350
2ECB2
  3
*A226
350
2ECF1
  3
*A227
350
2EB8A
  3
*A228
350
2EC4D
  3
*A229
350
2EBA5
  3
*A23
350
2EBDE
  3
*A230
350
2ECB3
  3
*A231
350
2ECB4
  3
*A232
350
2EBA2
  3
*A233
350
2ECB5
  3
*A234
350
2ECB6
  3
*A235
350
2ED2C
  3
*A236
350
2ECB7
  3
*A237
350
2EBFE
  3
*A238
350
2ECF2
  3
*A239
350
2ECB8
  3
*A24
350
2ED21
  3
*A240
350
2ECB9
  3
*A241
350
2ECBA
  3
*A242
350
2EC4E
  3
*A243
350
2ECBB
  3
*A244
350
2ECBC
  3
*A245
350
2EC95
  3
*A246
350
2EB9C
  3
*A247
350
2EBA6
  3
*A248
350
2ECBD
  3
*A249
350
2ECBE
  3
*A25
350
2EBDF
  3
*A250
350
2ECF3
  3
*A251
350
2ECBF
  3
*A252
350
2ECC0
  3
*A253
350
2EB93
  3
*A254
350
2ECC1
  3
*A255
350
2ECC2
  3
*A256
350
2EB89
  3
*A257
350
2EC09
  3
*A258
350
2ECC3
  3
*A259
350
2EC96
  3
*A26
350
2EBE0
  3
*A260
350
2ECC4
  3
*A261
350
2ECC5
  3
*A262
350
2EC50
  3
*A263
350
2ECF4
  3
*A264
350
2ECC6
  3
*A265
350
2EBA7
  3
*A266
350
2ECC7
  3
*A267
350
2ECC8
  3
*A268
350
2ED2D
  3
*A269
350
2ECC9
  3
*A27
350
2EB90
  3
*A270
350
2EBFF
  3
*A271
350
2ECCA
  3
*A272
350
2EB9B
  3
*A273
350
2EC97
  3
*A274
350
2ECCB
  3
*A275
350
2EC53
  3
*A276
350
2ECCC
  3
*A277
350
2ECCD
  3
*A278
350
2ECCE
  3
*A279
350
2EC9A
  3
*A28
350
2EC0F
  3
*A280
350
2ECCF
  3
*A281
350
2ECD0
  3
*A282
350
2EBA8
  3
*A283
350
2ECD1
  3
*A284
350
2ECD2
  3
*A285
350
2EC00
  3
*A286
350
2EC98
  3
*A287
350
2ECF5
  3
*A288
350
2EC4F
  3
*A289
350
2ECD3
  3
*A29
350
2ECE6
  3
*A290
350
2ED2E
  3
*A291
350
2ECD4
  3
*A292
350
2ECD5
  3
*A293
350
2ECD6
  3
*A294
350
2ECD7
  3
*A295
350
2ECD8
  3
*A296
350
2ECD9
  3
*A297
350
2ECDA
  3
*A298
350
2EBA9
  3
*A299
350
2ECF6
  3
*A3
350
2EBD3
  3
*A30
350
2EBE1
  3
*A300
350
2ECF7
  3
*A301
350
2ED2F
  3
*A302
350
2EBEB
  3
*A303
350
2EC9C
  3
*A304
350
2EC04
  3
*A305
350
2ECF8
  3
*A306
350
2EBAC
  3
*A307
350
2EC01
  3
*A308
350
2ECF9
  3
*A309
350
2ECFA
  3
*A31
350
2EBE2
  3
*A310
350
2ECFB
  3
*A311
350
2EC54
  3
*A312
350
2ED30
  3
*A313
350
2ECFC
  3
*A314
350
2ECFD
  3
*A315
350
2ECFE
  3
*A316
350
2EC9D
  3
*A317
350
2ECFF
  3
*A318
350
2ED00
  3
*A319
350
2ECDC
  3
*A32
350
2EBFC
  3
*A320
350
2EC05
  3
*A321
350
2ED01
  3
*A322
350
2ED02
  3
*A323
350
2ED31
  3
*A324
350
2EBAD
  3
*A325
350
2ED03
  3
*A326
350
2EBF4
  3
*A327
350
2ED04
  3
*A328
350
2ED05
  3
*A329
350
2EB91
  3
*A33
350
2EC5E
  3
*A330
350
2ED06
  3
*A331
350
2ECDD
  3
*A332
350
2ED07
  3
*A333
350
2ED08
  3
*A334
350
2EBA3
  3
*A335
350
2ED32
  3
*A336
350
2ED09
  3
*A337
350
2EC06
  3
*A338
350
2ED0A
  3
*A339
350
2ED0B
  3
*A34
350
2EBE3
  3
*A340
350
2ED0C
  3
*A341
350
2EC55
  3
*A342
350
2EBAE
  3
*A343
350
2EBFB
  3
*A344
350
2ECDE
  3
*A345
350
2ED0D
  3
*A346
350
2ECA1
  3
*A347
350
2ED0E
  3
*A348
350
2ED0F
  3
*A349
350
2ED10
  3
*A35
350
2ECE1
  3
*A350
350
2ED11
  3
*A351
350
2ED12
  3
*A352
350
2EC07
  3
*A353
350
2ED13
  3
*A354
350
2ED14
  3
*A355
350
2EC56
  3
*A356
350
2ECDF
  3
*A357
350
2ED33
  3
*A358
350
2EC9E
  3
*A359
350
2ED15
  3
*A36
350
2EBE4
  3
*A360
350
2ED16
  3
*A361
350
2EB8B
  3
*A362
350
2EBAF
  3
*A363
350
2ED17
  3
*A364
350
2ED18
  3
*A365
350
2ED19
  3
*A366
350
2ED1A
  3
*A367
350
2EC08
  3
*A368
350
2ED34
  3
*A369
350
2EBB2
  3
*A37
350
2EBE5
  3
*A370
350
2EC44
  3
*A371
350
2ECE3
  3
*A372
350
2EC59
  3
*A373
350
2EBB3
  3
*A374
350
2EC0A
  3
*A375
350
2EC57
  3
*A376
350
2EBB4
  3
*A377
350
2EBB5
  3
*A378
350
2EBB6
  3
*A379
350
2ECA2
  3
*A38
350
2EBE6
  3
*A380
350
2EBB7
  3
*A381
350
2EBB8
  3
*A382
350
2EB8C
  3
*A383
350
2ECE4
  3
*A384
350
2EBB9
  3
*A385
350
2EBBA
  3
*A386
350
2ED1C
  3
*A387
350
2EC5A
  3
*A388
350
2EBBB
  3
*A389
350
2EBBC
  3
*A39
350
2EBE7
  3
*A390
350
2EC0B
  3
*A391
350
2EBBD
  3
*A392
350
2EC4C
  3
*A393
350
2EBBE
  3
*A394
350
2EBBF
  3
*A395
350
2EBF2
  3
*A396
350
2EBC0
  3
*A397
350
2ED1D
  3
*A398
350
2EBC1
  3
*A399
350
2EBC2
  3
*A4
350
2EC02
  3
*A40
350
2EBE8
  3
*A400
350
2EB8D
  3
*A401
350
2EC5B
  3
*A402
350
2EBC3
  3
*A403
350
2EBC4
  3
*A404
350
2EBC5
  3
*A405
350
2ECA3
  3
*A406
350
2EC0C
  3
*A407
350
2EC51
  3
*A408
350
2ED1E
  3
*A409
350
2EBC6
  3
*A41
350
2ECE7
  3
*A410
350
2EBC7
  3
*A411
350
2EBC8
  3
*A412
350
2EBC9
  3
*A413
350
2EBCA
  3
*A414
350
2EBCB
  3
*A415
350
2EC5C
  3
*A416
350
2EBCC
  3
*A417
350
2EB8E
  3
*A418
350
2ECA4
  3
*A419
350
2ED1F
  3
*A42
350
2EBE9
  3
*A420
350
2EBAA
  3
*A421
350
2EBCD
  3
*A422
350
2EBCE
  3
*A423
350
2EBEC
  3
*A424
350
2EC0D
  3
*A425
350
2EBCF
  3
*A426
350
2EBD0
  3
*A427
350
2EBD1
  3
*A428
350
2EBD2
  3
*A429
350
2EC5D
  3
*A43
350
2EBEA
  3
*A44
350
2EC10
  3
*A45
350
2EC94
  3
*A46
350
2ED22
  3
*A47
350
2ECA7
  3
*A48
350
2EC11
  3
*A49
350
2EC5F
  3
*A5
350
2ECA5
  3
*A50
350
2EC12
  3
*A51
350
2EB95
  3
*A52
350
2EC13
  3
*A53
350
2ECE8
  3
*A54
350
2EC14
  3
*A55
350
2EC15
  3
*A56
350
2EBED
  3
*A57
350
2ED23
  3
*A58
350
2EC16
  3
*A59
350
2EC17
  3
*A6
350
2EBD4
  3
*A60
350
2ECA8
  3
*A61
350
2EC18
  3
*A62
350
2EC19
  3
*A63
350
2EC60
  3
*A64
350
2EC1A
  3
*A65
350
2EC9B
  3
*A66
350
2EC1B
  3
*A67
350
2EC1C
  3
*A68
350
2EC4A
  3
*A69
350
2EB96
  3
*A7
350
2EBD5
  3
*A70
350
2EC1D
  3
*A71
350
2EC1E
  3
*A72
350
2EBEE
  3
*A73
350
2EBA4
  3
*A74
350
2EC1F
  3
*A75
350
2EC20
  3
*A76
350
2EC21
  3
*A77
350
2ECE9
  3
*A78
350
2EC61
  3
*A79
350
2EC9F
  3
*A8
350
2EBD6
  3
*A80
350
2EC22
  3
*A81
350
2EC23
  3
*A82
350
2EC24
  3
*A83
350
2EC25
  3
*A84
350
2EC26
  3
*A85
350
2EB97
  3
*A86
350
2ECA9
  3
*A87
350
2EC27
  3
*A88
350
2EBEF
  3
*A89
350
2ECEA
  3
*A9
350
2EB8F
  3
*A90
350
2EB94
  3
*A91
350
2EC28
  3
*A92
350
2EC29
  3
*A93
350
2EB9A
  3
*A94
350
2EC62
  3
*A95
350
2EC2A
  3
*A96
350
2EC2B
  3
*A97
350
2EC2C
  3
*A98
350
2EC2D
  3
*A99
350
2ECAA
  3
A0
350
9C8F
  3
A1
350
2CD7F
  3
A2
350
2CD80
  3
A3
350
2CD81
  3
A4
350
2CD82
  3
A5
350
2CD83
  3
A6
350
2CD84
  3
A7
350
2CD85
  3
A8
350
2CD86
  3
A9
350
2CD87
  3
B0
350
2CD88
  3
B1
350
2CD89
  3
B2
350
2CD8A
  3
B3
350
2CD8B
  3
B4
350
2CD8C
  3
B5
350
2CD8D
  3
B6
350
2CD8E
  3
B7
350
2CD8F
  3
B8
350
2CD90
  3
B9
350
2CD91
  3
C0
350
2CD92
  3
C1
350
2CD93
  3
C2
350
2CD94
  3
C3
350
2CD95
  3
C4
350
2CD96
  3
C5
350
2CD97
  3
C6
350
2CD98
  3
C7
350
2CD99
  3
C8
350
2CD9A
  3
C9
350
2CD9B
  3
D0
350
2CD9C
  3
D1
350
2CD9D
  3
D2
350
2CD9E
  0
DICTIONARY
  5
9C8C
102
{ACAD_REACTORS
330
C
102
}
330
C
100
AcDbDictionary
281
     1
  3
Standard
350
9C8D
  0
DICTIONARY
  5
9C7A
102
{ACAD_REACTORS
330
C
102
}
330
C
100
AcDbDictionary
281
     1
  3
2dWireframe
350
9C80
  3
3D Hidden
350
9C82
  3
3dWireframe
350
9C81
  3
Basic
350
9C7F
  3
Brighten
350
9C86
  3
ColorChange
350
9C8A
  3
Conceptual
350
9C83
  3
Dim
350
9C85
  3
Facepattern
350
9C89
  3
Flat
350
9C7B
  3
FlatWithEdges
350
9C7C
  3
Gouraud
350
9C7D
  3
GouraudWithEdges
350
9C7E
  3
Linepattern
350
9C88
  3
Realistic
350
9C84
  3
Thicken
350
9C87
  0
WIPEOUTVARIABLES
  5
DD7A
102
{ACAD_REACTORS
330
C
102
}
330
C
100
AcDbWipeoutVariables
 70
     1
  0
XRECORD
  5
28E60
102
{ACAD_REACTORS
330
C
102
}
330
C
100
AcDbXrecord
280
     1
 90
   990106
  3

 60
     0
 61
     0
 62
     4
 63
     4
 64
     1
 65
     0
 66
     0
 67
     3
 68
     1
 69
     0
 70
     0
 71
     0
 72
     0
 40
0.0
170
     2
340
0
  0
XRECORD
  5
A6AF
102
{ACAD_REACTORS
330
C
102
}
330
C
100
AcDbXrecord
280
     1
 90
        1
330
9C8D
  0
DICTIONARY
  5
A6CA
102
{ACAD_REACTORS
330
C
102
}
330
C
100
AcDbDictionary
281
     1
  3
CANNOSCALE
350
A6CD
  3
CMLEADERSTYLE
350
A6CC
  3
CTABLESTYLE
350
A6CB
  3
DIMASSOC
350
A6D0
  3
INDEXCTL
350
A6CF
  3
LIGHTINGUNITS
350
2ED9D
  3
MSLTSCALE
350
2ED9C
  3
SORTENTS
350
A6CE
  0
XRECORD
  5
2EE60
102
{ACAD_REACTORS
330
C
102
}
330
C
100
AcDbXrecord
280
     1
  1
DWGPROPS COOKIE
  2

  3

  4

  6

  7

  8
koba
  9

300
=
301
=
302
=
303
=
304
=
305
=
306
=
307
=
308
=
309
=
 40
0.7025923495370371
 41
2452888.42884919
 42
2457913.539532547
  1

 90
        0
  0
DICTIONARY
  5
15916
102
{ACAD_REACTORS
330
6C5
102
}
330
6C5
100
AcDbDictionary
281
     1
  0
DICTIONARY
  5
6C6
102
{ACAD_REACTORS
330
6C5
102
}
330
6C5
100
AcDbDictionary
281
     1
  0
DICTIONARY
  5
15915
102
{ACAD_REACTORS
330
6C5
102
}
330
6C5
100
AcDbDictionary
281
     1
1001
ACAD
1000
<All
  0
XRECORD
  5
9F27
102
{ACAD_REACTORS
330
9F26
102
}
330
9F26
100
AcDbXrecord
280
     1
290
     1
  0
XRECORD
  5
9F2B
102
{ACAD_REACTORS
330
9F2A
102
}
330
9F2A
100
AcDbXrecord
280
     1
290
     1
  0
XRECORD
  5
9F2D
102
{ACAD_REACTORS
330
9F2C
102
}
330
9F2C
100
AcDbXrecord
280
     1
290
     1
  0
XRECORD
  5
9F33
102
{ACAD_REACTORS
330
9F32
102
}
330
9F32
100
AcDbXrecord
280
     1
290
     1
  0
XRECORD
  5
9F35
102
{ACAD_REACTORS
330
9F34
102
}
330
9F34
100
AcDbXrecord
280
     1
290
     1
  0
XRECORD
  5
9F3B
102
{ACAD_REACTORS
330
9F3A
102
}
330
9F3A
100
AcDbXrecord
280
     1
290
     1
  0
XRECORD
  5
2E17E
102
{ACAD_REACTORS
330
2E17D
102
}
330
2E17D
100
AcDbXrecord
280
     1
290
     1
  0
SORTENTSTABLE
  5
9EA7
102
{ACAD_REACTORS
330
9EA6
102
}
330
9EA6
100
AcDbSortentsTable
330
1F
331
17E2E
  5
17E2E
331
18145
  5
18145
331
1FAA4
  5
1FAA4
331
1814D
  5
1814D
331
1FAFB
  5
1FAFC
331
1FD0A
  5
1FD0B
331
1FD51
  5
1FD54
331
21230
  5
2122F
331
21297
  5
21297
331
18116
  5
18116
331
1FB03
  5
1FB04
331
1FD12
  5
1FD13
331
1FD59
  5
1FD5A
331
1811E
  5
1811E
331
212A7
  5
212A7
331
119E8
  5
119F0
331
11943
  5
11948
331
15727
  5
15727
331
119F0
  5
11A47
331
1572F
  5
1572F
331
F01C
  5
F024
331
15737
  5
15737
331
26C75
  5
26C79
331
26C7D
  5
26C81
331
212DE
  5
212DE
331
26C85
  5
26C89
331
1573F
  5
1573F
331
18126
  5
18126
331
1FB0B
  5
1FB0C
331
1FD2A
  5
1FD2B
331
1FD61
  5
1FD66
331
1812E
  5
1812E
331
1FADC
  5
1FADD
331
1FB13
  5
1FB16
331
1FD32
  5
1FD33
331
18136
  5
18136
331
18355
  5
18355
331
1FB1B
  5
1FB1C
331
1FD3A
  5
1FD3B
331
21280
  5
21280
331
11969
  5
1196D
331
1FD42
  5
1FD43
331
1813E
  5
1813E
331
1835D
  5
1835D
331
1FAEC
  5
1FAED
331
21288
  5
21288
331
11934
  5
1193F
331
11989
  5
119E8
331
15718
  5
15718
331
212AF
  5
212AF
331
26C8D
  5
26CA7
331
212B7
  5
212B7
331
243D6
  5
243D9
331
212BF
  5
212BF
331
243DE
  5
243E1
331
27275
  5
2727A
331
212C7
  5
212C7
331
17E2F
  5
17E2F
331
18146
  5
18146
331
1FAF4
  5
1FAF5
331
21290
  5
21290
331
1FAAD
  5
1FAAD
331
1FAFC
  5
1FAFD
331
1FD0B
  5
1FD0C
331
21298
  5
21298
331
18117
  5
18117
331
1FB04
  5
1FB05
331
1FD13
  5
1FD1E
331
1FD5A
  5
1FD5B
331
15720
  5
15720
331
1811F
  5
1811F
331
21269
  5
21269
331
11944
  5
11968
331
119E9
  5
119F1
331
15728
  5
15728
331
119F1
  5
11A48
331
15730
  5
15730
331
212CF
  5
212CF
331
26C76
  5
26C7A
331
212D7
  5
212D7
331
26C7E
  5
26C82
331
26C86
  5
26C8A
331
22637
  5
22637
331
15738
  5
15738
331
15740
  5
15740
331
18127
  5
18127
331
1FB0C
  5
1FB13
331
1FD2B
  5
1FD2C
331
1812F
  5
1812F
331
1FADD
  5
1FADE
331
1FD33
  5
1FD34
331
21279
  5
21279
331
18137
  5
18137
331
1FAE5
  5
1FAEA
331
1FB1C
  5
1FB1D
331
1FD3B
  5
1FD3C
331
21281
  5
21281
331
1196A
  5
1197F
331
11A39
  5
11A4A
331
1813F
  5
1813F
331
1FAED
  5
1FAEE
331
1FD43
  5
1FD44
331
211BA
  5
211BD
331
1192D
  5
11931
331
11935
  5
11940
331
1198A
  5
119E9
331
15719
  5
15719
331
212A8
  5
212A8
331
212B0
  5
212B0
331
26C8E
  5
26CB4
331
212B8
  5
212B8
331
243D7
  5
243DA
331
212C0
  5
212C0
331
243DF
  5
2456F
331
27276
  5
27280
331
17E30
  5
17E30
331
18147
  5
18147
331
1FAF5
  5
1FAF6
331
1FD4B
  5
1FD51
331
21291
  5
21291
331
18110
  5
18110
331
1FAAE
  5
1FAAE
331
1FAFD
  5
1FAFE
331
1FD0C
  5
1FD10
331
21232
  5
21232
331
21299
  5
21299
331
18118
  5
18118
331
1FB05
  5
1FB06
331
1FD5B
  5
1FD5D
331
21262
  5
21262
331
119A2
  5
119EA
331
15721
  5
15721
331
1FAC6
  5
1FACA
331
11945
  5
11969
331
119EA
  5
11A36
331
15729
  5
15729
331
15731
  5
15731
331
212C8
  5
212C8
331
212D0
  5
212D0
331
26C77
  5
26C7B
331
212D8
  5
212D8
331
26C7F
  5
26C83
331
26C87
  5
26C8B
331
15739
  5
15739
331
15741
  5
15741
331
18128
  5
18128
331
1FAD6
  5
1FAD7
331
1FD2C
  5
1FD2D
331
18130
  5
18130
331
1FADE
  5
1FADF
331
1FD34
  5
1FD35
331
18138
  5
18138
331
18357
  5
18357
331
1FB1D
  5
1FB1E
331
1FD3C
  5
1FD3D
331
21282
  5
21282
331
1FAEE
  5
1FAEF
331
1FD44
  5
1FD45
331
2128A
  5
2128A
331
1196B
  5
11980
331
1192E
  5
11932
331
11936
  5
11941
331
1571A
  5
1571A
331
212A9
  5
212A9
331
22638
  5
22638
331
26C8F
  5
26CC1
331
243D8
  5
243DB
331
212C1
  5
212C1
331
243E0
  5
24A04
331
18140
  5
18140
331
1FAF6
  5
1FAF7
331
18148
  5
18148
331
2122B
  5
2122B
331
21292
  5
21292
331
18111
  5
18111
331
1FAAF
  5
1FAAF
331
1FAFE
  5
1FAFF
331
1FD54
  5
1FD55
331
21233
  5
21233
331
2129A
  5
2129A
331
18119
  5
18119
331
1FB06
  5
1FB07
331
21263
  5
21263
331
212A2
  5
212A2
331
1193E
  5
11943
331
15722
  5
15722
331
11946
  5
1196A
331
119EB
  5
11A39
331
15732
  5
15732
331
212C9
  5
212C9
331
26C78
  5
26C7C
331
26C80
  5
26C84
331
28EDF
  5
29199
331
1573A
  5
1573A
331
18121
  5
18121
331
15742
  5
15742
331
1FAD7
  5
1FAD8
331
1FD2D
  5
1FD2E
331
21273
  5
21273
331
18131
  5
18131
331
1FADF
  5
1FAE0
331
1FB16
  5
1FB18
331
1FD35
  5
1FD36
331
18358
  5
18358
331
1FB1E
  5
1FB1F
331
1FD3D
  5
1FD3E
331
21283
  5
21283
331
1FAEF
  5
1FAF4
331
1FD45
  5
1FD47
331
2128B
  5
2128B
331
1196C
  5
11985
331
1192F
  5
11933
331
1571B
  5
1571B
331
212AA
  5
212AA
331
26C88
  5
26C8C
331
212B2
  5
212B2
331
27188
  5
2719D
331
212BA
  5
212BA
331
243D9
  5
243DC
331
212C2
  5
212C2
331
243E1
  5
24A05
331
27278
  5
27281
331
18141
  5
18141
331
18149
  5
18149
331
1FAF7
  5
1FAF8
331
1FD06
  5
1FD07
331
21293
  5
21293
331
18112
  5
18112
331
1FAB0
  5
1FAB0
331
1FAFF
  5
1FB00
331
1FD55
  5
1FD56
331
2129B
  5
2129B
331
1FB07
  5
1FB08
331
1FD1E
  5
1FD1F
331
1193F
  5
11944
331
15723
  5
15723
331
15733
  5
15733
331
26C79
  5
26C7D
331
26C81
  5
26C85
331
28EE0
  5
2919A
331
1573B
  5
1573B
331
18122
  5
18122
331
1812A
  5
1812A
331
1FAD8
  5
1FAD9
331
1FD2E
  5
1FD2F
331
1FAE0
  5
1FAE1
331
18132
  5
18132
331
1FD36
  5
1FD37
331
1813A
  5
1813A
331
1FB1F
  5
1FB20
331
1FD3E
  5
1FD3F
331
21284
  5
21284
331
1196D
  5
11986
331
211BD
  5
211BF
331
2128C
  5
2128C
331
11930
  5
11934
331
11985
  5
11989
331
1571C
  5
1571C
331
212AB
  5
212AB
331
26C89
  5
26C8D
331
212B3
  5
212B3
331
243D2
  5
243D5
331
27189
  5
271A0
331
212BB
  5
212BB
331
243DA
  5
243DD
331
212C3
  5
212C3
331
27279
  5
2727B
331
18142
  5
18142
331
1FAA1
  5
1FAA1
331
1814A
  5
1814A
331
1FAF8
  5
1FAF9
331
1FD07
  5
1FD0A
331
21294
  5
21294
331
18113
  5
18113
331
1FAB1
  5
1FAB1
331
1FB00
  5
1FB01
331
1FD56
  5
1FD57
331
1811B
  5
1811B
331
1FD5E
  5
1FD5F
331
11940
  5
11945
331
15724
  5
15724
331
1FD1F
  5
1FD2A
331
2126D
  5
2126D
331
11948
  5
1196B
331
1572C
  5
1572C
331
15734
  5
15734
331
26C72
  5
26C76
331
212D3
  5
212D3
331
26C7A
  5
26C7E
331
26C82
  5
26C86
331
1573C
  5
1573C
331
1FB08
  5
1FB09
331
1812B
  5
1812B
331
1FAD9
  5
1FADA
331
1FD2F
  5
1FD30
331
1FD66
  5
1FD67
331
18133
  5
18133
331
1FAE1
  5
1FAE5
331
1FB18
  5
1FB19
331
1FD37
  5
1FD38
331
1813B
  5
1813B
331
1FB20
  5
1FB21
331
1FD3F
  5
1FD40
331
21285
  5
21285
331
1FD47
  5
1FD4B
331
2128D
  5
2128D
331
11929
  5
1192D
331
11931
  5
11935
331
11986
  5
1198A
331
15715
  5
15715
331
1571D
  5
1571D
331
212AC
  5
212AC
331
26C8A
  5
26C8E
331
243D3
  5
243D6
331
2718A
  5
2719E
331
212BC
  5
212BC
331
243DB
  5
243DE
331
212C4
  5
212C4
331
2727A
  5
27282
331
18143
  5
18143
331
1FAA2
  5
1FAA2
331
1FAF9
  5
1FAFA
331
21295
  5
21295
331
18114
  5
18114
331
1FB01
  5
1FB02
331
1FD10
  5
1FD12
331
1FD57
  5
1FD58
331
2129D
  5
2129D
331
1811C
  5
1811C
331
1FD5F
  5
1FD60
331
212A5
  5
212A5
331
15725
  5
15725
331
2126E
  5
2126E
331
1572D
  5
1572D
331
15735
  5
15735
331
11A36
  5
11A49
331
26C73
  5
26C77
331
272B2
  5
2733D
331
212D4
  5
212D4
331
26C7B
  5
26C7F
331
26C83
  5
26C87
331
1573D
  5
1573D
331
18124
  5
18124
331
1FB09
  5
1FB0A
331
1812C
  5
1812C
331
1FADA
  5
1FADB
331
1FD30
  5
1FD31
331
1FD67
  5
1FD68
331
18134
  5
18134
331
18353
  5
18353
331
1FB19
  5
1FB1A
331
1FD38
  5
1FD39
331
21177
  5
1FAB3
331
2127E
  5
2127E
331
1813C
  5
1813C
331
1835B
  5
1835B
331
1FAEA
  5
1FAEB
331
1FD40
  5
1FD41
331
21286
  5
21286
331
211BF
  5
211BA
331
2128E
  5
2128E
331
1197F
  5
11987
331
11932
  5
11936
331
11987
  5
119A2
331
15716
  5
15716
331
1571E
  5
1571E
331
212AD
  5
212AD
331
26C8B
  5
26C8F
331
243D4
  5
243D7
331
212BD
  5
212BD
331
243DC
  5
243DF
331
212C5
  5
212C5
331
2727B
  5
27283
331
18144
  5
18144
331
1FAA3
  5
1FAA3
331
1814C
  5
1814C
331
1FAFA
  5
1FAFB
331
2122F
  5
2122E
331
21296
  5
21296
331
1FD58
  5
1FD59
331
18115
  5
18115
331
18154
  5
18154
331
1FAB3
  5
1FAB4
331
1FB02
  5
1FB03
331
2129E
  5
2129E
331
1811D
  5
1811D
331
21267
  5
21267
331
212A6
  5
212A6
331
15726
  5
15726
331
1572E
  5
1572E
331
F01B
  5
F01B
331
15736
  5
15736
331
26C74
  5
26C78
331
26C7C
  5
26C80
331
212DD
  5
212DD
331
26C84
  5
26C88
331
1573E
  5
1573E
331
18125
  5
18125
331
1FB0A
  5
1FB0B
331
1FD60
  5
1FD61
331
1FADB
  5
1FADC
331
1FD31
  5
1FD32
331
18135
  5
18135
331
1FB1A
  5
1FB1B
331
1FD39
  5
1FD3A
331
21178
  5
21178
331
2127F
  5
2127F
331
11968
  5
1196C
331
1813D
  5
1813D
331
1FAEB
  5
1FAEC
331
1FD41
  5
1FD42
331
211B8
  5
211B8
331
21287
  5
21287
331
2128F
  5
2128F
331
11980
  5
11988
331
11933
  5
1193E
331
11988
  5
119E6
331
15717
  5
15717
331
1571F
  5
1571F
331
212AE
  5
212AE
331
26C8C
  5
26C9A
331
243D5
  5
243D8
331
212BE
  5
212BE
331
243DD
  5
243E0
331
212C6
  5
212C6
  0
XRECORD
  5
2EE63
102
{ACAD_REACTORS
330
2EE61
102
}
330
2EE61
100
AcDbXrecord
280
     1
 40
1.570796326794896
  0
XRECORD
  5
2EE62
102
{ACAD_REACTORS
330
2EE61
102
}
330
2EE61
100
AcDbXrecord
280
     1
 70
     1
  0
LAYOUT
  5
22
102
{ACAD_XDICTIONARY
360
2EE66
102
}
102
{ACAD_REACTORS
330
1A
102
}
330
1A
100
AcDbPlotSettings
  1

  2
Brother HL-2270DW series
  4
A4
  6

 40
5.027082920074462
 41
5.027085781097412
 42
5.027069091796875
 43
5.027069091796875
 44
209.9733276367187
 45
296.9259948730469
 46
0.0
 47
2.661537163997991
 48
-19.26284375907214
 49
49.00000000000003
140
1132.737156240927
141
867.0
142
1.0
143
4.091653526698181
 70
 11956
 72
     1
 73
     1
 74
     4
  7
monochrome.ctb
 75
     0
147
0.244399970201525
148
19.26284375907214
149
-49.00000000000003
100
AcDbLayout
  1
Model
 70
     1
 71
     0
 10
0.0
 20
0.0
 11
12.0
 21
9.0
 12
0.0
 22
0.0
 32
0.0
 14
0.0
 24
0.0
 34
0.0
 15
0.0
 25
0.0
 35
0.0
146
0.0
 13
0.0
 23
0.0
 33
0.0
 16
1.0
 26
0.0
 36
0.0
 17
0.0
 27
1.0
 37
0.0
 76
     0
330
1F
331
2ED8B
1001
ACAD_PSEXT
1000
Brother HL-2270DW series
1000
Brother HL-2270DW series
1000
USB002
1000

1070
     0
  0
LAYOUT
  5
1E
102
{ACAD_XDICTIONARY
360
2EE64
102
}
102
{ACAD_REACTORS
330
1A
102
}
330
1A
100
AcDbPlotSettings
  1

  2
C:\PROGRAM FILES\AUTOCAD LT 2000I\plotters\HP DesignJet 430 A3.pc3
  4

  6

 40
0.0
 41
0.0
 42
0.0
 43
0.0
 44
0.0
 45
0.0
 46
0.0
 47
0.0
 48
0.0
 49
0.0
140
0.0
141
0.0
142
1.0
143
1.0
 70
   688
 72
     0
 73
     0
 74
     5
  7
monochrome.ctb
 75
    16
147
1.0
148
0.0
149
0.0
100
AcDbLayout
  1
ﾚｲｱｳﾄ1
 70
     0
 71
     1
 10
0.0
 20
0.0
 11
420.0
 21
297.0
 12
0.0
 22
0.0
 32
0.0
 14
1.000000000000000E+20
 24
1.000000000000000E+20
 34
1.000000000000000E+20
 15
-1.000000000000000E+20
 25
-1.000000000000000E+20
 35
-1.000000000000000E+20
146
0.0
 13
0.0
 23
0.0
 33
0.0
 16
1.0
 26
0.0
 36
0.0
 17
0.0
 27
1.0
 37
0.0
 76
     0
330
1B
  0
LAYOUT
  5
26
102
{ACAD_XDICTIONARY
360
2EE68
102
}
102
{ACAD_REACTORS
330
1A
102
}
330
1A
100
AcDbPlotSettings
  1

  2
C:\PROGRAM FILES\AUTOCAD LT 2000I\plotters\HP DesignJet 430 A3.pc3
  4

  6

 40
0.0
 41
0.0
 42
0.0
 43
0.0
 44
0.0
 45
0.0
 46
0.0
 47
0.0
 48
0.0
 49
0.0
140
0.0
141
0.0
142
1.0
143
1.0
 70
   688
 72
     0
 73
     0
 74
     5
  7
monochrome.ctb
 75
    16
147
1.0
148
0.0
149
0.0
100
AcDbLayout
  1
ﾚｲｱｳﾄ2
 70
     1
 71
     2
 10
0.0
 20
0.0
 11
12.0
 21
9.0
 12
0.0
 22
0.0
 32
0.0
 14
0.0
 24
0.0
 34
0.0
 15
0.0
 25
0.0
 35
0.0
146
0.0
 13
0.0
 23
0.0
 33
0.0
 16
1.0
 26
0.0
 36
0.0
 17
0.0
 27
1.0
 37
0.0
 76
     0
330
23
  0
MATERIAL
  5
9C6A
102
{ACAD_XDICTIONARY
360
9C6B
102
}
102
{ACAD_REACTORS
330
9C61
102
}
330
9C61
100
AcDbMaterial
  1
ByBlock
 72
     0
 43
0.0008202099737533
 43
0.0
 43
0.0
 43
0.0
 43
0.0
 43
0.0008202099737533
 43
0.0
 43
0.0
 43
0.0
 43
0.0
 43
1.0
 43
0.0
 43
0.0
 43
0.0
 43
0.0
 43
1.0
 77
     0
 47
0.0008202099737533
 47
0.0
 47
0.0
 47
0.0
 47
0.0
 47
0.0008202099737533
 47
0.0
 47
0.0
 47
0.0
 47
0.0
 47
1.0
 47
0.0
 47
0.0
 47
0.0
 47
0.0
 47
1.0
171
     0
 49
0.0008202099737533
 49
0.0
 49
0.0
 49
0.0
 49
0.0
 49
0.0008202099737533
 49
0.0
 49
0.0
 49
0.0
 49
0.0
 49
1.0
 49
0.0
 49
0.0
 49
0.0
 49
0.0
 49
1.0
175
     0
142
0.0008202099737533
142
0.0
142
0.0
142
0.0
142
0.0
142
0.0008202099737533
142
0.0
142
0.0
142
0.0
142
0.0
142
1.0
142
0.0
142
0.0
142
0.0
142
0.0
142
1.0
179
     0
144
0.0008202099737533
144
0.0
144
0.0
144
0.0
144
0.0
144
0.0008202099737533
144
0.0
144
0.0
144
0.0
144
0.0
144
1.0
144
0.0
144
0.0
144
0.0
144
0.0
144
1.0
147
0.0008202099737533
147
0.0
147
0.0
147
0.0
147
0.0
147
0.0008202099737533
147
0.0
147
0.0
147
0.0
147
0.0
147
1.0
147
0.0
147
0.0
147
0.0
147
0.0
147
1.0
  0
MATERIAL
  5
9C62
102
{ACAD_XDICTIONARY
360
9C63
102
}
102
{ACAD_REACTORS
330
9C61
102
}
330
9C61
100
AcDbMaterial
  1
ByLayer
 72
     0
 43
0.0008202099737533
 43
0.0
 43
0.0
 43
0.0
 43
0.0
 43
0.0008202099737533
 43
0.0
 43
0.0
 43
0.0
 43
0.0
 43
1.0
 43
0.0
 43
0.0
 43
0.0
 43
0.0
 43
1.0
 77
     0
 47
0.0008202099737533
 47
0.0
 47
0.0
 47
0.0
 47
0.0
 47
0.0008202099737533
 47
0.0
 47
0.0
 47
0.0
 47
0.0
 47
1.0
 47
0.0
 47
0.0
 47
0.0
 47
0.0
 47
1.0
171
     0
 49
0.0008202099737533
 49
0.0
 49
0.0
 49
0.0
 49
0.0
 49
0.0008202099737533
 49
0.0
 49
0.0
 49
0.0
 49
0.0
 49
1.0
 49
0.0
 49
0.0
 49
0.0
 49
0.0
 49
1.0
175
     0
142
0.0008202099737533
142
0.0
142
0.0
142
0.0
142
0.0
142
0.0008202099737533
142
0.0
142
0.0
142
0.0
142
0.0
142
1.0
142
0.0
142
0.0
142
0.0
142
0.0
142
1.0
179
     0
144
0.0008202099737533
144
0.0
144
0.0
144
0.0
144
0.0
144
0.0008202099737533
144
0.0
144
0.0
144
0.0
144
0.0
144
1.0
144
0.0
144
0.0
144
0.0
144
0.0
144
1.0
147
0.0008202099737533
147
0.0
147
0.0
147
0.0
147
0.0
147
0.0008202099737533
147
0.0
147
0.0
147
0.0
147
0.0
147
1.0
147
0.0
147
0.0
147
0.0
147
0.0
147
1.0
  0
MATERIAL
  5
9C72
102
{ACAD_XDICTIONARY
360
9C73
102
}
102
{ACAD_REACTORS
330
9C61
102
}
330
9C61
100
AcDbMaterial
  1
Global
 72
     0
 43
0.0008202099737533
 43
0.0
 43
0.0
 43
0.0
 43
0.0
 43
0.0008202099737533
 43
0.0
 43
0.0
 43
0.0
 43
0.0
 43
1.0
 43
0.0
 43
0.0
 43
0.0
 43
0.0
 43
1.0
 77
     0
 47
0.0008202099737533
 47
0.0
 47
0.0
 47
0.0
 47
0.0
 47
0.0008202099737533
 47
0.0
 47
0.0
 47
0.0
 47
0.0
 47
1.0
 47
0.0
 47
0.0
 47
0.0
 47
0.0
 47
1.0
171
     0
 49
0.0008202099737533
 49
0.0
 49
0.0
 49
0.0
 49
0.0
 49
0.0008202099737533
 49
0.0
 49
0.0
 49
0.0
 49
0.0
 49
1.0
 49
0.0
 49
0.0
 49
0.0
 49
0.0
 49
1.0
175
     0
142
0.0008202099737533
142
0.0
142
0.0
142
0.0
142
0.0
142
0.0008202099737533
142
0.0
142
0.0
142
0.0
142
0.0
142
1.0
142
0.0
142
0.0
142
0.0
142
0.0
142
1.0
179
     0
144
0.0008202099737533
144
0.0
144
0.0
144
0.0
144
0.0
144
0.0008202099737533
144
0.0
144
0.0
144
0.0
144
0.0
144
1.0
144
0.0
144
0.0
144
0.0
144
0.0
144
1.0
147
0.0008202099737533
147
0.0
147
0.0
147
0.0
147
0.0
147
0.0008202099737533
147
0.0
147
0.0
147
0.0
147
0.0
147
1.0
147
0.0
147
0.0
147
0.0
147
0.0
147
1.0
  0
MLEADERSTYLE
  5
9CB1
102
{ACAD_REACTORS
330
9CB0
102
}
330
9CB0
100
AcDbMLeaderStyle
170
     2
171
     1
172
     0
 90
        2
 40
0.0
 41
0.0
173
     1
 91
-1056964608
340
14
 92
       -2
290
     1
 42
2.0
291
     1
 43
0.36
  3
Standard
 44
4.0
300

342
11
174
     1
178
     6
175
     1
176
     0
 93
-1056964608
 45
4.0
292
     0
297
     0
 46
4.0
 94
-1056964608
 47
1.0
 49
1.0
140
1.0
293
     1
141
0.0
294
     1
177
     0
142
1.0
295
     0
296
     0
143
0.125
1001
ACAD_MLEADERVER
1070
     2
  0
MLINESTYLE
  5
18
102
{ACAD_REACTORS
330
17
102
}
330
17
100
AcDbMlineStyle
  2
STANDARD
 70
     0
  3

 62
   256
 51
90.0
 52
90.0
 71
     2
 49
0.5
 62
   256
  6
BYLAYER
 49
-0.5
 62
   256
  6
BYLAYER
  0
ACDBPLACEHOLDER
  5
F
102
{ACAD_REACTORS
330
E
102
}
330
E
  0
SCALE
  5
2EB88
102
{ACAD_REACTORS
330
9C8E
102
}
330
9C8E
100
AcDbScale
 70
     0
300
1/128" = 1'-0"_XREF
140
0.0078125
141
12.0
290
     0
  0
SCALE
  5
2EBD7
102
{ACAD_REACTORS
330
9C8E
102
}
330
9C8E
100
AcDbScale
 70
     0
300
1:100_2_2
140
1.0
141
100.0
290
     0
  0
SCALE
  5
2EC2E
102
{ACAD_REACTORS
330
9C8E
102
}
330
9C8E
100
AcDbScale
 70
     0
300
1:1_12_2
140
1.0
141
0.001
290
     0
  0
SCALE
  5
2EC58
102
{ACAD_REACTORS
330
9C8E
102
}
330
9C8E
100
AcDbScale
 70
     0
300
1:2_8
140
1.0
141
2.0
290
     0
  0
SCALE
  5
2ECEB
102
{ACAD_REACTORS
330
9C8E
102
}
330
9C8E
100
AcDbScale
 70
     0
300
1:20_2_6
140
1.0
141
20.0
290
     0
  0
SCALE
  5
2EC2F
102
{ACAD_REACTORS
330
9C8E
102
}
330
9C8E
100
AcDbScale
 70
     0
300
1/32" = 1'-0"_2
140
0.03
141
12.0
290
     0
  0
SCALE
  5
2EC30
102
{ACAD_REACTORS
330
9C8E
102
}
330
9C8E
100
AcDbScale
 70
     0
300
1:10_2_4
140
1.0
141
10.0
290
     0
  0
SCALE
  5
2EB98
102
{ACAD_REACTORS
330
9C8E
102
}
330
9C8E
100
AcDbScale
 70
     0
300
1:2_2_9
140
1.0
141
0.002
290
     0
  0
SCALE
  5
2EBF0
102
{ACAD_REACTORS
330
9C8E
102
}
330
9C8E
100
AcDbScale
 70
     0
300
1:8_XREF
140
1.0
141
8.0
290
     0
  0
SCALE
  5
2EC31
102
{ACAD_REACTORS
330
9C8E
102
}
330
9C8E
100
AcDbScale
 70
     0
300
8:1_XREF
140
8.0
141
1.0
290
     0
  0
SCALE
  5
2EB9D
102
{ACAD_REACTORS
330
9C8E
102
}
330
9C8E
100
AcDbScale
 70
     0
300
1:50_2_8
140
1.0
141
0.05
290
     0
  0
SCALE
  5
2EC32
102
{ACAD_REACTORS
330
9C8E
102
}
330
9C8E
100
AcDbScale
 70
     0
300
1:5_1
140
1.0
141
0.005
290
     0
  0
SCALE
  5
2EC0E
102
{ACAD_REACTORS
330
9C8E
102
}
330
9C8E
100
AcDbScale
 70
     0
300
1:100_1_6
140
1.0
141
100.0
290
     0
  0
SCALE
  5
2EC33
102
{ACAD_REACTORS
330
9C8E
102
}
330
9C8E
100
AcDbScale
 70
     0
300
1/64" = 1'-0"_XREF
140
0.015625
141
12.0
290
     0
  0
SCALE
  5
2EC34
102
{ACAD_REACTORS
330
9C8E
102
}
330
9C8E
100
AcDbScale
 70
     0
300
1:10_3_3
140
1.0
141
0.01
290
     0
  0
SCALE
  5
2ECE0
102
{ACAD_REACTORS
330
9C8E
102
}
330
9C8E
100
AcDbScale
 70
     0
300
1:5_7_2
140
1.0
141
0.005
290
     0
  0
SCALE
  5
2ED24
102
{ACAD_REACTORS
330
9C8E
102
}
330
9C8E
100
AcDbScale
 70
     0
300
1:5_3_2
140
1.0
141
0.005
290
     0
  0
SCALE
  5
2EBF3
102
{ACAD_REACTORS
330
9C8E
102
}
330
9C8E
100
AcDbScale
 70
     0
300
1:2_1_8
140
1.0
141
2.0
290
     0
  0
SCALE
  5
2ECEC
102
{ACAD_REACTORS
330
9C8E
102
}
330
9C8E
100
AcDbScale
 70
     0
300
1:100_8_1
140
1.0
141
0.1
290
     0
  0
SCALE
  5
2EC35
102
{ACAD_REACTORS
330
9C8E
102
}
330
9C8E
100
AcDbScale
 70
     0
300
1:100_1
140
1.0
141
0.1
290
     0
  0
SCALE
  5
2EC36
102
{ACAD_REACTORS
330
9C8E
102
}
330
9C8E
100
AcDbScale
 70
     0
300
3/16" = 1'-0"_XREF
140
0.1875
141
12.0
290
     0
  0
SCALE
  5
2EC37
102
{ACAD_REACTORS
330
9C8E
102
}
330
9C8E
100
AcDbScale
 70
     0
300
1:50_2_7_1
140
1.0
141
50.0
290
     0
  0
SCALE
  5
2EC38
102
{ACAD_REACTORS
330
9C8E
102
}
330
9C8E
100
AcDbScale
 70
     0
300
1:1_1_8
140
1.0
141
1.0
290
     0
  0
SCALE
  5
2EBD8
102
{ACAD_REACTORS
330
9C8E
102
}
330
9C8E
100
AcDbScale
 70
     0
300
1:20_9
140
1.0
141
20.0
290
     0
  0
SCALE
  5
2EC39
102
{ACAD_REACTORS
330
9C8E
102
}
330
9C8E
100
AcDbScale
 70
     0
300
1:5_14
140
1.0
141
0.005
290
     0
  0
SCALE
  5
2EC3A
102
{ACAD_REACTORS
330
9C8E
102
}
330
9C8E
100
AcDbScale
 70
     0
300
1:1000_8
140
1.0
141
1.0
290
     0
  0
SCALE
  5
2EBF1
102
{ACAD_REACTORS
330
9C8E
102
}
330
9C8E
100
AcDbScale
 70
     0
300
1:1_6
140
1.0
141
1.0
290
     0
  0
SCALE
  5
2EC63
102
{ACAD_REACTORS
330
9C8E
102
}
330
9C8E
100
AcDbScale
 70
     0
300
1:10_9_1
140
1.0
141
0.01
290
     0
  0
SCALE
  5
2ED25
102
{ACAD_REACTORS
330
9C8E
102
}
330
9C8E
100
AcDbScale
 70
     0
300
1/8" = 1'-0"_XREF
140
0.125
141
12.0
290
     0
  0
SCALE
  5
2EB99
102
{ACAD_REACTORS
330
9C8E
102
}
330
9C8E
100
AcDbScale
 70
     0
300
1:20_7_2
140
1.0
141
0.02
290
     0
  0
SCALE
  5
2EC3B
102
{ACAD_REACTORS
330
9C8E
102
}
330
9C8E
100
AcDbScale
 70
     0
300
1:5_4_5
140
1.0
141
5.0
290
     0
  0
SCALE
  5
2EC52
102
{ACAD_REACTORS
330
9C8E
102
}
330
9C8E
100
AcDbScale
 70
     0
300
1:100_7_1
140
1.0
141
0.1
290
     0
  0
SCALE
  5
2ECAB
102
{ACAD_REACTORS
330
9C8E
102
}
330
9C8E
100
AcDbScale
 70
     0
300
3/8" = 1'-0"_XREF
140
0.375
141
12.0
290
     0
  0
SCALE
  5
2EC3C
102
{ACAD_REACTORS
330
9C8E
102
}
330
9C8E
100
AcDbScale
 70
     0
300
1:5_3_4
140
1.0
141
0.005
290
     0
  0
SCALE
  5
2EBB0
102
{ACAD_REACTORS
330
9C8E
102
}
330
9C8E
100
AcDbScale
 70
     0
300
1:2_14
140
1.0
141
0.002
290
     0
  0
SCALE
  5
2EC3D
102
{ACAD_REACTORS
330
9C8E
102
}
330
9C8E
100
AcDbScale
 70
     0
300
1:20_11_2
140
1.0
141
20.0
290
     0
  0
SCALE
  5
2EC3E
102
{ACAD_REACTORS
330
9C8E
102
}
330
9C8E
100
AcDbScale
 70
     0
300
1:10_1_2
140
1.0
141
10.0
290
     0
  0
SCALE
  5
2EC3F
102
{ACAD_REACTORS
330
9C8E
102
}
330
9C8E
100
AcDbScale
 70
     0
300
10:1_XREF
140
10.0
141
1.0
290
     0
  0
SCALE
  5
2EC40
102
{ACAD_REACTORS
330
9C8E
102
}
330
9C8E
100
AcDbScale
 70
     0
300
1:5_4_1_2
140
1.0
141
5.0
290
     0
  0
SCALE
  5
2EC41
102
{ACAD_REACTORS
330
9C8E
102
}
330
9C8E
100
AcDbScale
 70
     0
300
1:1000_1_5
140
1.0
141
1.0
290
     0
  0
SCALE
  5
2ED26
102
{ACAD_REACTORS
330
9C8E
102
}
330
9C8E
100
AcDbScale
 70
     0
300
1:1000
140
1.0
141
1000.0
290
     0
  0
SCALE
  5
2EC42
102
{ACAD_REACTORS
330
9C8E
102
}
330
9C8E
100
AcDbScale
 70
     0
300
1:50_11_2
140
1.0
141
50.0
290
     0
  0
SCALE
  5
2EC43
102
{ACAD_REACTORS
330
9C8E
102
}
330
9C8E
100
AcDbScale
 70
     0
300
1:1000_6
140
1.0
141
1.0
290
     0
  0
SCALE
  5
2EC64
102
{ACAD_REACTORS
330
9C8E
102
}
330
9C8E
100
AcDbScale
 70
     0
300
1:50_1_7
140
1.0
141
50.0
290
     0
  0
SCALE
  5
2ECDB
102
{ACAD_REACTORS
330
9C8E
102
}
330
9C8E
100
AcDbScale
 70
     0
300
1:20_XREF
140
1.0
141
20.0
290
     0
  0
SCALE
  5
2EBD9
102
{ACAD_REACTORS
330
9C8E
102
}
330
9C8E
100
AcDbScale
 70
     0
300
1:20_1_6
140
1.0
141
20.0
290
     0
  0
SCALE
  5
2ECED
102
{ACAD_REACTORS
330
9C8E
102
}
330
9C8E
100
AcDbScale
 70
     0
300
1:2_12_1
140
1.0
141
2.0
290
     0
  0
SCALE
  5
2EC65
102
{ACAD_REACTORS
330
9C8E
102
}
330
9C8E
100
AcDbScale
 70
     0
300
1:2_12_2
140
1.0
141
2.0
290
     0
  0
SCALE
  5
2ECAC
102
{ACAD_REACTORS
330
9C8E
102
}
330
9C8E
100
AcDbScale
 70
     0
300
1:1_3_4
140
1.0
141
0.001
290
     0
  0
SCALE
  5
2EC66
102
{ACAD_REACTORS
330
9C8E
102
}
330
9C8E
100
AcDbScale
 70
     0
300
1:200
140
1.0
141
200.0
290
     0
  0
SCALE
  5
2EBF5
102
{ACAD_REACTORS
330
9C8E
102
}
330
9C8E
100
AcDbScale
 70
     0
300
1:20_1_1
140
1.0
141
20.0
290
     0
  0
SCALE
  5
2EC67
102
{ACAD_REACTORS
330
9C8E
102
}
330
9C8E
100
AcDbScale
 70
     0
300
1:1_3_5
140
1.0
141
0.001
290
     0
  0
SCALE
  5
2ED27
102
{ACAD_REACTORS
330
9C8E
102
}
330
9C8E
100
AcDbScale
 70
     0
300
1:2_9
140
1.0
141
2.0
290
     0
  0
SCALE
  5
2EC68
102
{ACAD_REACTORS
330
9C8E
102
}
330
9C8E
100
AcDbScale
 70
     0
300
1:2_3
140
1.0
141
2.0
290
     0
  0
SCALE
  5
2EC69
102
{ACAD_REACTORS
330
9C8E
102
}
330
9C8E
100
AcDbScale
 70
     0
300
1:10_11_1
140
1.0
141
0.01
290
     0
  0
SCALE
  5
2EC45
102
{ACAD_REACTORS
330
9C8E
102
}
330
9C8E
100
AcDbScale
 70
     0
300
3" = 1'-0"_XREF
140
3.0
141
12.0
290
     0
  0
SCALE
  5
2EBDA
102
{ACAD_REACTORS
330
9C8E
102
}
330
9C8E
100
AcDbScale
 70
     0
300
1:10_12
140
1.0
141
0.01
290
     0
  0
SCALE
  5
2EC6A
102
{ACAD_REACTORS
330
9C8E
102
}
330
9C8E
100
AcDbScale
 70
     0
300
1:30_XREF
140
1.0
141
30.0
290
     0
  0
SCALE
  5
2EC6B
102
{ACAD_REACTORS
330
9C8E
102
}
330
9C8E
100
AcDbScale
 70
     0
300
1:1000_12
140
1.0
141
1000.0
290
     0
  0
SCALE
  5
2ECEE
102
{ACAD_REACTORS
330
9C8E
102
}
330
9C8E
100
AcDbScale
 70
     0
300
1:1_12
140
1.0
141
1.0
290
     0
  0
SCALE
  5
2EC6C
102
{ACAD_REACTORS
330
9C8E
102
}
330
9C8E
100
AcDbScale
 70
     0
300
1:10_2_7
140
1.0
141
10.0
290
     0
  0
SCALE
  5
2EB9E
102
{ACAD_REACTORS
330
9C8E
102
}
330
9C8E
100
AcDbScale
 70
     0
300
1:50_3_4
140
1.0
141
0.05
290
     0
  0
SCALE
  5
2ECAD
102
{ACAD_REACTORS
330
9C8E
102
}
330
9C8E
100
AcDbScale
 70
     0
300
1:500000
140
1.0
141
500.0
290
     0
  0
SCALE
  5
2EC6D
102
{ACAD_REACTORS
330
9C8E
102
}
330
9C8E
100
AcDbScale
 70
     0
300
1:20_12_1
140
1.0
141
0.02
290
     0
  0
SCALE
  5
2ECE2
102
{ACAD_REACTORS
330
9C8E
102
}
330
9C8E
100
AcDbScale
 70
     0
300
100:1_XREF
140
100.0
141
1.0
290
     0
  0
SCALE
  5
2EC6E
102
{ACAD_REACTORS
330
9C8E
102
}
330
9C8E
100
AcDbScale
 70
     0
300
1:10_1_1
140
1.0
141
10.0
290
     0
  0
SCALE
  5
2EC6F
102
{ACAD_REACTORS
330
9C8E
102
}
330
9C8E
100
AcDbScale
 70
     0
300
1:10_9_2
140
1.0
141
0.01
290
     0
  0
SCALE
  5
2EC99
102
{ACAD_REACTORS
330
9C8E
102
}
330
9C8E
100
AcDbScale
 70
     0
300
1:50_2_7_2
140
1.0
141
50.0
290
     0
  0
SCALE
  5
2EBF6
102
{ACAD_REACTORS
330
9C8E
102
}
330
9C8E
100
AcDbScale
 70
     0
300
1:50_1_5
140
1.0
141
50.0
290
     0
  0
SCALE
  5
2EC70
102
{ACAD_REACTORS
330
9C8E
102
}
330
9C8E
100
AcDbScale
 70
     0
300
1/32" = 1'-0"_1
140
0.03
141
12.0
290
     0
  0
SCALE
  5
2EC71
102
{ACAD_REACTORS
330
9C8E
102
}
330
9C8E
100
AcDbScale
 70
     0
300
1:20_1_2
140
1.0
141
20.0
290
     0
  0
SCALE
  5
2EC46
102
{ACAD_REACTORS
330
9C8E
102
}
330
9C8E
100
AcDbScale
 70
     0
300
1:50_5
140
1.0
141
50.0
290
     0
  0
SCALE
  5
2EC03
102
{ACAD_REACTORS
330
9C8E
102
}
330
9C8E
100
AcDbScale
 70
     0
300
1:15
140
1.0
141
15.0
290
     0
  0
SCALE
  5
2EC72
102
{ACAD_REACTORS
330
9C8E
102
}
330
9C8E
100
AcDbScale
 70
     0
300
1:5_11_1
140
1.0
141
5.0
290
     0
  0
SCALE
  5
2EC73
102
{ACAD_REACTORS
330
9C8E
102
}
330
9C8E
100
AcDbScale
 70
     0
300
1:20_1_5
140
1.0
141
20.0
290
     0
  0
SCALE
  5
2EC74
102
{ACAD_REACTORS
330
9C8E
102
}
330
9C8E
100
AcDbScale
 70
     0
300
1:100_2_3
140
1.0
141
100.0
290
     0
  0
SCALE
  5
2ED28
102
{ACAD_REACTORS
330
9C8E
102
}
330
9C8E
100
AcDbScale
 70
     0
300
1:50_1_1
140
1.0
141
50.0
290
     0
  0
SCALE
  5
2ECAE
102
{ACAD_REACTORS
330
9C8E
102
}
330
9C8E
100
AcDbScale
 70
     0
300
1:5_1_1
140
1.0
141
5.0
290
     0
  0
SCALE
  5
2ECE5
102
{ACAD_REACTORS
330
9C8E
102
}
330
9C8E
100
AcDbScale
 70
     0
300
1:1_4
140
1.0
141
1.0
290
     0
  0
SCALE
  5
2EC75
102
{ACAD_REACTORS
330
9C8E
102
}
330
9C8E
100
AcDbScale
 70
     0
300
1:10_1_4
140
1.0
141
10.0
290
     0
  0
SCALE
  5
2EC76
102
{ACAD_REACTORS
330
9C8E
102
}
330
9C8E
100
AcDbScale
 70
     0
300
1:100_11_1
140
1.0
141
100.0
290
     0
  0
SCALE
  5
2EB9F
102
{ACAD_REACTORS
330
9C8E
102
}
330
9C8E
100
AcDbScale
 70
     0
300
1:5_4_7
140
1.0
141
5.0
290
     0
  0
SCALE
  5
2EC77
102
{ACAD_REACTORS
330
9C8E
102
}
330
9C8E
100
AcDbScale
 70
     0
300
1:1_1
140
1.0
141
0.001
290
     0
  0
SCALE
  5
2EC78
102
{ACAD_REACTORS
330
9C8E
102
}
330
9C8E
100
AcDbScale
 70
     0
300
1:5_6
140
1.0
141
5.0
290
     0
  0
SCALE
  5
2EBF7
102
{ACAD_REACTORS
330
9C8E
102
}
330
9C8E
100
AcDbScale
 70
     0
300
1:10_2_1_2
140
1.0
141
10.0
290
     0
  0
SCALE
  5
2EBAB
102
{ACAD_REACTORS
330
9C8E
102
}
330
9C8E
100
AcDbScale
 70
     0
300
1:20_12_2
140
1.0
141
0.02
290
     0
  0
SCALE
  5
2EC79
102
{ACAD_REACTORS
330
9C8E
102
}
330
9C8E
100
AcDbScale
 70
     0
300
1:50_9
140
1.0
141
50.0
290
     0
  0
SCALE
  5
2EC47
102
{ACAD_REACTORS
330
9C8E
102
}
330
9C8E
100
AcDbScale
 70
     0
300
1:10_11
140
1.0
141
10.0
290
     0
  0
SCALE
  5
2ED29
102
{ACAD_REACTORS
330
9C8E
102
}
330
9C8E
100
AcDbScale
 70
     0
300
1:100_2_4
140
1.0
141
100.0
290
     0
  0
SCALE
  5
2EB92
102
{ACAD_REACTORS
330
9C8E
102
}
330
9C8E
100
AcDbScale
 70
     0
300
1:20_1_9
140
1.0
141
20.0
290
     0
  0
SCALE
  5
2EC7A
102
{ACAD_REACTORS
330
9C8E
102
}
330
9C8E
100
AcDbScale
 70
     0
300
1:50_13
140
1.0
141
0.05
290
     0
  0
SCALE
  5
2EC7B
102
{ACAD_REACTORS
330
9C8E
102
}
330
9C8E
100
AcDbScale
 70
     0
300
1:50_2_7
140
1.0
141
0.05
290
     0
  0
SCALE
  5
2EBFA
102
{ACAD_REACTORS
330
9C8E
102
}
330
9C8E
100
AcDbScale
 70
     0
300
1:1_1_1
140
1.0
141
1.0
290
     0
  0
SCALE
  5
2ECAF
102
{ACAD_REACTORS
330
9C8E
102
}
330
9C8E
100
AcDbScale
 70
     0
300
1:50_9_1
140
1.0
141
0.05
290
     0
  0
SCALE
  5
2EC7C
102
{ACAD_REACTORS
330
9C8E
102
}
330
9C8E
100
AcDbScale
 70
     0
300
1:10_2_3
140
1.0
141
10.0
290
     0
  0
SCALE
  5
2EC7D
102
{ACAD_REACTORS
330
9C8E
102
}
330
9C8E
100
AcDbScale
 70
     0
300
1:100_1_5
140
1.0
141
100.0
290
     0
  0
SCALE
  5
2EC7E
102
{ACAD_REACTORS
330
9C8E
102
}
330
9C8E
100
AcDbScale
 70
     0
300
1:5_11_3
140
1.0
141
5.0
290
     0
  0
SCALE
  5
2EC7F
102
{ACAD_REACTORS
330
9C8E
102
}
330
9C8E
100
AcDbScale
 70
     0
300
1:10_6
140
1.0
141
10.0
290
     0
  0
SCALE
  5
2ECEF
102
{ACAD_REACTORS
330
9C8E
102
}
330
9C8E
100
AcDbScale
 70
     0
300
1:50_1_4
140
1.0
141
50.0
290
     0
  0
SCALE
  5
2EC80
102
{ACAD_REACTORS
330
9C8E
102
}
330
9C8E
100
AcDbScale
 70
     0
300
1:1000_9
140
1.0
141
1.0
290
     0
  0
SCALE
  5
2ECA6
102
{ACAD_REACTORS
330
9C8E
102
}
330
9C8E
100
AcDbScale
 70
     0
300
1:20_3_4
140
1.0
141
0.02
290
     0
  0
SCALE
  5
2ED2A
102
{ACAD_REACTORS
330
9C8E
102
}
330
9C8E
100
AcDbScale
 70
     0
300
1-1/2" = 1'-0"_XREF
140
1.5
141
12.0
290
     0
  0
SCALE
  5
2EBA0
102
{ACAD_REACTORS
330
9C8E
102
}
330
9C8E
100
AcDbScale
 70
     0
300
1:10_12_1
140
1.0
141
10.0
290
     0
  0
SCALE
  5
2EC81
102
{ACAD_REACTORS
330
9C8E
102
}
330
9C8E
100
AcDbScale
 70
     0
300
1:10_2_8
140
1.0
141
0.01
290
     0
  0
SCALE
  5
2EBF8
102
{ACAD_REACTORS
330
9C8E
102
}
330
9C8E
100
AcDbScale
 70
     0
300
1:1_3_3
140
1.0
141
0.001
290
     0
  0
SCALE
  5
2EC48
102
{ACAD_REACTORS
330
9C8E
102
}
330
9C8E
100
AcDbScale
 70
     0
300
1:1_11
140
1.0
141
0.001
290
     0
  0
SCALE
  5
2EC82
102
{ACAD_REACTORS
330
9C8E
102
}
330
9C8E
100
AcDbScale
 70
     0
300
1:2_1_2
140
1.0
141
2.0
290
     0
  0
SCALE
  5
2EBFD
102
{ACAD_REACTORS
330
9C8E
102
}
330
9C8E
100
AcDbScale
 70
     0
300
1:50_1_6
140
1.0
141
50.0
290
     0
  0
SCALE
  5
2EC83
102
{ACAD_REACTORS
330
9C8E
102
}
330
9C8E
100
AcDbScale
 70
     0
300
1:20_11_3
140
1.0
141
20.0
290
     0
  0
SCALE
  5
2EC84
102
{ACAD_REACTORS
330
9C8E
102
}
330
9C8E
100
AcDbScale
 70
     0
300
1:100_7_2
140
1.0
141
0.1
290
     0
  0
SCALE
  5
2EC85
102
{ACAD_REACTORS
330
9C8E
102
}
330
9C8E
100
AcDbScale
 70
     0
300
1:2_7_2
140
1.0
141
0.002
290
     0
  0
SCALE
  5
2ED20
102
{ACAD_REACTORS
330
9C8E
102
}
330
9C8E
100
AcDbScale
 70
     0
300
1:50_3
140
1.0
141
50.0
290
     0
  0
SCALE
  5
2EBDB
102
{ACAD_REACTORS
330
9C8E
102
}
330
9C8E
100
AcDbScale
 70
     0
300
1:1000_2
140
1.0
141
1.0
290
     0
  0
SCALE
  5
2EC4B
102
{ACAD_REACTORS
330
9C8E
102
}
330
9C8E
100
AcDbScale
 70
     0
300
1:50_10
140
1.0
141
50.0
290
     0
  0
SCALE
  5
2EBB1
102
{ACAD_REACTORS
330
9C8E
102
}
330
9C8E
100
AcDbScale
 70
     0
300
1:5_12
140
1.0
141
5.0
290
     0
  0
SCALE
  5
2EC86
102
{ACAD_REACTORS
330
9C8E
102
}
330
9C8E
100
AcDbScale
 70
     0
300
1:2_1
140
1.0
141
0.002
290
     0
  0
SCALE
  5
2EC87
102
{ACAD_REACTORS
330
9C8E
102
}
330
9C8E
100
AcDbScale
 70
     0
300
6" = 1'-0"_XREF
140
6.0
141
12.0
290
     0
  0
SCALE
  5
2EC88
102
{ACAD_REACTORS
330
9C8E
102
}
330
9C8E
100
AcDbScale
 70
     0
300
1:20_1_4
140
1.0
141
20.0
290
     0
  0
SCALE
  5
2EC89
102
{ACAD_REACTORS
330
9C8E
102
}
330
9C8E
100
AcDbScale
 70
     0
300
1:50_1_8
140
1.0
141
50.0
290
     0
  0
SCALE
  5
2EC8A
102
{ACAD_REACTORS
330
9C8E
102
}
330
9C8E
100
AcDbScale
 70
     0
300
1:50_7_1
140
1.0
141
0.05
290
     0
  0
SCALE
  5
2EBA1
102
{ACAD_REACTORS
330
9C8E
102
}
330
9C8E
100
AcDbScale
 70
     0
300
1:20_1_3
140
1.0
141
20.0
290
     0
  0
SCALE
  5
2EC49
102
{ACAD_REACTORS
330
9C8E
102
}
330
9C8E
100
AcDbScale
 70
     0
300
1:1_8_2
140
1.0
141
0.001
290
     0
  0
SCALE
  5
2ECB0
102
{ACAD_REACTORS
330
9C8E
102
}
330
9C8E
100
AcDbScale
 70
     0
300
1:5_4_1_1
140
1.0
141
5.0
290
     0
  0
SCALE
  5
2EBDC
102
{ACAD_REACTORS
330
9C8E
102
}
330
9C8E
100
AcDbScale
 70
     0
300
1:5_1_3
140
1.0
141
5.0
290
     0
  0
SCALE
  5
2EBF9
102
{ACAD_REACTORS
330
9C8E
102
}
330
9C8E
100
AcDbScale
 70
     0
300
1:5_4_3
140
1.0
141
5.0
290
     0
  0
SCALE
  5
2EC8B
102
{ACAD_REACTORS
330
9C8E
102
}
330
9C8E
100
AcDbScale
 70
     0
300
1:5_10_1
140
1.0
141
0.005
290
     0
  0
SCALE
  5
2ECA0
102
{ACAD_REACTORS
330
9C8E
102
}
330
9C8E
100
AcDbScale
 70
     0
300
1:50_1
140
1.0
141
0.05
290
     0
  0
SCALE
  5
2ECF0
102
{ACAD_REACTORS
330
9C8E
102
}
330
9C8E
100
AcDbScale
 70
     0
300
1:10_2_5
140
1.0
141
10.0
290
     0
  0
SCALE
  5
2EC8C
102
{ACAD_REACTORS
330
9C8E
102
}
330
9C8E
100
AcDbScale
 70
     0
300
1:10_10_2
140
1.0
141
0.01
290
     0
  0
SCALE
  5
2EC8D
102
{ACAD_REACTORS
330
9C8E
102
}
330
9C8E
100
AcDbScale
 70
     0
300
1:10_8
140
1.0
141
10.0
290
     0
  0
SCALE
  5
2EC8E
102
{ACAD_REACTORS
330
9C8E
102
}
330
9C8E
100
AcDbScale
 70
     0
300
1:10_2_1
140
1.0
141
0.01
290
     0
  0
SCALE
  5
2EC8F
102
{ACAD_REACTORS
330
9C8E
102
}
330
9C8E
100
AcDbScale
 70
     0
300
1:1_9_2
140
1.0
141
0.001
290
     0
  0
SCALE
  5
2EC90
102
{ACAD_REACTORS
330
9C8E
102
}
330
9C8E
100
AcDbScale
 70
     0
300
1:2_12
140
1.0
141
0.002
290
     0
  0
SCALE
  5
2EC91
102
{ACAD_REACTORS
330
9C8E
102
}
330
9C8E
100
AcDbScale
 70
     0
300
1:1_10
140
1.0
141
1.0
290
     0
  0
SCALE
  5
2EBDD
102
{ACAD_REACTORS
330
9C8E
102
}
330
9C8E
100
AcDbScale
 70
     0
300
1:100_3_2
140
1.0
141
0.1
290
     0
  0
SCALE
  5
2EC92
102
{ACAD_REACTORS
330
9C8E
102
}
330
9C8E
100
AcDbScale
 70
     0
300
1:100_6
140
1.0
141
100.0
290
     0
  0
SCALE
  5
2EC93
102
{ACAD_REACTORS
330
9C8E
102
}
330
9C8E
100
AcDbScale
 70
     0
300
1:100_1_2
140
1.0
141
100.0
290
     0
  0
SCALE
  5
2ECB1
102
{ACAD_REACTORS
330
9C8E
102
}
330
9C8E
100
AcDbScale
 70
     0
300
1:5_5
140
1.0
141
5.0
290
     0
  0
SCALE
  5
2ED1B
102
{ACAD_REACTORS
330
9C8E
102
}
330
9C8E
100
AcDbScale
 70
     0
300
1:1_11_1
140
1.0
141
1.0
290
     0
  0
SCALE
  5
2ED2B
102
{ACAD_REACTORS
330
9C8E
102
}
330
9C8E
100
AcDbScale
 70
     0
300
1/32" = 1'-0"_XREF
140
0.03125
141
12.0
290
     0
  0
SCALE
  5
2ECB2
102
{ACAD_REACTORS
330
9C8E
102
}
330
9C8E
100
AcDbScale
 70
     0
300
1:2_1_1
140
1.0
141
2.0
290
     0
  0
SCALE
  5
2ECF1
102
{ACAD_REACTORS
330
9C8E
102
}
330
9C8E
100
AcDbScale
 70
     0
300
1:50_8_2
140
1.0
141
0.05
290
     0
  0
SCALE
  5
2EB8A
102
{ACAD_REACTORS
330
9C8E
102
}
330
9C8E
100
AcDbScale
 70
     0
300
1:50_1_9
140
1.0
141
50.0
290
     0
  0
SCALE
  5
2EC4D
102
{ACAD_REACTORS
330
9C8E
102
}
330
9C8E
100
AcDbScale
 70
     0
300
1:1000_1_6
140
1.0
141
1.0
290
     0
  0
SCALE
  5
2EBA5
102
{ACAD_REACTORS
330
9C8E
102
}
330
9C8E
100
AcDbScale
 70
     0
300
1:50_3_1
140
1.0
141
0.05
290
     0
  0
SCALE
  5
2EBDE
102
{ACAD_REACTORS
330
9C8E
102
}
330
9C8E
100
AcDbScale
 70
     0
300
1:20_10
140
1.0
141
20.0
290
     0
  0
SCALE
  5
2ECB3
102
{ACAD_REACTORS
330
9C8E
102
}
330
9C8E
100
AcDbScale
 70
     0
300
1:20_8
140
1.0
141
20.0
290
     0
  0
SCALE
  5
2ECB4
102
{ACAD_REACTORS
330
9C8E
102
}
330
9C8E
100
AcDbScale
 70
     0
300
1:2_10_1
140
1.0
141
0.002
290
     0
  0
SCALE
  5
2EBA2
102
{ACAD_REACTORS
330
9C8E
102
}
330
9C8E
100
AcDbScale
 70
     0
300
1:20_1
140
1.0
141
0.02
290
     0
  0
SCALE
  5
2ECB5
102
{ACAD_REACTORS
330
9C8E
102
}
330
9C8E
100
AcDbScale
 70
     0
300
1:100_3_1
140
1.0
141
0.1
290
     0
  0
SCALE
  5
2ECB6
102
{ACAD_REACTORS
330
9C8E
102
}
330
9C8E
100
AcDbScale
 70
     0
300
1:2_2_2
140
1.0
141
2.0
290
     0
  0
SCALE
  5
2ED2C
102
{ACAD_REACTORS
330
9C8E
102
}
330
9C8E
100
AcDbScale
 70
     0
300
1:5_10_2
140
1.0
141
0.005
290
     0
  0
SCALE
  5
2ECB7
102
{ACAD_REACTORS
330
9C8E
102
}
330
9C8E
100
AcDbScale
 70
     0
300
1:100_2_7
140
1.0
141
100.0
290
     0
  0
SCALE
  5
2EBFE
102
{ACAD_REACTORS
330
9C8E
102
}
330
9C8E
100
AcDbScale
 70
     0
300
1:5_11_2
140
1.0
141
5.0
290
     0
  0
SCALE
  5
2ECF2
102
{ACAD_REACTORS
330
9C8E
102
}
330
9C8E
100
AcDbScale
 70
     0
300
1:100_2_1
140
1.0
141
0.1
290
     0
  0
SCALE
  5
2ECB8
102
{ACAD_REACTORS
330
9C8E
102
}
330
9C8E
100
AcDbScale
 70
     0
300
1:20_1_7
140
1.0
141
20.0
290
     0
  0
SCALE
  5
2ED21
102
{ACAD_REACTORS
330
9C8E
102
}
330
9C8E
100
AcDbScale
 70
     0
300
1:20_2
140
1.0
141
20.0
290
     0
  0
SCALE
  5
2ECB9
102
{ACAD_REACTORS
330
9C8E
102
}
330
9C8E
100
AcDbScale
 70
     0
300
1:1000_5
140
1.0
141
1000.0
290
     0
  0
SCALE
  5
2ECBA
102
{ACAD_REACTORS
330
9C8E
102
}
330
9C8E
100
AcDbScale
 70
     0
300
3/16" = 1'-0"_2
140
0.19
141
12.0
290
     0
  0
SCALE
  5
2EC4E
102
{ACAD_REACTORS
330
9C8E
102
}
330
9C8E
100
AcDbScale
 70
     0
300
1:5_4_6
140
1.0
141
5.0
290
     0
  0
SCALE
  5
2ECBB
102
{ACAD_REACTORS
330
9C8E
102
}
330
9C8E
100
AcDbScale
 70
     0
300
1:3_XREF_XREF
140
1.0
141
3.0
290
     0
  0
SCALE
  5
2ECBC
102
{ACAD_REACTORS
330
9C8E
102
}
330
9C8E
100
AcDbScale
 70
     0
300
1:10_9
140
1.0
141
10.0
290
     0
  0
SCALE
  5
2EC95
102
{ACAD_REACTORS
330
9C8E
102
}
330
9C8E
100
AcDbScale
 70
     0
300
1:10_12_2
140
1.0
141
10.0
290
     0
  0
SCALE
  5
2EB9C
102
{ACAD_REACTORS
330
9C8E
102
}
330
9C8E
100
AcDbScale
 70
     0
300
1:100_11_2
140
1.0
141
100.0
290
     0
  0
SCALE
  5
2EBA6
102
{ACAD_REACTORS
330
9C8E
102
}
330
9C8E
100
AcDbScale
 70
     0
300
1:50_4
140
1.0
141
50.0
290
     0
  0
SCALE
  5
2ECBD
102
{ACAD_REACTORS
330
9C8E
102
}
330
9C8E
100
AcDbScale
 70
     0
300
1:50_11_1
140
1.0
141
50.0
290
     0
  0
SCALE
  5
2ECBE
102
{ACAD_REACTORS
330
9C8E
102
}
330
9C8E
100
AcDbScale
 70
     0
300
1:1_2
140
1.0
141
1.0
290
     0
  0
SCALE
  5
2EBDF
102
{ACAD_REACTORS
330
9C8E
102
}
330
9C8E
100
AcDbScale
 70
     0
300
1:100_11_3
140
1.0
141
100.0
290
     0
  0
SCALE
  5
2ECF3
102
{ACAD_REACTORS
330
9C8E
102
}
330
9C8E
100
AcDbScale
 70
     0
300
1:20_2_1_2
140
1.0
141
20.0
290
     0
  0
SCALE
  5
2ECBF
102
{ACAD_REACTORS
330
9C8E
102
}
330
9C8E
100
AcDbScale
 70
     0
300
1:1_5
140
1.0
141
1.0
290
     0
  0
SCALE
  5
2ECC0
102
{ACAD_REACTORS
330
9C8E
102
}
330
9C8E
100
AcDbScale
 70
     0
300
1:5_13
140
1.0
141
0.005
290
     0
  0
SCALE
  5
2EB93
102
{ACAD_REACTORS
330
9C8E
102
}
330
9C8E
100
AcDbScale
 70
     0
300
1:5_1_7
140
1.0
141
5.0
290
     0
  0
SCALE
  5
2ECC1
102
{ACAD_REACTORS
330
9C8E
102
}
330
9C8E
100
AcDbScale
 70
     0
300
1:1000_5_1_1_1
140
1.0
141
1.0
290
     0
  0
SCALE
  5
2ECC2
102
{ACAD_REACTORS
330
9C8E
102
}
330
9C8E
100
AcDbScale
 70
     0
300
1/2" = 1'-0"_XREF
140
0.5
141
12.0
290
     0
  0
SCALE
  5
2EB89
102
{ACAD_REACTORS
330
9C8E
102
}
330
9C8E
100
AcDbScale
 70
     0
300
1:1_1_9
140
1.0
141
1.0
290
     0
  0
SCALE
  5
2EC09
102
{ACAD_REACTORS
330
9C8E
102
}
330
9C8E
100
AcDbScale
 70
     0
300
1:2_7
140
1.0
141
2.0
290
     0
  0
SCALE
  5
2ECC3
102
{ACAD_REACTORS
330
9C8E
102
}
330
9C8E
100
AcDbScale
 70
     0
300
1:2_11_1
140
1.0
141
0.002
290
     0
  0
SCALE
  5
2EC96
102
{ACAD_REACTORS
330
9C8E
102
}
330
9C8E
100
AcDbScale
 70
     0
300
3/8" = 1'-0"_2
140
0.38
141
12.0
290
     0
  0
SCALE
  5
2EBE0
102
{ACAD_REACTORS
330
9C8E
102
}
330
9C8E
100
AcDbScale
 70
     0
300
1:5_1_5
140
1.0
141
5.0
290
     0
  0
SCALE
  5
2ECC4
102
{ACAD_REACTORS
330
9C8E
102
}
330
9C8E
100
AcDbScale
 70
     0
300
1:2_10_2
140
1.0
141
0.002
290
     0
  0
SCALE
  5
2ECC5
102
{ACAD_REACTORS
330
9C8E
102
}
330
9C8E
100
AcDbScale
 70
     0
300
1:2_2_1
140
1.0
141
2.0
290
     0
  0
SCALE
  5
2EC50
102
{ACAD_REACTORS
330
9C8E
102
}
330
9C8E
100
AcDbScale
 70
     0
300
1:50_12_2
140
1.0
141
0.05
290
     0
  0
SCALE
  5
2ECF4
102
{ACAD_REACTORS
330
9C8E
102
}
330
9C8E
100
AcDbScale
 70
     0
300
1:10_2_2
140
1.0
141
10.0
290
     0
  0
SCALE
  5
2ECC6
102
{ACAD_REACTORS
330
9C8E
102
}
330
9C8E
100
AcDbScale
 70
     0
300
1:20_2_7
140
1.0
141
20.0
290
     0
  0
SCALE
  5
2EBA7
102
{ACAD_REACTORS
330
9C8E
102
}
330
9C8E
100
AcDbScale
 70
     0
300
1:5_1_8
140
1.0
141
5.0
290
     0
  0
SCALE
  5
2ECC7
102
{ACAD_REACTORS
330
9C8E
102
}
330
9C8E
100
AcDbScale
 70
     0
300
1:50_10_1
140
1.0
141
0.05
290
     0
  0
SCALE
  5
2ECC8
102
{ACAD_REACTORS
330
9C8E
102
}
330
9C8E
100
AcDbScale
 70
     0
300
1:5_4_8
140
1.0
141
0.005
290
     0
  0
SCALE
  5
2ED2D
102
{ACAD_REACTORS
330
9C8E
102
}
330
9C8E
100
AcDbScale
 70
     0
300
1:2_9_2
140
1.0
141
0.002
290
     0
  0
SCALE
  5
2ECC9
102
{ACAD_REACTORS
330
9C8E
102
}
330
9C8E
100
AcDbScale
 70
     0
300
1:1_1_2
140
1.0
141
1.0
290
     0
  0
SCALE
  5
2EB90
102
{ACAD_REACTORS
330
9C8E
102
}
330
9C8E
100
AcDbScale
 70
     0
300
1:20_6
140
1.0
141
20.0
290
     0
  0
SCALE
  5
2EBFF
102
{ACAD_REACTORS
330
9C8E
102
}
330
9C8E
100
AcDbScale
 70
     0
300
1:2_11_2
140
1.0
141
0.002
290
     0
  0
SCALE
  5
2ECCA
102
{ACAD_REACTORS
330
9C8E
102
}
330
9C8E
100
AcDbScale
 70
     0
300
1:20_2_5
140
1.0
141
20.0
290
     0
  0
SCALE
  5
2EB9B
102
{ACAD_REACTORS
330
9C8E
102
}
330
9C8E
100
AcDbScale
 70
     0
300
1:1_13
140
1.0
141
0.001
290
     0
  0
SCALE
  5
2EC97
102
{ACAD_REACTORS
330
9C8E
102
}
330
9C8E
100
AcDbScale
 70
     0
300
1:50_XREF
140
1.0
141
50.0
290
     0
  0
SCALE
  5
2ECCB
102
{ACAD_REACTORS
330
9C8E
102
}
330
9C8E
100
AcDbScale
 70
     0
300
1:50_1_3
140
1.0
141
50.0
290
     0
  0
SCALE
  5
2EC53
102
{ACAD_REACTORS
330
9C8E
102
}
330
9C8E
100
AcDbScale
 70
     0
300
1:4_XREF
140
1.0
141
4.0
290
     0
  0
SCALE
  5
2ECCC
102
{ACAD_REACTORS
330
9C8E
102
}
330
9C8E
100
AcDbScale
 70
     0
300
1:1_11_3
140
1.0
141
1.0
290
     0
  0
SCALE
  5
2ECCD
102
{ACAD_REACTORS
330
9C8E
102
}
330
9C8E
100
AcDbScale
 70
     0
300
1:20_2_3
140
1.0
141
20.0
290
     0
  0
SCALE
  5
2ECCE
102
{ACAD_REACTORS
330
9C8E
102
}
330
9C8E
100
AcDbScale
 70
     0
300
1:50_2_6
140
1.0
141
50.0
290
     0
  0
SCALE
  5
2EC9A
102
{ACAD_REACTORS
330
9C8E
102
}
330
9C8E
100
AcDbScale
 70
     0
300
1:10_4
140
1.0
141
10.0
290
     0
  0
SCALE
  5
2EC0F
102
{ACAD_REACTORS
330
9C8E
102
}
330
9C8E
100
AcDbScale
 70
     0
300
1:100_3_3
140
1.0
141
0.1
290
     0
  0
SCALE
  5
2ECCF
102
{ACAD_REACTORS
330
9C8E
102
}
330
9C8E
100
AcDbScale
 70
     0
300
1:1000_1_2
140
1.0
141
1.0
290
     0
  0
SCALE
  5
2ECD0
102
{ACAD_REACTORS
330
9C8E
102
}
330
9C8E
100
AcDbScale
 70
     0
300
3/32" = 1'-0"_2
140
0.09
141
12.0
290
     0
  0
SCALE
  5
2EBA8
102
{ACAD_REACTORS
330
9C8E
102
}
330
9C8E
100
AcDbScale
 70
     0
300
1:2_2_4
140
1.0
141
2.0
290
     0
  0
SCALE
  5
2ECD1
102
{ACAD_REACTORS
330
9C8E
102
}
330
9C8E
100
AcDbScale
 70
     0
300
1:20_9_2
140
1.0
141
0.02
290
     0
  0
SCALE
  5
2ECD2
102
{ACAD_REACTORS
330
9C8E
102
}
330
9C8E
100
AcDbScale
 70
     0
300
1:5_3
140
1.0
141
5.0
290
     0
  0
SCALE
  5
2EC00
102
{ACAD_REACTORS
330
9C8E
102
}
330
9C8E
100
AcDbScale
 70
     0
300
1:50_12
140
1.0
141
50.0
290
     0
  0
SCALE
  5
2EC98
102
{ACAD_REACTORS
330
9C8E
102
}
330
9C8E
100
AcDbScale
 70
     0
300
1:5_7_1
140
1.0
141
0.005
290
     0
  0
SCALE
  5
2ECF5
102
{ACAD_REACTORS
330
9C8E
102
}
330
9C8E
100
AcDbScale
 70
     0
300
1:1_7_1
140
1.0
141
0.001
290
     0
  0
SCALE
  5
2EC4F
102
{ACAD_REACTORS
330
9C8E
102
}
330
9C8E
100
AcDbScale
 70
     0
300
1:20_3_2
140
1.0
141
0.02
290
     0
  0
SCALE
  5
2ECD3
102
{ACAD_REACTORS
330
9C8E
102
}
330
9C8E
100
AcDbScale
 70
     0
300
1:1000_1_4
140
1.0
141
1.0
290
     0
  0
SCALE
  5
2ECE6
102
{ACAD_REACTORS
330
9C8E
102
}
330
9C8E
100
AcDbScale
 70
     0
300
1:1000_5_1_1
140
1.0
141
1000.0
290
     0
  0
SCALE
  5
2ED2E
102
{ACAD_REACTORS
330
9C8E
102
}
330
9C8E
100
AcDbScale
 70
     0
300
1:2_8_1
140
1.0
141
0.002
290
     0
  0
SCALE
  5
2ECD4
102
{ACAD_REACTORS
330
9C8E
102
}
330
9C8E
100
AcDbScale
 70
     0
300
3/32" = 1'-0"_1
140
0.09
141
12.0
290
     0
  0
SCALE
  5
2ECD5
102
{ACAD_REACTORS
330
9C8E
102
}
330
9C8E
100
AcDbScale
 70
     0
300
1:10_12_3
140
1.0
141
10.0
290
     0
  0
SCALE
  5
2ECD6
102
{ACAD_REACTORS
330
9C8E
102
}
330
9C8E
100
AcDbScale
 70
     0
300
1:5_1_6
140
1.0
141
5.0
290
     0
  0
SCALE
  5
2ECD7
102
{ACAD_REACTORS
330
9C8E
102
}
330
9C8E
100
AcDbScale
 70
     0
300
3/4" = 1'-0"_XREF
140
0.75
141
12.0
290
     0
  0
SCALE
  5
2ECD8
102
{ACAD_REACTORS
330
9C8E
102
}
330
9C8E
100
AcDbScale
 70
     0
300
1:10_11_2
140
1.0
141
0.01
290
     0
  0
SCALE
  5
2ECD9
102
{ACAD_REACTORS
330
9C8E
102
}
330
9C8E
100
AcDbScale
 70
     0
300
1:10_5
140
1.0
141
10.0
290
     0
  0
SCALE
  5
2ECDA
102
{ACAD_REACTORS
330
9C8E
102
}
330
9C8E
100
AcDbScale
 70
     0
300
1/8" = 1'-0"_2
140
0.13
141
12.0
290
     0
  0
SCALE
  5
2EBA9
102
{ACAD_REACTORS
330
9C8E
102
}
330
9C8E
100
AcDbScale
 70
     0
300
1:2_1_5
140
1.0
141
2.0
290
     0
  0
SCALE
  5
2ECF6
102
{ACAD_REACTORS
330
9C8E
102
}
330
9C8E
100
AcDbScale
 70
     0
300
1:1_8_1
140
1.0
141
0.001
290
     0
  0
SCALE
  5
2EBD3
102
{ACAD_REACTORS
330
9C8E
102
}
330
9C8E
100
AcDbScale
 70
     0
300
1:1_14
140
1.0
141
0.001
290
     0
  0
SCALE
  5
2EBE1
102
{ACAD_REACTORS
330
9C8E
102
}
330
9C8E
100
AcDbScale
 70
     0
300
1'-0" = 1'-0"_XREF
140
12.0
141
12.0
290
     0
  0
SCALE
  5
2ECF7
102
{ACAD_REACTORS
330
9C8E
102
}
330
9C8E
100
AcDbScale
 70
     0
300
1:100_7
140
1.0
141
100.0
290
     0
  0
SCALE
  5
2ED2F
102
{ACAD_REACTORS
330
9C8E
102
}
330
9C8E
100
AcDbScale
 70
     0
300
1:5_4_1
140
1.0
141
0.005
290
     0
  0
SCALE
  5
2EBEB
102
{ACAD_REACTORS
330
9C8E
102
}
330
9C8E
100
AcDbScale
 70
     0
300
1:20_3_3
140
1.0
141
0.02
290
     0
  0
SCALE
  5
2EC9C
102
{ACAD_REACTORS
330
9C8E
102
}
330
9C8E
100
AcDbScale
 70
     0
300
1/16" = 1'-0"_2
140
0.06
141
12.0
290
     0
  0
SCALE
  5
2EC04
102
{ACAD_REACTORS
330
9C8E
102
}
330
9C8E
100
AcDbScale
 70
     0
300
1:20_11_1
140
1.0
141
20.0
290
     0
  0
SCALE
  5
2ECF8
102
{ACAD_REACTORS
330
9C8E
102
}
330
9C8E
100
AcDbScale
 70
     0
300
3/8" = 1'-0"_1
140
0.38
141
12.0
290
     0
  0
SCALE
  5
2EBAC
102
{ACAD_REACTORS
330
9C8E
102
}
330
9C8E
100
AcDbScale
 70
     0
300
1:1_3
140
1.0
141
1.0
290
     0
  0
SCALE
  5
2EC01
102
{ACAD_REACTORS
330
9C8E
102
}
330
9C8E
100
AcDbScale
 70
     0
300
1:10_10_1
140
1.0
141
0.01
290
     0
  0
SCALE
  5
2ECF9
102
{ACAD_REACTORS
330
9C8E
102
}
330
9C8E
100
AcDbScale
 70
     0
300
1:10_3_4
140
1.0
141
0.01
290
     0
  0
SCALE
  5
2ECFA
102
{ACAD_REACTORS
330
9C8E
102
}
330
9C8E
100
AcDbScale
 70
     0
300
1:2_10
140
1.0
141
2.0
290
     0
  0
SCALE
  5
2EBE2
102
{ACAD_REACTORS
330
9C8E
102
}
330
9C8E
100
AcDbScale
 70
     0
300
1:5_3_3
140
1.0
141
0.005
290
     0
  0
SCALE
  5
2ECFB
102
{ACAD_REACTORS
330
9C8E
102
}
330
9C8E
100
AcDbScale
 70
     0
300
1:2_3_4
140
1.0
141
0.002
290
     0
  0
SCALE
  5
2EC54
102
{ACAD_REACTORS
330
9C8E
102
}
330
9C8E
100
AcDbScale
 70
     0
300
1:1_12_1
140
1.0
141
0.001
290
     0
  0
SCALE
  5
2ED30
102
{ACAD_REACTORS
330
9C8E
102
}
330
9C8E
100
AcDbScale
 70
     0
300
1/16" = 1'-0"_1
140
0.06
141
12.0
290
     0
  0
SCALE
  5
2ECFC
102
{ACAD_REACTORS
330
9C8E
102
}
330
9C8E
100
AcDbScale
 70
     0
300
1/128" = 1'-0"_1
140
0.01
141
12.0
290
     0
  0
SCALE
  5
2ECFD
102
{ACAD_REACTORS
330
9C8E
102
}
330
9C8E
100
AcDbScale
 70
     0
300
1:10_13
140
1.0
141
0.01
290
     0
  0
SCALE
  5
2ECFE
102
{ACAD_REACTORS
330
9C8E
102
}
330
9C8E
100
AcDbScale
 70
     0
300
1:400
140
1.0
141
400.0
290
     0
  0
SCALE
  5
2EC9D
102
{ACAD_REACTORS
330
9C8E
102
}
330
9C8E
100
AcDbScale
 70
     0
300
1:2_12_3
140
1.0
141
2.0
290
     0
  0
SCALE
  5
2ECFF
102
{ACAD_REACTORS
330
9C8E
102
}
330
9C8E
100
AcDbScale
 70
     0
300
1:1_7_2
140
1.0
141
0.001
290
     0
  0
SCALE
  5
2ED00
102
{ACAD_REACTORS
330
9C8E
102
}
330
9C8E
100
AcDbScale
 70
     0
300
1/16" = 1'-0"_XREF
140
0.0625
141
12.0
290
     0
  0
SCALE
  5
2ECDC
102
{ACAD_REACTORS
330
9C8E
102
}
330
9C8E
100
AcDbScale
 70
     0
300
1:2_8_2
140
1.0
141
0.002
290
     0
  0
SCALE
  5
2EBFC
102
{ACAD_REACTORS
330
9C8E
102
}
330
9C8E
100
AcDbScale
 70
     0
300
1:20_7_1
140
1.0
141
0.02
290
     0
  0
SCALE
  5
2EC05
102
{ACAD_REACTORS
330
9C8E
102
}
330
9C8E
100
AcDbScale
 70
     0
300
1:20_8_1
140
1.0
141
0.02
290
     0
  0
SCALE
  5
2ED01
102
{ACAD_REACTORS
330
9C8E
102
}
330
9C8E
100
AcDbScale
 70
     0
300
1:5_12_1
140
1.0
141
0.005
290
     0
  0
SCALE
  5
2ED02
102
{ACAD_REACTORS
330
9C8E
102
}
330
9C8E
100
AcDbScale
 70
     0
300
1:1000_4_1
140
1.0
141
1.0
290
     0
  0
SCALE
  5
2ED31
102
{ACAD_REACTORS
330
9C8E
102
}
330
9C8E
100
AcDbScale
 70
     0
300
1:40_XREF
140
1.0
141
40.0
290
     0
  0
SCALE
  5
2EBAD
102
{ACAD_REACTORS
330
9C8E
102
}
330
9C8E
100
AcDbScale
 70
     0
300
1:100_2_1_1
140
1.0
141
100.0
290
     0
  0
SCALE
  5
2ED03
102
{ACAD_REACTORS
330
9C8E
102
}
330
9C8E
100
AcDbScale
 70
     0
300
1:100_1_1
140
1.0
141
100.0
290
     0
  0
SCALE
  5
2EBF4
102
{ACAD_REACTORS
330
9C8E
102
}
330
9C8E
100
AcDbScale
 70
     0
300
1:50_2_2
140
1.0
141
50.0
290
     0
  0
SCALE
  5
2ED04
102
{ACAD_REACTORS
330
9C8E
102
}
330
9C8E
100
AcDbScale
 70
     0
300
1:20_5
140
1.0
141
20.0
290
     0
  0
SCALE
  5
2ED05
102
{ACAD_REACTORS
330
9C8E
102
}
330
9C8E
100
AcDbScale
 70
     0
300
1:1000_1
140
1.0
141
1000.0
290
     0
  0
SCALE
  5
2EB91
102
{ACAD_REACTORS
330
9C8E
102
}
330
9C8E
100
AcDbScale
 70
     0
300
1:20_10_2
140
1.0
141
0.02
290
     0
  0
SCALE
  5
2EC5E
102
{ACAD_REACTORS
330
9C8E
102
}
330
9C8E
100
AcDbScale
 70
     0
300
1:100_10
140
1.0
141
100.0
290
     0
  0
SCALE
  5
2ED06
102
{ACAD_REACTORS
330
9C8E
102
}
330
9C8E
100
AcDbScale
 70
     0
300
1:50_11_3
140
1.0
141
50.0
290
     0
  0
SCALE
  5
2ECDD
102
{ACAD_REACTORS
330
9C8E
102
}
330
9C8E
100
AcDbScale
 70
     0
300
1:100_2_1_2
140
1.0
141
100.0
290
     0
  0
SCALE
  5
2ED07
102
{ACAD_REACTORS
330
9C8E
102
}
330
9C8E
100
AcDbScale
 70
     0
300
1:100_9
140
1.0
141
100.0
290
     0
  0
SCALE
  5
2ED08
102
{ACAD_REACTORS
330
9C8E
102
}
330
9C8E
100
AcDbScale
 70
     0
300
1:2_1_7
140
1.0
141
2.0
290
     0
  0
SCALE
  5
2EBA3
102
{ACAD_REACTORS
330
9C8E
102
}
330
9C8E
100
AcDbScale
 70
     0
300
1:50_8
140
1.0
141
50.0
290
     0
  0
SCALE
  5
2ED32
102
{ACAD_REACTORS
330
9C8E
102
}
330
9C8E
100
AcDbScale
 70
     0
300
1:1000_4
140
1.0
141
1000.0
290
     0
  0
SCALE
  5
2ED09
102
{ACAD_REACTORS
330
9C8E
102
}
330
9C8E
100
AcDbScale
 70
     0
300
1:10_3_5
140
1.0
141
0.01
290
     0
  0
SCALE
  5
2EC06
102
{ACAD_REACTORS
330
9C8E
102
}
330
9C8E
100
AcDbScale
 70
     0
300
1:100_12
140
1.0
141
100.0
290
     0
  0
SCALE
  5
2ED0A
102
{ACAD_REACTORS
330
9C8E
102
}
330
9C8E
100
AcDbScale
 70
     0
300
1:1_9
140
1.0
141
1.0
290
     0
  0
SCALE
  5
2ED0B
102
{ACAD_REACTORS
330
9C8E
102
}
330
9C8E
100
AcDbScale
 70
     0
300
1:1000_11
140
1.0
141
1.0
290
     0
  0
SCALE
  5
2EBE3
102
{ACAD_REACTORS
330
9C8E
102
}
330
9C8E
100
AcDbScale
 70
     0
300
1:6
140
1.0
141
6.0
290
     0
  0
SCALE
  5
2ED0C
102
{ACAD_REACTORS
330
9C8E
102
}
330
9C8E
100
AcDbScale
 70
     0
300
1:100_2_6
140
1.0
141
100.0
290
     0
  0
SCALE
  5
2EC55
102
{ACAD_REACTORS
330
9C8E
102
}
330
9C8E
100
AcDbScale
 70
     0
300
1:1000_5_1
140
1.0
141
1.0
290
     0
  0
SCALE
  5
2EBAE
102
{ACAD_REACTORS
330
9C8E
102
}
330
9C8E
100
AcDbScale
 70
     0
300
1:1_1_3
140
1.0
141
1.0
290
     0
  0
SCALE
  5
2EBFB
102
{ACAD_REACTORS
330
9C8E
102
}
330
9C8E
100
AcDbScale
 70
     0
300
1:5_7
140
1.0
141
5.0
290
     0
  0
SCALE
  5
2ECDE
102
{ACAD_REACTORS
330
9C8E
102
}
330
9C8E
100
AcDbScale
 70
     0
300
1:50_2_3
140
1.0
141
50.0
290
     0
  0
SCALE
  5
2ED0D
102
{ACAD_REACTORS
330
9C8E
102
}
330
9C8E
100
AcDbScale
 70
     0
300
1:100_9_2
140
1.0
141
0.1
290
     0
  0
SCALE
  5
2ECA1
102
{ACAD_REACTORS
330
9C8E
102
}
330
9C8E
100
AcDbScale
 70
     0
300
1:100_14
140
1.0
141
0.1
290
     0
  0
SCALE
  5
2ED0E
102
{ACAD_REACTORS
330
9C8E
102
}
330
9C8E
100
AcDbScale
 70
     0
300
1:10_2_1_1
140
1.0
141
10.0
290
     0
  0
SCALE
  5
2ED0F
102
{ACAD_REACTORS
330
9C8E
102
}
330
9C8E
100
AcDbScale
 70
     0
300
1:20_2_4
140
1.0
141
20.0
290
     0
  0
SCALE
  5
2ED10
102
{ACAD_REACTORS
330
9C8E
102
}
330
9C8E
100
AcDbScale
 70
     0
300
1:10_10
140
1.0
141
10.0
290
     0
  0
SCALE
  5
2ECE1
102
{ACAD_REACTORS
330
9C8E
102
}
330
9C8E
100
AcDbScale
 70
     0
300
1:5_4_2
140
1.0
141
5.0
290
     0
  0
SCALE
  5
2ED11
102
{ACAD_REACTORS
330
9C8E
102
}
330
9C8E
100
AcDbScale
 70
     0
300
1:100_2_5
140
1.0
141
100.0
290
     0
  0
SCALE
  5
2ED12
102
{ACAD_REACTORS
330
9C8E
102
}
330
9C8E
100
AcDbScale
 70
     0
300
1:2_2_7
140
1.0
141
2.0
290
     0
  0
SCALE
  5
2EC07
102
{ACAD_REACTORS
330
9C8E
102
}
330
9C8E
100
AcDbScale
 70
     0
300
1:10_3_2
140
1.0
141
0.01
290
     0
  0
SCALE
  5
2ED13
102
{ACAD_REACTORS
330
9C8E
102
}
330
9C8E
100
AcDbScale
 70
     0
300
3/32" = 1'-0"_XREF
140
0.09375
141
12.0
290
     0
  0
SCALE
  5
2ED14
102
{ACAD_REACTORS
330
9C8E
102
}
330
9C8E
100
AcDbScale
 70
     0
300
1/8" = 1'-0"_1
140
0.13
141
12.0
290
     0
  0
SCALE
  5
2EC56
102
{ACAD_REACTORS
330
9C8E
102
}
330
9C8E
100
AcDbScale
 70
     0
300
1:100_5
140
1.0
141
100.0
290
     0
  0
SCALE
  5
2ECDF
102
{ACAD_REACTORS
330
9C8E
102
}
330
9C8E
100
AcDbScale
 70
     0
300
1:2_1_6
140
1.0
141
2.0
290
     0
  0
SCALE
  5
2ED33
102
{ACAD_REACTORS
330
9C8E
102
}
330
9C8E
100
AcDbScale
 70
     0
300
1:1_7
140
1.0
141
1.0
290
     0
  0
SCALE
  5
2EC9E
102
{ACAD_REACTORS
330
9C8E
102
}
330
9C8E
100
AcDbScale
 70
     0
300
1:100_3
140
1.0
141
100.0
290
     0
  0
SCALE
  5
2ED15
102
{ACAD_REACTORS
330
9C8E
102
}
330
9C8E
100
AcDbScale
 70
     0
300
1:10_1_7
140
1.0
141
10.0
290
     0
  0
SCALE
  5
2EBE4
102
{ACAD_REACTORS
330
9C8E
102
}
330
9C8E
100
AcDbScale
 70
     0
300
1:20_7
140
1.0
141
20.0
290
     0
  0
SCALE
  5
2ED16
102
{ACAD_REACTORS
330
9C8E
102
}
330
9C8E
100
AcDbScale
 70
     0
300
1/128" = 1'-0"_2
140
0.01
141
12.0
290
     0
  0
SCALE
  5
2EB8B
102
{ACAD_REACTORS
330
9C8E
102
}
330
9C8E
100
AcDbScale
 70
     0
300
1:20_9_1
140
1.0
141
0.02
290
     0
  0
SCALE
  5
2EBAF
102
{ACAD_REACTORS
330
9C8E
102
}
330
9C8E
100
AcDbScale
 70
     0
300
3/16" = 1'-0"_1
140
0.19
141
12.0
290
     0
  0
SCALE
  5
2ED17
102
{ACAD_REACTORS
330
9C8E
102
}
330
9C8E
100
AcDbScale
 70
     0
300
1:10_7_1
140
1.0
141
0.01
290
     0
  0
SCALE
  5
2ED18
102
{ACAD_REACTORS
330
9C8E
102
}
330
9C8E
100
AcDbScale
 70
     0
300
1:2_3_2
140
1.0
141
0.002
290
     0
  0
SCALE
  5
2ED19
102
{ACAD_REACTORS
330
9C8E
102
}
330
9C8E
100
AcDbScale
 70
     0
300
1:5_8_2
140
1.0
141
0.005
290
     0
  0
SCALE
  5
2ED1A
102
{ACAD_REACTORS
330
9C8E
102
}
330
9C8E
100
AcDbScale
 70
     0
300
1:10_8_2
140
1.0
141
0.01
290
     0
  0
SCALE
  5
2EC08
102
{ACAD_REACTORS
330
9C8E
102
}
330
9C8E
100
AcDbScale
 70
     0
300
1:2_13
140
1.0
141
0.002
290
     0
  0
SCALE
  5
2ED34
102
{ACAD_REACTORS
330
9C8E
102
}
330
9C8E
100
AcDbScale
 70
     0
300
1:1_1_6
140
1.0
141
1.0
290
     0
  0
SCALE
  5
2EBB2
102
{ACAD_REACTORS
330
9C8E
102
}
330
9C8E
100
AcDbScale
 70
     0
300
1:5_9_1
140
1.0
141
0.005
290
     0
  0
SCALE
  5
2EBE5
102
{ACAD_REACTORS
330
9C8E
102
}
330
9C8E
100
AcDbScale
 70
     0
300
1:10_3_1
140
1.0
141
0.01
290
     0
  0
SCALE
  5
2EC44
102
{ACAD_REACTORS
330
9C8E
102
}
330
9C8E
100
AcDbScale
 70
     0
300
1:2_5
140
1.0
141
2.0
290
     0
  0
SCALE
  5
2ECE3
102
{ACAD_REACTORS
330
9C8E
102
}
330
9C8E
100
AcDbScale
 70
     0
300
1:100_12_2
140
1.0
141
0.1
290
     0
  0
SCALE
  5
2EC59
102
{ACAD_REACTORS
330
9C8E
102
}
330
9C8E
100
AcDbScale
 70
     0
300
1:20_12
140
1.0
141
20.0
290
     0
  0
SCALE
  5
2EBB3
102
{ACAD_REACTORS
330
9C8E
102
}
330
9C8E
100
AcDbScale
 70
     0
300
1:50_1_2
140
1.0
141
50.0
290
     0
  0
SCALE
  5
2EC0A
102
{ACAD_REACTORS
330
9C8E
102
}
330
9C8E
100
AcDbScale
 70
     0
300
1:100_12_1
140
1.0
141
0.1
290
     0
  0
SCALE
  5
2EC57
102
{ACAD_REACTORS
330
9C8E
102
}
330
9C8E
100
AcDbScale
 70
     0
300
1:20_2_1_1
140
1.0
141
20.0
290
     0
  0
SCALE
  5
2EBB4
102
{ACAD_REACTORS
330
9C8E
102
}
330
9C8E
100
AcDbScale
 70
     0
300
1:50_2_1
140
1.0
141
50.0
290
     0
  0
SCALE
  5
2EBB5
102
{ACAD_REACTORS
330
9C8E
102
}
330
9C8E
100
AcDbScale
 70
     0
300
1:2_2_5
140
1.0
141
2.0
290
     0
  0
SCALE
  5
2EBB6
102
{ACAD_REACTORS
330
9C8E
102
}
330
9C8E
100
AcDbScale
 70
     0
300
1:20_3_1
140
1.0
141
0.02
290
     0
  0
SCALE
  5
2ECA2
102
{ACAD_REACTORS
330
9C8E
102
}
330
9C8E
100
AcDbScale
 70
     0
300
1:50_14
140
1.0
141
0.05
290
     0
  0
SCALE
  5
2EBE6
102
{ACAD_REACTORS
330
9C8E
102
}
330
9C8E
100
AcDbScale
 70
     0
300
1:50_6
140
1.0
141
50.0
290
     0
  0
SCALE
  5
2EBB7
102
{ACAD_REACTORS
330
9C8E
102
}
330
9C8E
100
AcDbScale
 70
     0
300
1:50_3_2
140
1.0
141
0.05
290
     0
  0
SCALE
  5
2EBB8
102
{ACAD_REACTORS
330
9C8E
102
}
330
9C8E
100
AcDbScale
 70
     0
300
1:7_XREF
140
1.0
141
7.0
290
     0
  0
SCALE
  5
2EB8C
102
{ACAD_REACTORS
330
9C8E
102
}
330
9C8E
100
AcDbScale
 70
     0
300
1:300
140
1.0
141
300.0
290
     0
  0
SCALE
  5
2ECE4
102
{ACAD_REACTORS
330
9C8E
102
}
330
9C8E
100
AcDbScale
 70
     0
300
1:100_1_8
140
1.0
141
100.0
290
     0
  0
SCALE
  5
2EBB9
102
{ACAD_REACTORS
330
9C8E
102
}
330
9C8E
100
AcDbScale
 70
     0
300
1:1_3_1
140
1.0
141
0.001
290
     0
  0
SCALE
  5
2EBBA
102
{ACAD_REACTORS
330
9C8E
102
}
330
9C8E
100
AcDbScale
 70
     0
300
1:3_XREF
140
1.0
141
3.0
290
     0
  0
SCALE
  5
2ED1C
102
{ACAD_REACTORS
330
9C8E
102
}
330
9C8E
100
AcDbScale
 70
     0
300
1:2_9_1
140
1.0
141
0.002
290
     0
  0
SCALE
  5
2EC5A
102
{ACAD_REACTORS
330
9C8E
102
}
330
9C8E
100
AcDbScale
 70
     0
300
1:5_8_1
140
1.0
141
0.005
290
     0
  0
SCALE
  5
2EBBB
102
{ACAD_REACTORS
330
9C8E
102
}
330
9C8E
100
AcDbScale
 70
     0
300
1:20_2_1
140
1.0
141
0.02
290
     0
  0
SCALE
  5
2EBBC
102
{ACAD_REACTORS
330
9C8E
102
}
330
9C8E
100
AcDbScale
 70
     0
300
1:100_3_4
140
1.0
141
0.1
290
     0
  0
SCALE
  5
2EBE7
102
{ACAD_REACTORS
330
9C8E
102
}
330
9C8E
100
AcDbScale
 70
     0
300
1:5_12_2
140
1.0
141
0.005
290
     0
  0
SCALE
  5
2EC0B
102
{ACAD_REACTORS
330
9C8E
102
}
330
9C8E
100
AcDbScale
 70
     0
300
1:50_11
140
1.0
141
0.05
290
     0
  0
SCALE
  5
2EBBD
102
{ACAD_REACTORS
330
9C8E
102
}
330
9C8E
100
AcDbScale
 70
     0
300
1:3
140
1.0
141
3.0
290
     0
  0
SCALE
  5
2EC4C
102
{ACAD_REACTORS
330
9C8E
102
}
330
9C8E
100
AcDbScale
 70
     0
300
1:20_13
140
1.0
141
0.02
290
     0
  0
SCALE
  5
2EBBE
102
{ACAD_REACTORS
330
9C8E
102
}
330
9C8E
100
AcDbScale
 70
     0
300
1:100_2_8
140
1.0
141
0.1
290
     0
  0
SCALE
  5
2EBBF
102
{ACAD_REACTORS
330
9C8E
102
}
330
9C8E
100
AcDbScale
 70
     0
300
1:1_1_7
140
1.0
141
1.0
290
     0
  0
SCALE
  5
2EBF2
102
{ACAD_REACTORS
330
9C8E
102
}
330
9C8E
100
AcDbScale
 70
     0
300
1:1_9_1
140
1.0
141
0.001
290
     0
  0
SCALE
  5
2EBC0
102
{ACAD_REACTORS
330
9C8E
102
}
330
9C8E
100
AcDbScale
 70
     0
300
1:10_1_5
140
1.0
141
10.0
290
     0
  0
SCALE
  5
2ED1D
102
{ACAD_REACTORS
330
9C8E
102
}
330
9C8E
100
AcDbScale
 70
     0
300
1:100_1_9
140
1.0
141
100.0
290
     0
  0
SCALE
  5
2EBC1
102
{ACAD_REACTORS
330
9C8E
102
}
330
9C8E
100
AcDbScale
 70
     0
300
1:10_7
140
1.0
141
10.0
290
     0
  0
SCALE
  5
2EBC2
102
{ACAD_REACTORS
330
9C8E
102
}
330
9C8E
100
AcDbScale
 70
     0
300
1:50_12_1
140
1.0
141
0.05
290
     0
  0
SCALE
  5
2EC02
102
{ACAD_REACTORS
330
9C8E
102
}
330
9C8E
100
AcDbScale
 70
     0
300
1:100_1_4
140
1.0
141
100.0
290
     0
  0
SCALE
  5
2EBE8
102
{ACAD_REACTORS
330
9C8E
102
}
330
9C8E
100
AcDbScale
 70
     0
300
1:5_10
140
1.0
141
5.0
290
     0
  0
SCALE
  5
2EB8D
102
{ACAD_REACTORS
330
9C8E
102
}
330
9C8E
100
AcDbScale
 70
     0
300
1:100_8
140
1.0
141
100.0
290
     0
  0
SCALE
  5
2EC5B
102
{ACAD_REACTORS
330
9C8E
102
}
330
9C8E
100
AcDbScale
 70
     0
300
1:2_3_5
140
1.0
141
0.002
290
     0
  0
SCALE
  5
2EBC3
102
{ACAD_REACTORS
330
9C8E
102
}
330
9C8E
100
AcDbScale
 70
     0
300
1:2_7_1
140
1.0
141
0.002
290
     0
  0
SCALE
  5
2EBC4
102
{ACAD_REACTORS
330
9C8E
102
}
330
9C8E
100
AcDbScale
 70
     0
300
1:2_6
140
1.0
141
2.0
290
     0
  0
SCALE
  5
2EBC5
102
{ACAD_REACTORS
330
9C8E
102
}
330
9C8E
100
AcDbScale
 70
     0
300
1:10_14
140
1.0
141
0.01
290
     0
  0
SCALE
  5
2ECA3
102
{ACAD_REACTORS
330
9C8E
102
}
330
9C8E
100
AcDbScale
 70
     0
300
1:100_XREF
140
1.0
141
100.0
290
     0
  0
SCALE
  5
2EC0C
102
{ACAD_REACTORS
330
9C8E
102
}
330
9C8E
100
AcDbScale
 70
     0
300
1:10_2_6
140
1.0
141
10.0
290
     0
  0
SCALE
  5
2EC51
102
{ACAD_REACTORS
330
9C8E
102
}
330
9C8E
100
AcDbScale
 70
     0
300
1:20_3
140
1.0
141
20.0
290
     0
  0
SCALE
  5
2ED1E
102
{ACAD_REACTORS
330
9C8E
102
}
330
9C8E
100
AcDbScale
 70
     0
300
1:100_1_7
140
1.0
141
100.0
290
     0
  0
SCALE
  5
2EBC6
102
{ACAD_REACTORS
330
9C8E
102
}
330
9C8E
100
AcDbScale
 70
     0
300
1:10_3
140
1.0
141
10.0
290
     0
  0
SCALE
  5
2ECE7
102
{ACAD_REACTORS
330
9C8E
102
}
330
9C8E
100
AcDbScale
 70
     0
300
1:10_7_2
140
1.0
141
0.01
290
     0
  0
SCALE
  5
2EBC7
102
{ACAD_REACTORS
330
9C8E
102
}
330
9C8E
100
AcDbScale
 70
     0
300
1:2_2_8
140
1.0
141
0.002
290
     0
  0
SCALE
  5
2EBC8
102
{ACAD_REACTORS
330
9C8E
102
}
330
9C8E
100
AcDbScale
 70
     0
300
1:50_8_1
140
1.0
141
0.05
290
     0
  0
SCALE
  5
2EBC9
102
{ACAD_REACTORS
330
9C8E
102
}
330
9C8E
100
AcDbScale
 70
     0
300
1:100_10_1
140
1.0
141
0.1
290
     0
  0
SCALE
  5
2EBCA
102
{ACAD_REACTORS
330
9C8E
102
}
330
9C8E
100
AcDbScale
 70
     0
300
1:2_1_9
140
1.0
141
2.0
290
     0
  0
SCALE
  5
2EBCB
102
{ACAD_REACTORS
330
9C8E
102
}
330
9C8E
100
AcDbScale
 70
     0
300
1:100_13
140
1.0
141
0.1
290
     0
  0
SCALE
  5
2EC5C
102
{ACAD_REACTORS
330
9C8E
102
}
330
9C8E
100
AcDbScale
 70
     0
300
1:100_4
140
1.0
141
100.0
290
     0
  0
SCALE
  5
2EBCC
102
{ACAD_REACTORS
330
9C8E
102
}
330
9C8E
100
AcDbScale
 70
     0
300
1:1_10_2
140
1.0
141
0.001
290
     0
  0
SCALE
  5
2EB8E
102
{ACAD_REACTORS
330
9C8E
102
}
330
9C8E
100
AcDbScale
 70
     0
300
1:20_2_2
140
1.0
141
20.0
290
     0
  0
SCALE
  5
2ECA4
102
{ACAD_REACTORS
330
9C8E
102
}
330
9C8E
100
AcDbScale
 70
     0
300
1:5_3_5
140
1.0
141
0.005
290
     0
  0
SCALE
  5
2ED1F
102
{ACAD_REACTORS
330
9C8E
102
}
330
9C8E
100
AcDbScale
 70
     0
300
1:50_7_2
140
1.0
141
0.05
290
     0
  0
SCALE
  5
2EBE9
102
{ACAD_REACTORS
330
9C8E
102
}
330
9C8E
100
AcDbScale
 70
     0
300
1:5_1_4
140
1.0
141
5.0
290
     0
  0
SCALE
  5
2EBAA
102
{ACAD_REACTORS
330
9C8E
102
}
330
9C8E
100
AcDbScale
 70
     0
300
1:5_3_1
140
1.0
141
0.005
290
     0
  0
SCALE
  5
2EBCD
102
{ACAD_REACTORS
330
9C8E
102
}
330
9C8E
100
AcDbScale
 70
     0
300
4:1_XREF
140
4.0
141
1.0
290
     0
  0
SCALE
  5
2EBCE
102
{ACAD_REACTORS
330
9C8E
102
}
330
9C8E
100
AcDbScale
 70
     0
300
1:16_XREF
140
1.0
141
16.0
290
     0
  0
SCALE
  5
2EBEC
102
{ACAD_REACTORS
330
9C8E
102
}
330
9C8E
100
AcDbScale
 70
     0
300
1:50_3_5
140
1.0
141
0.05
290
     0
  0
SCALE
  5
2EC0D
102
{ACAD_REACTORS
330
9C8E
102
}
330
9C8E
100
AcDbScale
 70
     0
300
1:1000_3
140
1.0
141
1.0
290
     0
  0
SCALE
  5
2EBCF
102
{ACAD_REACTORS
330
9C8E
102
}
330
9C8E
100
AcDbScale
 70
     0
300
1:1_11_2
140
1.0
141
1.0
290
     0
  0
SCALE
  5
2EBD0
102
{ACAD_REACTORS
330
9C8E
102
}
330
9C8E
100
AcDbScale
 70
     0
300
1:1000_1_3
140
1.0
141
1.0
290
     0
  0
SCALE
  5
2EBD1
102
{ACAD_REACTORS
330
9C8E
102
}
330
9C8E
100
AcDbScale
 70
     0
300
1:10_1_3
140
1.0
141
10.0
290
     0
  0
SCALE
  5
2EBD2
102
{ACAD_REACTORS
330
9C8E
102
}
330
9C8E
100
AcDbScale
 70
     0
300
1:10_8_1
140
1.0
141
0.01
290
     0
  0
SCALE
  5
2EC5D
102
{ACAD_REACTORS
330
9C8E
102
}
330
9C8E
100
AcDbScale
 70
     0
300
1:50_3_3
140
1.0
141
0.05
290
     0
  0
SCALE
  5
2EBEA
102
{ACAD_REACTORS
330
9C8E
102
}
330
9C8E
100
AcDbScale
 70
     0
300
1:10_1_8
140
1.0
141
10.0
290
     0
  0
SCALE
  5
2EC10
102
{ACAD_REACTORS
330
9C8E
102
}
330
9C8E
100
AcDbScale
 70
     0
300
1:1000_10
140
1.0
141
1.0
290
     0
  0
SCALE
  5
2EC94
102
{ACAD_REACTORS
330
9C8E
102
}
330
9C8E
100
AcDbScale
 70
     0
300
1:7_XREF_XREF
140
1.0
141
7.0
290
     0
  0
SCALE
  5
2ED22
102
{ACAD_REACTORS
330
9C8E
102
}
330
9C8E
100
AcDbScale
 70
     0
300
1:100_9_1
140
1.0
141
0.1
290
     0
  0
SCALE
  5
2ECA7
102
{ACAD_REACTORS
330
9C8E
102
}
330
9C8E
100
AcDbScale
 70
     0
300
1:5_8
140
1.0
141
5.0
290
     0
  0
SCALE
  5
2EC11
102
{ACAD_REACTORS
330
9C8E
102
}
330
9C8E
100
AcDbScale
 70
     0
300
1:150
140
1.0
141
150.0
290
     0
  0
SCALE
  5
2EC5F
102
{ACAD_REACTORS
330
9C8E
102
}
330
9C8E
100
AcDbScale
 70
     0
300
1:20_1_8
140
1.0
141
20.0
290
     0
  0
SCALE
  5
2ECA5
102
{ACAD_REACTORS
330
9C8E
102
}
330
9C8E
100
AcDbScale
 70
     0
300
1/64" = 1'-0"_2
140
0.02
141
12.0
290
     0
  0
SCALE
  5
2EC12
102
{ACAD_REACTORS
330
9C8E
102
}
330
9C8E
100
AcDbScale
 70
     0
300
1:100_11
140
1.0
141
0.1
290
     0
  0
SCALE
  5
2EB95
102
{ACAD_REACTORS
330
9C8E
102
}
330
9C8E
100
AcDbScale
 70
     0
300
1:100_1_3
140
1.0
141
100.0
290
     0
  0
SCALE
  5
2EC13
102
{ACAD_REACTORS
330
9C8E
102
}
330
9C8E
100
AcDbScale
 70
     0
300
1:5_4_4
140
1.0
141
5.0
290
     0
  0
SCALE
  5
2ECE8
102
{ACAD_REACTORS
330
9C8E
102
}
330
9C8E
100
AcDbScale
 70
     0
300
1:2_2_6
140
1.0
141
2.0
290
     0
  0
SCALE
  5
2EC14
102
{ACAD_REACTORS
330
9C8E
102
}
330
9C8E
100
AcDbScale
 70
     0
300
1:10_1_6
140
1.0
141
10.0
290
     0
  0
SCALE
  5
2EC15
102
{ACAD_REACTORS
330
9C8E
102
}
330
9C8E
100
AcDbScale
 70
     0
300
1:5_9_2
140
1.0
141
0.005
290
     0
  0
SCALE
  5
2EBED
102
{ACAD_REACTORS
330
9C8E
102
}
330
9C8E
100
AcDbScale
 70
     0
300
1:1_3_2
140
1.0
141
0.001
290
     0
  0
SCALE
  5
2ED23
102
{ACAD_REACTORS
330
9C8E
102
}
330
9C8E
100
AcDbScale
 70
     0
300
1:20_10_1
140
1.0
141
0.02
290
     0
  0
SCALE
  5
2EC16
102
{ACAD_REACTORS
330
9C8E
102
}
330
9C8E
100
AcDbScale
 70
     0
300
1/4" = 1'-0"_XREF
140
0.25
141
12.0
290
     0
  0
SCALE
  5
2EC17
102
{ACAD_REACTORS
330
9C8E
102
}
330
9C8E
100
AcDbScale
 70
     0
300
1:5_9
140
1.0
141
5.0
290
     0
  0
SCALE
  5
2EBD4
102
{ACAD_REACTORS
330
9C8E
102
}
330
9C8E
100
AcDbScale
 70
     0
300
1:500
140
1.0
141
500.0
290
     0
  0
SCALE
  5
2ECA8
102
{ACAD_REACTORS
330
9C8E
102
}
330
9C8E
100
AcDbScale
 70
     0
300
1:2_1_4
140
1.0
141
2.0
290
     0
  0
SCALE
  5
2EC18
102
{ACAD_REACTORS
330
9C8E
102
}
330
9C8E
100
AcDbScale
 70
     0
300
1:2_3_1
140
1.0
141
0.002
290
     0
  0
SCALE
  5
2EC19
102
{ACAD_REACTORS
330
9C8E
102
}
330
9C8E
100
AcDbScale
 70
     0
300
1:1000_7
140
1.0
141
1.0
290
     0
  0
SCALE
  5
2EC60
102
{ACAD_REACTORS
330
9C8E
102
}
330
9C8E
100
AcDbScale
 70
     0
300
1:20_11
140
1.0
141
0.02
290
     0
  0
SCALE
  5
2EC1A
102
{ACAD_REACTORS
330
9C8E
102
}
330
9C8E
100
AcDbScale
 70
     0
300
1:1_8
140
1.0
141
1.0
290
     0
  0
SCALE
  5
2EC9B
102
{ACAD_REACTORS
330
9C8E
102
}
330
9C8E
100
AcDbScale
 70
     0
300
1:100_2
140
1.0
141
100.0
290
     0
  0
SCALE
  5
2EC1B
102
{ACAD_REACTORS
330
9C8E
102
}
330
9C8E
100
AcDbScale
 70
     0
300
1:10_2
140
1.0
141
10.0
290
     0
  0
SCALE
  5
2EC1C
102
{ACAD_REACTORS
330
9C8E
102
}
330
9C8E
100
AcDbScale
 70
     0
300
1:5_11
140
1.0
141
0.005
290
     0
  0
SCALE
  5
2EC4A
102
{ACAD_REACTORS
330
9C8E
102
}
330
9C8E
100
AcDbScale
 70
     0
300
1:7
140
1.0
141
7.0
290
     0
  0
SCALE
  5
2EB96
102
{ACAD_REACTORS
330
9C8E
102
}
330
9C8E
100
AcDbScale
 70
     0
300
1:10_1
140
1.0
141
0.01
290
     0
  0
SCALE
  5
2EBD5
102
{ACAD_REACTORS
330
9C8E
102
}
330
9C8E
100
AcDbScale
 70
     0
300
1:50_2_4
140
1.0
141
50.0
290
     0
  0
SCALE
  5
2EC1D
102
{ACAD_REACTORS
330
9C8E
102
}
330
9C8E
100
AcDbScale
 70
     0
300
1:20_2_8
140
1.0
141
0.02
290
     0
  0
SCALE
  5
2EC1E
102
{ACAD_REACTORS
330
9C8E
102
}
330
9C8E
100
AcDbScale
 70
     0
300
1:5_1_2
140
1.0
141
5.0
290
     0
  0
SCALE
  5
2EBEE
102
{ACAD_REACTORS
330
9C8E
102
}
330
9C8E
100
AcDbScale
 70
     0
300
1:2_4
140
1.0
141
2.0
290
     0
  0
SCALE
  5
2EBA4
102
{ACAD_REACTORS
330
9C8E
102
}
330
9C8E
100
AcDbScale
 70
     0
300
1:50_10_2
140
1.0
141
0.05
290
     0
  0
SCALE
  5
2EC1F
102
{ACAD_REACTORS
330
9C8E
102
}
330
9C8E
100
AcDbScale
 70
     0
300
1:20_14
140
1.0
141
0.02
290
     0
  0
SCALE
  5
2EC20
102
{ACAD_REACTORS
330
9C8E
102
}
330
9C8E
100
AcDbScale
 70
     0
300
1:1_1_5
140
1.0
141
1.0
290
     0
  0
SCALE
  5
2EC21
102
{ACAD_REACTORS
330
9C8E
102
}
330
9C8E
100
AcDbScale
 70
     0
300
1:2_3_3
140
1.0
141
0.002
290
     0
  0
SCALE
  5
2ECE9
102
{ACAD_REACTORS
330
9C8E
102
}
330
9C8E
100
AcDbScale
 70
     0
300
1" = 1'-0"_XREF
140
1.0
141
12.0
290
     0
  0
SCALE
  5
2EC61
102
{ACAD_REACTORS
330
9C8E
102
}
330
9C8E
100
AcDbScale
 70
     0
300
1:5_4
140
1.0
141
5.0
290
     0
  0
SCALE
  5
2EC9F
102
{ACAD_REACTORS
330
9C8E
102
}
330
9C8E
100
AcDbScale
 70
     0
300
1:5_2
140
1.0
141
5.0
290
     0
  0
SCALE
  5
2EBD6
102
{ACAD_REACTORS
330
9C8E
102
}
330
9C8E
100
AcDbScale
 70
     0
300
1:50_7
140
1.0
141
50.0
290
     0
  0
SCALE
  5
2EC22
102
{ACAD_REACTORS
330
9C8E
102
}
330
9C8E
100
AcDbScale
 70
     0
300
1:2_2_3
140
1.0
141
2.0
290
     0
  0
SCALE
  5
2EC23
102
{ACAD_REACTORS
330
9C8E
102
}
330
9C8E
100
AcDbScale
 70
     0
300
1:50_2
140
1.0
141
50.0
290
     0
  0
SCALE
  5
2EC24
102
{ACAD_REACTORS
330
9C8E
102
}
330
9C8E
100
AcDbScale
 70
     0
300
1:2_1_3
140
1.0
141
2.0
290
     0
  0
SCALE
  5
2EC25
102
{ACAD_REACTORS
330
9C8E
102
}
330
9C8E
100
AcDbScale
 70
     0
300
1:20_8_2
140
1.0
141
0.02
290
     0
  0
SCALE
  5
2EC26
102
{ACAD_REACTORS
330
9C8E
102
}
330
9C8E
100
AcDbScale
 70
     0
300
1:50_9_2
140
1.0
141
0.05
290
     0
  0
SCALE
  5
2EB97
102
{ACAD_REACTORS
330
9C8E
102
}
330
9C8E
100
AcDbScale
 70
     0
300
1:5_1_9
140
1.0
141
5.0
290
     0
  0
SCALE
  5
2ECA9
102
{ACAD_REACTORS
330
9C8E
102
}
330
9C8E
100
AcDbScale
 70
     0
300
1:10_XREF
140
1.0
141
10.0
290
     0
  0
SCALE
  5
2EC27
102
{ACAD_REACTORS
330
9C8E
102
}
330
9C8E
100
AcDbScale
 70
     0
300
2:1_XREF
140
2.0
141
1.0
290
     0
  0
SCALE
  5
2EBEF
102
{ACAD_REACTORS
330
9C8E
102
}
330
9C8E
100
AcDbScale
 70
     0
300
1/64" = 1'-0"_1
140
0.02
141
12.0
290
     0
  0
SCALE
  5
2ECEA
102
{ACAD_REACTORS
330
9C8E
102
}
330
9C8E
100
AcDbScale
 70
     0
300
1:100_8_2
140
1.0
141
0.1
290
     0
  0
SCALE
  5
2EB8F
102
{ACAD_REACTORS
330
9C8E
102
}
330
9C8E
100
AcDbScale
 70
     0
300
1:10_1_9
140
1.0
141
10.0
290
     0
  0
SCALE
  5
2EB94
102
{ACAD_REACTORS
330
9C8E
102
}
330
9C8E
100
AcDbScale
 70
     0
300
1:1_10_1
140
1.0
141
0.001
290
     0
  0
SCALE
  5
2EC28
102
{ACAD_REACTORS
330
9C8E
102
}
330
9C8E
100
AcDbScale
 70
     0
300
1:100_10_2
140
1.0
141
0.1
290
     0
  0
SCALE
  5
2EC29
102
{ACAD_REACTORS
330
9C8E
102
}
330
9C8E
100
AcDbScale
 70
     0
300
1:2_2
140
1.0
141
2.0
290
     0
  0
SCALE
  5
2EB9A
102
{ACAD_REACTORS
330
9C8E
102
}
330
9C8E
100
AcDbScale
 70
     0
300
1:20_4
140
1.0
141
20.0
290
     0
  0
SCALE
  5
2EC62
102
{ACAD_REACTORS
330
9C8E
102
}
330
9C8E
100
AcDbScale
 70
     0
300
1:2_11
140
1.0
141
2.0
290
     0
  0
SCALE
  5
2EC2A
102
{ACAD_REACTORS
330
9C8E
102
}
330
9C8E
100
AcDbScale
 70
     0
300
1:1000_1_1
140
1.0
141
1.0
290
     0
  0
SCALE
  5
2EC2B
102
{ACAD_REACTORS
330
9C8E
102
}
330
9C8E
100
AcDbScale
 70
     0
300
1:1_1_4
140
1.0
141
1.0
290
     0
  0
SCALE
  5
2EC2C
102
{ACAD_REACTORS
330
9C8E
102
}
330
9C8E
100
AcDbScale
 70
     0
300
1:50_2_5
140
1.0
141
50.0
290
     0
  0
SCALE
  5
2EC2D
102
{ACAD_REACTORS
330
9C8E
102
}
330
9C8E
100
AcDbScale
 70
     0
300
1:20_3_5
140
1.0
141
0.02
290
     0
  0
SCALE
  5
2ECAA
102
{ACAD_REACTORS
330
9C8E
102
}
330
9C8E
100
AcDbScale
 70
     0
300
1:100_3_5
140
1.0
141
0.1
290
     0
  0
SCALE
  5
9C8F
102
{ACAD_REACTORS
330
9C8E
102
}
330
9C8E
100
AcDbScale
 70
     0
300
1:1
140
1.0
141
1.0
290
     1
  0
SCALE
  5
2CD7F
102
{ACAD_REACTORS
330
9C8E
102
}
330
9C8E
100
AcDbScale
 70
     0
300
1:2
140
1.0
141
2.0
290
     0
  0
SCALE
  5
2CD80
102
{ACAD_REACTORS
330
9C8E
102
}
330
9C8E
100
AcDbScale
 70
     0
300
1:4
140
1.0
141
4.0
290
     0
  0
SCALE
  5
2CD81
102
{ACAD_REACTORS
330
9C8E
102
}
330
9C8E
100
AcDbScale
 70
     0
300
1:5
140
1.0
141
5.0
290
     0
  0
SCALE
  5
2CD82
102
{ACAD_REACTORS
330
9C8E
102
}
330
9C8E
100
AcDbScale
 70
     0
300
1:8
140
1.0
141
8.0
290
     0
  0
SCALE
  5
2CD83
102
{ACAD_REACTORS
330
9C8E
102
}
330
9C8E
100
AcDbScale
 70
     0
300
1:10
140
1.0
141
10.0
290
     0
  0
SCALE
  5
2CD84
102
{ACAD_REACTORS
330
9C8E
102
}
330
9C8E
100
AcDbScale
 70
     0
300
1:16
140
1.0
141
16.0
290
     0
  0
SCALE
  5
2CD85
102
{ACAD_REACTORS
330
9C8E
102
}
330
9C8E
100
AcDbScale
 70
     0
300
1:20
140
1.0
141
20.0
290
     0
  0
SCALE
  5
2CD86
102
{ACAD_REACTORS
330
9C8E
102
}
330
9C8E
100
AcDbScale
 70
     0
300
1:30
140
1.0
141
30.0
290
     0
  0
SCALE
  5
2CD87
102
{ACAD_REACTORS
330
9C8E
102
}
330
9C8E
100
AcDbScale
 70
     0
300
1:40
140
1.0
141
40.0
290
     0
  0
SCALE
  5
2CD88
102
{ACAD_REACTORS
330
9C8E
102
}
330
9C8E
100
AcDbScale
 70
     0
300
1:50
140
1.0
141
50.0
290
     0
  0
SCALE
  5
2CD89
102
{ACAD_REACTORS
330
9C8E
102
}
330
9C8E
100
AcDbScale
 70
     0
300
1:100
140
1.0
141
100.0
290
     0
  0
SCALE
  5
2CD8A
102
{ACAD_REACTORS
330
9C8E
102
}
330
9C8E
100
AcDbScale
 70
     0
300
2:1
140
2.0
141
1.0
290
     0
  0
SCALE
  5
2CD8B
102
{ACAD_REACTORS
330
9C8E
102
}
330
9C8E
100
AcDbScale
 70
     0
300
4:1
140
4.0
141
1.0
290
     0
  0
SCALE
  5
2CD8C
102
{ACAD_REACTORS
330
9C8E
102
}
330
9C8E
100
AcDbScale
 70
     0
300
8:1
140
8.0
141
1.0
290
     0
  0
SCALE
  5
2CD8D
102
{ACAD_REACTORS
330
9C8E
102
}
330
9C8E
100
AcDbScale
 70
     0
300
10:1
140
10.0
141
1.0
290
     0
  0
SCALE
  5
2CD8E
102
{ACAD_REACTORS
330
9C8E
102
}
330
9C8E
100
AcDbScale
 70
     0
300
100:1
140
100.0
141
1.0
290
     0
  0
SCALE
  5
2CD8F
102
{ACAD_REACTORS
330
9C8E
102
}
330
9C8E
100
AcDbScale
 70
     0
300
1/128" = 1'-0"
140
0.0078125
141
12.0
290
     0
  0
SCALE
  5
2CD90
102
{ACAD_REACTORS
330
9C8E
102
}
330
9C8E
100
AcDbScale
 70
     0
300
1/64" = 1'-0"
140
0.015625
141
12.0
290
     0
  0
SCALE
  5
2CD91
102
{ACAD_REACTORS
330
9C8E
102
}
330
9C8E
100
AcDbScale
 70
     0
300
1/32" = 1'-0"
140
0.03125
141
12.0
290
     0
  0
SCALE
  5
2CD92
102
{ACAD_REACTORS
330
9C8E
102
}
330
9C8E
100
AcDbScale
 70
     0
300
1/16" = 1'-0"
140
0.0625
141
12.0
290
     0
  0
SCALE
  5
2CD93
102
{ACAD_REACTORS
330
9C8E
102
}
330
9C8E
100
AcDbScale
 70
     0
300
3/32" = 1'-0"
140
0.09375
141
12.0
290
     0
  0
SCALE
  5
2CD94
102
{ACAD_REACTORS
330
9C8E
102
}
330
9C8E
100
AcDbScale
 70
     0
300
1/8" = 1'-0"
140
0.125
141
12.0
290
     0
  0
SCALE
  5
2CD95
102
{ACAD_REACTORS
330
9C8E
102
}
330
9C8E
100
AcDbScale
 70
     0
300
3/16" = 1'-0"
140
0.1875
141
12.0
290
     0
  0
SCALE
  5
2CD96
102
{ACAD_REACTORS
330
9C8E
102
}
330
9C8E
100
AcDbScale
 70
     0
300
1/4" = 1'-0"
140
0.25
141
12.0
290
     0
  0
SCALE
  5
2CD97
102
{ACAD_REACTORS
330
9C8E
102
}
330
9C8E
100
AcDbScale
 70
     0
300
3/8" = 1'-0"
140
0.375
141
12.0
290
     0
  0
SCALE
  5
2CD98
102
{ACAD_REACTORS
330
9C8E
102
}
330
9C8E
100
AcDbScale
 70
     0
300
1/2" = 1'-0"
140
0.5
141
12.0
290
     0
  0
SCALE
  5
2CD99
102
{ACAD_REACTORS
330
9C8E
102
}
330
9C8E
100
AcDbScale
 70
     0
300
3/4" = 1'-0"
140
0.75
141
12.0
290
     0
  0
SCALE
  5
2CD9A
102
{ACAD_REACTORS
330
9C8E
102
}
330
9C8E
100
AcDbScale
 70
     0
300
1" = 1'-0"
140
1.0
141
12.0
290
     0
  0
SCALE
  5
2CD9B
102
{ACAD_REACTORS
330
9C8E
102
}
330
9C8E
100
AcDbScale
 70
     0
300
1-1/2" = 1'-0"
140
1.5
141
12.0
290
     0
  0
SCALE
  5
2CD9C
102
{ACAD_REACTORS
330
9C8E
102
}
330
9C8E
100
AcDbScale
 70
     0
300
3" = 1'-0"
140
3.0
141
12.0
290
     0
  0
SCALE
  5
2CD9D
102
{ACAD_REACTORS
330
9C8E
102
}
330
9C8E
100
AcDbScale
 70
     0
300
6" = 1'-0"
140
6.0
141
12.0
290
     0
  0
SCALE
  5
2CD9E
102
{ACAD_REACTORS
330
9C8E
102
}
330
9C8E
100
AcDbScale
 70
     0
300
1'-0" = 1'-0"
140
12.0
141
12.0
290
     0
  0
TABLESTYLE
  5
9C8D
102
{ACAD_XDICTIONARY
360
A6AD
102
}
102
{ACAD_REACTORS
330
9C8C
102
}
330
9C8C
100
AcDbTableStyle
  3
Standard
 70
     0
 71
     0
 40
1.5
 41
1.5
280
     0
281
     0
  7
Standard
140
4.5
170
     2
 62
     0
 63
     7
283
     0
274
    -2
284
     1
 64
     0
275
    -2
285
     1
 65
     0
276
    -2
286
     1
 66
     0
277
    -2
287
     1
 67
     0
278
    -2
288
     1
 68
     0
279
    -2
289
     1
 69
     0
  7
Standard
140
6.0
170
     5
 62
     0
 63
     7
283
     0
274
    -2
284
     1
 64
     0
275
    -2
285
     1
 65
     0
276
    -2
286
     1
 66
     0
277
    -2
287
     1
 67
     0
278
    -2
288
     1
 68
     0
279
    -2
289
     1
 69
     0
  7
Standard
140
4.5
170
     5
 62
     0
 63
     7
283
     0
274
    -2
284
     1
 64
     0
275
    -2
285
     1
 65
     0
276
    -2
286
     1
 66
     0
277
    -2
287
     1
 67
     0
278
    -2
288
     1
 68
     0
279
    -2
289
     1
 69
     0
  0
VISUALSTYLE
  5
9C80
102
{ACAD_REACTORS
330
9C7A
102
}
330
9C7A
100
AcDbVisualStyle
  2
2dWireframe
 70
     4
 71
     0
 72
     2
 73
     0
 90
        0
 40
-0.6
 41
-30.0
 62
     5
 63
     7
 74
     1
 91
        4
 64
     7
 65
   257
 75
     1
175
     1
 42
1.0
 92
        0
 66
   257
 43
1.0
 76
     1
 77
     6
 78
     2
 67
     7
 79
     5
170
     0
171
     0
290
     0
174
     0
 93
        1
 44
0.0
173
     0
291
     0
 45
0.0
1001
ACAD
1000
AcDbSavedByObjectVersion
1070
     0
  0
VISUALSTYLE
  5
9C82
102
{ACAD_REACTORS
330
9C7A
102
}
330
9C7A
100
AcDbVisualStyle
  2
3D Hidden
 70
     6
 71
     1
 72
     2
 73
     2
 90
        0
 40
-0.6
 41
-30.0
 62
     5
 63
     7
 74
     2
 91
        2
 64
     7
 65
   257
 75
     2
175
     1
 42
40.0
 92
        0
 66
   257
 43
1.0
 76
     1
 77
     6
 78
     2
 67
     7
 79
     3
170
     0
171
     0
290
     0
174
     0
 93
        1
 44
0.0
173
     0
291
     0
 45
0.0
1001
ACAD
1000
AcDbSavedByObjectVersion
1070
     0
  0
VISUALSTYLE
  5
9C81
102
{ACAD_REACTORS
330
9C7A
102
}
330
9C7A
100
AcDbVisualStyle
  2
3dWireframe
 70
     5
 71
     0
 72
     2
 73
     0
 90
        0
 40
-0.6
 41
-30.0
 62
     5
 63
     7
 74
     1
 91
        4
 64
     7
 65
   257
 75
     1
175
     1
 42
1.0
 92
        0
 66
   257
 43
1.0
 76
     1
 77
     6
 78
     2
 67
     7
 79
     5
170
     0
171
     0
290
     0
174
     0
 93
        1
 44
0.0
173
     0
291
     0
 45
0.0
1001
ACAD
1000
AcDbSavedByObjectVersion
1070
     0
  0
VISUALSTYLE
  5
9C7F
102
{ACAD_REACTORS
330
9C7A
102
}
330
9C7A
100
AcDbVisualStyle
  2
Basic
 70
     7
 71
     1
 72
     0
 73
     1
 90
        0
 40
-0.6
 41
-30.0
 62
     5
 63
     7
 74
     0
 91
        4
 64
     7
 65
   257
 75
     1
175
     1
 42
1.0
 92
        8
 66
     7
 43
1.0
 76
     1
 77
     6
 78
     2
 67
     7
 79
     5
170
     0
171
     0
290
     0
174
     0
 93
        1
 44
0.0
173
     0
291
     1
 45
0.0
1001
ACAD
1000
AcDbSavedByObjectVersion
1070
     0
  0
VISUALSTYLE
  5
9C86
102
{ACAD_REACTORS
330
9C7A
102
}
330
9C7A
100
AcDbVisualStyle
  2
Brighten
 70
    12
 71
     2
 72
     2
 73
     0
 90
        0
 40
-0.6
 41
-30.0
 62
     5
 63
     7
 74
     1
 91
        4
 64
     7
 65
   257
 75
     1
175
     1
 42
1.0
 92
        8
 66
     7
 43
1.0
 76
     1
 77
     6
 78
     2
 67
     7
 79
     5
170
     0
171
     0
290
     0
174
     0
 93
        1
 44
50.0
173
     0
291
     1
 45
0.0
1001
ACAD
1000
AcDbSavedByObjectVersion
1070
     0
  0
VISUALSTYLE
  5
9C8A
102
{ACAD_REACTORS
330
9C7A
102
}
330
9C7A
100
AcDbVisualStyle
  2
ColorChange
 70
    16
 71
     2
 72
     2
 73
     3
 90
        0
 40
-0.6
 41
-30.0
 62
     5
 63
     8
 74
     1
 91
        4
 64
     7
 65
   257
 75
     1
175
     1
 42
1.0
 92
        8
 66
     8
 43
1.0
 76
     1
 77
     6
 78
     2
 67
     7
 79
     5
170
     0
171
     0
290
     0
174
     0
 93
        1
 44
0.0
173
     0
291
     1
 45
0.0
1001
ACAD
1000
AcDbSavedByObjectVersion
1070
     0
  0
VISUALSTYLE
  5
9C83
102
{ACAD_REACTORS
330
9C7A
102
}
330
9C7A
100
AcDbVisualStyle
  2
Conceptual
 70
     9
 71
     3
 72
     2
 73
     0
 90
        0
 40
-0.6
 41
-30.0
 62
     5
 63
     7
 74
     2
 91
        2
 64
     7
 65
   257
 75
     1
175
     1
 42
40.0
 92
        8
 66
     7
 43
1.0
 76
     1
 77
     6
 78
     2
 67
     7
 79
     3
170
     0
171
     0
290
     0
174
     0
 93
        1
 44
0.0
173
     0
291
     0
 45
0.0
1001
ACAD
1000
AcDbSavedByObjectVersion
1070
     0
  0
VISUALSTYLE
  5
9C85
102
{ACAD_REACTORS
330
9C7A
102
}
330
9C7A
100
AcDbVisualStyle
  2
Dim
 70
    11
 71
     2
 72
     2
 73
     0
 90
        0
 40
-0.6
 41
-30.0
 62
     5
 63
     7
 74
     1
 91
        4
 64
     7
 65
   257
 75
     1
175
     1
 42
1.0
 92
        8
 66
     7
 43
1.0
 76
     1
 77
     6
 78
     2
 67
     7
 79
     5
170
     0
171
     0
290
     0
174
     0
 93
        1
 44
-50.0
173
     0
291
     1
 45
0.0
1001
ACAD
1000
AcDbSavedByObjectVersion
1070
     0
  0
VISUALSTYLE
  5
9C89
102
{ACAD_REACTORS
330
9C7A
102
}
330
9C7A
100
AcDbVisualStyle
  2
Facepattern
 70
    15
 71
     2
 72
     2
 73
     0
 90
        0
 40
-0.6
 41
-30.0
 62
     5
 63
     7
 74
     1
 91
        4
 64
     7
 65
   257
 75
     1
175
     1
 42
1.0
 92
        8
 66
     7
 43
1.0
 76
     1
 77
     6
 78
     2
 67
     7
 79
     5
170
     0
171
     0
290
     0
174
     0
 93
        1
 44
0.0
173
     0
291
     1
 45
0.0
1001
ACAD
1000
AcDbSavedByObjectVersion
1070
     0
  0
VISUALSTYLE
  5
9C7B
102
{ACAD_REACTORS
330
9C7A
102
}
330
9C7A
100
AcDbVisualStyle
  2
Flat
 70
     0
 71
     2
 72
     1
 73
     1
 90
        2
 40
-0.6
 41
30.0
 62
     5
 63
     7
 74
     0
 91
        4
 64
     7
 65
   257
 75
     1
175
     1
 42
1.0
 92
        8
 66
     7
 43
1.0
 76
     1
 77
     6
 78
     2
 67
     7
 79
     5
170
     0
171
     0
290
     0
174
     0
 93
       13
 44
0.0
173
     0
291
     1
 45
0.0
1001
ACAD
1000
AcDbSavedByObjectVersion
1070
     0
  0
VISUALSTYLE
  5
9C7C
102
{ACAD_REACTORS
330
9C7A
102
}
330
9C7A
100
AcDbVisualStyle
  2
FlatWithEdges
 70
     1
 71
     2
 72
     1
 73
     1
 90
        2
 40
-0.6
 41
30.0
 62
     5
 63
     7
 74
     1
 91
        4
 64
     7
 65
   257
 75
     1
175
     1
 42
1.0
 92
        0
 66
   257
 43
1.0
 76
     1
 77
     6
 78
     2
 67
     7
 79
     5
170
     0
171
     0
290
     0
174
     0
 93
       13
 44
0.0
173
     0
291
     1
 45
0.0
1001
ACAD
1000
AcDbSavedByObjectVersion
1070
     0
  0
VISUALSTYLE
  5
9C7D
102
{ACAD_REACTORS
330
9C7A
102
}
330
9C7A
100
AcDbVisualStyle
  2
Gouraud
 70
     2
 71
     2
 72
     2
 73
     1
 90
        2
 40
-0.6
 41
30.0
 62
     5
 63
     7
 74
     0
 91
        4
 64
     7
 65
   257
 75
     1
175
     1
 42
1.0
 92
        0
 66
     7
 43
1.0
 76
     1
 77
     6
 78
     2
 67
     7
 79
     5
170
     0
171
     0
290
     0
174
     0
 93
       13
 44
0.0
173
     0
291
     1
 45
0.0
1001
ACAD
1000
AcDbSavedByObjectVersion
1070
     0
  0
VISUALSTYLE
  5
9C7E
102
{ACAD_REACTORS
330
9C7A
102
}
330
9C7A
100
AcDbVisualStyle
  2
GouraudWithEdges
 70
     3
 71
     2
 72
     2
 73
     1
 90
        2
 40
-0.6
 41
30.0
 62
     5
 63
     7
 74
     1
 91
        4
 64
     7
 65
   257
 75
     1
175
     1
 42
1.0
 92
        0
 66
   257
 43
1.0
 76
     1
 77
     6
 78
     2
 67
     7
 79
     5
170
     0
171
     0
290
     0
174
     0
 93
       13
 44
0.0
173
     0
291
     1
 45
0.0
1001
ACAD
1000
AcDbSavedByObjectVersion
1070
     0
  0
VISUALSTYLE
  5
9C88
102
{ACAD_REACTORS
330
9C7A
102
}
330
9C7A
100
AcDbVisualStyle
  2
Linepattern
 70
    14
 71
     2
 72
     2
 73
     0
 90
        0
 40
-0.6
 41
-30.0
 62
     5
 63
     7
 74
     1
 91
        4
 64
     7
 65
   257
 75
     7
175
     7
 42
1.0
 92
        8
 66
     7
 43
1.0
 76
     1
 77
     6
 78
     2
 67
     7
 79
     5
170
     0
171
     0
290
     0
174
     0
 93
        1
 44
0.0
173
     0
291
     1
 45
0.0
1001
ACAD
1000
AcDbSavedByObjectVersion
1070
     0
  0
VISUALSTYLE
  5
9C84
102
{ACAD_REACTORS
330
9C7A
102
}
330
9C7A
100
AcDbVisualStyle
  2
Realistic
 70
     8
 71
     2
 72
     2
 73
     0
 90
        0
 40
-0.6
 41
-30.0
 62
     5
 63
     7
 74
     1
 91
        0
 64
     7
 65
   257
 75
     1
175
     1
 42
1.0
 92
        8
 66
     8
 43
1.0
 76
     1
 77
     6
 78
     2
 67
     7
 79
     5
170
     0
171
     0
290
     0
174
     0
 93
       13
 44
0.0
173
     0
291
     0
 45
0.0
1001
ACAD
1000
AcDbSavedByObjectVersion
1070
     0
  0
VISUALSTYLE
  5
9C87
102
{ACAD_REACTORS
330
9C7A
102
}
330
9C7A
100
AcDbVisualStyle
  2
Thicken
 70
    13
 71
     2
 72
     2
 73
     0
 90
        0
 40
-0.6
 41
-30.0
 62
     5
 63
     7
 74
     1
 91
        4
 64
     7
 65
   257
 75
     1
175
     1
 42
1.0
 92
       12
 66
     7
 43
1.0
 76
     1
 77
     6
 78
     2
 67
     7
 79
     5
170
     0
171
     0
290
     0
174
     0
 93
        1
 44
0.0
173
     0
291
     1
 45
0.0
1001
ACAD
1000
AcDbSavedByObjectVersion
1070
     0
  0
DICTIONARYVAR
  5
A6CD
102
{ACAD_REACTORS
330
A6CA
102
}
330
A6CA
100
DictionaryVariables
280
     0
  1
1:1
  0
DICTIONARYVAR
  5
A6CC
102
{ACAD_REACTORS
330
A6CA
102
}
330
A6CA
100
DictionaryVariables
280
     0
  1
STANDARD
  0
DICTIONARYVAR
  5
A6CB
102
{ACAD_REACTORS
330
A6CA
102
}
330
A6CA
100
DictionaryVariables
280
     0
  1
STANDARD
  0
DICTIONARYVAR
  5
A6D0
102
{ACAD_REACTORS
330
A6CA
102
}
330
A6CA
100
DictionaryVariables
280
     0
  1
1
  0
DICTIONARYVAR
  5
A6CF
102
{ACAD_REACTORS
330
A6CA
102
}
330
A6CA
100
DictionaryVariables
280
     0
  1
0
  0
DICTIONARYVAR
  5
2ED9D
102
{ACAD_REACTORS
330
A6CA
102
}
330
A6CA
100
DictionaryVariables
280
     0
  1
0
  0
DICTIONARYVAR
  5
2ED9C
102
{ACAD_REACTORS
330
A6CA
102
}
330
A6CA
100
DictionaryVariables
280
     0
  1
0
  0
DICTIONARYVAR
  5
A6CE
102
{ACAD_REACTORS
330
A6CA
102
}
330
A6CA
100
DictionaryVariables
280
     0
  1
127
  0
DICTIONARY
  5
2EE66
330
22
100
AcDbDictionary
280
     1
281
     1
  3
ACAD_XREC_ROUNDTRIP
360
2EE67
  0
DICTIONARY
  5
2EE64
330
1E
100
AcDbDictionary
280
     1
281
     1
  3
ACAD_XREC_ROUNDTRIP
360
2EE65
  0
DICTIONARY
  5
2EE68
330
26
100
AcDbDictionary
280
     1
281
     1
  3
ACAD_XREC_ROUNDTRIP
360
2EE69
  0
DICTIONARY
  5
9C6B
330
9C6A
100
AcDbDictionary
280
     1
281
     1
  3
ACAD_XREC_ROUNDTRIP
360
2EE6B
  3
BUMPTILE
360
9C6D
  3
DIFFUSETILE
360
9C6C
  3
OPACITYTILE
360
9C70
  3
REFLECTIONTILE
360
9C6F
  3
REFRACTIONTILE
360
9C71
  3
SPECULARTILE
360
9C6E
  0
DICTIONARY
  5
9C63
330
9C62
100
AcDbDictionary
280
     1
281
     1
  3
ACAD_XREC_ROUNDTRIP
360
2EE6A
  3
BUMPTILE
360
9C65
  3
DIFFUSETILE
360
9C64
  3
OPACITYTILE
360
9C68
  3
REFLECTIONTILE
360
9C67
  3
REFRACTIONTILE
360
9C69
  3
SPECULARTILE
360
9C66
  0
DICTIONARY
  5
9C73
330
9C72
100
AcDbDictionary
280
     1
281
     1
  3
ACAD_XREC_ROUNDTRIP
360
2EE6C
  3
BUMPTILE
360
9C75
  3
DIFFUSETILE
360
9C74
  3
OPACITYTILE
360
9C78
  3
REFLECTIONTILE
360
9C77
  3
REFRACTIONTILE
360
9C79
  3
SPECULARTILE
360
9C76
  0
DICTIONARY
  5
A6AD
330
9C8D
100
AcDbDictionary
280
     1
281
     1
  3
ACAD_ROUNDTRIP_2008_TABLESTYLE_CELLSTYLEMAP
360
2EE5F
  3
ACAD_XREC_ROUNDTRIP
360
2EE6D
  0
XRECORD
  5
2EE67
102
{ACAD_REACTORS
330
2EE66
102
}
330
2EE66
100
AcDbXrecord
280
     1
102
SHADEPLOT
 70
     0
102
SHADEPLOTRESLEVEL
 70
     2
102
SHADEPLOTCUSTOMDPI
 70
   300
  0
XRECORD
  5
2EE65
102
{ACAD_REACTORS
330
2EE64
102
}
330
2EE64
100
AcDbXrecord
280
     1
102
SHADEPLOT
 70
     0
102
SHADEPLOTRESLEVEL
 70
     2
102
SHADEPLOTCUSTOMDPI
 70
   300
  0
XRECORD
  5
2EE69
102
{ACAD_REACTORS
330
2EE68
102
}
330
2EE68
100
AcDbXrecord
280
     1
102
SHADEPLOT
 70
     0
102
SHADEPLOTRESLEVEL
 70
     2
102
SHADEPLOTCUSTOMDPI
 70
   300
  0
XRECORD
  5
2EE6B
102
{ACAD_REACTORS
330
9C6B
102
}
330
9C6B
100
AcDbXrecord
280
     1
102
MATERIAL
148
0.0
149
0.0
149
0.0
 93
        0
 94
      127
282
     0
 72
     0
 77
     0
171
     0
175
     0
179
     0
273
     0
  0
XRECORD
  5
9C6D
102
{ACAD_REACTORS
330
9C6B
102
}
330
9C6B
100
AcDbXrecord
280
     1
270
     1
271
     1
  0
XRECORD
  5
9C6C
102
{ACAD_REACTORS
330
9C6B
102
}
330
9C6B
100
AcDbXrecord
280
     1
270
     1
271
     1
  0
XRECORD
  5
9C70
102
{ACAD_REACTORS
330
9C6B
102
}
330
9C6B
100
AcDbXrecord
280
     1
270
     1
271
     1
  0
XRECORD
  5
9C6F
102
{ACAD_REACTORS
330
9C6B
102
}
330
9C6B
100
AcDbXrecord
280
     1
270
     1
271
     1
  0
XRECORD
  5
9C71
102
{ACAD_REACTORS
330
9C6B
102
}
330
9C6B
100
AcDbXrecord
280
     1
270
     1
271
     1
  0
XRECORD
  5
9C6E
102
{ACAD_REACTORS
330
9C6B
102
}
330
9C6B
100
AcDbXrecord
280
     1
270
     1
271
     1
  0
XRECORD
  5
2EE6A
102
{ACAD_REACTORS
330
9C63
102
}
330
9C63
100
AcDbXrecord
280
     1
102
MATERIAL
148
0.0
149
0.0
149
0.0
 93
        0
 94
      127
282
     0
 72
     0
 77
     0
171
     0
175
     0
179
     0
273
     0
  0
XRECORD
  5
9C65
102
{ACAD_REACTORS
330
9C63
102
}
330
9C63
100
AcDbXrecord
280
     1
270
     1
271
     1
  0
XRECORD
  5
9C64
102
{ACAD_REACTORS
330
9C63
102
}
330
9C63
100
AcDbXrecord
280
     1
270
     1
271
     1
  0
XRECORD
  5
9C68
102
{ACAD_REACTORS
330
9C63
102
}
330
9C63
100
AcDbXrecord
280
     1
270
     1
271
     1
  0
XRECORD
  5
9C67
102
{ACAD_REACTORS
330
9C63
102
}
330
9C63
100
AcDbXrecord
280
     1
270
     1
271
     1
  0
XRECORD
  5
9C69
102
{ACAD_REACTORS
330
9C63
102
}
330
9C63
100
AcDbXrecord
280
     1
270
     1
271
     1
  0
XRECORD
  5
9C66
102
{ACAD_REACTORS
330
9C63
102
}
330
9C63
100
AcDbXrecord
280
     1
270
     1
271
     1
  0
XRECORD
  5
2EE6C
102
{ACAD_REACTORS
330
9C73
102
}
330
9C73
100
AcDbXrecord
280
     1
102
MATERIAL
148
0.0
149
0.0
149
0.0
 93
        0
 94
      127
282
     0
 72
     0
 77
     0
171
     0
175
     0
179
     0
273
     0
  0
XRECORD
  5
9C75
102
{ACAD_REACTORS
330
9C73
102
}
330
9C73
100
AcDbXrecord
280
     1
270
     1
271
     1
  0
XRECORD
  5
9C74
102
{ACAD_REACTORS
330
9C73
102
}
330
9C73
100
AcDbXrecord
280
     1
270
     1
271
     1
  0
XRECORD
  5
9C78
102
{ACAD_REACTORS
330
9C73
102
}
330
9C73
100
AcDbXrecord
280
     1
270
     1
271
     1
  0
XRECORD
  5
9C77
102
{ACAD_REACTORS
330
9C73
102
}
330
9C73
100
AcDbXrecord
280
     1
270
     1
271
     1
  0
XRECORD
  5
9C79
102
{ACAD_REACTORS
330
9C73
102
}
330
9C73
100
AcDbXrecord
280
     1
270
     1
271
     1
  0
XRECORD
  5
9C76
102
{ACAD_REACTORS
330
9C73
102
}
330
9C73
100
AcDbXrecord
280
     1
270
     1
271
     1
  0
CELLSTYLEMAP
  5
2EE5F
102
{ACAD_REACTORS
330
A6AD
102
}
330
A6AD
100
AcDbCellStyleMap
 90
        3
300
CELLSTYLE
  1
TABLEFORMAT_BEGIN
 90
        5
170
     1
 91
        0
 92
    32768
 62
   257
 93
        1
300
CONTENTFORMAT
  1
CONTENTFORMAT_BEGIN
 90
        0
 91
        0
 92
      512
 93
        0
300

 40
0.0
140
1.0
 94
        5
 62
     0
340
11
144
6.0
309
CONTENTFORMAT_END
171
     1
301
MARGIN
  1
CELLMARGIN_BEGIN
 40
1.5
 40
1.5
 40
1.5
 40
1.5
 40
0.18
 40
0.18
309
CELLMARGIN_END
 94
        6
 95
        1
302
GRIDFORMAT
  1
GRIDFORMAT_BEGIN
 90
        0
 91
        1
 62
     0
 92
       -2
340
0
 93
        0
 40
1.125
309
GRIDFORMAT_END
 95
        2
302
GRIDFORMAT
  1
GRIDFORMAT_BEGIN
 90
        0
 91
        1
 62
     0
 92
       -2
340
0
 93
        0
 40
1.125
309
GRIDFORMAT_END
 95
        4
302
GRIDFORMAT
  1
GRIDFORMAT_BEGIN
 90
        0
 91
        1
 62
     0
 92
       -2
340
0
 93
        0
 40
1.125
309
GRIDFORMAT_END
 95
        8
302
GRIDFORMAT
  1
GRIDFORMAT_BEGIN
 90
        0
 91
        1
 62
     0
 92
       -2
340
0
 93
        0
 40
1.125
309
GRIDFORMAT_END
 95
       16
302
GRIDFORMAT
  1
GRIDFORMAT_BEGIN
 90
        0
 91
        1
 62
     0
 92
       -2
340
0
 93
        0
 40
1.125
309
GRIDFORMAT_END
 95
       32
302
GRIDFORMAT
  1
GRIDFORMAT_BEGIN
 90
        0
 91
        1
 62
     0
 92
       -2
340
0
 93
        0
 40
1.125
309
GRIDFORMAT_END
309
TABLEFORMAT_END
  1
CELLSTYLE_BEGIN
 90
        1
 91
        1
300
_TITLE
309
CELLSTYLE_END
300
CELLSTYLE
  1
TABLEFORMAT_BEGIN
 90
        5
170
     1
 91
        0
 92
        0
 62
   257
 93
        1
300
CONTENTFORMAT
  1
CONTENTFORMAT_BEGIN
 90
        0
 91
        0
 92
      512
 93
        0
300

 40
0.0
140
1.0
 94
        5
 62
     0
340
11
144
4.5
309
CONTENTFORMAT_END
171
     1
301
MARGIN
  1
CELLMARGIN_BEGIN
 40
1.5
 40
1.5
 40
1.5
 40
1.5
 40
0.18
 40
0.18
309
CELLMARGIN_END
 94
        6
 95
        1
302
GRIDFORMAT
  1
GRIDFORMAT_BEGIN
 90
        0
 91
        1
 62
     0
 92
       -2
340
0
 93
        0
 40
1.125
309
GRIDFORMAT_END
 95
        2
302
GRIDFORMAT
  1
GRIDFORMAT_BEGIN
 90
        0
 91
        1
 62
     0
 92
       -2
340
0
 93
        0
 40
1.125
309
GRIDFORMAT_END
 95
        4
302
GRIDFORMAT
  1
GRIDFORMAT_BEGIN
 90
        0
 91
        1
 62
     0
 92
       -2
340
0
 93
        0
 40
1.125
309
GRIDFORMAT_END
 95
        8
302
GRIDFORMAT
  1
GRIDFORMAT_BEGIN
 90
        0
 91
        1
 62
     0
 92
       -2
340
0
 93
        0
 40
1.125
309
GRIDFORMAT_END
 95
       16
302
GRIDFORMAT
  1
GRIDFORMAT_BEGIN
 90
        0
 91
        1
 62
     0
 92
       -2
340
0
 93
        0
 40
1.125
309
GRIDFORMAT_END
 95
       32
302
GRIDFORMAT
  1
GRIDFORMAT_BEGIN
 90
        0
 91
        1
 62
     0
 92
       -2
340
0
 93
        0
 40
1.125
309
GRIDFORMAT_END
309
TABLEFORMAT_END
  1
CELLSTYLE_BEGIN
 90
        2
 91
        1
300
_HEADER
309
CELLSTYLE_END
300
CELLSTYLE
  1
TABLEFORMAT_BEGIN
 90
        5
170
     1
 91
        0
 92
        0
 62
   257
 93
        1
300
CONTENTFORMAT
  1
CONTENTFORMAT_BEGIN
 90
        0
 91
        0
 92
      512
 93
        0
300

 40
0.0
140
1.0
 94
        2
 62
     0
340
11
144
4.5
309
CONTENTFORMAT_END
171
     1
301
MARGIN
  1
CELLMARGIN_BEGIN
 40
1.5
 40
1.5
 40
1.5
 40
1.5
 40
0.18
 40
0.18
309
CELLMARGIN_END
 94
        6
 95
        1
302
GRIDFORMAT
  1
GRIDFORMAT_BEGIN
 90
        0
 91
        1
 62
     0
 92
       -2
340
0
 93
        0
 40
1.125
309
GRIDFORMAT_END
 95
        2
302
GRIDFORMAT
  1
GRIDFORMAT_BEGIN
 90
        0
 91
        1
 62
     0
 92
       -2
340
0
 93
        0
 40
1.125
309
GRIDFORMAT_END
 95
        4
302
GRIDFORMAT
  1
GRIDFORMAT_BEGIN
 90
        0
 91
        1
 62
     0
 92
       -2
340
0
 93
        0
 40
1.125
309
GRIDFORMAT_END
 95
        8
302
GRIDFORMAT
  1
GRIDFORMAT_BEGIN
 90
        0
 91
        1
 62
     0
 92
       -2
340
0
 93
        0
 40
1.125
309
GRIDFORMAT_END
 95
       16
302
GRIDFORMAT
  1
GRIDFORMAT_BEGIN
 90
        0
 91
        1
 62
     0
 92
       -2
340
0
 93
        0
 40
1.125
309
GRIDFORMAT_END
 95
       32
302
GRIDFORMAT
  1
GRIDFORMAT_BEGIN
 90
        0
 91
        1
 62
     0
 92
       -2
340
0
 93
        0
 40
1.125
309
GRIDFORMAT_END
309
TABLEFORMAT_END
  1
CELLSTYLE_BEGIN
 90
        3
 91
        2
300
_DATA
309
CELLSTYLE_END
  0
XRECORD
  5
2EE6D
102
{ACAD_REACTORS
330
A6AD
102
}
330
A6AD
100
AcDbXrecord
280
     1
102
ACAD_ROUNDTRIP_PRE2007_TABLESTYLE
 90
      512
 91
        0
  1

 92
      512
 93
        0
  2

 94
      512
 95
        0
  3

  0
ENDSEC
  0
EOF
