  0
SECTION
  2
HEADER
  9
$ACADVER
  1
AC1015
  9
$ACADMAINTVER
 70
    20
  9
$DWGCODEPAGE
  3
ANSI_932
  9
$INSBASE
 10
0.0
 20
0.0
 30
0.0
  9
$EXTMIN
 10
20.0000000000001
 20
21.0
 30
0.0
  9
$EXTMAX
 10
809.9999999999996
 20
558.0
 30
0.0
  9
$LIMMIN
 10
0.0
 20
0.0
  9
$LIMMAX
 10
840.0
 20
594.0
  9
$ORTHOMODE
 70
     0
  9
$REGENMODE
 70
     1
  9
$FILLMODE
 70
     1
  9
$QTEXTMODE
 70
     0
  9
$MIRRTEXT
 70
     0
  9
$LTSCALE
 40
1.0
  9
$ATTMODE
 70
     1
  9
$TEXTSIZE
 40
3.0
  9
$TRACEWID
 40
1.0
  9
$TEXTSTYLE
  7
AT_VECTOR
  9
$CLAYER
  8
003
  9
$CELTYPE
  6
ByLayer
  9
$CECOLOR
 62
   256
  9
$CELTSCALE
 40
1.0
  9
$DISPSILH
 70
     0
  9
$DIMSCALE
 40
2.0
  9
$DIMASZ
 40
1.5
  9
$DIMEXO
 40
1.5
  9
$DIMDLI
 40
7.0
  9
$DIMRND
 40
0.0
  9
$DIMDLE
 40
0.0
  9
$DIMEXE
 40
1.0
  9
$DIMTP
 40
0.0
  9
$DIMTM
 40
0.0
  9
$DIMTXT
 40
3.0
  9
$DIMCEN
 40
0.0
  9
$DIMTSZ
 40
0.0
  9
$DIMTOL
 70
     0
  9
$DIMLIM
 70
     0
  9
$DIMTIH
 70
     0
  9
$DIMTOH
 70
     0
  9
$DIMSE1
 70
     0
  9
$DIMSE2
 70
     0
  9
$DIMTAD
 70
     1
  9
$DIMZIN
 70
     8
  9
$DIMBLK
  1
Open30
  9
$DIMASO
 70
     1
  9
$DIMSHO
 70
     1
  9
$DIMPOST
  1

  9
$DIMAPOST
  1

  9
$DIMALT
 70
     0
  9
$DIMALTD
 70
     3
  9
$DIMALTF
 40
0.03937007874016
  9
$DIMLFAC
 40
1.0
  9
$DIMTOFL
 70
     1
  9
$DIMTVP
 40
0.0
  9
$DIMTIX
 70
     0
  9
$DIMSOXD
 70
     0
  9
$DIMSAH
 70
     0
  9
$DIMBLK1
  1

  9
$DIMBLK2
  1

  9
$DIMSTYLE
  2
DIM
  9
$DIMCLRD
 70
     4
  9
$DIMCLRE
 70
     4
  9
$DIMCLRT
 70
     7
  9
$DIMTFAC
 40
1.0
  9
$DIMGAP
 40
1.0
  9
$DIMJUST
 70
     0
  9
$DIMSD1
 70
     0
  9
$DIMSD2
 70
     0
  9
$DIMTOLJ
 70
     0
  9
$DIMTZIN
 70
     8
  9
$DIMALTZ
 70
     0
  9
$DIMALTTZ
 70
     0
  9
$DIMUPT
 70
     0
  9
$DIMDEC
 70
     2
  9
$DIMTDEC
 70
     2
  9
$DIMALTU
 70
     2
  9
$DIMALTTD
 70
     3
  9
$DIMTXSTY
  7
DIM
  9
$DIMAUNIT
 70
     0
  9
$DIMADEC
 70
     0
  9
$DIMALTRND
 40
0.0
  9
$DIMAZIN
 70
     0
  9
$DIMDSEP
 70
    46
  9
$DIMATFIT
 70
     3
  9
$DIMFRAC
 70
     0
  9
$DIMLDRBLK
  1
Open30
  9
$DIMLUNIT
 70
     2
  9
$DIMLWD
 70
    20
  9
$DIMLWE
 70
    20
  9
$DIMTMOVE
 70
     0
  9
$LUNITS
 70
     2
  9
$LUPREC
 70
     4
  9
$SKETCHINC
 40
1.0
  9
$FILLETRAD
 40
0.0
  9
$AUNITS
 70
     0
  9
$AUPREC
 70
     0
  9
$MENU
  1
.
  9
$ELEVATION
 40
0.0
  9
$PELEVATION
 40
0.0
  9
$THICKNESS
 40
0.0
  9
$LIMCHECK
 70
     0
  9
$CHAMFERA
 40
10.0
  9
$CHAMFERB
 40
10.0
  9
$CHAMFERC
 40
20.0
  9
$CHAMFERD
 40
0.0
  9
$SKPOLY
 70
     0
  9
$TDCREATE
 40
2452888.428849190
  9
$TDUCREATE
 40
2452888.053849190
  9
$TDUPDATE
 40
2455959.452076817
  9
$TDUUPDATE
 40
2455959.077076817
  9
$TDINDWG
 40
0.5967484954
  9
$TDUSRTIMER
 40
0.5967484954
  9
$USRTIMER
 70
     1
  9
$ANGBASE
 50
0.0
  9
$ANGDIR
 70
     0
  9
$PDMODE
 70
     0
  9
$PDSIZE
 40
0.0
  9
$PLINEWID
 40
0.0
  9
$SPLFRAME
 70
     0
  9
$SPLINETYPE
 70
     6
  9
$SPLINESEGS
 70
     8
  9
$HANDSEED
  5
1C081
  9
$SURFTAB1
 70
     6
  9
$SURFTAB2
 70
     6
  9
$SURFTYPE
 70
     6
  9
$SURFU
 70
     6
  9
$SURFV
 70
     6
  9
$UCSBASE
  2

  9
$UCSNAME
  2

  9
$UCSORG
 10
0.0
 20
0.0
 30
0.0
  9
$UCSXDIR
 10
1.0
 20
0.0
 30
0.0
  9
$UCSYDIR
 10
0.0
 20
1.0
 30
0.0
  9
$UCSORTHOREF
  2

  9
$UCSORTHOVIEW
 70
     0
  9
$UCSORGTOP
 10
0.0
 20
0.0
 30
0.0
  9
$UCSORGBOTTOM
 10
0.0
 20
0.0
 30
0.0
  9
$UCSORGLEFT
 10
0.0
 20
0.0
 30
0.0
  9
$UCSORGRIGHT
 10
0.0
 20
0.0
 30
0.0
  9
$UCSORGFRONT
 10
0.0
 20
0.0
 30
0.0
  9
$UCSORGBACK
 10
0.0
 20
0.0
 30
0.0
  9
$PUCSBASE
  2

  9
$PUCSNAME
  2

  9
$PUCSORG
 10
0.0
 20
0.0
 30
0.0
  9
$PUCSXDIR
 10
1.0
 20
0.0
 30
0.0
  9
$PUCSYDIR
 10
0.0
 20
1.0
 30
0.0
  9
$PUCSORTHOREF
  2

  9
$PUCSORTHOVIEW
 70
     0
  9
$PUCSORGTOP
 10
0.0
 20
0.0
 30
0.0
  9
$PUCSORGBOTTOM
 10
0.0
 20
0.0
 30
0.0
  9
$PUCSORGLEFT
 10
0.0
 20
0.0
 30
0.0
  9
$PUCSORGRIGHT
 10
0.0
 20
0.0
 30
0.0
  9
$PUCSORGFRONT
 10
0.0
 20
0.0
 30
0.0
  9
$PUCSORGBACK
 10
0.0
 20
0.0
 30
0.0
  9
$USERI1
 70
     0
  9
$USERI2
 70
     0
  9
$USERI3
 70
     0
  9
$USERI4
 70
     0
  9
$USERI5
 70
     0
  9
$USERR1
 40
0.0
  9
$USERR2
 40
0.0
  9
$USERR3
 40
0.0
  9
$USERR4
 40
0.0
  9
$USERR5
 40
0.0
  9
$WORLDVIEW
 70
     1
  9
$SHADEDGE
 70
     3
  9
$SHADEDIF
 70
    70
  9
$TILEMODE
 70
     1
  9
$MAXACTVP
 70
    48
  9
$PINSBASE
 10
0.0
 20
0.0
 30
0.0
  9
$PLIMCHECK
 70
     0
  9
$PEXTMIN
 10
1.000000000000000E+20
 20
1.000000000000000E+20
 30
1.000000000000000E+20
  9
$PEXTMAX
 10
-1.000000000000000E+20
 20
-1.000000000000000E+20
 30
-1.000000000000000E+20
  9
$PLIMMIN
 10
0.0
 20
0.0
  9
$PLIMMAX
 10
420.0
 20
297.0
  9
$UNITMODE
 70
     0
  9
$VISRETAIN
 70
     1
  9
$PLINEGEN
 70
     0
  9
$PSLTSCALE
 70
     1
  9
$TREEDEPTH
 70
  3020
  9
$CMLSTYLE
  2
Standard
  9
$CMLJUST
 70
     0
  9
$CMLSCALE
 40
20.0
  9
$PROXYGRAPHICS
 70
     1
  9
$MEASUREMENT
 70
     0
  9
$CELWEIGHT
370
    -1
  9
$ENDCAPS
280
     0
  9
$JOINSTYLE
280
     0
  9
$LWDISPLAY
290
     0
  9
$INSUNITS
 70
     4
  9
$HYPERLINKBASE
  1

  9
$STYLESHEET
  1
EPSON.ctb
  9
$XEDIT
290
     1
  9
$CEPSNTYPE
380
     0
  9
$PSTYLEMODE
290
     1
  9
$FINGERPRINTGUID
  2
{9AEAB59C-DF80-11D7-8237-004026CDA8AB}
  9
$VERSIONGUID
  2
{4F6089CE-57A9-4B0C-93BF-2D8C13463A69}
  9
$EXTNAMES
290
     1
  9
$PSVPSCALE
 40
0.0
  9
$OLESTARTUP
290
     0
  0
ENDSEC
  0
SECTION
  2
CLASSES
  0
CLASS
  1
ACDBDICTIONARYWDFLT
  2
AcDbDictionaryWithDefault
  3
ObjectDBX Classes
 90
        0
280
     0
281
     0
  0
CLASS
  1
ACDBPLACEHOLDER
  2
AcDbPlaceHolder
  3
ObjectDBX Classes
 90
        0
280
     0
281
     0
  0
CLASS
  1
LAYOUT
  2
AcDbLayout
  3
ObjectDBX Classes
 90
        0
280
     0
281
     0
  0
CLASS
  1
MATERIAL
  2
AcDbMaterial
  3
ObjectDBX Classes
 90
     1153
280
     0
281
     0
  0
CLASS
  1
VISUALSTYLE
  2
AcDbVisualStyle
  3
ObjectDBX Classes
 90
     4095
280
     0
281
     0
  0
CLASS
  1
TABLESTYLE
  2
AcDbTableStyle
  3
ObjectDBX Classes
 90
     4095
280
     0
281
     0
  0
CLASS
  1
SCALE
  2
AcDbScale
  3
ObjectDBX Classes
 90
     1153
280
     0
281
     0
  0
CLASS
  1
MLEADERSTYLE
  2
AcDbMLeaderStyle
  3
ACDB_MLEADERSTYLE_CLASS
 90
     4095
280
     0
281
     0
  0
CLASS
  1
SORTENTSTABLE
  2
AcDbSortentsTable
  3
ObjectDBX Classes
 90
        0
280
     0
281
     0
  0
CLASS
  1
CELLSTYLEMAP
  2
AcDbCellStyleMap
  3
ObjectDBX Classes
 90
     1152
280
     0
281
     0
  0
CLASS
  1
DICTIONARYVAR
  2
AcDbDictionaryVar
  3
ObjectDBX Classes
 90
        0
280
     0
281
     0
  0
CLASS
  1
MULTILEADER
  2
AcDbMLeader
  3
ACDB_MLEADER_CLASS
 90
    33793
280
     0
281
     1
  0
ENDSEC
  0
SECTION
  2
TABLES
  0
TABLE
  2
VPORT
  5
8
102
{ACAD_XDICTIONARY
360
1BF4F
102
}
330
0
100
AcDbSymbolTable
 70
     1
  0
VPORT
  5
E3D4
330
8
100
AcDbSymbolTableRecord
100
AcDbViewportTableRecord
  2
*Active
 70
     0
 10
0.0
 20
0.0
 11
1.0
 21
1.0
 12
429.1987704856414
 22
301.2591534041338
 13
0.0
 23
0.0
 14
10.0
 24
10.0
 15
10.0
 25
10.0
 16
0.0
 26
0.0
 36
1.0
 17
0.0
 27
0.0
 37
0.0
 40
607.2576327681865
 41
1.590250329380764
 42
50.0
 43
0.0
 44
0.0
 50
0.0
 51
0.0
 71
     0
 72
   100
 73
     1
 74
     3
 75
     0
 76
     0
 77
     0
 78
     0
281
     0
 65
     1
110
0.0
120
0.0
130
0.0
111
1.0
121
0.0
131
0.0
112
0.0
122
1.0
132
0.0
 79
     0
146
0.0
  0
ENDTAB
  0
TABLE
  2
LTYPE
  5
5
330
0
100
AcDbSymbolTable
 70
     3
  0
LTYPE
  5
14
330
5
100
AcDbSymbolTableRecord
100
AcDbLinetypeTableRecord
  2
ByBlock
 70
     0
  3

 72
    65
 73
     0
 40
0.0
  0
LTYPE
  5
15
330
5
100
AcDbSymbolTableRecord
100
AcDbLinetypeTableRecord
  2
ByLayer
 70
     0
  3

 72
    65
 73
     0
 40
0.0
  0
LTYPE
  5
16
330
5
100
AcDbSymbolTableRecord
100
AcDbLinetypeTableRecord
  2
Continuous
 70
     0
  3
Solid line
 72
    65
 73
     0
 40
0.0
  0
LTYPE
  5
19D
330
5
100
AcDbSymbolTableRecord
100
AcDbLinetypeTableRecord
  2
ACAD_ISO04W100
 70
     0
  3
ISO long-dash dot ____ . ____ . ____ . ____ . _
 72
    65
 73
     4
 40
30.0
 49
24.0
 74
     0
 49
-3.0
 74
     0
 49
0.0
 74
     0
 49
-3.0
 74
     0
  0
LTYPE
  5
19E
330
5
100
AcDbSymbolTableRecord
100
AcDbLinetypeTableRecord
  2
ACAD_ISO02W100
 70
     0
  3
ISO dash __ __ __ __ __ __ __ __ __ __ __ __ __
 72
    65
 73
     2
 40
15.0
 49
12.0
 74
     0
 49
-3.0
 74
     0
  0
ENDTAB
  0
TABLE
  2
LAYER
  5
2
102
{ACAD_XDICTIONARY
360
2859
102
}
330
0
100
AcDbSymbolTable
 70
     7
  0
LAYER
  5
10
102
{ACAD_XDICTIONARY
360
F074
102
}
330
2
100
AcDbSymbolTableRecord
100
AcDbLayerTableRecord
  2
0
 70
     0
 62
     7
  6
Continuous
370
    25
390
F
  0
LAYER
  5
31
102
{ACAD_XDICTIONARY
360
F076
102
}
330
2
100
AcDbSymbolTableRecord
100
AcDbLayerTableRecord
  2
001
 70
     0
 62
     5
  6
Continuous
370
    70
390
F
  0
LAYER
  5
33
102
{ACAD_XDICTIONARY
360
F07A
102
}
330
2
100
AcDbSymbolTableRecord
100
AcDbLayerTableRecord
  2
003
 70
     0
 62
     2
  6
Continuous
370
    25
390
F
  0
LAYER
  5
1A4
102
{ACAD_XDICTIONARY
360
F080
102
}
330
2
100
AcDbSymbolTableRecord
100
AcDbLayerTableRecord
  2
006
 70
     0
 62
     4
  6
ACAD_ISO04W100
370
    20
390
F
  0
LAYER
  5
1A5
102
{ACAD_XDICTIONARY
360
F082
102
}
330
2
100
AcDbSymbolTableRecord
100
AcDbLayerTableRecord
  2
007
 70
     0
 62
     4
  6
ACAD_ISO02W100
370
    20
390
F
  0
LAYER
  5
1A8
330
2
100
AcDbSymbolTableRecord
100
AcDbLayerTableRecord
  2
Defpoints
 70
     0
 62
     7
  6
Continuous
290
     0
370
    25
390
F
  0
LAYER
  5
2B1
102
{ACAD_XDICTIONARY
360
F088
102
}
330
2
100
AcDbSymbolTableRecord
100
AcDbLayerTableRecord
  2
010
 70
     0
 62
     4
  6
Continuous
370
    20
390
F
  0
ENDTAB
  0
TABLE
  2
STYLE
  5
3
330
0
100
AcDbSymbolTable
 70
     3
  0
STYLE
  5
11
330
3
100
AcDbSymbolTableRecord
100
AcDbTextStyleTableRecord
  2
Standard
 70
     0
 40
0.0
 41
1.0
 50
0.0
 71
     0
 42
2.5
  3
txt
  4

  0
STYLE
  5
34
330
3
100
AcDbSymbolTableRecord
100
AcDbTextStyleTableRecord
  2
DIM
 70
     0
 40
0.0
 41
0.75
 50
0.0
 71
     0
 42
60.0
  3
romans.shx
  4
extfont.shx
  0
STYLE
  5
35
330
3
100
AcDbSymbolTableRecord
100
AcDbTextStyleTableRecord
  2
AT_VECTOR
 70
     0
 40
0.0
 41
1.0
 50
0.0
 71
     0
 42
3.0
  3
romans.shx
  4
extfont.shx
  0
ENDTAB
  0
TABLE
  2
VIEW
  5
6
330
0
100
AcDbSymbolTable
 70
     0
  0
ENDTAB
  0
TABLE
  2
UCS
  5
7
330
0
100
AcDbSymbolTable
 70
     0
  0
ENDTAB
  0
TABLE
  2
APPID
  5
9
330
0
100
AcDbSymbolTable
 70
    12
  0
APPID
  5
12
330
9
100
AcDbSymbolTableRecord
100
AcDbRegAppTableRecord
  2
ACAD
 70
     0
  0
APPID
  5
3DA
330
9
100
AcDbSymbolTableRecord
100
AcDbRegAppTableRecord
  2
BS2_OSAMARI_KUTAI
 70
     0
  0
APPID
  5
3DB
330
9
100
AcDbSymbolTableRecord
100
AcDbRegAppTableRecord
  2
BS2_OSAMARI_ISIAGE
 70
     0
  0
APPID
  5
3DC
330
9
100
AcDbSymbolTableRecord
100
AcDbRegAppTableRecord
  2
BS2_OSAMARI_IMOKU
 70
     0
  0
APPID
  5
3DD
330
9
100
AcDbSymbolTableRecord
100
AcDbRegAppTableRecord
  2
BS2_OSAMARI_OSIAGE
 70
     0
  0
APPID
  5
3DE
330
9
100
AcDbSymbolTableRecord
100
AcDbRegAppTableRecord
  2
BS2_OSAMARI_OFZK
 70
     0
  0
APPID
  5
E427
330
9
100
AcDbSymbolTableRecord
100
AcDbRegAppTableRecord
  2
ACAD_MLEADERVER
 70
     0
  0
APPID
  5
F13C
330
9
100
AcDbSymbolTableRecord
100
AcDbRegAppTableRecord
  2
ACAD_EXEMPT_FROM_CAD_STANDARDS
 70
     0
  0
APPID
  5
F7FB
330
9
100
AcDbSymbolTableRecord
100
AcDbRegAppTableRecord
  2
ACAD_PSEXT
 70
     0
  0
APPID
  5
150DE
330
9
100
AcDbSymbolTableRecord
100
AcDbRegAppTableRecord
  2
ACAD_DSTYLE_DIMJAG
 70
     0
  0
APPID
  5
150DF
330
9
100
AcDbSymbolTableRecord
100
AcDbRegAppTableRecord
  2
ACAD_DSTYLE_DIMTALN
 70
     0
  0
APPID
  5
1BF6B
330
9
100
AcDbSymbolTableRecord
100
AcDbRegAppTableRecord
  2
CONTENTBLOCKICON
 70
     0
  0
ENDTAB
  0
TABLE
  2
DIMSTYLE
  5
A
330
0
100
AcDbSymbolTable
 70
     2
100
AcDbDimStyleTable
 71
     1
340
38
  0
DIMSTYLE
105
38
102
{ACAD_REACTORS
330
177BE
330
1BD1B
330
1BD28
330
1BDFC
330
1BE12
330
1BE9D
330
1BEAA
102
}
330
A
100
AcDbSymbolTableRecord
100
AcDbDimStyleTableRecord
  2
DIM
 70
     0
 40
2.0
 41
1.5
 42
1.5
 43
7.0
 44
1.0
 73
     0
 74
     0
 77
     1
 78
     8
140
3.0
141
0.0
143
0.03937007874016
147
1.0
171
     3
172
     1
176
     4
177
     4
178
     7
271
     2
272
     2
274
     3
283
     0
284
     8
340
34
341
2B
342
2B
371
    20
372
    20
  0
DIMSTYLE
105
1A9
330
A
100
AcDbSymbolTableRecord
100
AcDbDimStyleTableRecord
  2
Standard
 70
     0
340
11
  0
ENDTAB
  0
TABLE
  2
BLOCK_RECORD
  5
1
330
0
100
AcDbSymbolTable
 70
     9
  0
BLOCK_RECORD
  5
1F
102
{ACAD_XDICTIONARY
360
F144
102
}
330
1
100
AcDbSymbolTableRecord
100
AcDbBlockTableRecord
  2
*Model_Space
340
22
  0
BLOCK_RECORD
  5
1B
102
{ACAD_XDICTIONARY
360
1BF16
102
}
330
1
100
AcDbSymbolTableRecord
100
AcDbBlockTableRecord
  2
*Paper_Space
340
1E
  0
BLOCK_RECORD
  5
23
102
{ACAD_XDICTIONARY
360
1BF18
102
}
330
1
100
AcDbSymbolTableRecord
100
AcDbBlockTableRecord
  2
*Paper_Space0
340
26
  0
BLOCK_RECORD
  5
2B
330
1
100
AcDbSymbolTableRecord
100
AcDbBlockTableRecord
  2
_Open30
340
0
102
{BLKREFS
331
1BDD0
331
1BDD1
331
1BDBE
331
1BDBF
331
1BDC7
331
1BDC8
331
1BE0C
331
1BE0D
331
1BE22
331
1BE23
331
1BEEB
331
1BEEC
331
1BEF4
331
1BEF5
102
}
  0
BLOCK_RECORD
  5
177BF
330
1
100
AcDbSymbolTableRecord
100
AcDbBlockTableRecord
  2
*D2
340
0
  0
BLOCK_RECORD
  5
1BD1C
330
1
100
AcDbSymbolTableRecord
100
AcDbBlockTableRecord
  2
*D3
340
0
  0
BLOCK_RECORD
  5
1BD29
330
1
100
AcDbSymbolTableRecord
100
AcDbBlockTableRecord
  2
*D4
340
0
  0
BLOCK_RECORD
  5
1BDFD
330
1
100
AcDbSymbolTableRecord
100
AcDbBlockTableRecord
  2
*D5
340
0
  0
BLOCK_RECORD
  5
1BE13
330
1
100
AcDbSymbolTableRecord
100
AcDbBlockTableRecord
  2
*D6
340
0
  0
BLOCK_RECORD
  5
1BE9E
330
1
100
AcDbSymbolTableRecord
100
AcDbBlockTableRecord
  2
*D7
340
0
  0
BLOCK_RECORD
  5
1BEAB
330
1
100
AcDbSymbolTableRecord
100
AcDbBlockTableRecord
  2
*D8
340
0
  0
ENDTAB
  0
ENDSEC
  0
SECTION
  2
BLOCKS
  0
BLOCK
  5
20
330
1F
100
AcDbEntity
  8
0
100
AcDbBlockBegin
  2
*Model_Space
 70
     0
 10
0.0
 20
0.0
 30
0.0
  3
*Model_Space
  1

  0
ENDBLK
  5
21
330
1F
100
AcDbEntity
  8
0
100
AcDbBlockEnd
  0
BLOCK
  5
1C
330
1B
100
AcDbEntity
 67
     1
  8
0
100
AcDbBlockBegin
  2
*Paper_Space
 70
     0
 10
0.0
 20
0.0
 30
0.0
  3
*Paper_Space
  1

  0
ENDBLK
  5
1D
330
1B
100
AcDbEntity
 67
     1
  8
0
100
AcDbBlockEnd
  0
BLOCK
  5
24
330
23
100
AcDbEntity
 67
     1
  8
0
100
AcDbBlockBegin
  2
*Paper_Space0
 70
     0
 10
0.0
 20
0.0
 30
0.0
  3
*Paper_Space0
  1

  0
ENDBLK
  5
25
330
23
100
AcDbEntity
 67
     1
  8
0
100
AcDbBlockEnd
  0
BLOCK
  5
2F
330
2B
100
AcDbEntity
  8
0
100
AcDbBlockBegin
  2
_Open30
 70
     0
 10
0.0
 20
0.0
 30
0.0
  3
_Open30
  1

  0
LINE
  5
2C
330
2B
100
AcDbEntity
  8
0
  6
ByBlock
 62
     0
370
    -2
100
AcDbLine
 10
-1.0
 20
0.26794919
 30
0.0
 11
0.0
 21
0.0
 31
0.0
  0
LINE
  5
2D
330
2B
100
AcDbEntity
  8
0
  6
ByBlock
 62
     0
370
    -2
100
AcDbLine
 10
0.0
 20
0.0
 30
0.0
 11
-1.0
 21
-0.26794919
 31
0.0
  0
LINE
  5
2E
330
2B
100
AcDbEntity
  8
0
  6
ByBlock
 62
     0
370
    -2
100
AcDbLine
 10
0.0
 20
0.0
 30
0.0
 11
-1.0
 21
0.0
 31
0.0
  0
ENDBLK
  5
30
330
2B
100
AcDbEntity
  8
0
100
AcDbBlockEnd
  0
BLOCK
  5
177C0
330
177BF
100
AcDbEntity
  8
0
100
AcDbBlockBegin
  2
*D2
 70
     1
 10
0.0
 20
0.0
 30
0.0
  3
*D2
  1

  0
LINE
  5
1BDCD
330
177BF
100
AcDbEntity
  8
003
 62
     4
370
    20
100
AcDbLine
 10
470.916187098128
 20
309.6894211555722
 30
0.0
 11
470.916187098128
 21
274.0309622390466
 31
0.0
  0
LINE
  5
1BDCE
330
177BF
100
AcDbEntity
  8
003
 62
     4
370
    20
100
AcDbLine
 10
660.5176259365174
 20
309.6894211555722
 30
0.0
 11
660.5176259365174
 21
274.0309622390466
 31
0.0
  0
LINE
  5
1BDCF
330
177BF
100
AcDbEntity
  8
003
 62
     4
370
    20
100
AcDbLine
 10
473.916187098128
 20
276.0309622390466
 30
0.0
 11
657.5176259365174
 21
276.0309622390466
 31
0.0
  0
INSERT
  5
1BDD0
330
177BF
100
AcDbEntity
  8
003
 62
     4
370
    20
100
AcDbBlockReference
  2
_Open30
 10
470.916187098128
 20
276.0309622390466
 30
0.0
 41
3.0
 42
3.0
 43
3.0
 50
180.0
  0
INSERT
  5
1BDD1
330
177BF
100
AcDbEntity
  8
003
 62
     4
370
    20
100
AcDbBlockReference
  2
_Open30
 10
660.5176259365174
 20
276.0309622390466
 30
0.0
 41
3.0
 42
3.0
 43
3.0
  0
MTEXT
  5
1BDD2
330
177BF
100
AcDbEntity
  8
003
 62
     7
100
AcDbMText
 10
565.7169065173227
 20
281.0309622390466
 30
0.0
 40
6.0
 41
0.0
 71
     5
 72
     1
  1
開口W
  7
DIM
 73
     1
 44
1.0
1001
ACAD
1000
MTEXTBEGIN
1070
    73
1070
     1
1070
    44
1040
1.0
1070
    74
1070
     0
1000
MTEXTEND
  0
POINT
  5
1BDD3
330
177BF
100
AcDbEntity
  8
Defpoints
 62
     0
100
AcDbPoint
 10
470.916187098128
 20
312.6894211555722
 30
0.0
  0
POINT
  5
1BDD4
330
177BF
100
AcDbEntity
  8
Defpoints
 62
     0
100
AcDbPoint
 10
660.5176259365174
 20
312.6894211555722
 30
0.0
  0
POINT
  5
1BDD5
330
177BF
100
AcDbEntity
  8
Defpoints
 62
     0
100
AcDbPoint
 10
660.5176259365174
 20
276.0309622390466
 30
0.0
  0
ENDBLK
  5
177C1
330
177BF
100
AcDbEntity
  8
0
100
AcDbBlockEnd
  0
BLOCK
  5
1BD1D
330
1BD1C
100
AcDbEntity
  8
0
100
AcDbBlockBegin
  2
*D3
 70
     1
 10
0.0
 20
0.0
 30
0.0
  3
*D3
  1

  0
LINE
  5
1BDBB
330
1BD1C
100
AcDbEntity
  8
003
 62
     4
370
    20
100
AcDbLine
 10
242.7395383245154
 20
341.5474650772119
 30
0.0
 11
242.7395383245154
 21
325.2812112005608
 31
0.0
  0
LINE
  5
1BDBC
330
1BD1C
100
AcDbEntity
  8
003
 62
     4
370
    20
100
AcDbLine
 10
272.7395383245154
 20
341.4028041365384
 30
0.0
 11
272.7395383245154
 21
325.2812112005608
 31
0.0
  0
LINE
  5
1BDBD
330
1BD1C
100
AcDbEntity
  8
003
 62
     4
370
    20
100
AcDbLine
 10
245.7395383245153
 20
327.2812112005608
 30
0.0
 11
269.7395383245154
 21
327.2812112005608
 31
0.0
  0
INSERT
  5
1BDBE
330
1BD1C
100
AcDbEntity
  8
003
 62
     4
370
    20
100
AcDbBlockReference
  2
_Open30
 10
242.7395383245154
 20
327.2812112005608
 30
0.0
 41
3.0
 42
3.0
 43
3.0
 50
180.0
  0
INSERT
  5
1BDBF
330
1BD1C
100
AcDbEntity
  8
003
 62
     4
370
    20
100
AcDbBlockReference
  2
_Open30
 10
272.7395383245154
 20
327.2812112005608
 30
0.0
 41
3.0
 42
3.0
 43
3.0
  0
MTEXT
  5
1BDC0
330
1BD1C
100
AcDbEntity
  8
003
 62
     7
100
AcDbMText
 10
257.7395383245153
 20
332.2812112005609
 30
0.0
 40
6.0
 41
0.0
 71
     5
 72
     1
  1
（　　）
  7
DIM
 73
     1
 44
1.0
1001
ACAD
1000
MTEXTBEGIN
1070
    73
1070
     1
1070
    44
1040
1.0
1070
    74
1070
     0
1000
MTEXTEND
  0
POINT
  5
1BDC1
330
1BD1C
100
AcDbEntity
  8
Defpoints
 62
     0
100
AcDbPoint
 10
242.7395383245154
 20
344.547465077212
 30
0.0
  0
POINT
  5
1BDC2
330
1BD1C
100
AcDbEntity
  8
Defpoints
 62
     0
100
AcDbPoint
 10
272.7395383245154
 20
344.4028041365385
 30
0.0
  0
POINT
  5
1BDC3
330
1BD1C
100
AcDbEntity
  8
Defpoints
 62
     0
100
AcDbPoint
 10
272.7395383245154
 20
327.2812112005608
 30
0.0
  0
ENDBLK
  5
1BD1E
330
1BD1C
100
AcDbEntity
  8
0
100
AcDbBlockEnd
  0
BLOCK
  5
1BD2A
330
1BD29
100
AcDbEntity
  8
0
100
AcDbBlockBegin
  2
*D4
 70
     1
 10
0.0
 20
0.0
 30
0.0
  3
*D4
  1

  0
LINE
  5
1BDC4
330
1BD29
100
AcDbEntity
  8
003
 62
     4
370
    20
100
AcDbLine
 10
239.7395383245153
 20
404.4028041365384
 30
0.0
 11
231.8867744571144
 21
404.4028041365384
 31
0.0
  0
LINE
  5
1BDC5
330
1BD29
100
AcDbEntity
  8
003
 62
     4
370
    20
100
AcDbLine
 10
239.7395383245153
 20
344.4028041365385
 30
0.0
 11
231.8867744571144
 21
344.4028041365385
 31
0.0
  0
LINE
  5
1BDC6
330
1BD29
100
AcDbEntity
  8
003
 62
     4
370
    20
100
AcDbLine
 10
233.8867744571144
 20
401.4028041365384
 30
0.0
 11
233.8867744571144
 21
347.4028041365385
 31
0.0
  0
INSERT
  5
1BDC7
330
1BD29
100
AcDbEntity
  8
003
 62
     4
370
    20
100
AcDbBlockReference
  2
_Open30
 10
233.8867744571144
 20
404.4028041365384
 30
0.0
 41
3.0
 42
3.0
 43
3.0
 50
90.0
  0
INSERT
  5
1BDC8
330
1BD29
100
AcDbEntity
  8
003
 62
     4
370
    20
100
AcDbBlockReference
  2
_Open30
 10
233.8867744571144
 20
344.4028041365385
 30
0.0
 41
3.0
 42
3.0
 43
3.0
 50
270.0
  0
MTEXT
  5
1BDC9
330
1BD29
100
AcDbEntity
  8
003
 62
     7
100
AcDbMText
 10
228.8867744571143
 20
374.4028041365385
 30
0.0
 40
6.0
 41
0.0
 71
     5
 72
     1
  1
（　　）
  7
DIM
 11
0.0000000000000001
 21
1.0
 31
0.0
 73
     1
 44
1.0
1001
ACAD
1000
MTEXTBEGIN
1070
    73
1070
     1
1070
    44
1040
1.0
1070
    74
1070
     0
1000
MTEXTEND
  0
POINT
  5
1BDCA
330
1BD29
100
AcDbEntity
  8
Defpoints
 62
     0
100
AcDbPoint
 10
242.7395383245154
 20
404.4028041365384
 30
0.0
  0
POINT
  5
1BDCB
330
1BD29
100
AcDbEntity
  8
Defpoints
 62
     0
100
AcDbPoint
 10
242.7395383245154
 20
344.4028041365385
 30
0.0
  0
POINT
  5
1BDCC
330
1BD29
100
AcDbEntity
  8
Defpoints
 62
     0
100
AcDbPoint
 10
233.8867744571144
 20
344.4028041365385
 30
0.0
  0
ENDBLK
  5
1BD2B
330
1BD29
100
AcDbEntity
  8
0
100
AcDbBlockEnd
  0
BLOCK
  5
1BDFE
330
1BDFD
100
AcDbEntity
  8
0
100
AcDbBlockBegin
  2
*D5
 70
     1
 10
0.0
 20
0.0
 30
0.0
  3
*D5
  1

  0
LINE
  5
1BE09
330
1BDFD
100
AcDbEntity
  8
003
 62
     4
370
    20
100
AcDbLine
 10
571.2169065173228
 20
352.6894211555722
 30
0.0
 11
580.5573942918331
 21
352.6894211555722
 31
0.0
  0
LINE
  5
1BE0A
330
1BDFD
100
AcDbEntity
  8
003
 62
     4
370
    20
100
AcDbLine
 10
571.2169065173228
 20
322.6894211555722
 30
0.0
 11
580.5573942918331
 21
322.6894211555722
 31
0.0
  0
LINE
  5
1BE0B
330
1BDFD
100
AcDbEntity
  8
003
 62
     4
370
    20
100
AcDbLine
 10
578.5573942918331
 20
349.6894211555722
 30
0.0
 11
578.5573942918331
 21
325.6894211555722
 31
0.0
  0
INSERT
  5
1BE0C
330
1BDFD
100
AcDbEntity
  8
003
 62
     4
370
    20
100
AcDbBlockReference
  2
_Open30
 10
578.5573942918331
 20
352.6894211555722
 30
0.0
 41
3.0
 42
3.0
 43
3.0
 50
90.0
  0
INSERT
  5
1BE0D
330
1BDFD
100
AcDbEntity
  8
003
 62
     4
370
    20
100
AcDbBlockReference
  2
_Open30
 10
578.5573942918331
 20
322.6894211555722
 30
0.0
 41
3.0
 42
3.0
 43
3.0
 50
270.0
  0
MTEXT
  5
1BE0E
330
1BDFD
100
AcDbEntity
  8
003
 62
     7
100
AcDbMText
 10
573.557394291833
 20
337.6894211555722
 30
0.0
 40
6.0
 41
0.0
 71
     5
 72
     1
  1
（　　）
  7
DIM
 11
0.0000000000000001
 21
1.0
 31
0.0
 73
     1
 44
1.0
1001
ACAD
1000
MTEXTBEGIN
1070
    73
1070
     1
1070
    44
1040
1.0
1070
    74
1070
     0
1000
MTEXTEND
  0
POINT
  5
1BE0F
330
1BDFD
100
AcDbEntity
  8
Defpoints
 62
     0
100
AcDbPoint
 10
568.2169065173228
 20
352.6894211555722
 30
0.0
  0
POINT
  5
1BE10
330
1BDFD
100
AcDbEntity
  8
Defpoints
 62
     0
100
AcDbPoint
 10
568.2169065173228
 20
322.6894211555722
 30
0.0
  0
POINT
  5
1BE11
330
1BDFD
100
AcDbEntity
  8
Defpoints
 62
     0
100
AcDbPoint
 10
578.5573942918331
 20
322.6894211555722
 30
0.0
  0
ENDBLK
  5
1BDFF
330
1BDFD
100
AcDbEntity
  8
0
100
AcDbBlockEnd
  0
BLOCK
  5
1BE14
330
1BE13
100
AcDbEntity
  8
0
100
AcDbBlockBegin
  2
*D6
 70
     1
 10
0.0
 20
0.0
 30
0.0
  3
*D6
  1

  0
LINE
  5
1BE1F
330
1BE13
100
AcDbEntity
  8
003
 62
     4
370
    20
100
AcDbLine
 10
660.5176259365174
 20
309.6894211555722
 30
0.0
 11
660.5176259365174
 21
288.0309622390466
 31
0.0
  0
LINE
  5
1BE20
330
1BE13
100
AcDbEntity
  8
003
 62
     4
370
    20
100
AcDbLine
 10
620.5176259365174
 20
319.6894211555721
 30
0.0
 11
620.5176259365174
 21
288.0309622390466
 31
0.0
  0
LINE
  5
1BE21
330
1BE13
100
AcDbEntity
  8
003
 62
     4
370
    20
100
AcDbLine
 10
657.5176259365174
 20
290.0309622390466
 30
0.0
 11
623.5176259365174
 21
290.0309622390466
 31
0.0
  0
INSERT
  5
1BE22
330
1BE13
100
AcDbEntity
  8
003
 62
     4
370
    20
100
AcDbBlockReference
  2
_Open30
 10
660.5176259365174
 20
290.0309622390466
 30
0.0
 41
3.0
 42
3.0
 43
3.0
  0
INSERT
  5
1BE23
330
1BE13
100
AcDbEntity
  8
003
 62
     4
370
    20
100
AcDbBlockReference
  2
_Open30
 10
620.5176259365174
 20
290.0309622390466
 30
0.0
 41
3.0
 42
3.0
 43
3.0
 50
180.0
  0
MTEXT
  5
1BE24
330
1BE13
100
AcDbEntity
  8
003
 62
     7
100
AcDbMText
 10
640.5176259365174
 20
295.0309622390467
 30
0.0
 40
6.0
 41
0.0
 71
     5
 72
     1
  1
40
  7
DIM
 73
     1
 44
1.0
1001
ACAD
1000
MTEXTBEGIN
1070
    73
1070
     1
1070
    44
1040
1.0
1070
    74
1070
     0
1000
MTEXTEND
  0
POINT
  5
1BE25
330
1BE13
100
AcDbEntity
  8
Defpoints
 62
     0
100
AcDbPoint
 10
660.5176259365174
 20
312.6894211555722
 30
0.0
  0
POINT
  5
1BE26
330
1BE13
100
AcDbEntity
  8
Defpoints
 62
     0
100
AcDbPoint
 10
620.5176259365174
 20
322.6894211555721
 30
0.0
  0
POINT
  5
1BE27
330
1BE13
100
AcDbEntity
  8
Defpoints
 62
     0
100
AcDbPoint
 10
620.5176259365174
 20
290.0309622390466
 30
0.0
  0
ENDBLK
  5
1BE15
330
1BE13
100
AcDbEntity
  8
0
100
AcDbBlockEnd
  0
BLOCK
  5
1BE9F
330
1BE9E
100
AcDbEntity
  8
0
100
AcDbBlockBegin
  2
*D7
 70
     1
 10
0.0
 20
0.0
 30
0.0
  3
*D7
  1

  0
LINE
  5
1BEE8
330
1BE9E
100
AcDbEntity
  8
003
 62
     4
370
    20
100
AcDbLine
 10
480.705456049212
 20
150.2848415795599
 30
0.0
 11
480.7054560492119
 21
169.8349295283736
 31
0.0
  0
LINE
  5
1BEE9
330
1BE9E
100
AcDbEntity
  8
003
 62
     4
370
    20
100
AcDbLine
 10
493.6958371059785
 20
157.7848415795599
 30
0.0
 11
493.6958371059785
 21
177.3349295283736
 31
0.0
  0
LINE
  5
1BEEA
330
1BE9E
100
AcDbEntity
  8
003
 62
     4
370
    20
100
AcDbLine
 10
483.3035322605652
 20
169.0255284516152
 30
0.0
 11
491.0977608946252
 21
173.5255284516151
 31
0.0
  0
INSERT
  5
1BEEB
330
1BE9E
100
AcDbEntity
  8
003
 62
     4
370
    20
100
AcDbBlockReference
  2
_Open30
 10
480.7054560492119
 20
167.5255284516151
 30
0.0
 41
3.0
 42
3.0
 43
3.0
 50
210.0
  0
INSERT
  5
1BEEC
330
1BE9E
100
AcDbEntity
  8
003
 62
     4
370
    20
100
AcDbBlockReference
  2
_Open30
 10
493.6958371059786
 20
175.0255284516152
 30
0.0
 41
3.0
 42
3.0
 43
3.0
 50
30.0
  0
MTEXT
  5
1BEED
330
1BE9E
100
AcDbEntity
  8
003
 62
     7
100
AcDbMText
 10
484.7006465775952
 20
175.6056554705373
 30
0.0
 40
6.0
 41
0.0
 71
     5
 72
     1
  1
（　　）
  7
DIM
 11
0.8660254037844387
 21
0.4999999999999999
 31
0.0
 73
     1
 44
1.0
1001
ACAD
1000
MTEXTBEGIN
1070
    73
1070
     1
1070
    44
1040
1.0
1070
    74
1070
     0
1000
MTEXTEND
  0
POINT
  5
1BEEE
330
1BE9E
100
AcDbEntity
  8
Defpoints
 62
     0
100
AcDbPoint
 10
480.705456049212
 20
146.8207399644221
 30
0.0
  0
POINT
  5
1BEEF
330
1BE9E
100
AcDbEntity
  8
Defpoints
 62
     0
100
AcDbPoint
 10
493.6958371059785
 20
154.3207399644221
 30
0.0
  0
POINT
  5
1BEF0
330
1BE9E
100
AcDbEntity
  8
Defpoints
 62
     0
100
AcDbPoint
 10
493.6958371059786
 20
175.0255284516152
 30
0.0
  0
ENDBLK
  5
1BEA0
330
1BE9E
100
AcDbEntity
  8
0
100
AcDbBlockEnd
  0
BLOCK
  5
1BEAC
330
1BEAB
100
AcDbEntity
  8
0
100
AcDbBlockBegin
  2
*D8
 70
     1
 10
0.0
 20
0.0
 30
0.0
  3
*D8
  1

  0
LINE
  5
1BEF1
330
1BEAB
100
AcDbEntity
  8
003
 62
     4
370
    20
100
AcDbLine
 10
496.6958371059785
 20
156.052790771991
 30
0.0
 11
510.0266904615641
 21
163.7493625453658
 31
0.0
  0
LINE
  5
1BEF2
330
1BEAB
100
AcDbEntity
  8
003
 62
     4
370
    20
100
AcDbLine
 10
496.6958371059785
 20
126.052790771991
 30
0.0
 11
510.0266904615641
 21
133.7493625453658
 31
0.0
  0
LINE
  5
1BEF3
330
1BEAB
100
AcDbEntity
  8
003
 62
     4
370
    20
100
AcDbLine
 10
508.0266904615641
 20
159.5946620069866
 30
0.0
 11
508.0266904615641
 21
135.5946620069865
 31
0.0
  0
INSERT
  5
1BEF4
330
1BEAB
100
AcDbEntity
  8
003
 62
     4
370
    20
100
AcDbBlockReference
  2
_Open30
 10
508.0266904615641
 20
162.5946620069866
 30
0.0
 41
3.0
 42
3.0
 43
3.0
 50
90.0
  0
INSERT
  5
1BEF5
330
1BEAB
100
AcDbEntity
  8
003
 62
     4
370
    20
100
AcDbBlockReference
  2
_Open30
 10
508.0266904615641
 20
132.5946620069865
 30
0.0
 41
3.0
 42
3.0
 43
3.0
 50
270.0
  0
MTEXT
  5
1BEF6
330
1BEAB
100
AcDbEntity
  8
003
 62
     7
100
AcDbMText
 10
503.0266904615641
 20
147.5946620069866
 30
0.0
 40
6.0
 41
0.0
 71
     5
 72
     1
  1
（　　）
  7
DIM
 11
0.0000000000000001
 21
1.0
 31
0.0
 73
     1
 44
1.0
1001
ACAD
1000
MTEXTBEGIN
1070
    73
1070
     1
1070
    44
1040
1.0
1070
    74
1070
     0
1000
MTEXTEND
  0
POINT
  5
1BEF7
330
1BEAB
100
AcDbEntity
  8
Defpoints
 62
     0
100
AcDbPoint
 10
493.6958371059785
 20
154.3207399644221
 30
0.0
  0
POINT
  5
1BEF8
330
1BEAB
100
AcDbEntity
  8
Defpoints
 62
     0
100
AcDbPoint
 10
493.6958371059785
 20
124.3207399644221
 30
0.0
  0
POINT
  5
1BEF9
330
1BEAB
100
AcDbEntity
  8
Defpoints
 62
     0
100
AcDbPoint
 10
508.0266904615641
 20
132.5946620069865
 30
0.0
  0
ENDBLK
  5
1BEAD
330
1BEAB
100
AcDbEntity
  8
0
100
AcDbBlockEnd
  0
ENDSEC
  0
SECTION
  2
ENTITIES
  0
LINE
  5
F4
330
1F
100
AcDbEntity
  8
001
100
AcDbLine
 10
40.00000000000009
 20
558.0
 30
0.0
 11
799.9999999999998
 21
558.0
 31
0.0
  0
LINE
  5
F5
330
1F
100
AcDbEntity
  8
001
100
AcDbLine
 10
40.0
 20
36.0
 30
0.0
 11
799.9999999999996
 21
36.0
 31
0.0
  0
LINE
  5
F6
330
1F
100
AcDbEntity
  8
001
100
AcDbLine
 10
40.00000000000009
 20
558.0
 30
0.0
 11
40.0
 21
36.0
 31
0.0
  0
LINE
  5
141
330
1F
100
AcDbEntity
  8
001
100
AcDbLine
 10
799.9999999999998
 20
558.0
 30
0.0
 11
799.9999999999996
 21
36.0
 31
0.0
  0
TEXT
  5
F7EF
330
1F
100
AcDbEntity
  8
0
100
AcDbText
 10
752.0146959686857
 20
23.25114259729506
 30
0.0
 40
10.0
  1
-Ｕ８-
  7
AT_VECTOR
 72
     1
 11
776.3956483496381
 21
28.25114259729506
 31
0.0
100
AcDbText
 73
     2
  0
POINT
  5
F7F2
330
1F
100
AcDbEntity
  8
0
100
AcDbPoint
 10
20.0000000000001
 20
558.0
 30
0.0
  0
POINT
  5
F806
330
1F
100
AcDbEntity
  8
0
100
AcDbPoint
 10
809.9999999999996
 20
21.0
 30
0.0
  0
TEXT
  5
1270A
330
1F
100
AcDbEntity
  8
0
100
AcDbText
 10
40.45819394134241
 20
30.38714182789863
 30
0.0
 40
4.0
  1
07.10.01　作成
  7
AT_VECTOR
 11
40.45819394134241
 21
30.38714182789863
 31
0.0
100
AcDbText
 73
     1
  0
LINE
  5
13DEE
330
1F
100
AcDbEntity
  8
003
100
AcDbLine
 10
181.5721382114794
 20
210.4929415200198
 30
0.0
 11
261.5721382114789
 21
210.4929415200198
 31
0.0
  0
LINE
  5
13DEF
330
1F
100
AcDbEntity
  8
003
100
AcDbLine
 10
181.5721382114794
 20
223.826274853353
 30
0.0
 11
261.5721382114794
 21
223.826274853353
 31
0.0
  0
LINE
  5
13DF0
330
1F
100
AcDbEntity
  8
003
100
AcDbLine
 10
181.5721382114794
 20
210.4929415200198
 30
0.0
 11
181.5721382114794
 21
223.826274853353
 31
0.0
  0
TEXT
  5
13DF1
330
1F
100
AcDbEntity
  8
0
100
AcDbText
 10
203.7054715448127
 20
213.1596081866863
 30
0.0
 40
7.999999999999998
  1
縦断面図
  7
AT_VECTOR
 72
     1
 11
221.5721382114794
 21
217.1596081866863
 31
0.0
100
AcDbText
 73
     2
  0
LINE
  5
13DF2
330
1F
100
AcDbEntity
  8
003
100
AcDbLine
 10
261.5721382114789
 20
210.4929415200198
 30
0.0
 11
261.5721382114794
 21
223.826274853353
 31
0.0
  0
TEXT
  5
13DF3
330
1F
100
AcDbEntity
  8
0
100
AcDbText
 10
109.4533302208549
 20
447.4270156682673
 30
0.0
 40
6.0
  1
外　部
  7
AT_VECTOR
 72
     1
 11
119.4533302208549
 21
450.4270156682673
 31
0.0
100
AcDbText
 73
     2
  0
LINE
  5
13DF4
330
1F
100
AcDbEntity
  8
003
100
AcDbLine
 10
104.4533302208549
 20
454.9270156682673
 30
0.0
 11
134.4533302208549
 21
454.9270156682673
 31
0.0
  0
LINE
  5
13DF5
330
1F
100
AcDbEntity
  8
003
100
AcDbLine
 10
104.4533302208549
 20
445.9270156682674
 30
0.0
 11
134.4533302208549
 21
445.9270156682674
 31
0.0
  0
LINE
  5
13DF6
330
1F
100
AcDbEntity
  8
003
100
AcDbLine
 10
104.4533302208549
 20
454.9270156682673
 30
0.0
 11
104.4533302208549
 21
445.9270156682674
 31
0.0
  0
LINE
  5
13DF7
330
1F
100
AcDbEntity
  8
003
100
AcDbLine
 10
134.4533302208549
 20
454.9270156682673
 30
0.0
 11
134.4533302208549
 21
445.9270156682674
 31
0.0
  0
LINE
  5
13DF8
330
1F
100
AcDbEntity
  8
003
100
AcDbLine
 10
264.0431885489615
 20
454.9270156682673
 30
0.0
 11
264.0431885489615
 21
445.9270156682674
 31
0.0
  0
TEXT
  5
13DF9
330
1F
100
AcDbEntity
  8
0
100
AcDbText
 10
238.8431885489616
 20
447.4270156682673
 30
0.0
 40
6.0
  1
内　部
  7
AT_VECTOR
 72
     1
 11
249.0431885489615
 21
450.4270156682673
 31
0.0
100
AcDbText
 73
     2
  0
LINE
  5
13DFA
330
1F
100
AcDbEntity
  8
003
100
AcDbLine
 10
234.0431885489616
 20
454.9270156682673
 30
0.0
 11
234.0431885489616
 21
445.9270156682674
 31
0.0
  0
LINE
  5
13DFB
330
1F
100
AcDbEntity
  8
003
100
AcDbLine
 10
234.0431885489616
 20
445.9270156682674
 30
0.0
 11
264.0431885489615
 21
445.9270156682674
 31
0.0
  0
LINE
  5
13DFC
330
1F
100
AcDbEntity
  8
003
100
AcDbLine
 10
234.0431885489616
 20
454.9270156682673
 30
0.0
 11
264.0431885489615
 21
454.9270156682673
 31
0.0
  0
LINE
  5
13EC1
330
1F
100
AcDbEntity
  8
003
100
AcDbLine
 10
525.7169065173227
 20
225.7606821491866
 30
0.0
 11
605.7169065173223
 21
225.7606821491866
 31
0.0
  0
LINE
  5
13EC2
330
1F
100
AcDbEntity
  8
003
100
AcDbLine
 10
525.7169065173227
 20
239.0940154825198
 30
0.0
 11
605.7169065173227
 21
239.0940154825198
 31
0.0
  0
LINE
  5
13EC3
330
1F
100
AcDbEntity
  8
003
100
AcDbLine
 10
525.7169065173227
 20
225.7606821491866
 30
0.0
 11
525.7169065173227
 21
239.0940154825198
 31
0.0
  0
TEXT
  5
13EC4
330
1F
100
AcDbEntity
  8
0
100
AcDbText
 10
547.850239850656
 20
228.4273488158531
 30
0.0
 40
7.999999999999998
  1
横断面図
  7
AT_VECTOR
 72
     1
 11
565.7169065173227
 21
232.4273488158531
 31
0.0
100
AcDbText
 73
     2
  0
LINE
  5
13EC5
330
1F
100
AcDbEntity
  8
003
100
AcDbLine
 10
605.7169065173223
 20
225.7606821491866
 30
0.0
 11
605.7169065173227
 21
239.0940154825198
 31
0.0
  0
LINE
  5
13EC6
330
1F
100
AcDbEntity
  8
003
100
AcDbLine
 10
580.7169065173227
 20
262.8720988033817
 30
0.0
 11
580.7169065173227
 21
253.8720988033817
 31
0.0
  0
TEXT
  5
13EC7
330
1F
100
AcDbEntity
  8
0
100
AcDbText
 10
555.5169065173227
 20
255.3720988033817
 30
0.0
 40
6.0
  1
内　部
  7
AT_VECTOR
 72
     1
 11
565.7169065173227
 21
258.3720988033817
 31
0.0
100
AcDbText
 73
     2
  0
LINE
  5
13EC8
330
1F
100
AcDbEntity
  8
003
100
AcDbLine
 10
550.7169065173227
 20
262.8720988033817
 30
0.0
 11
550.7169065173227
 21
253.8720988033817
 31
0.0
  0
LINE
  5
13EC9
330
1F
100
AcDbEntity
  8
003
100
AcDbLine
 10
550.7169065173227
 20
253.8720988033817
 30
0.0
 11
580.7169065173227
 21
253.8720988033817
 31
0.0
  0
LINE
  5
13ECA
330
1F
100
AcDbEntity
  8
003
100
AcDbLine
 10
550.7169065173227
 20
262.8720988033817
 30
0.0
 11
580.7169065173227
 21
262.8720988033817
 31
0.0
  0
TEXT
  5
13ECB
330
1F
100
AcDbEntity
  8
0
100
AcDbText
 10
555.7169065173227
 20
462.4738480239463
 30
0.0
 40
6.0
  1
外　部
  7
AT_VECTOR
 72
     1
 11
565.7169065173227
 21
465.4738480239463
 31
0.0
100
AcDbText
 73
     2
  0
LINE
  5
13ECC
330
1F
100
AcDbEntity
  8
003
100
AcDbLine
 10
550.7169065173227
 20
469.9738480239463
 30
0.0
 11
580.7169065173227
 21
469.9738480239463
 31
0.0
  0
LINE
  5
13ECD
330
1F
100
AcDbEntity
  8
003
100
AcDbLine
 10
550.7169065173227
 20
460.9738480239463
 30
0.0
 11
580.7169065173227
 21
460.9738480239463
 31
0.0
  0
LINE
  5
13ECE
330
1F
100
AcDbEntity
  8
003
100
AcDbLine
 10
550.7169065173227
 20
469.9738480239463
 30
0.0
 11
550.7169065173227
 21
460.9738480239463
 31
0.0
  0
LINE
  5
13ECF
330
1F
100
AcDbEntity
  8
003
100
AcDbLine
 10
580.7169065173227
 20
469.9738480239463
 30
0.0
 11
580.7169065173227
 21
460.9738480239463
 31
0.0
  0
TEXT
  5
13EED
330
1F
100
AcDbEntity
  8
0
100
AcDbText
 10
335.5097560351209
 20
537.8775302423639
 30
0.0
 40
10.0
  1
【特注型バー手摺】
  7
AT_VECTOR
 72
     1
 11
388.1764227017874
 21
542.8775302423639
 31
0.0
100
AcDbText
 73
     2
  0
LINE
  5
1652B
330
1F
100
AcDbEntity
  8
0
100
AcDbLine
 10
462.4161870981279
 20
441.1894211555721
 30
0.0
 11
462.9161870981278
 21
441.1894211555721
 31
0.0
  0
LINE
  5
1652C
330
1F
100
AcDbEntity
  8
0
100
AcDbLine
 10
460.9161870981279
 20
442.6894211555722
 30
0.0
 11
485.9161870981279
 21
442.6894211555722
 31
0.0
  0
LINE
  5
1652D
330
1F
100
AcDbEntity
  8
007
100
AcDbLine
 10
462.4161870981279
 20
437.6894211555721
 30
0.0
 11
464.4161870981279
 21
437.6894211555721
 31
0.0
  0
LINE
  5
1652E
330
1F
100
AcDbEntity
  8
007
100
AcDbLine
 10
460.9161870981279
 20
431.6594211555722
 30
0.0
 11
464.4161870981279
 21
433.6794211555721
 31
0.0
  0
LINE
  5
1652F
330
1F
100
AcDbEntity
  8
007
100
AcDbLine
 10
460.9161870981279
 20
384.7394211555721
 30
0.0
 11
464.4161870981279
 21
382.7194211555721
 31
0.0
  0
LINE
  5
16530
330
1F
100
AcDbEntity
  8
0
100
AcDbLine
 10
462.4161870981279
 20
374.1894211555722
 30
0.0
 11
462.9161870981278
 21
374.1894211555722
 31
0.0
  0
LINE
  5
16531
330
1F
100
AcDbEntity
  8
007
100
AcDbLine
 10
462.4161870981279
 20
377.6894211555722
 30
0.0
 11
464.4161870981279
 21
377.6894211555722
 31
0.0
  0
LINE
  5
16532
330
1F
100
AcDbEntity
  8
0
100
AcDbLine
 10
460.9161870981279
 20
372.6894211555722
 30
0.0
 11
469.9161870981279
 21
372.6894211555722
 31
0.0
  0
LINE
  5
16533
330
1F
100
AcDbEntity
  8
007
100
AcDbLine
 10
458.9161870981278
 20
377.6894211555722
 30
0.0
 11
458.9161870981278
 21
437.6894211555721
 31
0.0
  0
LINE
  5
16534
330
1F
100
AcDbEntity
  8
007
100
AcDbLine
 10
460.9161870981279
 20
384.7394211555721
 30
0.0
 11
460.9161870981279
 21
431.6594211555722
 31
0.0
  0
LINE
  5
16535
330
1F
100
AcDbEntity
  8
007
100
AcDbLine
 10
458.9161870981278
 20
377.6894211555722
 30
0.0
 11
458.9161870981278
 21
437.6894211555721
 31
0.0
  0
LINE
  5
16536
330
1F
100
AcDbEntity
  8
0
100
AcDbLine
 10
460.9161870981279
 20
372.6894211555722
 30
0.0
 11
460.9161870981279
 21
381.6894211555722
 31
0.0
  0
LINE
  5
16537
330
1F
100
AcDbEntity
  8
0
100
AcDbLine
 10
460.9161870981279
 20
381.6894211555722
 30
0.0
 11
462.4161870981279
 21
381.6894211555722
 31
0.0
  0
LINE
  5
16538
330
1F
100
AcDbEntity
  8
007
100
AcDbLine
 10
460.9161870981279
 20
383.1294211555722
 30
0.0
 11
462.4161870981279
 21
382.2594211555721
 31
0.0
  0
LINE
  5
16539
330
1F
100
AcDbEntity
  8
007
100
AcDbLine
 10
460.9161870981279
 20
381.6894211555722
 30
0.0
 11
460.9161870981279
 21
383.1294211555722
 31
0.0
  0
LINE
  5
1653A
330
1F
100
AcDbEntity
  8
007
100
AcDbLine
 10
462.4161870981279
 20
381.6894211555722
 30
0.0
 11
462.4161870981279
 21
382.2594211555721
 31
0.0
  0
LINE
  5
1653B
330
1F
100
AcDbEntity
  8
007
100
AcDbLine
 10
458.9161870981278
 20
377.6894211555722
 30
0.0
 11
460.9161870981279
 21
377.6894211555722
 31
0.0
  0
LINE
  5
1653C
330
1F
100
AcDbEntity
  8
0
100
AcDbLine
 10
462.4161870981279
 20
374.1894211555722
 30
0.0
 11
462.4161870981279
 21
381.6894211555722
 31
0.0
  0
LINE
  5
1653D
330
1F
100
AcDbEntity
  8
007
100
AcDbLine
 10
449.9161870981279
 20
397.6894211555722
 30
0.0
 11
449.9161870981279
 21
417.6894211555722
 31
0.0
  0
LINE
  5
1653E
330
1F
100
AcDbEntity
  8
007
100
AcDbLine
 10
443.5861870981277
 20
403.1894211555721
 30
0.0
 11
458.9161870981278
 21
403.1894211555721
 31
0.0
  0
LINE
  5
1653F
330
1F
100
AcDbEntity
  8
007
100
AcDbLine
 10
449.9161870981279
 20
397.6894211555722
 30
0.0
 11
458.9161870981278
 21
397.6894211555722
 31
0.0
  0
LINE
  5
16540
330
1F
100
AcDbEntity
  8
007
100
AcDbLine
 10
443.5861870981277
 20
412.1894211555721
 30
0.0
 11
458.9161870981278
 21
412.1894211555721
 31
0.0
  0
LINE
  5
16541
330
1F
100
AcDbEntity
  8
007
100
AcDbLine
 10
449.9161870981279
 20
417.6894211555722
 30
0.0
 11
458.9161870981278
 21
417.6894211555722
 31
0.0
  0
LINE
  5
16542
330
1F
100
AcDbEntity
  8
0
100
AcDbLine
 10
460.9161870981279
 20
434.6894211555722
 30
0.0
 11
462.4161870981279
 21
434.6894211555722
 31
0.0
  0
LINE
  5
16543
330
1F
100
AcDbEntity
  8
007
100
AcDbLine
 10
460.9161870981279
 20
433.1894211555721
 30
0.0
 11
460.9161870981279
 21
434.6894211555722
 31
0.0
  0
LINE
  5
16544
330
1F
100
AcDbEntity
  8
007
100
AcDbLine
 10
462.4161870981279
 20
434.059421155572
 30
0.0
 11
462.4161870981279
 21
434.6894211555722
 31
0.0
  0
LINE
  5
16545
330
1F
100
AcDbEntity
  8
007
100
AcDbLine
 10
458.9161870981278
 20
437.6894211555721
 30
0.0
 11
460.9161870981279
 21
437.6894211555721
 31
0.0
  0
LINE
  5
16546
330
1F
100
AcDbEntity
  8
007
100
AcDbLine
 10
460.9161870981279
 20
433.1894211555721
 30
0.0
 11
462.4161870981279
 21
434.059421155572
 31
0.0
  0
LINE
  5
16547
330
1F
100
AcDbEntity
  8
0
100
AcDbLine
 10
460.9161870981279
 20
434.6894211555722
 30
0.0
 11
460.9161870981279
 21
442.6894211555722
 31
0.0
  0
LINE
  5
16548
330
1F
100
AcDbEntity
  8
0
100
AcDbLine
 10
462.4161870981279
 20
434.6894211555722
 30
0.0
 11
462.4161870981279
 21
441.1894211555721
 31
0.0
  0
LINE
  5
16549
330
1F
100
AcDbEntity
  8
0
100
AcDbLine
 10
568.2169065173225
 20
442.689421155572
 30
0.0
 11
645.5176259365174
 21
442.6894211555723
 31
0.0
  0
LINE
  5
1654A
330
1F
100
AcDbEntity
  8
0
100
AcDbLine
 10
568.2169065173225
 20
372.6894211555722
 30
0.0
 11
645.9476259365175
 21
372.6894211555722
 31
0.0
  0
LINE
  5
1654C
330
1F
100
AcDbEntity
  8
0
100
AcDbLine
 10
470.9161870981279
 20
374.1894211555722
 30
0.0
 11
470.9161870981279
 21
405.1894211555722
 31
0.0
  0
LINE
  5
1654D
330
1F
100
AcDbEntity
  8
0
100
AcDbLine
 10
469.4161870981279
 20
374.1894211555722
 30
0.0
 11
469.4161870981279
 21
441.1894211555721
 31
0.0
  0
LINE
  5
1654F
330
1F
100
AcDbEntity
  8
0
100
AcDbLine
 10
485.9161870981279
 20
372.6894211555722
 30
0.0
 11
563.2169065173226
 21
372.6894211555722
 31
0.0
  0
LINE
  5
16550
330
1F
100
AcDbEntity
  8
0
100
AcDbLine
 10
470.9161870981279
 20
352.6894211555722
 30
0.0
 11
470.9161870981279
 21
372.6894211555722
 31
0.0
  0
LINE
  5
16551
330
1F
100
AcDbEntity
  8
0
100
AcDbLine
 10
469.9161870981279
 20
353.4994211555721
 30
0.0
 11
469.9161870981279
 21
372.6894211555722
 31
0.0
  0
LINE
  5
16552
330
1F
100
AcDbEntity
  8
0
100
AcDbLine
 10
467.9161870981279
 20
352.6894211555722
 30
0.0
 11
470.9161870981279
 21
352.6894211555722
 31
0.0
  0
LINE
  5
16553
330
1F
100
AcDbEntity
  8
0
100
AcDbLine
 10
467.9161870981279
 20
353.4994211555721
 30
0.0
 11
469.9161870981279
 21
353.4994211555721
 31
0.0
  0
LINE
  5
16554
330
1F
100
AcDbEntity
  8
0
100
AcDbLine
 10
467.9161870981279
 20
352.6894211555722
 30
0.0
 11
467.9161870981279
 21
353.4994211555721
 31
0.0
  0
LINE
  5
16555
330
1F
100
AcDbEntity
  8
0
100
AcDbLine
 10
470.9161870981279
 20
374.1894211555722
 30
0.0
 11
484.7961870981277
 21
374.1894211555722
 31
0.0
  0
LINE
  5
16556
330
1F
100
AcDbEntity
  8
0
100
AcDbLine
 10
470.9161870981279
 20
372.6894211555722
 30
0.0
 11
485.9161870981279
 21
372.6894211555722
 31
0.0
  0
LINE
  5
16557
330
1F
100
AcDbEntity
  8
007
100
AcDbLine
 10
464.4161870981279
 20
377.6894211555722
 30
0.0
 11
464.4161870981279
 21
382.7194211555721
 31
0.0
  0
LINE
  5
16558
330
1F
100
AcDbEntity
  8
0
100
AcDbLine
 10
462.9161870981278
 20
374.1894211555722
 30
0.0
 11
469.4161870981279
 21
374.1894211555722
 31
0.0
  0
LINE
  5
16559
330
1F
100
AcDbEntity
  8
0
100
AcDbLine
 10
485.9161870981279
 20
372.6894211555722
 30
0.0
 11
485.9161870981279
 21
374.809421155572
 31
0.0
  0
LINE
  5
1655A
330
1F
100
AcDbEntity
  8
0
100
AcDbLine
 10
484.7961870981277
 20
374.1894211555722
 30
0.0
 11
484.7961870981277
 21
374.809421155572
 31
0.0
  0
LINE
  5
1655B
330
1F
100
AcDbEntity
  8
0
100
AcDbLine
 10
484.7961870981277
 20
374.809421155572
 30
0.0
 11
485.9161870981279
 21
374.809421155572
 31
0.0
  0
LINE
  5
1655D
330
1F
100
AcDbEntity
  8
0
100
AcDbLine
 10
485.9161870981279
 20
442.6894211555722
 30
0.0
 11
563.2169065173226
 21
442.6894211555723
 31
0.0
  0
LINE
  5
1655E
330
1F
100
AcDbEntity
  8
0
100
AcDbLine
 10
470.9161870981279
 20
426.1894211555722
 30
0.0
 11
470.9161870981279
 21
441.1894211555721
 31
0.0
  0
LINE
  5
1655F
330
1F
100
AcDbEntity
  8
0
100
AcDbLine
 10
470.9161870981279
 20
406.1894211555721
 30
0.0
 11
470.9161870981279
 21
424.6894211555721
 31
0.0
  0
LINE
  5
16560
330
1F
100
AcDbEntity
  8
0
100
AcDbLine
 10
477.8961870981279
 20
406.1894211555721
 30
0.0
 11
477.8961870981279
 21
406.8994211555722
 31
0.0
  0
LINE
  5
16561
330
1F
100
AcDbEntity
  8
0
100
AcDbLine
 10
477.8961870981279
 20
406.8994211555722
 30
0.0
 11
478.9161870981279
 21
406.8994211555722
 31
0.0
  0
LINE
  5
16562
330
1F
100
AcDbEntity
  8
0
100
AcDbLine
 10
478.9161870981279
 20
405.1894211555722
 30
0.0
 11
478.9161870981279
 21
406.8994211555722
 31
0.0
  0
LINE
  5
16563
330
1F
100
AcDbEntity
  8
0
100
AcDbLine
 10
470.9161870981279
 20
406.1894211555721
 30
0.0
 11
477.8961870981279
 21
406.1894211555721
 31
0.0
  0
LINE
  5
16564
330
1F
100
AcDbEntity
  8
0
100
AcDbLine
 10
470.9161870981279
 20
405.1894211555722
 30
0.0
 11
478.9161870981279
 21
405.1894211555722
 31
0.0
  0
LINE
  5
16565
330
1F
100
AcDbEntity
  8
0
100
AcDbLine
 10
470.9161870981279
 20
424.6894211555721
 30
0.0
 11
481.5061870981278
 21
424.6894211555721
 31
0.0
  0
LINE
  5
16566
330
1F
100
AcDbEntity
  8
0
100
AcDbLine
 10
470.9161870981279
 20
426.1894211555722
 30
0.0
 11
482.9161870981279
 21
426.1894211555722
 31
0.0
  0
LINE
  5
16567
330
1F
100
AcDbEntity
  8
0
100
AcDbLine
 10
482.9161870981279
 20
422.6894211555721
 30
0.0
 11
482.9161870981279
 21
426.1894211555722
 31
0.0
  0
LINE
  5
16568
330
1F
100
AcDbEntity
  8
0
100
AcDbLine
 10
481.5061870981278
 20
422.6894211555721
 30
0.0
 11
481.5061870981278
 21
424.6894211555721
 31
0.0
  0
LINE
  5
16569
330
1F
100
AcDbEntity
  8
0
100
AcDbLine
 10
481.5061870981278
 20
422.6894211555721
 30
0.0
 11
482.9161870981279
 21
422.6894211555721
 31
0.0
  0
LINE
  5
1656A
330
1F
100
AcDbEntity
  8
0
100
AcDbLine
 10
470.9161870981279
 20
441.1894211555721
 30
0.0
 11
485.9161870981279
 21
441.1894211555721
 31
0.0
  0
LINE
  5
1656B
330
1F
100
AcDbEntity
  8
0
100
AcDbLine
 10
462.9161870981278
 20
441.1894211555721
 30
0.0
 11
469.4161870981279
 21
441.1894211555721
 31
0.0
  0
LINE
  5
1656C
330
1F
100
AcDbEntity
  8
007
100
AcDbLine
 10
464.4161870981279
 20
433.6794211555721
 30
0.0
 11
464.4161870981279
 21
437.6894211555721
 31
0.0
  0
LINE
  5
1656D
330
1F
100
AcDbEntity
  8
0
100
AcDbLine
 10
485.9161870981279
 20
441.1894211555721
 30
0.0
 11
485.9161870981279
 21
442.6894211555722
 31
0.0
  0
LINE
  5
1656E
330
1F
100
AcDbEntity
  8
0
100
AcDbLine
 10
660.5176259365174
 20
374.1894211555722
 30
0.0
 11
660.5176259365174
 21
389.1894211555722
 31
0.0
  0
LINE
  5
1656F
330
1F
100
AcDbEntity
  8
007
100
AcDbLine
 10
672.5176259365174
 20
377.6894211555722
 30
0.0
 11
672.5176259365174
 21
437.6894211555721
 31
0.0
  0
LINE
  5
16570
330
1F
100
AcDbEntity
  8
007
100
AcDbLine
 10
670.5176259365174
 20
384.7394211555721
 30
0.0
 11
670.5176259365174
 21
431.6594211555722
 31
0.0
  0
LINE
  5
16571
330
1F
100
AcDbEntity
  8
007
100
AcDbLine
 10
672.5176259365174
 20
377.6894211555722
 30
0.0
 11
672.5176259365174
 21
437.6894211555721
 31
0.0
  0
LINE
  5
16572
330
1F
100
AcDbEntity
  8
0
100
AcDbLine
 10
662.0176259365174
 20
374.1894211555722
 30
0.0
 11
662.0176259365174
 21
441.1894211555721
 31
0.0
  0
LINE
  5
16573
330
1F
100
AcDbEntity
  8
007
100
AcDbLine
 10
670.5176259365174
 20
384.7394211555721
 30
0.0
 11
667.0176259365174
 21
382.7194211555721
 31
0.0
  0
LINE
  5
16574
330
1F
100
AcDbEntity
  8
007
100
AcDbLine
 10
669.0176259365174
 20
377.6894211555722
 30
0.0
 11
667.0176259365174
 21
377.6894211555722
 31
0.0
  0
LINE
  5
16575
330
1F
100
AcDbEntity
  8
0
100
AcDbLine
 10
662.0176259365174
 20
374.1894211555722
 30
0.0
 11
668.5176259365174
 21
374.1894211555722
 31
0.0
  0
LINE
  5
16576
330
1F
100
AcDbEntity
  8
0
100
AcDbLine
 10
661.5176259365174
 20
372.6894211555722
 30
0.0
 11
670.5176259365174
 21
372.6894211555722
 31
0.0
  0
LINE
  5
16577
330
1F
100
AcDbEntity
  8
0
100
AcDbLine
 10
660.5176259365174
 20
352.6894211555722
 30
0.0
 11
660.5176259365174
 21
372.6894211555722
 31
0.0
  0
LINE
  5
16578
330
1F
100
AcDbEntity
  8
0
100
AcDbLine
 10
661.5176259365174
 20
353.4994211555721
 30
0.0
 11
661.5176259365174
 21
372.6894211555722
 31
0.0
  0
LINE
  5
16579
330
1F
100
AcDbEntity
  8
0
100
AcDbLine
 10
663.5176259365174
 20
352.6894211555722
 30
0.0
 11
663.5176259365174
 21
353.4994211555721
 31
0.0
  0
LINE
  5
1657A
330
1F
100
AcDbEntity
  8
0
100
AcDbLine
 10
660.5176259365174
 20
352.6894211555722
 30
0.0
 11
663.5176259365174
 21
352.6894211555722
 31
0.0
  0
LINE
  5
1657B
330
1F
100
AcDbEntity
  8
0
100
AcDbLine
 10
661.5176259365174
 20
353.4994211555721
 30
0.0
 11
663.5176259365174
 21
353.4994211555721
 31
0.0
  0
LINE
  5
1657C
330
1F
100
AcDbEntity
  8
0
100
AcDbLine
 10
645.5176259365174
 20
372.6894211555722
 30
0.0
 11
660.5176259365174
 21
372.6894211555722
 31
0.0
  0
LINE
  5
1657D
330
1F
100
AcDbEntity
  8
0
100
AcDbLine
 10
646.6376259365173
 20
374.1894211555722
 30
0.0
 11
660.5176259365174
 21
374.1894211555722
 31
0.0
  0
LINE
  5
1657E
330
1F
100
AcDbEntity
  8
0
100
AcDbLine
 10
645.5176259365174
 20
372.6894211555722
 30
0.0
 11
645.5176259365174
 21
374.809421155572
 31
0.0
  0
LINE
  5
1657F
330
1F
100
AcDbEntity
  8
0
100
AcDbLine
 10
646.6376259365173
 20
374.1894211555722
 30
0.0
 11
646.6376259365173
 21
374.809421155572
 31
0.0
  0
LINE
  5
16580
330
1F
100
AcDbEntity
  8
0
100
AcDbLine
 10
645.5176259365174
 20
374.809421155572
 30
0.0
 11
646.6376259365173
 21
374.809421155572
 31
0.0
  0
LINE
  5
16581
330
1F
100
AcDbEntity
  8
007
100
AcDbLine
 10
667.0176259365174
 20
377.6894211555722
 30
0.0
 11
667.0176259365174
 21
382.7194211555721
 31
0.0
  0
LINE
  5
16582
330
1F
100
AcDbEntity
  8
0
100
AcDbLine
 10
670.5176259365174
 20
372.6894211555722
 30
0.0
 11
670.5176259365174
 21
381.6894211555722
 31
0.0
  0
LINE
  5
16583
330
1F
100
AcDbEntity
  8
0
100
AcDbLine
 10
669.0176259365174
 20
381.6894211555722
 30
0.0
 11
670.5176259365174
 21
381.6894211555722
 31
0.0
  0
LINE
  5
16584
330
1F
100
AcDbEntity
  8
007
100
AcDbLine
 10
669.0176259365174
 20
381.6894211555722
 30
0.0
 11
669.0176259365174
 21
382.2594211555721
 31
0.0
  0
LINE
  5
16585
330
1F
100
AcDbEntity
  8
007
100
AcDbLine
 10
670.5176259365174
 20
381.6894211555722
 30
0.0
 11
670.5176259365174
 21
383.1294211555722
 31
0.0
  0
LINE
  5
16586
330
1F
100
AcDbEntity
  8
007
100
AcDbLine
 10
670.5176259365174
 20
383.1294211555722
 30
0.0
 11
669.0176259365174
 21
382.2594211555721
 31
0.0
  0
LINE
  5
16587
330
1F
100
AcDbEntity
  8
0
100
AcDbLine
 10
668.5176259365174
 20
374.1894211555722
 30
0.0
 11
669.0176259365174
 21
374.1894211555722
 31
0.0
  0
LINE
  5
16588
330
1F
100
AcDbEntity
  8
0
100
AcDbLine
 10
669.0176259365174
 20
374.1894211555722
 30
0.0
 11
669.0176259365174
 21
381.6894211555722
 31
0.0
  0
LINE
  5
16589
330
1F
100
AcDbEntity
  8
007
100
AcDbLine
 10
672.5176259365174
 20
377.6894211555722
 30
0.0
 11
670.5176259365174
 21
377.6894211555722
 31
0.0
  0
LINE
  5
1658A
330
1F
100
AcDbEntity
  8
0
100
AcDbLine
 10
660.5176259365174
 20
426.1894211555722
 30
0.0
 11
660.5176259365174
 21
441.1894211555721
 31
0.0
  0
LINE
  5
1658B
330
1F
100
AcDbEntity
  8
0
100
AcDbLine
 10
660.5176259365174
 20
406.1894211555721
 30
0.0
 11
660.5176259365174
 21
409.1894211555722
 31
0.0
  0
LINE
  5
1658C
330
1F
100
AcDbEntity
  8
0
100
AcDbLine
 10
648.5176259365174
 20
389.1894211555722
 30
0.0
 11
660.5176259365174
 21
389.1894211555722
 31
0.0
  0
LINE
  5
1658D
330
1F
100
AcDbEntity
  8
0
100
AcDbLine
 10
649.9276259365175
 20
390.6894211555722
 30
0.0
 11
660.5176259365174
 21
390.6894211555722
 31
0.0
  0
LINE
  5
1658E
330
1F
100
AcDbEntity
  8
0
100
AcDbLine
 10
648.5176259365174
 20
392.6894211555722
 30
0.0
 11
649.9276259365175
 21
392.6894211555722
 31
0.0
  0
LINE
  5
1658F
330
1F
100
AcDbEntity
  8
0
100
AcDbLine
 10
648.5176259365174
 20
389.1894211555722
 30
0.0
 11
648.5176259365174
 21
392.6894211555722
 31
0.0
  0
LINE
  5
16590
330
1F
100
AcDbEntity
  8
0
100
AcDbLine
 10
649.9276259365175
 20
390.6894211555722
 30
0.0
 11
649.9276259365175
 21
392.6894211555722
 31
0.0
  0
LINE
  5
16591
330
1F
100
AcDbEntity
  8
0
100
AcDbLine
 10
660.5176259365174
 20
390.6894211555722
 30
0.0
 11
660.5176259365174
 21
405.1894211555722
 31
0.0
  0
LINE
  5
16592
330
1F
100
AcDbEntity
  8
0
100
AcDbLine
 10
660.5176259365174
 20
405.1894211555722
 30
0.0
 11
660.5176259365174
 21
406.1894211555721
 31
0.0
  0
LINE
  5
16593
330
1F
100
AcDbEntity
  8
0
100
AcDbLine
 10
660.5176259365174
 20
410.1894211555721
 30
0.0
 11
660.5176259365174
 21
424.6894211555721
 31
0.0
  0
LINE
  5
16594
330
1F
100
AcDbEntity
  8
0
100
AcDbLine
 10
653.5376259365174
 20
409.1894211555722
 30
0.0
 11
660.5176259365174
 21
409.1894211555722
 31
0.0
  0
LINE
  5
16595
330
1F
100
AcDbEntity
  8
0
100
AcDbLine
 10
652.5176259365174
 20
410.1894211555721
 30
0.0
 11
660.5176259365174
 21
410.1894211555721
 31
0.0
  0
LINE
  5
16596
330
1F
100
AcDbEntity
  8
0
100
AcDbLine
 10
652.5176259365174
 20
408.4794211555721
 30
0.0
 11
652.5176259365174
 21
410.1894211555721
 31
0.0
  0
LINE
  5
16597
330
1F
100
AcDbEntity
  8
0
100
AcDbLine
 10
652.5176259365174
 20
408.4794211555721
 30
0.0
 11
653.5376259365174
 21
408.4794211555721
 31
0.0
  0
LINE
  5
16598
330
1F
100
AcDbEntity
  8
0
100
AcDbLine
 10
653.5376259365174
 20
408.4794211555721
 30
0.0
 11
653.5376259365174
 21
409.1894211555722
 31
0.0
  0
LINE
  5
16599
330
1F
100
AcDbEntity
  8
0
100
AcDbLine
 10
660.5176259365174
 20
424.6894211555721
 30
0.0
 11
660.5176259365174
 21
426.1894211555722
 31
0.0
  0
LINE
  5
1659A
330
1F
100
AcDbEntity
  8
007
100
AcDbLine
 10
681.5176259365174
 20
397.6894211555722
 30
0.0
 11
681.5176259365174
 21
417.6894211555722
 31
0.0
  0
LINE
  5
1659B
330
1F
100
AcDbEntity
  8
007
100
AcDbLine
 10
687.8476259365173
 20
403.1894211555721
 30
0.0
 11
672.5176259365174
 21
403.1894211555721
 31
0.0
  0
LINE
  5
1659C
330
1F
100
AcDbEntity
  8
007
100
AcDbLine
 10
681.5176259365174
 20
397.6894211555722
 30
0.0
 11
672.5176259365174
 21
397.6894211555722
 31
0.0
  0
LINE
  5
1659D
330
1F
100
AcDbEntity
  8
007
100
AcDbLine
 10
687.8476259365173
 20
412.1894211555721
 30
0.0
 11
672.5176259365174
 21
412.1894211555721
 31
0.0
  0
LINE
  5
1659E
330
1F
100
AcDbEntity
  8
007
100
AcDbLine
 10
681.5176259365174
 20
417.6894211555722
 30
0.0
 11
672.5176259365174
 21
417.6894211555722
 31
0.0
  0
LINE
  5
1659F
330
1F
100
AcDbEntity
  8
0
100
AcDbLine
 10
662.0176259365174
 20
441.1894211555721
 30
0.0
 11
668.5176259365174
 21
441.1894211555721
 31
0.0
  0
LINE
  5
165A0
330
1F
100
AcDbEntity
  8
0
100
AcDbLine
 10
645.5176259365174
 20
442.6894211555722
 30
0.0
 11
670.5176259365174
 21
442.6894211555722
 31
0.0
  0
LINE
  5
165A1
330
1F
100
AcDbEntity
  8
007
100
AcDbLine
 10
670.5176259365174
 20
431.6594211555722
 30
0.0
 11
667.0176259365174
 21
433.6794211555721
 31
0.0
  0
LINE
  5
165A2
330
1F
100
AcDbEntity
  8
007
100
AcDbLine
 10
669.0176259365174
 20
437.6894211555721
 30
0.0
 11
667.0176259365174
 21
437.6894211555721
 31
0.0
  0
LINE
  5
165A3
330
1F
100
AcDbEntity
  8
0
100
AcDbLine
 10
645.5176259365174
 20
441.1894211555721
 30
0.0
 11
660.5176259365174
 21
441.1894211555721
 31
0.0
  0
LINE
  5
165A4
330
1F
100
AcDbEntity
  8
0
100
AcDbLine
 10
645.5176259365174
 20
441.1894211555721
 30
0.0
 11
645.5176259365174
 21
442.6894211555722
 31
0.0
  0
LINE
  5
165A5
330
1F
100
AcDbEntity
  8
003
100
AcDbLine
 10
645.5176259365174
 20
441.1894211555724
 30
0.0
 11
645.5176259365174
 21
442.6894211555723
 31
0.0
  0
LINE
  5
165A6
330
1F
100
AcDbEntity
  8
007
100
AcDbLine
 10
667.0176259365174
 20
433.6794211555721
 30
0.0
 11
667.0176259365174
 21
437.6894211555721
 31
0.0
  0
LINE
  5
165A7
330
1F
100
AcDbEntity
  8
0
100
AcDbLine
 10
668.5176259365174
 20
441.1894211555721
 30
0.0
 11
669.0176259365174
 21
441.1894211555721
 31
0.0
  0
LINE
  5
165A8
330
1F
100
AcDbEntity
  8
0
100
AcDbLine
 10
669.0176259365174
 20
434.6894211555722
 30
0.0
 11
670.5176259365174
 21
434.6894211555722
 31
0.0
  0
LINE
  5
165A9
330
1F
100
AcDbEntity
  8
007
100
AcDbLine
 10
670.5176259365174
 20
433.1894211555721
 30
0.0
 11
670.5176259365174
 21
434.6894211555722
 31
0.0
  0
LINE
  5
165AA
330
1F
100
AcDbEntity
  8
007
100
AcDbLine
 10
670.5176259365174
 20
433.1894211555721
 30
0.0
 11
669.0176259365174
 21
434.059421155572
 31
0.0
  0
LINE
  5
165AB
330
1F
100
AcDbEntity
  8
007
100
AcDbLine
 10
669.0176259365174
 20
434.059421155572
 30
0.0
 11
669.0176259365174
 21
434.6894211555722
 31
0.0
  0
LINE
  5
165AC
330
1F
100
AcDbEntity
  8
007
100
AcDbLine
 10
672.5176259365174
 20
437.6894211555721
 30
0.0
 11
670.5176259365174
 21
437.6894211555721
 31
0.0
  0
LINE
  5
165AD
330
1F
100
AcDbEntity
  8
0
100
AcDbLine
 10
669.0176259365174
 20
434.6894211555722
 30
0.0
 11
669.0176259365174
 21
441.1894211555721
 31
0.0
  0
LINE
  5
165AE
330
1F
100
AcDbEntity
  8
0
100
AcDbLine
 10
670.5176259365174
 20
434.6894211555722
 30
0.0
 11
670.5176259365174
 21
442.6894211555722
 31
0.0
  0
LINE
  5
165AF
330
1F
100
AcDbEntity
  8
0
100
AcDbLine
 10
222.7395383245152
 20
314.4028041365384
 30
0.0
 11
222.7395383245152
 21
414.4368925725212
 31
0.0
  0
LINE
  5
165B0
330
1F
100
AcDbEntity
  8
0
100
AcDbLine
 10
152.7395383245152
 20
267.3228041365387
 30
0.0
 11
152.7395383245152
 21
414.4368925725212
 31
0.0
  0
LINE
  5
165B1
330
1F
100
AcDbEntity
  8
0
100
AcDbLine
 10
180.7295383245152
 20
263.1028041365387
 30
0.0
 11
200.7495383245152
 21
263.1028041365387
 31
0.0
  0
LINE
  5
165B2
330
1F
100
AcDbEntity
  8
0
100
AcDbLine
 10
172.7495383245152
 20
265.0428041365385
 30
0.0
 11
200.7695383245152
 21
265.0428041365385
 31
0.0
  0
LINE
  5
165B3
330
1F
100
AcDbEntity
  8
007
100
AcDbLine
 10
187.1095383245152
 20
258.9028041365384
 30
0.0
 11
211.3895383245151
 21
258.9028041365384
 31
0.0
  0
LINE
  5
165B4
330
1F
100
AcDbEntity
  8
007
100
AcDbLine
 10
179.7395383245152
 20
256.9028041365384
 30
0.0
 11
212.4295383245152
 21
256.9028041365384
 31
0.0
  0
LINE
  5
165B5
330
1F
100
AcDbEntity
  8
007
100
AcDbLine
 10
184.2395383245152
 20
244.4028041365384
 30
0.0
 11
204.2395383245152
 21
244.4028041365384
 31
0.0
  0
LINE
  5
165B6
330
1F
100
AcDbEntity
  8
0
100
AcDbLine
 10
120.90214361194
 20
235.0666629806164
 30
0.0
 11
162.8195383245152
 21
242.5928041365385
 31
0.0
  0
LINE
  5
165B7
330
1F
100
AcDbEntity
  8
0
100
AcDbLine
 10
120.90214361194
 20
237.0286320650992
 30
0.0
 11
161.8795383245153
 21
244.4028041365384
 31
0.0
  0
LINE
  5
165BB
330
1F
100
AcDbEntity
  8
0
100
AcDbLine
 10
170.7495383245151
 20
259.1228041365387
 30
0.0
 11
170.7495383245151
 21
275.0428041365385
 31
0.0
  0
LINE
  5
165BC
330
1F
100
AcDbEntity
  8
0
100
AcDbLine
 10
154.7495383245152
 20
257.4028041365384
 30
0.0
 11
154.7495383245152
 21
267.3228041365385
 31
0.0
  0
LINE
  5
165BD
330
1F
100
AcDbEntity
  8
0
100
AcDbLine
 10
152.7395383245152
 20
257.2128041365386
 30
0.0
 11
152.7395383245152
 21
267.3228041365385
 31
0.0
  0
LINE
  5
165BE
330
1F
100
AcDbEntity
  8
0
100
AcDbLine
 10
154.7495383245152
 20
257.4128041365386
 30
0.0
 11
170.7495383245151
 21
259.1228041365387
 31
0.0
  0
LINE
  5
165BF
330
1F
100
AcDbEntity
  8
0
100
AcDbLine
 10
163.8795383245153
 20
256.3328041365387
 30
0.0
 11
170.7495383245151
 21
257.1828041365386
 31
0.0
  0
LINE
  5
165C0
330
1F
100
AcDbEntity
  8
0
100
AcDbLine
 10
161.7395383245152
 20
248.2628041365385
 30
0.0
 11
161.8795383245153
 21
248.1228041365387
 31
0.0
  0
LINE
  5
165C1
330
1F
100
AcDbEntity
  8
0
100
AcDbLine
 10
163.8795383245153
 20
244.4028041365384
 30
0.0
 11
163.8795383245153
 21
256.1628041365386
 31
0.0
  0
LINE
  5
165C2
330
1F
100
AcDbEntity
  8
0
100
AcDbLine
 10
161.8795383245153
 20
244.4028041365384
 30
0.0
 11
161.8795383245153
 21
256.1628041365386
 31
0.0
  0
LINE
  5
165C3
330
1F
100
AcDbEntity
  8
0
100
AcDbLine
 10
153.7395383245152
 20
242.9328041365386
 30
0.0
 11
153.7395383245152
 21
253.4028041365384
 31
0.0
  0
LINE
  5
165C4
330
1F
100
AcDbEntity
  8
0
100
AcDbLine
 10
153.7395383245152
 20
250.4028041365384
 30
0.0
 11
160.2095383245152
 21
243.9328041365386
 31
0.0
  0
LINE
  5
165C5
330
1F
100
AcDbEntity
  8
0
100
AcDbLine
 10
155.1495383245153
 20
243.1928041365386
 30
0.0
 11
161.7395383245152
 21
249.7828041365385
 31
0.0
  0
LINE
  5
165C6
330
1F
100
AcDbEntity
  8
0
100
AcDbLine
 10
153.7395383245152
 20
253.4028041365384
 30
0.0
 11
161.7395383245152
 21
245.4028041365384
 31
0.0
  0
LINE
  5
165C7
330
1F
100
AcDbEntity
  8
0
100
AcDbLine
 10
153.7395383245152
 20
244.6328041365384
 30
0.0
 11
161.7395383245152
 21
252.6328041365384
 31
0.0
  0
LINE
  5
165C8
330
1F
100
AcDbEntity
  8
0
100
AcDbLine
 10
153.7395383245152
 20
247.4028041365384
 30
0.0
 11
160.7395383245152
 21
254.4028041365384
 31
0.0
  0
LINE
  5
165C9
330
1F
100
AcDbEntity
  8
0
100
AcDbLine
 10
153.7395383245152
 20
247.4028041365384
 30
0.0
 11
157.5195383245151
 21
243.6228041365386
 31
0.0
  0
LINE
  5
165CA
330
1F
100
AcDbEntity
  8
0
100
AcDbLine
 10
153.7395383245152
 20
244.6328041365384
 30
0.0
 11
155.1795383245152
 21
243.1928041365386
 31
0.0
  0
LINE
  5
165CB
330
1F
100
AcDbEntity
  8
0
100
AcDbLine
 10
163.8795383245153
 20
242.8928041365387
 30
0.0
 11
163.8795383245153
 21
246.2928041365385
 31
0.0
  0
LINE
  5
165CC
330
1F
100
AcDbEntity
  8
0
100
AcDbLine
 10
161.7395383245152
 20
245.4028041365384
 30
0.0
 11
161.8795383245153
 21
245.2628041365386
 31
0.0
  0
LINE
  5
165CD
330
1F
100
AcDbEntity
  8
0
100
AcDbLine
 10
161.7395383245152
 20
246.7628041365385
 30
0.0
 11
161.8795383245153
 21
246.9028041365384
 31
0.0
  0
LINE
  5
165CE
330
1F
100
AcDbEntity
  8
0
100
AcDbLine
 10
162.0095383245152
 20
242.3628041365384
 30
0.0
 11
163.8795383245153
 21
242.8928041365387
 31
0.0
  0
LINE
  5
165CF
330
1F
100
AcDbEntity
  8
0
100
AcDbLine
 10
158.8295383245152
 20
243.8528041365387
 30
0.0
 11
161.7395383245152
 21
246.7628041365385
 31
0.0
  0
LINE
  5
165D0
330
1F
100
AcDbEntity
  8
0
100
AcDbLine
 10
154.6195383245152
 20
255.3828041365384
 30
0.0
 11
155.5995383245152
 21
254.4028041365384
 31
0.0
  0
LINE
  5
165D1
330
1F
100
AcDbEntity
  8
0
100
AcDbLine
 10
153.7395383245152
 20
250.4028041365384
 30
0.0
 11
157.7395383245152
 21
254.4028041365384
 31
0.0
  0
LINE
  5
165D2
330
1F
100
AcDbEntity
  8
0
100
AcDbLine
 10
153.7395383245152
 20
252.5428041365385
 30
0.0
 11
155.5995383245152
 21
254.4028041365384
 31
0.0
  0
LINE
  5
165D3
330
1F
100
AcDbEntity
  8
0
100
AcDbLine
 10
154.7495383245152
 20
255.4628041365386
 30
0.0
 11
161.8795383245153
 21
256.1428041365386
 31
0.0
  0
LINE
  5
165D4
330
1F
100
AcDbEntity
  8
0
100
AcDbLine
 10
152.7395383245152
 20
254.4028041365384
 30
0.0
 11
152.7395383245152
 21
257.2128041365386
 31
0.0
  0
LINE
  5
165D5
330
1F
100
AcDbEntity
  8
0
100
AcDbLine
 10
152.7395383245152
 20
254.4028041365384
 30
0.0
 11
154.7495383245152
 21
255.4628041365386
 31
0.0
  0
LINE
  5
165D6
330
1F
100
AcDbEntity
  8
0
100
AcDbLine
 10
152.7395383245152
 20
254.4028041365384
 30
0.0
 11
153.7395383245152
 21
253.4028041365384
 31
0.0
  0
LINE
  5
165D7
330
1F
100
AcDbEntity
  8
0
100
AcDbLine
 10
160.7395383245152
 20
254.4028041365384
 30
0.0
 11
161.8795383245153
 21
255.5428041365385
 31
0.0
  0
LINE
  5
165D8
330
1F
100
AcDbEntity
  8
0
100
AcDbLine
 10
163.8795383245153
 20
256.1628041365386
 30
0.0
 11
163.8795383245153
 21
256.3428041365384
 31
0.0
  0
LINE
  5
165D9
330
1F
100
AcDbEntity
  8
0
100
AcDbLine
 10
161.7395383245152
 20
249.7828041365385
 30
0.0
 11
161.8795383245153
 21
249.9228041365386
 31
0.0
  0
LINE
  5
165DA
330
1F
100
AcDbEntity
  8
0
100
AcDbLine
 10
161.7395383245152
 20
251.2828041365385
 30
0.0
 11
161.8795383245153
 21
251.1428041365387
 31
0.0
  0
LINE
  5
165DB
330
1F
100
AcDbEntity
  8
0
100
AcDbLine
 10
161.7395383245152
 20
252.6328041365384
 30
0.0
 11
161.8795383245153
 21
252.7728041365385
 31
0.0
  0
LINE
  5
165DC
330
1F
100
AcDbEntity
  8
0
100
AcDbLine
 10
155.5995383245152
 20
254.4028041365384
 30
0.0
 11
156.8695383245152
 21
255.6728041365386
 31
0.0
  0
LINE
  5
165DD
330
1F
100
AcDbEntity
  8
0
100
AcDbLine
 10
157.7395383245152
 20
254.4028041365384
 30
0.0
 11
159.2395383245152
 21
255.9028041365384
 31
0.0
  0
LINE
  5
165DE
330
1F
100
AcDbEntity
  8
0
100
AcDbLine
 10
157.3195383245152
 20
255.7028041365386
 30
0.0
 11
158.9495383245152
 21
254.0728041365385
 31
0.0
  0
LINE
  5
165DF
330
1F
100
AcDbEntity
  8
0
100
AcDbLine
 10
159.7595383245151
 20
255.9428041365386
 30
0.0
 11
161.8795383245153
 21
253.8228041365385
 31
0.0
  0
LINE
  5
165E0
330
1F
100
AcDbEntity
  8
0
100
AcDbLine
 10
155.5995383245152
 20
254.4028041365384
 30
0.0
 11
161.7395383245152
 21
248.2628041365385
 31
0.0
  0
LINE
  5
165E1
330
1F
100
AcDbEntity
  8
0
100
AcDbLine
 10
158.6195383245152
 20
254.4028041365384
 30
0.0
 11
161.7395383245152
 21
251.2828041365385
 31
0.0
  0
LINE
  5
165E2
330
1F
100
AcDbEntity
  8
007
100
AcDbLine
 10
189.7395383245152
 20
234.9028041365384
 30
0.0
 11
189.7395383245152
 21
254.4028041365384
 31
0.0
  0
LINE
  5
165E3
330
1F
100
AcDbEntity
  8
007
100
AcDbLine
 10
184.2395383245152
 20
244.4028041365384
 30
0.0
 11
184.2395383245152
 21
254.4028041365384
 31
0.0
  0
LINE
  5
165E4
330
1F
100
AcDbEntity
  8
0
100
AcDbLine
 10
177.6095383245152
 20
263.1028041365387
 30
0.0
 11
180.7295383245152
 21
263.1028041365387
 31
0.0
  0
LINE
  5
165E5
330
1F
100
AcDbEntity
  8
0
100
AcDbLine
 10
178.4695383245152
 20
260.4028041365384
 30
0.0
 11
181.8895383245153
 21
260.4028041365384
 31
0.0
  0
LINE
  5
165E6
330
1F
100
AcDbEntity
  8
0
100
AcDbLine
 10
177.3295383245152
 20
258.9028041365384
 30
0.0
 11
181.8895383245153
 21
258.9028041365384
 31
0.0
  0
LINE
  5
165E7
330
1F
100
AcDbEntity
  8
0
100
AcDbLine
 10
178.0295383245151
 20
261.7328041365386
 30
0.0
 11
178.4695383245152
 21
260.4028041365384
 31
0.0
  0
ARC
  5
165E8
330
1F
100
AcDbEntity
  8
0
100
AcDbCircle
 10
174.5595383245152
 20
261.3628041365384
 30
0.0
 40
3.49
100
AcDbArc
 50
6.086351300002998
 51
29.86691599999615
  0
ARC
  5
165E9
330
1F
100
AcDbEntity
  8
0
100
AcDbCircle
 10
174.3795383245153
 20
261.3628041365384
 30
0.0
 40
1.98
100
AcDbArc
 50
355.356719999993
 51
277.8434199999985
  0
ARC
  5
165EA
330
1F
100
AcDbEntity
  8
0
100
AcDbCircle
 10
174.5595383245152
 20
261.3628041365384
 30
0.0
 40
3.49
100
AcDbArc
 50
238.2206000000002
 51
273.7812899999978
  0
LINE
  5
165EB
330
1F
100
AcDbEntity
  8
0
100
AcDbLine
 10
172.7195383245152
 20
257.1828041365386
 30
0.0
 11
172.7195383245152
 21
258.3928041365386
 31
0.0
  0
LINE
  5
165EC
330
1F
100
AcDbEntity
  8
0
100
AcDbLine
 10
170.7495383245151
 20
257.1828041365386
 30
0.0
 11
172.7195383245152
 21
257.1828041365386
 31
0.0
  0
ARC
  5
165ED
330
1F
100
AcDbEntity
  8
0
100
AcDbCircle
 10
174.0795383245152
 20
258.5828041365387
 30
0.0
 40
1.0
100
AcDbArc
 50
315.4063399999949
 51
54.72757799999566
  0
ARC
  5
165EE
330
1F
100
AcDbEntity
  8
0
100
AcDbCircle
 10
177.1695383245152
 20
261.7828041365385
 30
0.0
 40
1.0
100
AcDbArc
 50
214.8040100000059
 51
215.2724199999993
  0
LINE
  5
165EF
330
1F
100
AcDbEntity
  8
0
100
AcDbLine
 10
176.3495383245152
 20
261.2128041365386
 30
0.0
 11
177.3295383245152
 21
258.9028041365384
 31
0.0
  0
LINE
  5
165F0
330
1F
100
AcDbEntity
  8
007
100
AcDbLine
 10
181.8895383245153
 20
260.4028041365384
 30
0.0
 11
183.8995383245153
 21
260.4028041365384
 31
0.0
  0
LINE
  5
165F1
330
1F
100
AcDbEntity
  8
007
100
AcDbLine
 10
181.8895383245153
 20
258.9028041365384
 30
0.0
 11
184.7695383245151
 21
258.9028041365384
 31
0.0
  0
LINE
  5
165F2
330
1F
100
AcDbEntity
  8
007
100
AcDbLine
 10
178.5595383245152
 20
262.4028041365384
 30
0.0
 11
185.0895383245152
 21
262.4028041365384
 31
0.0
  0
LINE
  5
165F3
330
1F
100
AcDbEntity
  8
0
100
AcDbLine
 10
181.8895383245153
 20
258.9028041365384
 30
0.0
 11
181.8895383245153
 21
260.4028041365384
 31
0.0
  0
LINE
  5
165F4
330
1F
100
AcDbEntity
  8
007
100
AcDbLine
 10
178.5595383245152
 20
260.4028041365384
 30
0.0
 11
178.5595383245152
 21
262.4028041365384
 31
0.0
  0
LINE
  5
165F5
330
1F
100
AcDbEntity
  8
007
100
AcDbLine
 10
179.7395383245152
 20
256.9028041365384
 30
0.0
 11
179.7395383245152
 21
258.9028041365384
 31
0.0
  0
LINE
  5
165F6
330
1F
100
AcDbEntity
  8
007
100
AcDbLine
 10
183.8995383245153
 20
260.4028041365384
 30
0.0
 11
184.7695383245151
 21
258.9028041365384
 31
0.0
  0
LINE
  5
165F7
330
1F
100
AcDbEntity
  8
007
100
AcDbLine
 10
185.0895383245152
 20
262.4028041365384
 30
0.0
 11
187.1095383245152
 21
258.9028041365384
 31
0.0
  0
LINE
  5
165F8
330
1F
100
AcDbEntity
  8
0
100
AcDbLine
 10
152.7395383245152
 20
267.3228041365385
 30
0.0
 11
154.7495383245152
 21
267.3228041365385
 31
0.0
  0
LINE
  5
165F9
330
1F
100
AcDbEntity
  8
0
100
AcDbLine
 10
172.7495383245152
 20
265.0428041365385
 30
0.0
 11
172.7495383245152
 21
275.0428041365385
 31
0.0
  0
LINE
  5
165FA
330
1F
100
AcDbEntity
  8
0
100
AcDbLine
 10
170.7495383245151
 20
275.0428041365385
 30
0.0
 11
172.7495383245152
 21
275.0428041365385
 31
0.0
  0
LINE
  5
165FB
330
1F
100
AcDbEntity
  8
0
100
AcDbLine
 10
220.7395383245152
 20
293.4028041365384
 30
0.0
 11
220.7395383245152
 21
314.4028041365384
 31
0.0
  0
LINE
  5
165FC
330
1F
100
AcDbEntity
  8
0
100
AcDbLine
 10
222.7395383245152
 20
293.4028041365384
 30
0.0
 11
222.7395383245152
 21
313.4028041365384
 31
0.0
  0
LINE
  5
165FD
330
1F
100
AcDbEntity
  8
0
100
AcDbLine
 10
202.3295383245152
 20
263.1028041365387
 30
0.0
 11
202.3295383245152
 21
273.5928041365385
 31
0.0
  0
LINE
  5
165FE
330
1F
100
AcDbEntity
  8
007
100
AcDbLine
 10
211.3895383245151
 20
258.9028041365384
 30
0.0
 11
216.2995383245152
 21
267.4028041365384
 31
0.0
  0
LINE
  5
165FF
330
1F
100
AcDbEntity
  8
007
100
AcDbLine
 10
212.4295383245152
 20
256.9028041365384
 30
0.0
 11
218.4895383245152
 21
267.4028041365384
 31
0.0
  0
LINE
  5
16600
330
1F
100
AcDbEntity
  8
007
100
AcDbLine
 10
204.2395383245152
 20
244.4028041365384
 30
0.0
 11
204.2395383245152
 21
254.4028041365384
 31
0.0
  0
LINE
  5
16601
330
1F
100
AcDbEntity
  8
007
100
AcDbLine
 10
198.7395383245152
 20
234.9028041365384
 30
0.0
 11
198.7395383245152
 21
254.4028041365384
 31
0.0
  0
LINE
  5
16602
330
1F
100
AcDbEntity
  8
0
100
AcDbLine
 10
198.2895383245152
 20
263.1028041365387
 30
0.0
 11
202.3295383245152
 21
263.1028041365387
 31
0.0
  0
LINE
  5
16603
330
1F
100
AcDbEntity
  8
0
100
AcDbLine
 10
206.7495383245152
 20
282.0428041365385
 30
0.0
 11
220.7495383245152
 21
282.0428041365385
 31
0.0
  0
LINE
  5
16604
330
1F
100
AcDbEntity
  8
0
100
AcDbLine
 10
209.8595383245152
 20
280.0128041365385
 30
0.0
 11
220.7495383245152
 21
280.0128041365385
 31
0.0
  0
LINE
  5
16605
330
1F
100
AcDbEntity
  8
0
100
AcDbLine
 10
202.9695383245152
 20
275.0428041365385
 30
0.0
 11
202.9695383245152
 21
282.0428041365385
 31
0.0
  0
LINE
  5
16606
330
1F
100
AcDbEntity
  8
0
100
AcDbLine
 10
196.6395383245153
 20
273.9828041365385
 30
0.0
 11
202.9695383245152
 21
275.0428041365385
 31
0.0
  0
LINE
  5
16607
330
1F
100
AcDbEntity
  8
0
100
AcDbLine
 10
200.7695383245152
 20
265.0428041365385
 30
0.0
 11
200.7695383245152
 21
273.3328041365387
 31
0.0
  0
LINE
  5
16608
330
1F
100
AcDbEntity
  8
0
100
AcDbLine
 10
198.0895383245152
 20
271.6528041365384
 30
0.0
 11
198.0895383245152
 21
272.8828041365384
 31
0.0
  0
LINE
  5
16609
330
1F
100
AcDbEntity
  8
0
100
AcDbLine
 10
196.6395383245153
 20
271.6528041365384
 30
0.0
 11
196.6395383245153
 21
273.9828041365385
 31
0.0
  0
LINE
  5
1660A
330
1F
100
AcDbEntity
  8
0
100
AcDbLine
 10
196.6395383245153
 20
271.6528041365384
 30
0.0
 11
198.1895383245152
 21
271.6528041365384
 31
0.0
  0
LINE
  5
1660B
330
1F
100
AcDbEntity
  8
0
100
AcDbLine
 10
196.6395383245153
 20
271.6528041365384
 30
0.0
 11
198.1895383245152
 21
271.6528041365384
 31
0.0
  0
LINE
  5
1660C
330
1F
100
AcDbEntity
  8
0
100
AcDbLine
 10
198.0895383245152
 20
272.8828041365384
 30
0.0
 11
200.7695383245152
 21
273.3328041365387
 31
0.0
  0
ARC
  5
1660D
330
1F
100
AcDbEntity
  8
0
100
AcDbCircle
 10
206.7495383245152
 20
278.4128041365386
 30
0.0
 40
1.98
100
AcDbArc
 50
0.0
 51
279.6051999999979
  0
ARC
  5
1660E
330
1F
100
AcDbEntity
  8
0
100
AcDbCircle
 10
206.3795383245153
 20
275.7428041365386
 30
0.0
 40
1.0
100
AcDbArc
 50
317.0309099999996
 51
46.21887499999904
  0
LINE
  5
1660F
330
1F
100
AcDbEntity
  8
0
100
AcDbLine
 10
202.3295383245152
 20
273.5928041365385
 30
0.0
 11
203.9395383245152
 21
273.8628041365384
 31
0.0
  0
LINE
  5
16610
330
1F
100
AcDbEntity
  8
0
100
AcDbLine
 10
203.9395383245152
 20
273.8628041365384
 30
0.0
 11
204.7495383245152
 21
274.0028041365385
 31
0.0
  0
LINE
  5
16611
330
1F
100
AcDbEntity
  8
0
100
AcDbLine
 10
204.7495383245152
 20
274.0028041365385
 30
0.0
 11
204.7495383245152
 21
275.6928041365386
 31
0.0
  0
ARC
  5
16612
330
1F
100
AcDbEntity
  8
0
100
AcDbCircle
 10
206.7495383245152
 20
278.5028041365385
 30
0.0
 40
3.459999999999999
100
AcDbArc
 50
234.654969999993
 51
275.9743199999976
  0
ARC
  5
16613
330
1F
100
AcDbEntity
  8
0
100
AcDbCircle
 10
209.4895383245152
 20
279.0628041365385
 30
0.0
 40
1.0
100
AcDbArc
 50
220.5391500000017
 51
316.2188700000005
  0
ARC
  5
16614
330
1F
100
AcDbEntity
  8
0
100
AcDbCircle
 10
206.7495383245152
 20
278.5028041365385
 30
0.0
 40
3.459999999999999
100
AcDbArc
 50
357.6829299999963
 51
25.89798900000243
  0
LINE
  5
16615
330
1F
100
AcDbEntity
  8
0
100
AcDbLine
 10
206.7495383245152
 20
282.0428041365385
 30
0.0
 11
206.7495383245152
 21
292.0428041365385
 31
0.0
  0
LINE
  5
16616
330
1F
100
AcDbEntity
  8
0
100
AcDbLine
 10
204.7495383245152
 20
282.0428041365385
 30
0.0
 11
204.7495383245152
 21
292.0428041365385
 31
0.0
  0
LINE
  5
16617
330
1F
100
AcDbEntity
  8
0
100
AcDbLine
 10
202.9695383245152
 20
282.0428041365385
 30
0.0
 11
204.7495383245152
 21
282.0428041365385
 31
0.0
  0
LINE
  5
16618
330
1F
100
AcDbEntity
  8
0
100
AcDbLine
 10
204.7495383245152
 20
292.0428041365385
 30
0.0
 11
206.7495383245152
 21
292.0428041365385
 31
0.0
  0
LINE
  5
16619
330
1F
100
AcDbEntity
  8
0
100
AcDbLine
 10
222.7395383245153
 20
269.4028041365384
 30
0.0
 11
222.7395383245152
 21
293.4028041365384
 31
0.0
  0
LINE
  5
1661A
330
1F
100
AcDbEntity
  8
0
100
AcDbLine
 10
220.7495383245152
 20
270.9028041365384
 30
0.0
 11
220.7495383245152
 21
280.0128041365385
 31
0.0
  0
LINE
  5
1661B
330
1F
100
AcDbEntity
  8
007
100
AcDbLine
 10
215.0395383245153
 20
269.4028041365384
 30
0.0
 11
216.7795383245151
 21
272.4228041365386
 31
0.0
  0
LINE
  5
1661C
330
1F
100
AcDbEntity
  8
007
100
AcDbLine
 10
215.0395383245153
 20
267.4028041365384
 30
0.0
 11
216.2995383245152
 21
267.4028041365384
 31
0.0
  0
LINE
  5
1661D
330
1F
100
AcDbEntity
  8
007
100
AcDbLine
 10
215.0395383245153
 20
269.4028041365384
 30
0.0
 11
217.7395383245152
 21
269.4028041365384
 31
0.0
  0
LINE
  5
1661E
330
1F
100
AcDbEntity
  8
007
100
AcDbLine
 10
215.0395383245153
 20
267.4028041365384
 30
0.0
 11
215.0395383245153
 21
269.4028041365384
 31
0.0
  0
LINE
  5
1661F
330
1F
100
AcDbEntity
  8
007
100
AcDbLine
 10
221.1795383245152
 20
267.4028041365384
 30
0.0
 11
221.1795383245152
 21
269.4028041365384
 31
0.0
  0
LINE
  5
16620
330
1F
100
AcDbEntity
  8
007
100
AcDbLine
 10
218.4895383245152
 20
267.4028041365384
 30
0.0
 11
221.1795383245152
 21
267.4028041365384
 31
0.0
  0
LINE
  5
16621
330
1F
100
AcDbEntity
  8
0
100
AcDbLine
 10
217.7395383245152
 20
269.4028041365384
 30
0.0
 11
217.7395383245152
 21
270.9028041365384
 31
0.0
  0
LINE
  5
16622
330
1F
100
AcDbEntity
  8
007
100
AcDbLine
 10
216.8695383245153
 20
269.4028041365384
 30
0.0
 11
217.7395383245152
 21
270.9028041365384
 31
0.0
  0
LINE
  5
16623
330
1F
100
AcDbEntity
  8
007
100
AcDbLine
 10
216.8695383245153
 20
269.4028041365384
 30
0.0
 11
217.7395383245152
 21
269.4028041365384
 31
0.0
  0
LINE
  5
16624
330
1F
100
AcDbEntity
  8
0
100
AcDbLine
 10
217.7395383245152
 20
270.9028041365384
 30
0.0
 11
220.7495383245152
 21
270.9028041365384
 31
0.0
  0
LINE
  5
16625
330
1F
100
AcDbEntity
  8
007
100
AcDbLine
 10
216.7795383245151
 20
272.4228041365386
 30
0.0
 11
220.7495383245152
 21
272.4228041365386
 31
0.0
  0
LINE
  5
16626
330
1F
100
AcDbEntity
  8
0
100
AcDbLine
 10
217.7395383245152
 20
269.4028041365384
 30
0.0
 11
222.7395383245153
 21
269.4028041365384
 31
0.0
  0
LINE
  5
16627
330
1F
100
AcDbEntity
  8
0
100
AcDbLine
 10
220.7395383245152
 20
282.0428041365385
 30
0.0
 11
220.7395383245152
 21
294.8028041365385
 31
0.0
  0
LINE
  5
16628
330
1F
100
AcDbEntity
  8
0
100
AcDbLine
 10
222.7395383245152
 20
313.4028041365384
 30
0.0
 11
239.7795383245151
 21
313.4028041365384
 31
0.0
  0
LINE
  5
16629
330
1F
100
AcDbEntity
  8
0
100
AcDbLine
 10
222.7395383245152
 20
314.4028041365384
 30
0.0
 11
242.7395383245152
 21
314.4028041365384
 31
0.0
  0
LINE
  5
1662A
330
1F
100
AcDbEntity
  8
0
100
AcDbLine
 10
220.7395383245152
 20
314.4028041365384
 30
0.0
 11
222.7395383245152
 21
314.4028041365384
 31
0.0
  0
LINE
  5
1662B
330
1F
100
AcDbEntity
  8
0
100
AcDbLine
 10
242.7395383245152
 20
311.1728041365386
 30
0.0
 11
242.7395383245152
 21
314.4028041365384
 31
0.0
  0
LINE
  5
1662C
330
1F
100
AcDbEntity
  8
0
100
AcDbLine
 10
239.7795383245151
 20
313.4028041365384
 30
0.0
 11
240.8395383245152
 21
313.4028041365384
 31
0.0
  0
LINE
  5
1662D
330
1F
100
AcDbEntity
  8
0
100
AcDbLine
 10
240.8395383245152
 20
311.1728041365386
 30
0.0
 11
240.8395383245152
 21
313.4028041365384
 31
0.0
  0
LINE
  5
1662E
330
1F
100
AcDbEntity
  8
0
100
AcDbLine
 10
240.8395383245152
 20
311.1728041365386
 30
0.0
 11
242.7395383245152
 21
311.1728041365386
 31
0.0
  0
LINE
  5
16631
330
1F
100
AcDbEntity
  8
0
100
AcDbLine
 10
120.9021436119401
 20
470.2537820967049
 30
0.0
 11
137.7395383245152
 21
470.2537820967048
 31
0.0
  0
LINE
  5
16638
330
1F
100
AcDbEntity
  8
0
100
AcDbLine
 10
222.7395383245152
 20
419.4368925725211
 30
0.0
 11
222.7395383245152
 21
450.2537820967048
 31
0.0
  0
LINE
  5
16639
330
1F
100
AcDbEntity
  8
0
100
AcDbLine
 10
152.7395383245152
 20
419.4368925725211
 30
0.0
 11
152.7395383245152
 21
450.2537820967048
 31
0.0
  0
LINE
  5
1663A
330
1F
100
AcDbEntity
  8
007
100
AcDbLine
 10
165.4195383245152
 20
485.2537820967048
 30
0.0
 11
210.3295383245152
 21
485.2537820967048
 31
0.0
  0
LINE
  5
1663B
330
1F
100
AcDbEntity
  8
007
100
AcDbLine
 10
157.7395383245152
 20
487.2537820967048
 30
0.0
 11
217.7395383245152
 21
487.2537820967048
 31
0.0
  0
LINE
  5
1663C
330
1F
100
AcDbEntity
  8
0
100
AcDbLine
 10
208.0495383245152
 20
472.1737820967047
 30
0.0
 11
220.7395383245152
 21
472.1737820967047
 31
0.0
  0
LINE
  5
1663D
330
1F
100
AcDbEntity
  8
0
100
AcDbLine
 10
206.7395383245152
 20
470.2537820967048
 30
0.0
 11
220.7395383245152
 21
470.2537820967048
 31
0.0
  0
LINE
  5
1663E
330
1F
100
AcDbEntity
  8
0
100
AcDbLine
 10
152.7395383245152
 20
450.2537820967048
 30
0.0
 11
152.7395383245152
 21
485.2537820967049
 31
0.0
  0
LINE
  5
1663F
330
1F
100
AcDbEntity
  8
0
100
AcDbLine
 10
137.7395383245152
 20
470.2537820967048
 30
0.0
 11
137.7395383245152
 21
502.4237820967044
 31
0.0
  0
LINE
  5
16640
330
1F
100
AcDbEntity
  8
0
100
AcDbLine
 10
137.7395383245152
 20
478.1837820967047
 30
0.0
 11
137.7395383245152
 21
491.0937820967047
 31
0.0
  0
LINE
  5
16641
330
1F
100
AcDbEntity
  8
007
100
AcDbLine
 10
163.3995383245153
 20
481.7537820967048
 30
0.0
 11
165.4195383245152
 21
485.2537820967048
 31
0.0
  0
LINE
  5
16642
330
1F
100
AcDbEntity
  8
0
100
AcDbLine
 10
154.7395383245152
 20
478.2537820967048
 30
0.0
 11
154.7395383245152
 21
483.7537820967049
 31
0.0
  0
LINE
  5
16643
330
1F
100
AcDbEntity
  8
007
100
AcDbLine
 10
157.7395383245152
 20
481.7537820967048
 30
0.0
 11
157.7395383245152
 21
483.7537820967049
 31
0.0
  0
LINE
  5
16644
330
1F
100
AcDbEntity
  8
0
100
AcDbLine
 10
154.7395383245152
 20
472.2537820967048
 30
0.0
 11
169.7195383245152
 21
472.2537820967048
 31
0.0
  0
LINE
  5
16645
330
1F
100
AcDbEntity
  8
0
100
AcDbLine
 10
154.7395383245152
 20
470.2537820967048
 30
0.0
 11
170.7395383245152
 21
470.2537820967048
 31
0.0
  0
LINE
  5
16646
330
1F
100
AcDbEntity
  8
0
100
AcDbLine
 10
138.7395383245152
 20
471.2537820967049
 30
0.0
 11
151.7395383245152
 21
471.2537820967049
 31
0.0
  0
LINE
  5
16647
330
1F
100
AcDbEntity
  8
0
100
AcDbLine
 10
148.0679654492614
 20
471.2537820967049
 30
0.0
 11
139.0679654492616
 21
480.2537820967049
 31
0.0
  0
LINE
  5
16648
330
1F
100
AcDbEntity
  8
0
100
AcDbLine
 10
145.2395383245152
 20
471.2537820967049
 30
0.0
 11
137.7395383245153
 21
478.7537820967048
 31
0.0
  0
LINE
  5
16649
330
1F
100
AcDbEntity
  8
0
100
AcDbLine
 10
142.4111111997691
 20
471.2537820967049
 30
0.0
 11
137.7395383245153
 21
475.9253549719587
 31
0.0
  0
LINE
  5
1664A
330
1F
100
AcDbEntity
  8
0
100
AcDbLine
 10
137.7395383245152
 20
475.0674905956897
 30
0.0
 11
142.9258298255303
 21
480.2537820967049
 31
0.0
  0
LINE
  5
1664B
330
1F
100
AcDbEntity
  8
0
100
AcDbLine
 10
137.7395383245152
 20
472.2390634709434
 30
0.0
 11
145.7542569502764
 21
480.2537820967049
 31
0.0
  0
LINE
  5
1664C
330
1F
100
AcDbEntity
  8
0
100
AcDbLine
 10
139.5826840750229
 20
471.2537820967049
 30
0.0
 11
148.5826840750226
 21
480.2537820967049
 31
0.0
  0
LINE
  5
1664D
330
1F
100
AcDbEntity
  8
0
100
AcDbLine
 10
139.5826840750229
 20
471.2537820967049
 30
0.0
 11
137.7395383245153
 21
473.0969278472125
 31
0.0
  0
LINE
  5
1664E
330
1F
100
AcDbEntity
  8
0
100
AcDbLine
 10
137.7395383245152
 20
477.8959177204359
 30
0.0
 11
140.0974027007841
 21
480.2537820967049
 31
0.0
  0
LINE
  5
1664F
330
1F
100
AcDbEntity
  8
0
100
AcDbLine
 10
138.7395383245152
 20
471.2537820967049
 30
0.0
 11
137.7395383245152
 21
470.2537820967048
 31
0.0
  0
LINE
  5
16650
330
1F
100
AcDbEntity
  8
0
100
AcDbLine
 10
154.7395383245152
 20
450.2537820967048
 30
0.0
 11
154.7395383245152
 21
470.2537820967048
 31
0.0
  0
LINE
  5
16651
330
1F
100
AcDbEntity
  8
0
100
AcDbLine
 10
152.7395383245152
 20
450.2537820967048
 30
0.0
 11
154.7395383245152
 21
450.2537820967048
 31
0.0
  0
LINE
  5
16652
330
1F
100
AcDbEntity
  8
0
100
AcDbLine
 10
151.7395383245152
 20
471.2537820967049
 30
0.0
 11
152.7395383245152
 21
470.2537820967048
 31
0.0
  0
LINE
  5
16653
330
1F
100
AcDbEntity
  8
0
100
AcDbLine
 10
152.7395383245152
 20
477.8959177204359
 30
0.0
 11
150.3816739482464
 21
480.2537820967049
 31
0.0
  0
LINE
  5
16654
330
1F
100
AcDbEntity
  8
0
100
AcDbLine
 10
152.7395383245152
 20
472.2390634709434
 30
0.0
 11
144.7248196987539
 21
480.2537820967049
 31
0.0
  0
LINE
  5
16655
330
1F
100
AcDbEntity
  8
0
100
AcDbLine
 10
152.7395383245152
 20
475.0674905956897
 30
0.0
 11
147.5532468235001
 21
480.2537820967049
 31
0.0
  0
LINE
  5
16656
330
1F
100
AcDbEntity
  8
0
100
AcDbLine
 10
148.0679654492614
 20
471.2537820967049
 30
0.0
 11
152.7395383245152
 21
475.9253549719587
 31
0.0
  0
LINE
  5
16657
330
1F
100
AcDbEntity
  8
0
100
AcDbLine
 10
150.8963925740076
 20
471.2537820967049
 30
0.0
 11
152.7395383245152
 21
473.0969278472125
 31
0.0
  0
LINE
  5
16658
330
1F
100
AcDbEntity
  8
0
100
AcDbLine
 10
145.2395383245152
 20
471.2537820967049
 30
0.0
 11
152.7395383245152
 21
478.7537820967048
 31
0.0
  0
LINE
  5
16659
330
1F
100
AcDbEntity
  8
0
100
AcDbLine
 10
150.8963925740076
 20
471.2537820967049
 30
0.0
 11
141.8963925740077
 21
480.2537820967049
 31
0.0
  0
LINE
  5
1665A
330
1F
100
AcDbEntity
  8
0
100
AcDbLine
 10
142.411111199769
 20
471.2537820967049
 30
0.0
 11
151.4111111997688
 21
480.2537820967049
 31
0.0
  0
LINE
  5
1665B
330
1F
100
AcDbEntity
  8
007
100
AcDbLine
 10
157.7395383245152
 20
481.7537820967048
 30
0.0
 11
163.3995383245153
 21
481.7537820967048
 31
0.0
  0
LINE
  5
1665C
330
1F
100
AcDbEntity
  8
0
100
AcDbLine
 10
154.7395383245152
 20
472.2537820967048
 30
0.0
 11
154.7395383245152
 21
480.2537820967049
 31
0.0
  0
LINE
  5
1665D
330
1F
100
AcDbEntity
  8
0
100
AcDbLine
 10
175.8495383245152
 20
476.2737820967048
 30
0.0
 11
201.4495383245152
 21
476.2737820967048
 31
0.0
  0
LINE
  5
1665E
330
1F
100
AcDbEntity
  8
0
100
AcDbLine
 10
176.7395383245152
 20
474.2537820967048
 30
0.0
 11
200.7395383245152
 21
474.2537820967048
 31
0.0
  0
LINE
  5
1665F
330
1F
100
AcDbEntity
  8
0
100
AcDbLine
 10
170.7395383245152
 20
450.2537820967048
 30
0.0
 11
170.7395383245152
 21
470.2537820967048
 31
0.0
  0
LINE
  5
16660
330
1F
100
AcDbEntity
  8
0
100
AcDbLine
 10
172.7395383245152
 20
450.2537820967048
 30
0.0
 11
172.7395383245152
 21
470.2537820967048
 31
0.0
  0
LINE
  5
16661
330
1F
100
AcDbEntity
  8
0
100
AcDbLine
 10
170.7395383245152
 20
450.2537820967048
 30
0.0
 11
172.7395383245152
 21
450.2537820967048
 31
0.0
  0
ARC
  5
16662
330
1F
100
AcDbEntity
  8
0
100
AcDbCircle
 10
172.7395383245152
 20
474.2537820967048
 30
0.0
 40
3.709999999999999
100
AcDbArc
 50
33.00443600000328
 51
122.57766
  0
LINE
  5
16663
330
1F
100
AcDbEntity
  8
0
100
AcDbLine
 10
172.7395383245152
 20
470.2537820967048
 30
0.0
 11
178.7395383245152
 21
470.2537820967048
 31
0.0
  0
ARC
  5
16664
330
1F
100
AcDbEntity
  8
0
100
AcDbCircle
 10
171.7095383245152
 20
477.1237820967047
 30
0.0
 40
1.0
100
AcDbArc
 50
165.547569999994
 51
270.5729300000003
  0
ARC
  5
16665
330
1F
100
AcDbEntity
  8
0
100
AcDbCircle
 10
172.7395383245152
 20
474.2537820967048
 30
0.0
 40
3.709999999999999
100
AcDbArc
 50
197.2618200000061
 51
212.660910000006
  0
ARC
  5
16666
330
1F
100
AcDbEntity
  8
0
100
AcDbCircle
 10
170.0895383245152
 20
472.7037820967049
 30
0.0
 40
1.0
100
AcDbArc
 50
47.03091400000324
 51
153.17801
  0
ARC
  5
16667
330
1F
100
AcDbEntity
  8
0
100
AcDbCircle
 10
172.7395383245152
 20
474.2537820967048
 30
0.0
 40
2.129999999999999
100
AcDbArc
 50
202.599210000001
 51
118.6104599999958
  0
LINE
  5
16668
330
1F
100
AcDbEntity
  8
0
100
AcDbLine
 10
176.7395383245152
 20
472.2537820967048
 30
0.0
 11
178.7395383245152
 21
472.2537820967048
 31
0.0
  0
LINE
  5
16669
330
1F
100
AcDbEntity
  8
0
100
AcDbLine
 10
176.7395383245152
 20
472.2537820967048
 30
0.0
 11
176.7395383245152
 21
474.2537820967048
 31
0.0
  0
LINE
  5
1666A
330
1F
100
AcDbEntity
  8
0
100
AcDbLine
 10
178.7395383245152
 20
470.2537820967048
 30
0.0
 11
178.7395383245152
 21
472.2537820967048
 31
0.0
  0
LINE
  5
1666B
330
1F
100
AcDbEntity
  8
0
100
AcDbLine
 10
206.7395383245152
 20
450.2537820967048
 30
0.0
 11
206.7395383245152
 21
470.2537820967048
 31
0.0
  0
LINE
  5
1666C
330
1F
100
AcDbEntity
  8
0
100
AcDbLine
 10
204.7395383245152
 20
450.2537820967048
 30
0.0
 11
204.7395383245152
 21
470.2537820967048
 31
0.0
  0
LINE
  5
1666D
330
1F
100
AcDbEntity
  8
0
100
AcDbLine
 10
204.7395383245152
 20
450.2537820967048
 30
0.0
 11
206.7395383245152
 21
450.2537820967048
 31
0.0
  0
ARC
  5
1666E
330
1F
100
AcDbEntity
  8
0
100
AcDbCircle
 10
206.1195383245153
 20
476.8537820967047
 30
0.0
 40
1.0
100
AcDbArc
 50
272.2906099999988
 51
46.21887499999904
  0
ARC
  5
1666F
330
1F
100
AcDbEntity
  8
0
100
AcDbCircle
 10
204.7395383245152
 20
474.2537820967048
 30
0.0
 40
3.91
100
AcDbArc
 50
56.67538600000053
 51
148.9106499999969
  0
ARC
  5
16670
330
1F
100
AcDbEntity
  8
0
100
AcDbCircle
 10
204.7395383245152
 20
474.2537820967048
 30
0.0
 40
3.91
100
AcDbArc
 50
327.8547900000047
 51
341.5187299999943
  0
ARC
  5
16671
330
1F
100
AcDbEntity
  8
0
100
AcDbCircle
 10
207.4795383245152
 20
472.7637820967048
 30
0.0
 40
1.0
100
AcDbArc
 50
14.45242800000109
 51
143.1301000000025
  0
LINE
  5
16672
330
1F
100
AcDbEntity
  8
0
100
AcDbLine
 10
198.7395383245152
 20
470.2537820967048
 30
0.0
 11
204.7395383245152
 21
470.2537820967048
 31
0.0
  0
LINE
  5
16673
330
1F
100
AcDbEntity
  8
0
100
AcDbLine
 10
198.7395383245152
 20
472.2537820967048
 30
0.0
 11
200.7395383245152
 21
472.2537820967048
 31
0.0
  0
LINE
  5
16674
330
1F
100
AcDbEntity
  8
0
100
AcDbLine
 10
198.7395383245152
 20
470.2537820967048
 30
0.0
 11
198.7395383245152
 21
472.2537820967048
 31
0.0
  0
LINE
  5
16675
330
1F
100
AcDbEntity
  8
0
100
AcDbLine
 10
200.7395383245152
 20
472.2537820967048
 30
0.0
 11
200.7395383245152
 21
474.2537820967048
 31
0.0
  0
ARC
  5
16676
330
1F
100
AcDbEntity
  8
0
100
AcDbCircle
 10
204.7395383245152
 20
474.2537820967048
 30
0.0
 40
2.14
100
AcDbArc
 50
48.21124800000072
 51
336.8014000000007
  0
LINE
  5
16677
330
1F
100
AcDbEntity
  8
0
100
AcDbLine
 10
152.7395383245152
 20
485.2537820967049
 30
0.0
 11
161.7395383245152
 21
485.2537820967048
 31
0.0
  0
LINE
  5
16678
330
1F
100
AcDbEntity
  8
007
100
AcDbLine
 10
162.3595383245152
 20
483.7537820967049
 30
0.0
 11
163.2295383245152
 21
485.2537820967048
 31
0.0
  0
LINE
  5
16679
330
1F
100
AcDbEntity
  8
0
100
AcDbLine
 10
161.7395383245152
 20
483.7537820967049
 30
0.0
 11
161.7395383245152
 21
485.2537820967048
 31
0.0
  0
LINE
  5
1667A
330
1F
100
AcDbEntity
  8
007
100
AcDbLine
 10
161.7395383245152
 20
483.7537820967049
 30
0.0
 11
162.3595383245152
 21
483.7537820967049
 31
0.0
  0
LINE
  5
1667B
330
1F
100
AcDbEntity
  8
007
100
AcDbLine
 10
161.7395383245152
 20
485.2537820967048
 30
0.0
 11
163.2295383245152
 21
485.2537820967048
 31
0.0
  0
LINE
  5
1667C
330
1F
100
AcDbEntity
  8
007
100
AcDbLine
 10
157.7395383245152
 20
485.2537820967048
 30
0.0
 11
157.7395383245152
 21
487.2537820967048
 31
0.0
  0
LINE
  5
1667D
330
1F
100
AcDbEntity
  8
0
100
AcDbLine
 10
154.7395383245152
 20
483.7537820967049
 30
0.0
 11
161.7395383245152
 21
483.7537820967049
 31
0.0
  0
LINE
  5
1667E
330
1F
100
AcDbEntity
  8
007
100
AcDbLine
 10
179.7395383245152
 20
496.2537820967049
 30
0.0
 11
199.7395383245152
 21
496.2537820967049
 31
0.0
  0
LINE
  5
1667F
330
1F
100
AcDbEntity
  8
007
100
AcDbLine
 10
185.2395383245152
 20
487.2537820967048
 30
0.0
 11
185.2395383245152
 21
507.4237820967044
 31
0.0
  0
LINE
  5
16680
330
1F
100
AcDbEntity
  8
007
100
AcDbLine
 10
179.7395383245152
 20
487.2537820967048
 30
0.0
 11
179.7395383245152
 21
496.2537820967049
 31
0.0
  0
LINE
  5
16681
330
1F
100
AcDbEntity
  8
007
100
AcDbLine
 10
194.2395383245152
 20
487.2537820967048
 30
0.0
 11
194.2395383245152
 21
507.4237820967044
 31
0.0
  0
LINE
  5
16682
330
1F
100
AcDbEntity
  8
007
100
AcDbLine
 10
199.7395383245152
 20
487.2537820967048
 30
0.0
 11
199.7395383245152
 21
496.2537820967049
 31
0.0
  0
LINE
  5
16683
330
1F
100
AcDbEntity
  8
0
100
AcDbLine
 10
220.7495383245152
 20
475.4337820967046
 30
0.0
 11
220.7495383245152
 21
483.7537820967049
 31
0.0
  0
LINE
  5
16684
330
1F
100
AcDbEntity
  8
007
100
AcDbLine
 10
217.7395383245152
 20
481.7537820967048
 30
0.0
 11
217.7395383245152
 21
483.7537820967049
 31
0.0
  0
LINE
  5
16685
330
1F
100
AcDbEntity
  8
007
100
AcDbLine
 10
210.3295383245152
 20
485.2537820967048
 30
0.0
 11
212.3495383245152
 21
481.7537820967048
 31
0.0
  0
LINE
  5
16686
330
1F
100
AcDbEntity
  8
0
100
AcDbLine
 10
222.7395383245152
 20
485.2537820967048
 30
0.0
 11
222.7395383245152
 21
466.2537820967048
 31
0.0
  0
LINE
  5
16687
330
1F
100
AcDbEntity
  8
0
100
AcDbLine
 10
222.7395383245152
 20
465.2537820967048
 30
0.0
 11
242.7395383245152
 21
465.2537820967048
 31
0.0
  0
LINE
  5
16688
330
1F
100
AcDbEntity
  8
0
100
AcDbLine
 10
222.7395383245152
 20
466.2537820967048
 30
0.0
 11
241.6795383245152
 21
466.2537820967048
 31
0.0
  0
LINE
  5
16689
330
1F
100
AcDbEntity
  8
0
100
AcDbLine
 10
220.7395383245152
 20
451.9737820967049
 30
0.0
 11
220.7395383245152
 21
470.2537820967048
 31
0.0
  0
LINE
  5
1668A
330
1F
100
AcDbEntity
  8
0
100
AcDbLine
 10
218.7795383245151
 20
450.2537820967048
 30
0.0
 11
222.7395383245152
 21
450.2537820967048
 31
0.0
  0
LINE
  5
1668B
330
1F
100
AcDbEntity
  8
0
100
AcDbLine
 10
218.7795383245151
 20
450.2537820967048
 30
0.0
 11
218.7795383245151
 21
451.9737820967049
 31
0.0
  0
LINE
  5
1668C
330
1F
100
AcDbEntity
  8
0
100
AcDbLine
 10
218.7795383245151
 20
451.9737820967049
 30
0.0
 11
220.7395383245152
 21
451.9737820967049
 31
0.0
  0
LINE
  5
1668D
330
1F
100
AcDbEntity
  8
0
100
AcDbLine
 10
222.7395383245152
 20
465.2537820967048
 30
0.0
 11
222.7395383245152
 21
450.2537820967048
 31
0.0
  0
LINE
  5
1668E
330
1F
100
AcDbEntity
  8
007
100
AcDbLine
 10
212.3495383245152
 20
481.7537820967048
 30
0.0
 11
217.7395383245152
 21
481.7537820967048
 31
0.0
  0
LINE
  5
1668F
330
1F
100
AcDbEntity
  8
0
100
AcDbLine
 10
220.7395383245152
 20
472.2537820967048
 30
0.0
 11
220.7395383245152
 21
476.2537820967049
 31
0.0
  0
LINE
  5
16690
330
1F
100
AcDbEntity
  8
0
100
AcDbLine
 10
242.7395383245152
 20
465.2537820967048
 30
0.0
 11
242.7395383245152
 21
468.2537820967048
 31
0.0
  0
LINE
  5
16691
330
1F
100
AcDbEntity
  8
0
100
AcDbLine
 10
241.6795383245152
 20
468.2537820967048
 30
0.0
 11
242.7395383245152
 21
468.2537820967048
 31
0.0
  0
LINE
  5
16692
330
1F
100
AcDbEntity
  8
0
100
AcDbLine
 10
241.6795383245152
 20
466.2537820967048
 30
0.0
 11
241.6795383245152
 21
468.2537820967048
 31
0.0
  0
LINE
  5
16693
330
1F
100
AcDbEntity
  8
0
100
AcDbLine
 10
213.7395383245152
 20
485.2537820967048
 30
0.0
 11
222.7395383245152
 21
485.2537820967048
 31
0.0
  0
LINE
  5
16694
330
1F
100
AcDbEntity
  8
007
100
AcDbLine
 10
217.7395383245152
 20
485.2537820967048
 30
0.0
 11
217.7395383245152
 21
487.2537820967048
 31
0.0
  0
LINE
  5
16695
330
1F
100
AcDbEntity
  8
007
100
AcDbLine
 10
213.1695383245153
 20
483.7537820967049
 30
0.0
 11
213.7395383245152
 21
483.7537820967049
 31
0.0
  0
LINE
  5
16696
330
1F
100
AcDbEntity
  8
007
100
AcDbLine
 10
212.2995383245152
 20
485.2537820967048
 30
0.0
 11
213.7395383245152
 21
485.2537820967048
 31
0.0
  0
LINE
  5
16697
330
1F
100
AcDbEntity
  8
007
100
AcDbLine
 10
212.2995383245152
 20
485.2537820967048
 30
0.0
 11
213.1695383245153
 21
483.7537820967049
 31
0.0
  0
LINE
  5
16698
330
1F
100
AcDbEntity
  8
0
100
AcDbLine
 10
213.7395383245152
 20
483.7537820967049
 30
0.0
 11
213.7395383245152
 21
485.2537820967048
 31
0.0
  0
LINE
  5
16699
330
1F
100
AcDbEntity
  8
0
100
AcDbLine
 10
213.7395383245152
 20
483.7537820967049
 30
0.0
 11
220.7495383245152
 21
483.7537820967049
 31
0.0
  0
LINE
  5
1669A
330
1F
100
AcDbEntity
  8
0
100
AcDbLine
 10
660.5176259365173
 20
469.5454821853724
 30
0.0
 11
660.5176259365174
 21
457.6894211555721
 31
0.0
  0
LINE
  5
166A1
330
1F
100
AcDbEntity
  8
0
100
AcDbLine
 10
660.5176259365174
 20
457.6894211555721
 30
0.0
 11
692.6876259365171
 21
457.6894211555721
 31
0.0
  0
LINE
  5
166A2
330
1F
100
AcDbEntity
  8
0
100
AcDbLine
 10
661.5176259365174
 20
456.6894211555721
 30
0.0
 11
661.5176259365174
 21
443.6894211555719
 31
0.0
  0
LINE
  5
166A3
330
1F
100
AcDbEntity
  8
0
100
AcDbLine
 10
661.5176259365174
 20
447.3609940308259
 30
0.0
 11
670.5176259365174
 21
456.3609940308257
 31
0.0
  0
LINE
  5
166A4
330
1F
100
AcDbEntity
  8
0
100
AcDbLine
 10
661.5176259365174
 20
450.1894211555719
 30
0.0
 11
669.0176259365174
 21
457.6894211555719
 31
0.0
  0
LINE
  5
166A5
330
1F
100
AcDbEntity
  8
0
100
AcDbLine
 10
661.5176259365174
 20
453.0178482803181
 30
0.0
 11
666.1891988117714
 21
457.6894211555719
 31
0.0
  0
LINE
  5
166A6
330
1F
100
AcDbEntity
  8
0
100
AcDbLine
 10
665.3313344355023
 20
457.6894211555721
 30
0.0
 11
670.5176259365174
 21
452.503129654557
 31
0.0
  0
LINE
  5
166A7
330
1F
100
AcDbEntity
  8
0
100
AcDbLine
 10
662.5029073107558
 20
457.6894211555721
 30
0.0
 11
670.5176259365174
 21
449.6747025298108
 31
0.0
  0
LINE
  5
166A8
330
1F
100
AcDbEntity
  8
0
100
AcDbLine
 10
661.5176259365174
 20
455.8462754050643
 30
0.0
 11
670.5176259365174
 21
446.8462754050646
 31
0.0
  0
LINE
  5
166A9
330
1F
100
AcDbEntity
  8
0
100
AcDbLine
 10
661.5176259365174
 20
455.8462754050643
 30
0.0
 11
663.3607716870252
 21
457.6894211555719
 31
0.0
  0
LINE
  5
166AA
330
1F
100
AcDbEntity
  8
0
100
AcDbLine
 10
668.1597615602485
 20
457.6894211555721
 30
0.0
 11
670.5176259365174
 21
455.3315567793032
 31
0.0
  0
LINE
  5
166AB
330
1F
100
AcDbEntity
  8
0
100
AcDbLine
 10
661.5176259365174
 20
456.6894211555721
 30
0.0
 11
660.5176259365174
 21
457.6894211555721
 31
0.0
  0
LINE
  5
166AC
330
1F
100
AcDbEntity
  8
0
100
AcDbLine
 10
661.5176259365174
 20
444.5325669060797
 30
0.0
 11
670.5176259365174
 21
453.5325669060795
 31
0.0
  0
LINE
  5
166AD
330
1F
100
AcDbEntity
  8
0
100
AcDbLine
 10
661.5176259365174
 20
453.0178482803181
 30
0.0
 11
670.5176259365174
 21
444.0178482803183
 31
0.0
  0
LINE
  5
166AE
330
1F
100
AcDbEntity
  8
0
100
AcDbLine
 10
661.5176259365174
 20
443.6894211555719
 30
0.0
 11
660.5176259365174
 21
442.6894211555722
 31
0.0
  0
LINE
  5
166AF
330
1F
100
AcDbEntity
  8
0
100
AcDbLine
 10
668.1597615602485
 20
442.6894211555719
 30
0.0
 11
670.5176259365174
 21
445.0472855318408
 31
0.0
  0
LINE
  5
166B0
330
1F
100
AcDbEntity
  8
0
100
AcDbLine
 10
662.5029073107558
 20
442.6894211555719
 30
0.0
 11
670.5176259365174
 21
450.7041397813333
 31
0.0
  0
LINE
  5
166B1
330
1F
100
AcDbEntity
  8
0
100
AcDbLine
 10
665.3313344355023
 20
442.6894211555719
 30
0.0
 11
670.5176259365174
 21
447.8757126565871
 31
0.0
  0
LINE
  5
166B2
330
1F
100
AcDbEntity
  8
0
100
AcDbLine
 10
661.5176259365174
 20
447.3609940308259
 30
0.0
 11
666.1891988117714
 21
442.6894211555722
 31
0.0
  0
LINE
  5
166B3
330
1F
100
AcDbEntity
  8
0
100
AcDbLine
 10
661.5176259365174
 20
444.5325669060797
 30
0.0
 11
663.3607716870252
 21
442.6894211555722
 31
0.0
  0
LINE
  5
166B4
330
1F
100
AcDbEntity
  8
0
100
AcDbLine
 10
661.5176259365174
 20
450.1894211555721
 30
0.0
 11
669.0176259365174
 21
442.6894211555722
 31
0.0
  0
LINE
  5
166B5
330
1F
100
AcDbEntity
  8
0
100
AcDbLine
 10
470.9161870981279
 20
469.5454821853724
 30
0.0
 11
470.9161870981279
 21
457.6894211555721
 31
0.0
  0
LINE
  5
166B6
330
1F
100
AcDbEntity
  8
0
100
AcDbLine
 10
470.9161870981279
 20
457.6894211555721
 30
0.0
 11
438.7461870981282
 21
457.6894211555721
 31
0.0
  0
LINE
  5
166B7
330
1F
100
AcDbEntity
  8
0
100
AcDbLine
 10
469.9161870981279
 20
450.1894211555721
 30
0.0
 11
462.4161870981279
 21
442.6894211555722
 31
0.0
  0
LINE
  5
166B8
330
1F
100
AcDbEntity
  8
0
100
AcDbLine
 10
466.102478599143
 20
442.6894211555719
 30
0.0
 11
460.9161870981279
 21
447.8757126565871
 31
0.0
  0
LINE
  5
166B9
330
1F
100
AcDbEntity
  8
0
100
AcDbLine
 10
468.9309057238895
 20
442.6894211555719
 30
0.0
 11
460.9161870981279
 21
450.7041397813333
 31
0.0
  0
LINE
  5
166BA
330
1F
100
AcDbEntity
  8
0
100
AcDbLine
 10
469.9161870981279
 20
455.8462754050643
 30
0.0
 11
460.9161870981279
 21
446.8462754050646
 31
0.0
  0
LINE
  5
166BB
330
1F
100
AcDbEntity
  8
0
100
AcDbLine
 10
468.9309057238895
 20
457.6894211555721
 30
0.0
 11
460.9161870981279
 21
449.6747025298108
 31
0.0
  0
LINE
  5
166BC
330
1F
100
AcDbEntity
  8
0
100
AcDbLine
 10
466.102478599143
 20
457.6894211555721
 30
0.0
 11
460.9161870981279
 21
452.503129654557
 31
0.0
  0
LINE
  5
166BD
330
1F
100
AcDbEntity
  8
0
100
AcDbLine
 10
469.9161870981279
 20
453.0178482803181
 30
0.0
 11
465.2446142228739
 21
457.6894211555719
 31
0.0
  0
LINE
  5
166BE
330
1F
100
AcDbEntity
  8
0
100
AcDbLine
 10
469.9161870981279
 20
450.1894211555719
 30
0.0
 11
462.4161870981279
 21
457.6894211555719
 31
0.0
  0
LINE
  5
166BF
330
1F
100
AcDbEntity
  8
0
100
AcDbLine
 10
469.9161870981279
 20
447.3609940308259
 30
0.0
 11
460.9161870981279
 21
456.3609940308257
 31
0.0
  0
LINE
  5
166C0
330
1F
100
AcDbEntity
  8
0
100
AcDbLine
 10
469.9161870981279
 20
453.0178482803181
 30
0.0
 11
460.9161870981279
 21
444.0178482803183
 31
0.0
  0
LINE
  5
166C1
330
1F
100
AcDbEntity
  8
0
100
AcDbLine
 10
469.9161870981279
 20
444.5325669060797
 30
0.0
 11
460.9161870981279
 21
453.5325669060795
 31
0.0
  0
LINE
  5
166C2
330
1F
100
AcDbEntity
  8
0
100
AcDbLine
 10
469.9161870981279
 20
456.6894211555721
 30
0.0
 11
469.9161870981279
 21
443.6894211555719
 31
0.0
  0
LINE
  5
166C3
330
1F
100
AcDbEntity
  8
0
100
AcDbLine
 10
469.9161870981279
 20
456.6894211555721
 30
0.0
 11
470.9161870981279
 21
457.6894211555721
 31
0.0
  0
LINE
  5
166C4
330
1F
100
AcDbEntity
  8
0
100
AcDbLine
 10
469.9161870981279
 20
455.8462754050643
 30
0.0
 11
468.0730413476201
 21
457.6894211555719
 31
0.0
  0
LINE
  5
166C5
330
1F
100
AcDbEntity
  8
0
100
AcDbLine
 10
463.2740514743968
 20
457.6894211555721
 30
0.0
 11
460.9161870981279
 21
455.3315567793032
 31
0.0
  0
LINE
  5
166C6
330
1F
100
AcDbEntity
  8
0
100
AcDbLine
 10
463.2740514743968
 20
442.6894211555719
 30
0.0
 11
460.9161870981279
 21
445.0472855318408
 31
0.0
  0
LINE
  5
166C7
330
1F
100
AcDbEntity
  8
0
100
AcDbLine
 10
469.9161870981279
 20
444.5325669060797
 30
0.0
 11
468.0730413476201
 21
442.6894211555722
 31
0.0
  0
LINE
  5
166C8
330
1F
100
AcDbEntity
  8
0
100
AcDbLine
 10
469.9161870981279
 20
443.6894211555719
 30
0.0
 11
470.9161870981279
 21
442.6894211555722
 31
0.0
  0
LINE
  5
166C9
330
1F
100
AcDbEntity
  8
0
100
AcDbLine
 10
469.9161870981279
 20
447.3609940308259
 30
0.0
 11
465.2446142228739
 21
442.6894211555722
 31
0.0
  0
LINE
  5
167FF
330
1F
100
AcDbEntity
  8
003
100
AcDbLine
 10
242.7395383245152
 20
465.2537820967048
 30
0.0
 11
282.7395383245151
 21
465.2537820967047
 31
0.0
  0
LINE
  5
16800
330
1F
100
AcDbEntity
  8
0
100
AcDbLine
 10
282.7395383245151
 20
465.2537820967047
 30
0.0
 11
282.7395383245151
 21
490.2537820967048
 31
0.0
  0
LINE
  5
16801
330
1F
100
AcDbEntity
  8
003
100
AcDbLine
 10
222.7395383245152
 20
490.2537820967048
 30
0.0
 11
282.7395383245151
 21
490.2537820967048
 31
0.0
  0
LINE
  5
16802
330
1F
100
AcDbEntity
  8
003
100
AcDbLine
 10
242.7395383245152
 20
468.2537820967048
 30
0.0
 11
222.7395383245152
 21
468.2537820967048
 31
0.0
  0
LINE
  5
16803
330
1F
100
AcDbEntity
  8
003
100
AcDbLine
 10
222.7395383245152
 20
468.2537820967048
 30
0.0
 11
222.7395383245152
 21
490.2537820967048
 31
0.0
  0
LINE
  5
16804
330
1F
100
AcDbEntity
  8
003
100
AcDbLine
 10
222.7395383245152
 20
475.6670350149792
 30
0.0
 11
237.3262854062409
 21
490.2537820967048
 31
0.0
  0
LINE
  5
16805
330
1F
100
AcDbEntity
  8
003
100
AcDbLine
 10
237.3262854062409
 20
468.2537820967048
 30
0.0
 11
259.326285406241
 21
490.2537820967048
 31
0.0
  0
LINE
  5
16806
330
1F
100
AcDbEntity
  8
003
100
AcDbLine
 10
256.3262854062409
 20
465.2537820967048
 30
0.0
 11
281.326285406241
 21
490.2537820967048
 31
0.0
  0
LINE
  5
16808
330
1F
100
AcDbEntity
  8
0
100
AcDbLine
 10
282.7395383245151
 20
314.4028041365385
 30
0.0
 11
282.7395383245151
 21
289.4028041365384
 31
0.0
  0
LINE
  5
16809
330
1F
100
AcDbEntity
  8
003
100
AcDbLine
 10
242.7395383245152
 20
314.4028041365384
 30
0.0
 11
282.7395383245151
 21
314.4028041365385
 31
0.0
  0
LINE
  5
1680A
330
1F
100
AcDbEntity
  8
003
100
AcDbLine
 10
222.7395383245152
 20
289.4028041365384
 30
0.0
 11
282.7395383245151
 21
289.4028041365384
 31
0.0
  0
LINE
  5
1680B
330
1F
100
AcDbEntity
  8
003
100
AcDbLine
 10
242.7395383245152
 20
311.1728041365386
 30
0.0
 11
222.7395383245152
 21
311.1728041365386
 31
0.0
  0
LINE
  5
1680C
330
1F
100
AcDbEntity
  8
003
100
AcDbLine
 10
222.7395383245152
 20
311.1728041365386
 30
0.0
 11
222.7395383245152
 21
289.4028041365384
 31
0.0
  0
LINE
  5
1680D
330
1F
100
AcDbEntity
  8
003
100
AcDbLine
 10
222.7395383245152
 20
299.816057054813
 30
0.0
 11
234.0962854062409
 21
311.1728041365386
 31
0.0
  0
LINE
  5
1680E
330
1F
100
AcDbEntity
  8
003
100
AcDbLine
 10
234.3262854062406
 20
289.4028041365384
 30
0.0
 11
259.326285406241
 21
314.4028041365386
 31
0.0
  0
LINE
  5
1680F
330
1F
100
AcDbEntity
  8
003
100
AcDbLine
 10
256.3262854062409
 20
289.4028041365386
 30
0.0
 11
281.326285406241
 21
314.4028041365385
 31
0.0
  0
LINE
  5
16811
330
1F
100
AcDbEntity
  8
0
100
AcDbLine
 10
660.5176259365174
 20
312.6894211555722
 30
0.0
 11
685.5176259365174
 21
312.6894211555722
 31
0.0
  0
LINE
  5
1682A
330
1F
100
AcDbEntity
  8
003
100
AcDbLine
 10
660.5176259365174
 20
352.6894211555722
 30
0.0
 11
660.5176259365174
 21
312.6894211555722
 31
0.0
  0
LINE
  5
1682B
330
1F
100
AcDbEntity
  8
003
100
AcDbLine
 10
685.5176259365174
 20
372.6894211555722
 30
0.0
 11
685.5176259365174
 21
312.6894211555722
 31
0.0
  0
LINE
  5
1682C
330
1F
100
AcDbEntity
  8
003
100
AcDbLine
 10
663.5176259365174
 20
352.6894211555722
 30
0.0
 11
663.5176259365174
 21
372.6894211555722
 31
0.0
  0
LINE
  5
1682D
330
1F
100
AcDbEntity
  8
003
100
AcDbLine
 10
663.5176259365174
 20
372.6894211555722
 30
0.0
 11
685.5176259365174
 21
372.6894211555722
 31
0.0
  0
LINE
  5
1682E
330
1F
100
AcDbEntity
  8
003
100
AcDbLine
 10
675.1043730182431
 20
372.6894211555722
 30
0.0
 11
663.5176259365174
 21
361.1026740738464
 31
0.0
  0
LINE
  5
1682F
330
1F
100
AcDbEntity
  8
003
100
AcDbLine
 10
685.5176259365174
 20
361.1026740738465
 30
0.0
 11
660.5176259365174
 21
336.1026740738464
 31
0.0
  0
LINE
  5
16830
330
1F
100
AcDbEntity
  8
003
100
AcDbLine
 10
685.5176259365174
 20
339.1026740738465
 30
0.0
 11
660.5176259365174
 21
314.1026740738462
 31
0.0
  0
LINE
  5
16831
330
1F
100
AcDbEntity
  8
0
100
AcDbLine
 10
470.916187098128
 20
312.6894211555722
 30
0.0
 11
445.9161870981279
 21
312.6894211555722
 31
0.0
  0
LINE
  5
16832
330
1F
100
AcDbEntity
  8
003
100
AcDbLine
 10
470.9161870981279
 20
352.6894211555722
 30
0.0
 11
470.9161870981281
 21
312.6894211555721
 31
0.0
  0
LINE
  5
16833
330
1F
100
AcDbEntity
  8
003
100
AcDbLine
 10
445.9161870981279
 20
372.6894211555722
 30
0.0
 11
445.916187098128
 21
312.6894211555721
 31
0.0
  0
LINE
  5
16834
330
1F
100
AcDbEntity
  8
003
100
AcDbLine
 10
467.9161870981279
 20
352.6894211555722
 30
0.0
 11
467.9161870981279
 21
372.6894211555722
 31
0.0
  0
LINE
  5
16835
330
1F
100
AcDbEntity
  8
003
100
AcDbLine
 10
467.9161870981279
 20
372.6894211555722
 30
0.0
 11
445.9161870981279
 21
372.6894211555722
 31
0.0
  0
LINE
  5
16836
330
1F
100
AcDbEntity
  8
003
100
AcDbLine
 10
460.5029341798536
 20
372.6894211555722
 30
0.0
 11
445.9161870981279
 21
358.1026740738465
 31
0.0
  0
LINE
  5
16837
330
1F
100
AcDbEntity
  8
003
100
AcDbLine
 10
467.9161870981279
 20
358.1026740738465
 30
0.0
 11
445.9161870981279
 21
336.1026740738464
 31
0.0
  0
LINE
  5
16838
330
1F
100
AcDbEntity
  8
003
100
AcDbLine
 10
470.9161870981279
 20
339.1026740738465
 30
0.0
 11
445.9161870981281
 21
314.1026740738463
 31
0.0
  0
LINE
  5
1719C
330
1F
100
AcDbEntity
  8
003
100
AcDbLine
 10
271.510381079
 20
182.6495738426534
 30
0.0
 11
271.510381079
 21
50.64461346611892
 31
0.0
  0
LINE
  5
1719D
330
1F
100
AcDbEntity
  8
003
100
AcDbLine
 10
572.3454324310108
 20
182.6495738426534
 30
0.0
 11
572.3454324310108
 21
50.64461346611892
 31
0.0
  0
LINE
  5
1719E
330
1F
100
AcDbEntity
  8
003
100
AcDbLine
 10
572.3454324310108
 20
50.64461346611892
 30
0.0
 11
271.510381079
 21
50.64461346611892
 31
0.0
  0
DIMENSION
  5
177BE
330
1F
100
AcDbEntity
  8
003
100
AcDbDimension
  2
*D2
 10
660.5176259365174
 20
276.0309622390466
 30
0.0
 11
565.7169065173227
 21
281.0309622390466
 31
0.0
 70
    32
  1
開口W
 71
     5
 42
-1.0
  3
DIM
100
AcDbAlignedDimension
 13
470.916187098128
 23
312.6894211555722
 33
0.0
 14
660.5176259365174
 24
312.6894211555722
 34
0.0
100
AcDbRotatedDimension
  0
LINE
  5
17A97
330
1F
100
AcDbEntity
  8
003
100
AcDbLine
 10
278.3262854062412
 20
289.4028041365388
 30
0.0
 11
282.7395383245151
 21
293.8160570548127
 31
0.0
  0
LINE
  5
17A98
330
1F
100
AcDbEntity
  8
003
100
AcDbLine
 10
278.326285406241
 20
465.2537820967048
 30
0.0
 11
282.7395383245151
 21
469.667035014979
 31
0.0
  0
LINE
  5
17AD8
330
1F
100
AcDbEntity
  8
003
100
AcDbLine
 10
685.5176259365176
 20
317.1026740738464
 30
0.0
 11
681.1043730182436
 21
312.6894211555722
 31
0.0
  0
LINE
  5
17AD9
330
1F
100
AcDbEntity
  8
003
100
AcDbLine
 10
470.9161870981281
 20
317.1026740738464
 30
0.0
 11
466.5029341798539
 21
312.6894211555721
 31
0.0
  0
LINE
  5
1BCDE
330
1F
100
AcDbEntity
  8
010
100
AcDbLine
 10
242.7395383245154
 20
397.5804736662015
 30
0.0
 11
244.7395383245154
 21
399.5804736662017
 31
0.0
  0
LINE
  5
1BCDF
330
1F
100
AcDbEntity
  8
010
100
AcDbLine
 10
242.7395383245154
 20
394.0449397602691
 30
0.0
 11
244.7395383245154
 21
396.0449397602691
 31
0.0
  0
LINE
  5
1BCE0
330
1F
100
AcDbEntity
  8
010
100
AcDbLine
 10
242.7395383245154
 20
386.9738719484038
 30
0.0
 11
244.7395383245154
 21
388.9738719484038
 31
0.0
  0
LINE
  5
1BCE1
330
1F
100
AcDbEntity
  8
010
100
AcDbLine
 10
242.7395383245154
 20
390.5094058543362
 30
0.0
 11
244.7395383245154
 21
392.5094058543364
 31
0.0
  0
LINE
  5
1BCE2
330
1F
100
AcDbEntity
  8
010
100
AcDbLine
 10
242.7395383245154
 20
401.1160075721344
 30
0.0
 11
246.0263348889194
 21
404.4028041365384
 31
0.0
  0
LINE
  5
1BCE3
330
1F
100
AcDbEntity
  8
010
100
AcDbLine
 10
254.6329366067176
 20
402.4028041365384
 30
0.0
 11
256.6329366067176
 21
404.4028041365384
 31
0.0
  0
LINE
  5
1BCE4
330
1F
100
AcDbEntity
  8
010
100
AcDbLine
 10
247.5618687948523
 20
402.4028041365384
 30
0.0
 11
249.5618687948523
 21
404.4028041365384
 31
0.0
  0
LINE
  5
1BCE5
330
1F
100
AcDbEntity
  8
010
100
AcDbLine
 10
251.0974027007847
 20
402.4028041365384
 30
0.0
 11
253.0974027007847
 21
404.4028041365384
 31
0.0
  0
LINE
  5
1BCE6
330
1F
100
AcDbEntity
  8
010
100
AcDbLine
 10
258.1684705126501
 20
402.4028041365384
 30
0.0
 11
260.1684705126501
 21
404.4028041365384
 31
0.0
  0
LINE
  5
1BCE7
330
1F
100
AcDbEntity
  8
010
100
AcDbLine
 10
268.7750722304482
 20
402.4028041365384
 30
0.0
 11
270.7750722304482
 21
404.4028041365384
 31
0.0
  0
LINE
  5
1BCE8
330
1F
100
AcDbEntity
  8
010
100
AcDbLine
 10
261.7040044185829
 20
402.4028041365384
 30
0.0
 11
263.7040044185829
 21
404.4028041365384
 31
0.0
  0
LINE
  5
1BCE9
330
1F
100
AcDbEntity
  8
010
100
AcDbLine
 10
265.2395383245154
 20
402.4028041365384
 30
0.0
 11
267.2395383245154
 21
404.4028041365384
 31
0.0
  0
LINE
  5
1BCEA
330
1F
100
AcDbEntity
  8
010
100
AcDbLine
 10
270.7395383245154
 20
400.8317363246731
 30
0.0
 11
272.7395383245154
 21
402.8317363246731
 31
0.0
  0
LINE
  5
1BCEB
330
1F
100
AcDbEntity
  8
010
100
AcDbLine
 10
270.7395383245154
 20
390.225134606875
 30
0.0
 11
272.7395383245154
 21
392.225134606875
 31
0.0
  0
LINE
  5
1BCEC
330
1F
100
AcDbEntity
  8
010
100
AcDbLine
 10
270.7395383245154
 20
397.2962024187403
 30
0.0
 11
272.7395383245154
 21
399.2962024187403
 31
0.0
  0
LINE
  5
1BCED
330
1F
100
AcDbEntity
  8
010
100
AcDbLine
 10
270.7395383245154
 20
393.7606685128078
 30
0.0
 11
272.7395383245154
 21
395.7606685128078
 31
0.0
  0
LINE
  5
1BCEE
330
1F
100
AcDbEntity
  8
010
100
AcDbLine
 10
270.7395383245154
 20
386.6896007009426
 30
0.0
 11
272.7395383245154
 21
388.6896007009426
 31
0.0
  0
LINE
  5
1BCEF
330
1F
100
AcDbEntity
  8
010
100
AcDbLine
 10
242.7395383245154
 20
383.4383380424711
 30
0.0
 11
244.7395383245154
 21
385.4383380424711
 31
0.0
  0
LINE
  5
1BCF0
330
1F
100
AcDbEntity
  8
010
100
AcDbLine
 10
242.7395383245154
 20
376.3672702306058
 30
0.0
 11
244.7395383245154
 21
378.3672702306058
 31
0.0
  0
LINE
  5
1BCF1
330
1F
100
AcDbEntity
  8
010
100
AcDbLine
 10
242.7395383245154
 20
379.9028041365382
 30
0.0
 11
244.7395383245154
 21
381.9028041365385
 31
0.0
  0
LINE
  5
1BCF2
330
1F
100
AcDbEntity
  8
010
100
AcDbLine
 10
270.7395383245154
 20
379.618532889077
 30
0.0
 11
272.7395383245154
 21
381.618532889077
 31
0.0
  0
LINE
  5
1BCF3
330
1F
100
AcDbEntity
  8
010
100
AcDbLine
 10
270.7395383245154
 20
383.1540667950099
 30
0.0
 11
272.7395383245154
 21
385.1540667950099
 31
0.0
  0
LINE
  5
1BCF4
330
1F
100
AcDbEntity
  8
010
100
AcDbLine
 10
270.7395383245154
 20
376.0829989831446
 30
0.0
 11
272.7395383245154
 21
378.0829989831446
 31
0.0
  0
LINE
  5
1BCF5
330
1F
100
AcDbEntity
  8
010
100
AcDbLine
 10
242.7395383245154
 20
372.8317363246731
 30
0.0
 11
244.7395383245154
 21
374.8317363246731
 31
0.0
  0
LINE
  5
1BCF6
330
1F
100
AcDbEntity
  8
010
100
AcDbLine
 10
242.7395383245154
 20
365.7606685128079
 30
0.0
 11
244.7395383245154
 21
367.7606685128079
 31
0.0
  0
LINE
  5
1BCF7
330
1F
100
AcDbEntity
  8
010
100
AcDbLine
 10
242.7395383245154
 20
369.2962024187403
 30
0.0
 11
244.7395383245154
 21
371.2962024187405
 31
0.0
  0
LINE
  5
1BCF8
330
1F
100
AcDbEntity
  8
010
100
AcDbLine
 10
270.7395383245154
 20
369.0119311712791
 30
0.0
 11
272.7395383245154
 21
371.0119311712791
 31
0.0
  0
LINE
  5
1BCF9
330
1F
100
AcDbEntity
  8
010
100
AcDbLine
 10
270.7395383245154
 20
372.5474650772119
 30
0.0
 11
272.7395383245154
 21
374.5474650772119
 31
0.0
  0
LINE
  5
1BCFA
330
1F
100
AcDbEntity
  8
010
100
AcDbLine
 10
270.7395383245154
 20
365.4763972653466
 30
0.0
 11
272.7395383245154
 21
367.4763972653466
 31
0.0
  0
LINE
  5
1BCFB
330
1F
100
AcDbEntity
  8
010
100
AcDbLine
 10
242.7395383245154
 20
362.2251346068752
 30
0.0
 11
244.7395383245154
 21
364.2251346068752
 31
0.0
  0
LINE
  5
1BCFC
330
1F
100
AcDbEntity
  8
010
100
AcDbLine
 10
242.7395383245154
 20
355.1540667950099
 30
0.0
 11
244.7395383245154
 21
357.1540667950099
 31
0.0
  0
LINE
  5
1BCFD
330
1F
100
AcDbEntity
  8
010
100
AcDbLine
 10
242.7395383245154
 20
358.6896007009423
 30
0.0
 11
244.7395383245154
 21
360.6896007009425
 31
0.0
  0
LINE
  5
1BCFF
330
1F
100
AcDbEntity
  8
010
100
AcDbLine
 10
270.7395383245154
 20
361.940863359414
 30
0.0
 11
272.7395383245154
 21
363.940863359414
 31
0.0
  0
LINE
  5
1BD01
330
1F
100
AcDbEntity
  8
010
100
AcDbLine
 10
242.7395383245154
 20
351.6185328890772
 30
0.0
 11
244.7395383245154
 21
353.6185328890772
 31
0.0
  0
LINE
  5
1BD02
330
1F
100
AcDbEntity
  8
010
100
AcDbLine
 10
242.7395383245154
 20
344.547465077212
 30
0.0
 11
244.7395383245154
 21
346.5474650772119
 31
0.0
  0
LINE
  5
1BD03
330
1F
100
AcDbEntity
  8
010
100
AcDbLine
 10
242.7395383245154
 20
348.0829989831444
 30
0.0
 11
244.7395383245154
 21
350.0829989831446
 31
0.0
  0
LINE
  5
1BD06
330
1F
100
AcDbEntity
  8
010
100
AcDbLine
 10
270.8791486313031
 20
344.4028041365385
 30
0.0
 11
272.7395383245154
 21
346.2631938297507
 31
0.0
  0
LINE
  5
1BD07
330
1F
100
AcDbEntity
  8
010
100
AcDbLine
 10
270.7395383245154
 20
351.334261641616
 30
0.0
 11
272.7395383245154
 21
353.334261641616
 31
0.0
  0
LINE
  5
1BD08
330
1F
100
AcDbEntity
  8
010
100
AcDbLine
 10
270.7395383245154
 20
347.7987277356831
 30
0.0
 11
272.7395383245154
 21
349.7987277356831
 31
0.0
  0
LINE
  5
1BD09
330
1F
100
AcDbEntity
  8
010
100
AcDbLine
 10
270.7395383245154
 20
354.8697955475487
 30
0.0
 11
272.7395383245154
 21
356.8697955475487
 31
0.0
  0
LINE
  5
1BD0A
330
1F
100
AcDbEntity
  8
010
100
AcDbLine
 10
270.7395383245154
 20
358.4053294534811
 30
0.0
 11
272.7395383245154
 21
360.4053294534811
 31
0.0
  0
LINE
  5
1BD0F
330
1F
100
AcDbEntity
  8
003
100
AcDbLine
 10
244.7395383245154
 20
402.4028041365384
 30
0.0
 11
270.7395383245154
 21
402.4028041365384
 31
0.0
  0
LINE
  5
1BD10
330
1F
100
AcDbEntity
  8
003
100
AcDbLine
 10
270.7395383245154
 20
402.4028041365384
 30
0.0
 11
270.7395383245154
 21
344.4028041365383
 31
0.0
  0
LINE
  5
1BD11
330
1F
100
AcDbEntity
  8
003
100
AcDbLine
 10
268.7395383245154
 20
346.4028041365385
 30
0.0
 11
246.7395383245154
 21
346.4028041365385
 31
0.0
  0
LINE
  5
1BD12
330
1F
100
AcDbEntity
  8
003
100
AcDbLine
 10
244.7395383245154
 20
344.4028041365383
 30
0.0
 11
244.7395383245154
 21
402.4028041365384
 31
0.0
  0
LINE
  5
1BD14
330
1F
100
AcDbEntity
  8
003
100
AcDbLine
 10
268.7395383245154
 20
402.4028041365384
 30
0.0
 11
268.7395383245154
 21
346.4028041365385
 31
0.0
  0
LINE
  5
1BD15
330
1F
100
AcDbEntity
  8
003
100
AcDbLine
 10
268.7395383245154
 20
346.4028041365385
 30
0.0
 11
246.7395383245154
 21
346.4028041365385
 31
0.0
  0
LINE
  5
1BD16
330
1F
100
AcDbEntity
  8
003
100
AcDbLine
 10
246.7395383245154
 20
346.4028041365385
 30
0.0
 11
246.7395383245154
 21
402.4028041365384
 31
0.0
  0
LINE
  5
1BD17
330
1F
100
AcDbEntity
  8
003
100
AcDbLine
 10
242.7395383245154
 20
404.4028041365384
 30
0.0
 11
272.7395383245154
 21
404.4028041365384
 31
0.0
  0
LINE
  5
1BD18
330
1F
100
AcDbEntity
  8
003
100
AcDbLine
 10
272.7395383245154
 20
404.4028041365384
 30
0.0
 11
272.7395383245154
 21
344.4028041365385
 31
0.0
  0
LINE
  5
1BD19
330
1F
100
AcDbEntity
  8
003
100
AcDbLine
 10
272.7395383245154
 20
344.4028041365385
 30
0.0
 11
242.7395383245154
 21
344.4028041365385
 31
0.0
  0
LINE
  5
1BD1A
330
1F
100
AcDbEntity
  8
003
100
AcDbLine
 10
242.7395383245154
 20
344.4028041365385
 30
0.0
 11
242.7395383245154
 21
404.4028041365384
 31
0.0
  0
DIMENSION
  5
1BD1B
330
1F
100
AcDbEntity
  8
003
100
AcDbDimension
  2
*D3
 10
272.7395383245154
 20
327.2812112005608
 30
0.0
 11
257.7395383245153
 21
332.2812112005609
 31
0.0
 70
    32
  1
（　　）
 71
     5
 42
-1.0
  3
DIM
100
AcDbAlignedDimension
 13
242.7395383245154
 23
344.547465077212
 33
0.0
 14
272.7395383245154
 24
344.4028041365385
 34
0.0
100
AcDbRotatedDimension
  0
DIMENSION
  5
1BD28
330
1F
100
AcDbEntity
  8
003
100
AcDbDimension
  2
*D4
 10
233.8867744571144
 20
344.4028041365385
 30
0.0
 11
228.8867744571143
 21
374.4028041365385
 31
0.0
 70
    32
  1
（　　）
 71
     5
 42
-1.0
  3
DIM
100
AcDbAlignedDimension
 13
242.7395383245154
 23
404.4028041365384
 33
0.0
 14
242.7395383245154
 24
344.4028041365385
 34
0.0
 50
90.0
100
AcDbRotatedDimension
  0
LINE
  5
1BD7C
330
1F
100
AcDbEntity
  8
006
100
AcDbLine
 10
252.7395383245153
 20
389.4028041365385
 30
0.0
 11
262.7395383245154
 21
389.4028041365385
 31
0.0
  0
LINE
  5
1BD7D
330
1F
100
AcDbEntity
  8
006
100
AcDbLine
 10
257.7395383245153
 20
394.4028041365385
 30
0.0
 11
257.7395383245153
 21
384.4028041365385
 31
0.0
  0
ARC
  5
1BD7E
330
1F
100
AcDbEntity
  8
003
100
AcDbCircle
 10
258.9062049245155
 20
390.5694707365384
 30
0.0
 40
0.5833333000000001
100
AcDbArc
 50
180.0
 51
270.0
  0
ARC
  5
1BD7F
330
1F
100
AcDbEntity
  8
003
100
AcDbCircle
 10
258.9062049245155
 20
388.2361375365386
 30
0.0
 40
0.5833333000000001
100
AcDbArc
 50
90.0
 51
180.0
  0
CIRCLE
  5
1BD80
330
1F
100
AcDbEntity
  8
003
100
AcDbCircle
 10
257.7395383245153
 20
389.4028041365385
 30
0.0
 40
3.4999998
  0
LINE
  5
1BD81
330
1F
100
AcDbEntity
  8
003
100
AcDbLine
 10
258.3228716245154
 20
390.5694707365384
 30
0.0
 11
258.3228716245154
 21
391.7361373365384
 31
0.0
  0
LINE
  5
1BD82
330
1F
100
AcDbEntity
  8
003
100
AcDbLine
 10
257.1562050245155
 20
390.5694707365384
 30
0.0
 11
257.1562050245155
 21
391.7361373365384
 31
0.0
  0
LINE
  5
1BD83
330
1F
100
AcDbEntity
  8
003
100
AcDbLine
 10
257.1562050245155
 20
391.7361373365384
 30
0.0
 11
258.3228716245154
 21
391.7361373365384
 31
0.0
  0
LINE
  5
1BD84
330
1F
100
AcDbEntity
  8
003
100
AcDbLine
 10
258.3228716245154
 20
387.0694709365385
 30
0.0
 11
258.3228716245154
 21
388.2361375365386
 31
0.0
  0
LINE
  5
1BD85
330
1F
100
AcDbEntity
  8
003
100
AcDbLine
 10
257.1678716905154
 20
387.0694709365385
 30
0.0
 11
257.1678716905154
 21
388.2361375365386
 31
0.0
  0
LINE
  5
1BD86
330
1F
100
AcDbEntity
  8
003
100
AcDbLine
 10
257.1678716905154
 20
387.0694709365385
 30
0.0
 11
258.3228716245154
 21
387.0694709365385
 31
0.0
  0
LINE
  5
1BD87
330
1F
100
AcDbEntity
  8
003
100
AcDbLine
 10
255.4062051245156
 20
389.9861374365383
 30
0.0
 11
256.5728717245155
 21
389.9861374365383
 31
0.0
  0
LINE
  5
1BD88
330
1F
100
AcDbEntity
  8
003
100
AcDbLine
 10
255.4062051245156
 20
388.8194708365384
 30
0.0
 11
256.5845383905154
 21
388.8194708365384
 31
0.0
  0
LINE
  5
1BD89
330
1F
100
AcDbEntity
  8
003
100
AcDbLine
 10
255.4062051245156
 20
388.8194708365384
 30
0.0
 11
255.4062051245156
 21
389.9861374365383
 31
0.0
  0
ARC
  5
1BD8A
330
1F
100
AcDbEntity
  8
003
100
AcDbCircle
 10
256.5728717245155
 20
390.5694707365384
 30
0.0
 40
0.5833333000000001
100
AcDbArc
 50
270.0
 51
0.0
  0
ARC
  5
1BD8B
330
1F
100
AcDbEntity
  8
003
100
AcDbCircle
 10
256.5845383905154
 20
388.2361375365386
 30
0.0
 40
0.5833333000000001
100
AcDbArc
 50
0.0
 51
90.0
  0
LINE
  5
1BD8C
330
1F
100
AcDbEntity
  8
003
100
AcDbLine
 10
258.9062049245155
 20
389.9861374365383
 30
0.0
 11
260.0728715245156
 21
389.9861374365383
 31
0.0
  0
LINE
  5
1BD8D
330
1F
100
AcDbEntity
  8
003
100
AcDbLine
 10
258.9062049245155
 20
388.8194708365384
 30
0.0
 11
260.0728715245156
 21
388.8194708365384
 31
0.0
  0
LINE
  5
1BD8E
330
1F
100
AcDbEntity
  8
003
100
AcDbLine
 10
260.0728715245156
 20
388.8194708365384
 30
0.0
 11
260.0728715245156
 21
389.9861374365383
 31
0.0
  0
LINE
  5
1BDA4
330
1F
100
AcDbEntity
  8
006
100
AcDbLine
 10
252.7395383245153
 20
359.4028041365385
 30
0.0
 11
262.7395383245154
 21
359.4028041365385
 31
0.0
  0
LINE
  5
1BDA5
330
1F
100
AcDbEntity
  8
006
100
AcDbLine
 10
257.7395383245153
 20
364.4028041365384
 30
0.0
 11
257.7395383245153
 21
354.4028041365385
 31
0.0
  0
ARC
  5
1BDA6
330
1F
100
AcDbEntity
  8
003
100
AcDbCircle
 10
258.9062049245155
 20
360.5694707365383
 30
0.0
 40
0.5833333000000001
100
AcDbArc
 50
180.0
 51
270.0
  0
ARC
  5
1BDA7
330
1F
100
AcDbEntity
  8
003
100
AcDbCircle
 10
258.9062049245155
 20
358.2361375365386
 30
0.0
 40
0.5833333000000001
100
AcDbArc
 50
90.0
 51
180.0
  0
CIRCLE
  5
1BDA8
330
1F
100
AcDbEntity
  8
003
100
AcDbCircle
 10
257.7395383245153
 20
359.4028041365385
 30
0.0
 40
3.4999998
  0
LINE
  5
1BDA9
330
1F
100
AcDbEntity
  8
003
100
AcDbLine
 10
258.3228716245154
 20
360.5694707365383
 30
0.0
 11
258.3228716245154
 21
361.7361373365384
 31
0.0
  0
LINE
  5
1BDAA
330
1F
100
AcDbEntity
  8
003
100
AcDbLine
 10
257.1562050245155
 20
360.5694707365383
 30
0.0
 11
257.1562050245155
 21
361.7361373365384
 31
0.0
  0
LINE
  5
1BDAB
330
1F
100
AcDbEntity
  8
003
100
AcDbLine
 10
257.1562050245155
 20
361.7361373365384
 30
0.0
 11
258.3228716245154
 21
361.7361373365384
 31
0.0
  0
LINE
  5
1BDAC
330
1F
100
AcDbEntity
  8
003
100
AcDbLine
 10
258.3228716245154
 20
357.0694709365385
 30
0.0
 11
258.3228716245154
 21
358.2361375365386
 31
0.0
  0
LINE
  5
1BDAD
330
1F
100
AcDbEntity
  8
003
100
AcDbLine
 10
257.1678716905154
 20
357.0694709365385
 30
0.0
 11
257.1678716905154
 21
358.2361375365386
 31
0.0
  0
LINE
  5
1BDAE
330
1F
100
AcDbEntity
  8
003
100
AcDbLine
 10
257.1678716905154
 20
357.0694709365385
 30
0.0
 11
258.3228716245154
 21
357.0694709365385
 31
0.0
  0
LINE
  5
1BDAF
330
1F
100
AcDbEntity
  8
003
100
AcDbLine
 10
255.4062051245156
 20
359.9861374365383
 30
0.0
 11
256.5728717245155
 21
359.9861374365383
 31
0.0
  0
LINE
  5
1BDB0
330
1F
100
AcDbEntity
  8
003
100
AcDbLine
 10
255.4062051245156
 20
358.8194708365384
 30
0.0
 11
256.5845383905154
 21
358.8194708365384
 31
0.0
  0
LINE
  5
1BDB1
330
1F
100
AcDbEntity
  8
003
100
AcDbLine
 10
255.4062051245156
 20
358.8194708365384
 30
0.0
 11
255.4062051245156
 21
359.9861374365383
 31
0.0
  0
ARC
  5
1BDB2
330
1F
100
AcDbEntity
  8
003
100
AcDbCircle
 10
256.5728717245155
 20
360.5694707365383
 30
0.0
 40
0.5833333000000001
100
AcDbArc
 50
270.0
 51
0.0
  0
ARC
  5
1BDB3
330
1F
100
AcDbEntity
  8
003
100
AcDbCircle
 10
256.5845383905154
 20
358.2361375365386
 30
0.0
 40
0.5833333000000001
100
AcDbArc
 50
0.0
 51
90.0
  0
LINE
  5
1BDB4
330
1F
100
AcDbEntity
  8
003
100
AcDbLine
 10
258.9062049245155
 20
359.9861374365383
 30
0.0
 11
260.0728715245156
 21
359.9861374365383
 31
0.0
  0
LINE
  5
1BDB5
330
1F
100
AcDbEntity
  8
003
100
AcDbLine
 10
258.9062049245155
 20
358.8194708365384
 30
0.0
 11
260.0728715245156
 21
358.8194708365384
 31
0.0
  0
LINE
  5
1BDB6
330
1F
100
AcDbEntity
  8
003
100
AcDbLine
 10
260.0728715245156
 20
358.8194708365384
 30
0.0
 11
260.0728715245156
 21
359.9861374365383
 31
0.0
  0
LINE
  5
1BDB7
330
1F
100
AcDbEntity
  8
006
100
AcDbLine
 10
237.3906427653251
 20
374.4028041365385
 30
0.0
 11
252.1123094169407
 21
374.4028041365385
 31
0.0
  0
LINE
  5
1BDB8
330
1F
100
AcDbEntity
  8
006
100
AcDbLine
 10
278.0884338837056
 20
374.4028041365385
 30
0.0
 11
263.36676723209
 21
374.4028041365385
 31
0.0
  0
LINE
  5
1BDBA
330
1F
100
AcDbEntity
  8
003
100
AcDbLine
 10
271.510381079
 20
182.6495738426534
 30
0.0
 11
572.3454324310108
 21
182.6495738426534
 31
0.0
  0
LINE
  5
1BDE9
330
1F
100
AcDbEntity
  8
003
100
AcDbLine
 10
470.9161870981279
 20
352.6894211555722
 30
0.0
 11
563.2169065173226
 21
352.6894211555722
 31
0.0
  0
LINE
  5
1BDEA
330
1F
100
AcDbEntity
  8
003
100
AcDbLine
 10
660.5176259365175
 20
352.6894211555722
 30
0.0
 11
568.2169065173228
 21
352.6894211555722
 31
0.0
  0
LINE
  5
1BDEB
330
1F
100
AcDbEntity
  8
003
100
AcDbLine
 10
660.5176259365175
 20
322.6894211555722
 30
0.0
 11
568.2169065173228
 21
322.6894211555722
 31
0.0
  0
LINE
  5
1BDEC
330
1F
100
AcDbEntity
  8
003
100
AcDbLine
 10
470.9161870981279
 20
322.6894211555722
 30
0.0
 11
563.2169065173226
 21
322.6894211555722
 31
0.0
  0
LINE
  5
1BDED
330
1F
100
AcDbEntity
  8
007
100
AcDbLine
 10
510.9161870981279
 20
352.6894211555724
 30
0.0
 11
510.916187098128
 21
322.6894211555721
 31
0.0
  0
LINE
  5
1BDEF
330
1F
100
AcDbEntity
  8
007
100
AcDbLine
 10
472.9161870981279
 20
350.6894211555722
 30
0.0
 11
510.916187098128
 21
350.6894211555722
 31
0.0
  0
LINE
  5
1BDF0
330
1F
100
AcDbEntity
  8
007
100
AcDbLine
 10
472.916187098128
 20
324.6894211555722
 30
0.0
 11
510.916187098128
 21
324.6894211555722
 31
0.0
  0
LINE
  5
1BDF1
330
1F
100
AcDbEntity
  8
007
100
AcDbLine
 10
472.9161870981279
 20
350.6894211555722
 30
0.0
 11
472.916187098128
 21
324.6894211555722
 31
0.0
  0
LINE
  5
1BDF2
330
1F
100
AcDbEntity
  8
006
100
AcDbLine
 10
491.9161870981278
 20
345.4146471127833
 30
0.0
 11
491.9161870981278
 21
357.6651769348232
 31
0.0
  0
LINE
  5
1BDF3
330
1F
100
AcDbEntity
  8
006
100
AcDbLine
 10
491.9161870981278
 20
329.964195198361
 30
0.0
 11
491.9161870981278
 21
317.7136653763211
 31
0.0
  0
LINE
  5
1BDF4
330
1F
100
AcDbEntity
  8
006
100
AcDbLine
 10
478.9477177503645
 20
337.6894211555722
 30
0.0
 11
460.3858601281504
 21
337.6894211555722
 31
0.0
  0
LINE
  5
1BDF5
330
1F
100
AcDbEntity
  8
007
100
AcDbLine
 10
658.5176259365176
 20
350.6894211555722
 30
0.0
 11
620.5176259365175
 21
350.6894211555722
 31
0.0
  0
LINE
  5
1BDF6
330
1F
100
AcDbEntity
  8
007
100
AcDbLine
 10
658.5176259365174
 20
324.6894211555722
 30
0.0
 11
620.5176259365174
 21
324.6894211555722
 31
0.0
  0
LINE
  5
1BDF7
330
1F
100
AcDbEntity
  8
007
100
AcDbLine
 10
658.5176259365176
 20
350.6894211555722
 30
0.0
 11
658.5176259365174
 21
324.6894211555722
 31
0.0
  0
LINE
  5
1BDF8
330
1F
100
AcDbEntity
  8
007
100
AcDbLine
 10
620.5176259365175
 20
352.6894211555724
 30
0.0
 11
620.5176259365174
 21
322.6894211555721
 31
0.0
  0
LINE
  5
1BDF9
330
1F
100
AcDbEntity
  8
006
100
AcDbLine
 10
639.5176259365175
 20
345.4146471127833
 30
0.0
 11
639.5176259365175
 21
357.6651769348232
 31
0.0
  0
LINE
  5
1BDFA
330
1F
100
AcDbEntity
  8
006
100
AcDbLine
 10
639.5176259365175
 20
329.964195198361
 30
0.0
 11
639.5176259365175
 21
317.7136653763211
 31
0.0
  0
LINE
  5
1BDFB
330
1F
100
AcDbEntity
  8
006
100
AcDbLine
 10
652.4860952842809
 20
337.6894211555722
 30
0.0
 11
671.0479529064951
 21
337.6894211555722
 31
0.0
  0
DIMENSION
  5
1BDFC
330
1F
100
AcDbEntity
  8
003
100
AcDbDimension
  2
*D5
 10
578.5573942918331
 20
322.6894211555722
 30
0.0
 11
573.557394291833
 21
337.6894211555722
 31
0.0
 70
    32
  1
（　　）
 71
     5
 42
-1.0
  3
DIM
100
AcDbAlignedDimension
 13
568.2169065173228
 23
352.6894211555722
 33
0.0
 14
568.2169065173228
 24
322.6894211555722
 34
0.0
 50
90.0
100
AcDbRotatedDimension
  0
DIMENSION
  5
1BE12
330
1F
100
AcDbEntity
  8
003
100
AcDbDimension
  2
*D6
 10
620.5176259365174
 20
290.0309622390466
 30
0.0
 11
640.5176259365174
 21
295.0309622390467
 31
0.0
 70
    32
 71
     5
 42
-1.0
  3
DIM
100
AcDbAlignedDimension
 13
660.5176259365174
 23
312.6894211555722
 33
0.0
 14
620.5176259365174
 24
322.6894211555721
 34
0.0
100
AcDbRotatedDimension
  0
TEXT
  5
1BE34
330
1F
100
AcDbEntity
  8
0
100
AcDbText
 10
284.590272079
 20
173.6169218426534
 30
0.0
 40
5.99995
  1
取付手順
  7
AT_VECTOR
100
AcDbText
  0
LINE
  5
1BE35
330
1F
100
AcDbEntity
  8
0
100
AcDbLine
 10
282.375745079
 20
172.9296548426534
 30
0.0
 11
319.226347079
 21
172.9296548426534
 31
0.0
  0
LINE
  5
1BE36
330
1F
100
AcDbEntity
  8
003
100
AcDbLine
 10
337.7633092717474
 20
146.8207399644221
 30
0.0
 11
337.7633092717474
 21
116.8207399644221
 31
0.0
  0
LINE
  5
1BE37
330
1F
100
AcDbEntity
  8
003
100
AcDbLine
 10
337.7633092717474
 20
116.8207399644221
 30
0.0
 11
480.7054560492119
 21
116.8207399644221
 31
0.0
  0
LINE
  5
1BE38
330
1F
100
AcDbEntity
  8
003
100
AcDbLine
 10
337.7633092717474
 20
146.8207399644221
 30
0.0
 11
480.7054560492119
 21
146.8207399644221
 31
0.0
  0
LINE
  5
1BE39
330
1F
100
AcDbEntity
  8
003
100
AcDbLine
 10
337.7633092717474
 20
146.8207399644221
 30
0.0
 11
350.7536903285139
 21
154.3207399644221
 31
0.0
  0
LINE
  5
1BE3A
330
1F
100
AcDbEntity
  8
003
100
AcDbLine
 10
350.7536903285139
 20
154.3207399644221
 30
0.0
 11
493.6958371059785
 21
154.3207399644221
 31
0.0
  0
LINE
  5
1BE3B
330
1F
100
AcDbEntity
  8
003
100
AcDbLine
 10
480.7054560492119
 20
146.8207399644221
 30
0.0
 11
480.7054560492119
 21
116.8207399644221
 31
0.0
  0
LINE
  5
1BE3C
330
1F
100
AcDbEntity
  8
003
100
AcDbLine
 10
480.7054560492119
 20
146.8207399644221
 30
0.0
 11
493.6958371059785
 21
154.3207399644221
 31
0.0
  0
LINE
  5
1BE3D
330
1F
100
AcDbEntity
  8
003
100
AcDbLine
 10
493.6958371059785
 20
154.3207399644221
 30
0.0
 11
493.6958371059785
 21
124.3207399644221
 31
0.0
  0
LINE
  5
1BE41
330
1F
100
AcDbEntity
  8
003
100
AcDbLine
 10
480.7054560492119
 20
116.8207399644221
 30
0.0
 11
482.0044941548886
 21
117.5707399644221
 31
0.0
  0
LINE
  5
1BE44
330
1F
100
AcDbEntity
  8
003
100
AcDbLine
 10
482.0044941548885
 20
146.0707399644221
 30
0.0
 11
482.0044941548885
 21
117.5707399644221
 31
0.0
  0
LINE
  5
1BE45
330
1F
100
AcDbEntity
  8
003
100
AcDbLine
 10
482.0044941548885
 20
146.0707399644221
 30
0.0
 11
492.3967990003019
 21
152.0707399644222
 31
0.0
  0
LINE
  5
1BE46
330
1F
100
AcDbEntity
  8
003
100
AcDbLine
 10
492.3967990003019
 20
152.0707399644222
 30
0.0
 11
492.3967990003019
 21
123.5707399644221
 31
0.0
  0
LINE
  5
1BE47
330
1F
100
AcDbEntity
  8
003
100
AcDbLine
 10
492.3967990003019
 20
123.5707399644221
 30
0.0
 11
493.6958371059785
 21
124.3207399644221
 31
0.0
  0
LINE
  5
1BE49
330
1F
100
AcDbEntity
  8
007
100
AcDbLine
 10
482.0044941548885
 20
117.5707399644221
 30
0.0
 11
460.7195234965387
 21
117.5707399644221
 31
0.0
  0
LINE
  5
1BE4A
330
1F
100
AcDbEntity
  8
007
100
AcDbLine
 10
460.7195234965387
 20
117.5707399644221
 30
0.0
 11
471.1118283419521
 21
123.5707399644221
 31
0.0
  0
LINE
  5
1BE4B
330
1F
100
AcDbEntity
  8
003
100
AcDbLine
 10
492.3967990003019
 20
123.5707399644221
 30
0.0
 11
482.0044941548885
 21
123.5707399644221
 31
0.0
  0
LINE
  5
1BE4C
330
1F
100
AcDbEntity
  8
007
100
AcDbLine
 10
482.0044941548885
 20
123.5707399644221
 30
0.0
 11
471.1118283419521
 21
123.5707399644221
 31
0.0
  0
CIRCLE
  5
1BE4E
330
1F
100
AcDbEntity
  8
003
100
AcDbCircle
 10
471.3620088257137
 20
131.8207399644221
 30
0.0
 40
1.5
  0
LINE
  5
1BE4F
330
1F
100
AcDbEntity
  8
003
100
AcDbLine
 10
460.7195234965387
 20
87.86683333968232
 30
0.0
 11
460.7195234965387
 21
59.36683333968229
 31
0.0
  0
LINE
  5
1BE51
330
1F
100
AcDbEntity
  8
003
100
AcDbLine
 10
460.7195234965387
 20
59.36683333968229
 30
0.0
 11
482.0044941548885
 21
59.36683333968227
 31
0.0
  0
LINE
  5
1BE52
330
1F
100
AcDbEntity
  8
003
100
AcDbLine
 10
482.0044941548885
 20
59.36683333968227
 30
0.0
 11
492.3967990003019
 21
65.36683333968233
 31
0.0
  0
LINE
  5
1BE53
330
1F
100
AcDbEntity
  8
003
100
AcDbLine
 10
482.0044941548885
 20
87.8668333396823
 30
0.0
 11
482.0044941548885
 21
59.36683333968227
 31
0.0
  0
LINE
  5
1BE54
330
1F
100
AcDbEntity
  8
003
100
AcDbLine
 10
492.3967990003019
 20
93.86683333968235
 30
0.0
 11
492.3967990003019
 21
65.36683333968233
 31
0.0
  0
LINE
  5
1BE55
330
1F
100
AcDbEntity
  8
003
100
AcDbLine
 10
482.0044941548885
 20
87.8668333396823
 30
0.0
 11
492.3967990003019
 21
93.86683333968235
 31
0.0
  0
LINE
  5
1BE56
330
1F
100
AcDbEntity
  8
003
100
AcDbLine
 10
482.0044941548885
 20
87.8668333396823
 30
0.0
 11
460.7195234965387
 21
87.86683333968232
 31
0.0
  0
LINE
  5
1BE5A
330
1F
100
AcDbEntity
  8
003
100
AcDbLine
 10
481.5044941548885
 20
88.73285874346672
 30
0.0
 11
488.896799000302
 21
93.00080793589794
 31
0.0
  0
LINE
  5
1BE5B
330
1F
100
AcDbEntity
  8
003
100
AcDbLine
 10
481.5044941548885
 20
88.73285874346672
 30
0.0
 11
462.2195234965387
 21
88.73285874346674
 31
0.0
  0
LINE
  5
1BE5C
330
1F
100
AcDbEntity
  8
003
100
AcDbLine
 10
460.7195234965387
 20
87.86683333968232
 30
0.0
 11
462.2195234965387
 21
88.73285874346674
 31
0.0
  0
LINE
  5
1BE5E
330
1F
100
AcDbEntity
  8
003
100
AcDbLine
 10
492.3967990003019
 20
93.86683333968235
 30
0.0
 11
471.1118283419522
 21
93.86683333968235
 31
0.0
  0
LINE
  5
1BE5F
330
1F
100
AcDbEntity
  8
003
100
AcDbLine
 10
469.6118283419523
 20
93.00080793589796
 30
0.0
 11
471.1118283419522
 21
93.86683333968235
 31
0.0
  0
LINE
  5
1BE61
330
1F
100
AcDbEntity
  8
003
100
AcDbLine
 10
488.896799000302
 20
93.00080793589794
 30
0.0
 11
469.6118283419523
 21
93.00080793589796
 31
0.0
  0
LINE
  5
1BE62
330
1F
100
AcDbEntity
  8
003
100
AcDbLine
 10
469.6118283419523
 20
93.00080793589796
 30
0.0
 11
469.6118283419523
 21
88.73285874346674
 31
0.0
  0
CIRCLE
  5
1BE64
330
1F
100
AcDbEntity
  8
003
100
AcDbCircle
 10
471.3620088257136
 20
73.61683333968229
 30
0.0
 40
1.5
  0
LINE
  5
1BE69
330
1F
100
AcDbEntity
  8
007
100
AcDbLine
 10
360.3473180357738
 20
117.5707399644221
 30
0.0
 11
370.739622881188
 21
123.5707399644221
 31
0.0
  0
LINE
  5
1BE6B
330
1F
100
AcDbEntity
  8
007
100
AcDbLine
 10
339.062347377424
 20
146.0707399644221
 30
0.0
 11
339.062347377424
 21
117.5707399644221
 31
0.0
  0
LINE
  5
1BE6C
330
1F
100
AcDbEntity
  8
007
100
AcDbLine
 10
339.062347377424
 20
146.0707399644221
 30
0.0
 11
349.4546522228374
 21
152.0707399644222
 31
0.0
  0
LINE
  5
1BE6D
330
1F
100
AcDbEntity
  8
007
100
AcDbLine
 10
349.4546522228374
 20
152.0707399644222
 30
0.0
 11
349.4546522228373
 21
123.5707399644221
 31
0.0
  0
LINE
  5
1BE6E
330
1F
100
AcDbEntity
  8
007
100
AcDbLine
 10
360.3473180357738
 20
117.5707399644221
 30
0.0
 11
339.062347377424
 21
117.5707399644221
 31
0.0
  0
LINE
  5
1BE71
330
1F
100
AcDbEntity
  8
007
100
AcDbLine
 10
370.739622881188
 20
123.5707399644221
 30
0.0
 11
349.4546522228374
 21
123.5707399644221
 31
0.0
  0
CIRCLE
  5
1BE72
330
1F
100
AcDbEntity
  8
003
100
AcDbCircle
 10
349.7048327065989
 20
131.8207399644221
 30
0.0
 40
1.5
  0
LINE
  5
1BE75
330
1F
100
AcDbEntity
  8
003
100
AcDbLine
 10
357.7492418244205
 20
87.86683333968232
 30
0.0
 11
357.7492418244205
 21
59.36683333968229
 31
0.0
  0
LINE
  5
1BE76
330
1F
100
AcDbEntity
  8
003
100
AcDbLine
 10
357.7492418244205
 20
59.36683333968229
 30
0.0
 11
336.4642711660707
 21
59.36683333968227
 31
0.0
  0
LINE
  5
1BE78
330
1F
100
AcDbEntity
  8
003
100
AcDbLine
 10
336.4642711660707
 20
87.8668333396823
 30
0.0
 11
336.4642711660707
 21
59.36683333968227
 31
0.0
  0
LINE
  5
1BE7A
330
1F
100
AcDbEntity
  8
003
100
AcDbLine
 10
339.9642711660707
 20
88.73285874346672
 30
0.0
 11
347.3565760114841
 21
93.00080793589794
 31
0.0
  0
LINE
  5
1BE7B
330
1F
100
AcDbEntity
  8
003
100
AcDbLine
 10
336.4642711660707
 20
87.8668333396823
 30
0.0
 11
357.7492418244205
 21
87.86683333968232
 31
0.0
  0
LINE
  5
1BE7C
330
1F
100
AcDbEntity
  8
003
100
AcDbLine
 10
336.4642711660707
 20
87.8668333396823
 30
0.0
 11
346.8565760114841
 21
93.86683333968235
 31
0.0
  0
LINE
  5
1BE7D
330
1F
100
AcDbEntity
  8
003
100
AcDbLine
 10
339.9642711660707
 20
88.73285874346672
 30
0.0
 11
359.2492418244205
 21
88.73285874346674
 31
0.0
  0
LINE
  5
1BE7F
330
1F
100
AcDbEntity
  8
003
100
AcDbLine
 10
366.6415466698339
 20
93.00080793589796
 30
0.0
 11
368.1415466698338
 21
93.86683333968235
 31
0.0
  0
LINE
  5
1BE80
330
1F
100
AcDbEntity
  8
003
100
AcDbLine
 10
346.8565760114841
 20
93.86683333968235
 30
0.0
 11
368.1415466698338
 21
93.86683333968235
 31
0.0
  0
LINE
  5
1BE81
330
1F
100
AcDbEntity
  8
003
100
AcDbLine
 10
347.3565760114841
 20
93.00080793589794
 30
0.0
 11
366.6415466698339
 21
93.00080793589796
 31
0.0
  0
CIRCLE
  5
1BE83
330
1F
100
AcDbEntity
  8
003
100
AcDbCircle
 10
347.1067564952456
 20
73.61683333968229
 30
0.0
 40
1.5
  0
LINE
  5
1BE85
330
1F
100
AcDbEntity
  8
003
100
AcDbLine
 10
357.7492418244205
 20
87.86683333968236
 30
0.0
 11
359.2492418244205
 21
88.73285874346674
 31
0.0
  0
LINE
  5
1BE86
330
1F
100
AcDbEntity
  8
003
100
AcDbLine
 10
359.2492418244205
 20
88.73285874346668
 30
0.0
 11
359.2492418244205
 21
61.73285874346664
 31
0.0
  0
LINE
  5
1BE87
330
1F
100
AcDbEntity
  8
003
100
AcDbLine
 10
366.6415466698339
 20
93.0008079358979
 30
0.0
 11
366.6415466698339
 21
66.00080793589788
 31
0.0
  0
LINE
  5
1BE88
330
1F
100
AcDbEntity
  8
003
100
AcDbLine
 10
368.1415466698338
 20
93.86683333968232
 30
0.0
 11
368.1415466698338
 21
65.36683333968229
 31
0.0
  0
LINE
  5
1BE89
330
1F
100
AcDbEntity
  8
003
100
AcDbLine
 10
357.7492418244205
 20
59.36683333968229
 30
0.0
 11
368.1415466698338
 21
65.36683333968227
 31
0.0
  0
LINE
  5
1BE8A
330
1F
100
AcDbEntity
  8
003
100
AcDbLine
 10
359.2492418244205
 20
61.73285874346664
 30
0.0
 11
366.6415466698339
 21
66.00080793589788
 31
0.0
  0
LINE
  5
1BE8B
330
1F
100
AcDbEntity
  8
003
100
AcDbLine
 10
347.3565760114841
 20
93.00080793589794
 30
0.0
 11
347.3565760114841
 21
88.73285874346674
 31
0.0
  0
CIRCLE
  5
1BE8C
330
1F
100
AcDbEntity
  8
003
100
AcDbCircle
 10
487.2006465775952
 20
84.67785077632482
 30
0.0
 40
1.5
  0
CIRCLE
  5
1BE8E
330
1F
100
AcDbEntity
  8
003
100
AcDbCircle
 10
487.2006465775952
 20
69.67785077632481
 30
0.0
 40
1.5
  0
DIMENSION
  5
1BE9D
330
1F
100
AcDbEntity
  8
003
100
AcDbDimension
  2
*D7
 10
493.6958371059786
 20
175.0255284516152
 30
0.0
 11
487.2006465775952
 21
171.2755284516151
 31
0.0
 70
   161
  1
（　　）
 71
     5
 42
-1.0
  3
DIM
100
AcDbAlignedDimension
 13
480.7054560492119
 23
146.8207399644221
 33
0.0
 14
493.6958371059785
 24
154.3207399644221
 34
0.0
  0
DIMENSION
  5
1BEAA
330
1F
100
AcDbEntity
  8
003
100
AcDbDimension
  2
*D8
 10
508.0266904615641
 20
132.5946620069865
 30
0.0
 11
503.0266904615641
 21
147.5946620069866
 31
0.0
 70
    33
  1
（　　）
 71
     5
 42
-1.0
  3
DIM
100
AcDbAlignedDimension
 13
493.6958371059785
 23
154.3207399644221
 33
0.0
 14
493.6958371059785
 24
124.3207399644221
 34
0.0
  0
LINE
  5
1BEE5
330
1F
100
AcDbEntity
  8
003
100
AcDbLine
 10
409.5696085886897
 20
112.2885597650561
 30
0.0
 11
409.5696085886897
 21
90.13337887711214
 31
0.0
  0
LINE
  5
1BEE6
330
1F
100
AcDbEntity
  8
003
100
AcDbLine
 10
409.5696085886897
 20
90.13337887711214
 30
0.0
 11
406.7328873188661
 21
100.7201667830053
 31
0.0
  0
LINE
  5
1BEE7
330
1F
100
AcDbEntity
  8
003
100
AcDbLine
 10
406.7328873188661
 20
100.7201667830053
 30
0.0
 11
409.5696085886897
 21
100.7201667830053
 31
0.0
  0
LEADER
  5
1C031
330
1F
100
AcDbEntity
  8
003
100
AcDbLeader
  3
DIM
 73
     0
 74
     0
 40
6.0
 41
18.08571428571429
 76
     3
 10
259.6713147690018
 20
392.3214062623047
 30
0.0
 10
271.15500803579
 20
412.2117464589185
 30
0.0
 10
273.0309132415916
 20
412.2117464589185
 30
0.0
340
1C032
1001
ACAD
1000
DSTYLE
1002
{
1070
   147
1040
1.0
1070
    77
1070
     1
1002
}
  0
MTEXT
  5
1C032
102
{ACAD_REACTORS
330
1C031
102
}
330
1F
100
AcDbEntity
  8
003
 62
     7
100
AcDbMText
 10
275.0309132415917
 20
414.2117464589184
 30
0.0
 40
6.0
 41
0.0
 71
     7
 72
     1
  1
Ｍ4ビス
  7
DIM
 73
     1
 44
1.0
1001
ACAD
1000
MTEXTBEGIN
1070
    73
1070
     1
1070
    44
1040
1.0
1070
    74
1070
     0
1000
MTEXTEND
  0
LEADER
  5
1C033
330
1F
100
AcDbEntity
  8
003
100
AcDbLeader
  3
DIM
 73
     0
 74
     0
 40
6.0
 41
18.08571428571429
 76
     3
 10
272.5948773838419
 20
374.4028041365385
 30
0.0
 10
284.0785706506301
 20
394.2931443331522
 30
0.0
 10
285.9544758564317
 20
394.2931443331522
 30
0.0
340
1C034
1001
ACAD
1000
DSTYLE
1002
{
1070
   147
1040
1.0
1070
    77
1070
     1
1002
}
  0
MTEXT
  5
1C034
102
{ACAD_REACTORS
330
1C033
102
}
330
1F
100
AcDbEntity
  8
003
 62
     7
100
AcDbMText
 10
287.9544758564317
 20
396.2931443331522
 30
0.0
 40
6.0
 41
0.0
 71
     7
 72
     1
  1
Ｍ4ビス
  7
DIM
 73
     1
 44
1.0
1001
ACAD
1000
MTEXTBEGIN
1070
    73
1070
     1
1070
    44
1040
1.0
1070
    74
1070
     0
1000
MTEXTEND
  0
LEADER
  5
1C035
330
1F
100
AcDbEntity
  8
003
100
AcDbLeader
  3
DIM
 73
     0
 74
     0
 40
6.0
 41
18.08571428571429
 76
     3
 10
491.7724380586309
 20
352.6894211555722
 30
0.0
 10
496.5026154355856
 20
360.8823287012706
 30
0.0
 10
498.3785206413872
 20
360.8823287012706
 30
0.0
340
1C036
1001
ACAD
1000
DSTYLE
1002
{
1070
   147
1040
1.0
1070
    77
1070
     1
1002
}
  0
MTEXT
  5
1C036
102
{ACAD_REACTORS
330
1C035
102
}
330
1F
100
AcDbEntity
  8
003
 62
     7
100
AcDbMText
 10
500.3785206413873
 20
362.8823287012706
 30
0.0
 40
6.0
 41
0.0
 71
     7
 72
     1
  1
Ｍ4ビス
  7
DIM
 73
     1
 44
1.0
1001
ACAD
1000
MTEXTBEGIN
1070
    73
1070
     1
1070
    44
1040
1.0
1070
    74
1070
     0
1000
MTEXTEND
  0
LEADER
  5
1C037
330
1F
100
AcDbEntity
  8
003
100
AcDbLeader
  3
DIM
 73
     0
 40
6.0
 41
18.08571428571429
 76
     3
 10
470.916187098128
 20
337.6894211555722
 30
0.0
 10
440.9668832956397
 20
323.2484005788503
 30
0.0
 10
439.0909780898382
 20
323.2484005788503
 30
0.0
340
1C038
1001
ACAD
1000
DSTYLE
1002
{
1070
   147
1040
1.0
1070
    77
1070
     1
1002
}
  0
MTEXT
  5
1C038
102
{ACAD_REACTORS
330
1C037
102
}
330
1F
100
AcDbEntity
  8
003
 62
     7
100
AcDbMText
 10
437.0909780898381
 20
325.2484005788503
 30
0.0
 40
6.0
 41
0.0
 71
     9
 72
     1
  1
Ｍ4ビス
  7
DIM
 73
     1
 44
1.0
1001
ACAD
1000
MTEXTBEGIN
1070
    73
1070
     1
1070
    44
1040
1.0
1070
    74
1070
     0
1000
MTEXTEND
  0
ENDSEC
  0
SECTION
  2
OBJECTS
  0
DICTIONARY
  5
C
330
0
100
AcDbDictionary
281
     1
  3
ACAD_COLOR
350
E400
  3
ACAD_GROUP
350
D
  3
ACAD_LAYOUT
350
1A
  3
ACAD_MATERIAL
350
E3D6
  3
ACAD_MLEADERSTYLE
350
E425
  3
ACAD_MLINESTYLE
350
17
  3
ACAD_PLOTSETTINGS
350
19
  3
ACAD_PLOTSTYLENAME
350
E
  3
ACAD_SCALELIST
350
E403
  3
ACAD_TABLESTYLE
350
E401
  3
ACAD_VISUALSTYLE
350
E3EF
  3
AcadDim
350
2AE
  3
ACDB_RECOMPOSE_DATA
350
103AB
  3
AcDbVariableDictionary
350
103AC
  3
DWGPROPS
350
1C076
  0
DICTIONARY
  5
1BF4F
330
8
100
AcDbDictionary
280
     1
281
     1
  0
DICTIONARY
  5
2859
330
2
100
AcDbDictionary
280
     1
281
     1
  3
ACAD_LAYERFILTERS
360
16274
  3
ACAD_LAYERSTATES
360
285A
  3
ACLYDICTIONARY
360
16273
  0
DICTIONARY
  5
F074
330
10
100
AcDbDictionary
280
     1
281
     1
  3
ADSK_XREC_LAYER_RECONCILED
360
F075
  0
DICTIONARY
  5
F076
330
31
100
AcDbDictionary
280
     1
281
     1
  3
ADSK_XREC_LAYER_RECONCILED
360
F077
  0
DICTIONARY
  5
F07A
330
33
100
AcDbDictionary
280
     1
281
     1
  3
ADSK_XREC_LAYER_RECONCILED
360
F07B
  0
DICTIONARY
  5
F080
330
1A4
100
AcDbDictionary
280
     1
281
     1
  3
ADSK_XREC_LAYER_RECONCILED
360
F081
  0
DICTIONARY
  5
F082
330
1A5
100
AcDbDictionary
280
     1
281
     1
  3
ADSK_XREC_LAYER_RECONCILED
360
F083
  0
DICTIONARY
  5
F088
330
2B1
100
AcDbDictionary
280
     1
281
     1
  3
ADSK_XREC_LAYER_RECONCILED
360
F089
  0
DICTIONARY
  5
F144
330
1F
100
AcDbDictionary
280
     1
281
     1
  3
ACAD_LAYOUTSELFREF
360
1BF5B
  3
ACAD_SORTENTS
360
F145
  0
DICTIONARY
  5
1BF16
330
1B
100
AcDbDictionary
280
     1
281
     1
  3
ACAD_LAYOUTSELFREF
360
1BF58
  0
DICTIONARY
  5
1BF18
330
23
100
AcDbDictionary
280
     1
281
     1
  3
ACAD_LAYOUTSELFREF
360
1BF5E
  0
DICTIONARY
  5
E400
102
{ACAD_REACTORS
330
C
102
}
330
C
100
AcDbDictionary
281
     1
  0
DICTIONARY
  5
D
102
{ACAD_REACTORS
330
C
102
}
330
C
100
AcDbDictionary
281
     1
  0
DICTIONARY
  5
1A
102
{ACAD_REACTORS
330
C
102
}
330
C
100
AcDbDictionary
281
     1
  3
Model
350
22
  3
ﾚｲｱｳﾄ1
350
1E
  3
ﾚｲｱｳﾄ2
350
26
  0
DICTIONARY
  5
E3D6
102
{ACAD_REACTORS
330
C
102
}
330
C
100
AcDbDictionary
281
     1
  3
ByBlock
350
E3DF
  3
ByLayer
350
E3D7
  3
Global
350
E3E7
  0
DICTIONARY
  5
E425
102
{ACAD_REACTORS
330
C
102
}
330
C
100
AcDbDictionary
281
     1
  3
Standard
350
E426
  0
DICTIONARY
  5
17
102
{ACAD_REACTORS
330
C
102
}
330
C
100
AcDbDictionary
281
     1
  3
Standard
350
18
  0
DICTIONARY
  5
19
102
{ACAD_REACTORS
330
C
102
}
330
C
100
AcDbDictionary
281
     1
  0
ACDBDICTIONARYWDFLT
  5
E
102
{ACAD_REACTORS
330
C
102
}
330
C
100
AcDbDictionary
281
     1
  3
Normal
350
F
100
AcDbDictionaryWithDefault
340
F
  0
DICTIONARY
  5
E403
102
{ACAD_REACTORS
330
C
102
}
330
C
100
AcDbDictionary
281
     1
  3
A0
350
E404
  3
A1
350
E405
  3
A2
350
E406
  3
A3
350
E407
  3
A4
350
E408
  3
A5
350
E409
  3
A6
350
E40A
  3
A7
350
E40B
  3
A8
350
E40C
  3
A9
350
E40D
  3
B0
350
E40E
  3
B1
350
E40F
  3
B2
350
E410
  3
B3
350
E411
  3
B4
350
E412
  3
B5
350
E413
  3
B6
350
E414
  3
B7
350
E415
  3
B8
350
E416
  3
B9
350
E417
  3
C0
350
E418
  3
C1
350
E419
  3
C2
350
E41A
  3
C3
350
E41B
  3
C4
350
E41C
  3
C5
350
E41D
  3
C6
350
E41E
  3
C7
350
E41F
  3
C8
350
E420
  3
C9
350
E421
  3
D0
350
E422
  3
D1
350
E423
  3
D2
350
E424
  0
DICTIONARY
  5
E401
102
{ACAD_REACTORS
330
C
102
}
330
C
100
AcDbDictionary
281
     1
  3
Standard
350
E402
  0
DICTIONARY
  5
E3EF
102
{ACAD_REACTORS
330
C
102
}
330
C
100
AcDbDictionary
281
     1
  3
2dWireframe
350
E3F5
  3
3D Hidden
350
E3F7
  3
3dWireframe
350
E3F6
  3
Basic
350
E3F4
  3
Brighten
350
E3FB
  3
ColorChange
350
E3FF
  3
Conceptual
350
E3F8
  3
Dim
350
E3FA
  3
Facepattern
350
E3FE
  3
Flat
350
E3F0
  3
FlatWithEdges
350
E3F1
  3
Gouraud
350
E3F2
  3
GouraudWithEdges
350
E3F3
  3
Linepattern
350
E3FD
  3
Realistic
350
E3F9
  3
Thicken
350
E3FC
  0
XRECORD
  5
2AE
102
{ACAD_REACTORS
330
C
102
}
330
C
100
AcDbXrecord
280
     1
 90
   990106
  3

 60
     0
 61
     0
 62
     4
 63
     4
 64
     1
 65
     0
 66
     0
 67
     3
 68
     1
 69
     0
 70
     0
 71
     0
 72
     0
 40
0.0
170
     2
340
1C032
  0
XRECORD
  5
103AB
102
{ACAD_REACTORS
330
C
102
}
330
C
100
AcDbXrecord
280
     1
 90
        1
330
E402
  0
DICTIONARY
  5
103AC
102
{ACAD_REACTORS
330
C
102
}
330
C
100
AcDbDictionary
281
     1
  3
CANNOSCALE
350
103B0
  3
CMLEADERSTYLE
350
103AE
  3
CTABLESTYLE
350
103AD
  3
DIMASSOC
350
1BFA0
  3
INDEXCTL
350
1BF9F
  3
LIGHTINGUNITS
350
103B1
  3
MSLTSCALE
350
103AF
  3
SORTENTS
350
1BF9E
  0
XRECORD
  5
1C076
102
{ACAD_REACTORS
330
C
102
}
330
C
100
AcDbXrecord
280
     1
  1
DWGPROPS COOKIE
  2

  3

  4

  6

  7

  8
koba
  9

300
=
301
=
302
=
303
=
304
=
305
=
306
=
307
=
308
=
309
=
 40
0.5967484953703704
 41
2452888.42884919
 42
2455959.452076817
  1

 90
        0
  0
DICTIONARY
  5
16274
102
{ACAD_REACTORS
330
2859
102
}
330
2859
100
AcDbDictionary
281
     1
  0
DICTIONARY
  5
285A
102
{ACAD_REACTORS
330
2859
102
}
330
2859
100
AcDbDictionary
281
     1
  0
DICTIONARY
  5
16273
102
{ACAD_REACTORS
330
2859
102
}
330
2859
100
AcDbDictionary
281
     1
1001
ACAD
1000
<All
  0
XRECORD
  5
F075
102
{ACAD_REACTORS
330
F074
102
}
330
F074
100
AcDbXrecord
280
     1
290
     1
  0
XRECORD
  5
F077
102
{ACAD_REACTORS
330
F076
102
}
330
F076
100
AcDbXrecord
280
     1
290
     1
  0
XRECORD
  5
F07B
102
{ACAD_REACTORS
330
F07A
102
}
330
F07A
100
AcDbXrecord
280
     1
290
     1
  0
XRECORD
  5
F081
102
{ACAD_REACTORS
330
F080
102
}
330
F080
100
AcDbXrecord
280
     1
290
     1
  0
XRECORD
  5
F083
102
{ACAD_REACTORS
330
F082
102
}
330
F082
100
AcDbXrecord
280
     1
290
     1
  0
XRECORD
  5
F089
102
{ACAD_REACTORS
330
F088
102
}
330
F088
100
AcDbXrecord
280
     1
290
     1
  0
XRECORD
  5
1BF5B
102
{ACAD_REACTORS
330
F144
102
}
330
F144
100
AcDbXrecord
280
     1
340
1F
  0
SORTENTSTABLE
  5
F145
102
{ACAD_REACTORS
330
F144
102
}
330
F144
100
AcDbSortentsTable
330
1F
331
F6
  5
1505
331
1654C
  5
1654D
331
13ECD
  5
13ECF
331
16554
  5
16559
331
13EED
  5
13EEF
331
16581
  5
16586
331
165C0
  5
165C8
331
16675
  5
1667E
331
165FF
  5
16607
331
16589
  5
1658E
331
165C8
  5
165D0
331
1663E
  5
16647
331
166B4
  5
166BD
331
16564
  5
16569
331
1682B
  5
16834
331
1667D
  5
16686
331
16607
  5
1660F
331
16591
  5
16596
331
165D0
  5
165D8
331
16646
  5
1664F
331
166BC
  5
166C5
331
1BDA6
  5
1BDAE
331
1BD07
  5
1BD82
331
1BDED
  5
171A0
331
1BE3C
  5
1BE3C
331
16833
  5
171A1
331
16685
  5
1668E
331
1660F
  5
16617
331
16599
  5
1659E
331
165D8
  5
165E0
331
1664E
  5
16657
331
166C4
  5
16802
331
1BDF5
  5
1BDF5
331
1BD0F
  5
1BCEC
331
1BDAE
  5
1BDB6
331
1BE44
  5
1BE45
331
16617
  5
1661F
331
16656
  5
1665F
331
1668D
  5
16696
331
1BCE2
  5
1BCF7
331
1BD17
  5
1BCE8
331
1BDB6
  5
1BDEC
331
1BE4C
  5
1BE4C
331
1BE54
  5
1BE54
331
13DF0
  5
13DF2
331
1652D
  5
1652D
331
13DF8
  5
13DFA
331
1656C
  5
16571
331
16535
  5
16535
331
16574
  5
16579
331
165A1
  5
165A6
331
165E0
  5
165E8
331
1653D
  5
1653D
331
1657C
  5
16581
331
1BCEA
  5
1BCFF
331
1661F
  5
16627
331
165E8
  5
165F0
331
165A9
  5
165AE
331
1665E
  5
16667
331
16695
  5
166A4
331
16545
  5
16545
331
1BCF2
  5
1BD07
331
16804
  5
1680D
331
16666
  5
1666F
331
16627
  5
1662F
331
165F0
  5
165F8
331
165B1
  5
165B9
331
1BE5C
  5
1BE5C
331
1680C
  5
1682D
331
1666E
  5
16677
331
166A5
  5
166AE
331
1BCFA
  5
1BD11
331
1BD7F
  5
1BD89
331
166AD
  5
166B6
331
1BD87
  5
1BDA4
331
1BE35
  5
1BE35
331
13ECE
  5
13ED0
331
1654D
  5
1654F
331
16555
  5
1655A
331
165F8
  5
16600
331
16582
  5
16587
331
165C1
  5
165C9
331
1655D
  5
16562
331
16676
  5
1667F
331
16600
  5
16608
331
1658A
  5
1658F
331
165C9
  5
165D1
331
1663F
  5
16648
331
166B5
  5
166BE
331
16565
  5
1656A
331
1682C
  5
16835
331
1667E
  5
16687
331
16608
  5
16610
331
16592
  5
16597
331
165D1
  5
165D9
331
16647
  5
16650
331
166BD
  5
166C6
331
1BDA7
  5
1BDAF
331
1BD08
  5
1BD81
331
1BE3D
  5
1BE3D
331
16834
  5
177E6
331
16686
  5
1668F
331
16610
  5
16618
331
1659A
  5
1659F
331
165D9
  5
165E1
331
1664F
  5
16658
331
166C5
  5
16803
331
1BDF6
  5
1BDF6
331
1BD10
  5
1BCED
331
1BDAF
  5
1BDB7
331
1BE45
  5
1BE46
331
1BCE3
  5
1BCF8
331
16657
  5
16660
331
1668E
  5
16697
331
1BD18
  5
1BCE9
331
1BDB7
  5
1BDED
331
1BE55
  5
1BE55
331
13DF1
  5
13DF3
331
1652E
  5
1652E
331
F7F2
  5
F806
331
13DF9
  5
13DFB
331
1656D
  5
16572
331
13EC1
  5
13EC3
331
16536
  5
16536
331
16575
  5
1657A
331
16618
  5
16620
331
165A2
  5
165A7
331
165E1
  5
165E9
331
1653E
  5
1653E
331
1657D
  5
16582
331
1BCEB
  5
1BD00
331
1719C
  5
1A3C9
331
1665F
  5
16668
331
16620
  5
16628
331
165AA
  5
165AF
331
165E9
  5
165F1
331
16696
  5
166A5
331
16546
  5
16546
331
1BD28
  5
1BD85
331
16805
  5
1680E
331
16667
  5
16670
331
16628
  5
16630
331
165F1
  5
165F9
331
165B2
  5
165BD
331
1BCF3
  5
1BD08
331
1680D
  5
1682E
331
1666F
  5
16678
331
166A6
  5
166AF
331
1BCFB
  5
1BD12
331
1BD80
  5
1BD8A
331
166AE
  5
166B7
331
1BD88
  5
1BDA5
331
1BE36
  5
1BE36
331
13ECF
  5
13ED1
331
1270A
  5
1270A
331
16556
  5
1655B
331
165F9
  5
16601
331
16583
  5
16588
331
165C2
  5
165CA
331
16638
  5
16640
331
1655E
  5
16563
331
16677
  5
16680
331
16601
  5
16609
331
1658B
  5
16590
331
165CA
  5
165D2
331
16640
  5
16649
331
166B6
  5
166BF
331
16566
  5
1656B
331
1682D
  5
16836
331
1667F
  5
16688
331
16609
  5
16611
331
16593
  5
16598
331
165D2
  5
165DA
331
16648
  5
16651
331
166BE
  5
166C7
331
1BD01
  5
1BD7E
331
1BDEF
  5
16552
331
16835
  5
17A98
331
16687
  5
16690
331
16611
  5
16619
331
1659B
  5
165A0
331
165DA
  5
165E2
331
16650
  5
16659
331
166C6
  5
16804
331
1BD09
  5
1BD28
331
1BDA8
  5
1BDB0
331
1BDF7
  5
1BDF7
331
1BCE4
  5
1BCF9
331
1668F
  5
16698
331
1BD11
  5
1BCEE
331
1BDB0
  5
1BDB8
331
1BE46
  5
1BE47
331
1BD19
  5
1BCEA
331
1BDB8
  5
1BDEE
331
1BE4E
  5
1BE4E
331
1BE56
  5
1BE56
331
13DF2
  5
13DF4
331
1656E
  5
16573
331
13DFA
  5
13DFC
331
1652F
  5
1652F
331
16537
  5
16537
331
13EC2
  5
13EC4
331
16576
  5
1657B
331
16619
  5
16621
331
165A3
  5
165A8
331
165E2
  5
165EA
331
16658
  5
16661
331
1657E
  5
16583
331
1653F
  5
1653F
331
1719D
  5
1BB52
331
16660
  5
16669
331
16621
  5
16629
331
165EA
  5
165F2
331
165AB
  5
165B3
331
16697
  5
166A6
331
1BCEC
  5
1BD01
331
16547
  5
16547
331
1BCF4
  5
1BD09
331
16806
  5
1680F
331
16668
  5
16671
331
16629
  5
16633
331
165F2
  5
165FA
331
165B3
  5
165BE
331
1BCFC
  5
1BD14
331
1680E
  5
1682F
331
166A7
  5
166B0
331
16631
  5
1663F
331
165BB
  5
165C3
331
1BE5E
  5
1BE5F
331
166AF
  5
166B8
331
1BD81
  5
1BD8B
331
1BD89
  5
1BDA6
331
1BE37
  5
1BE37
331
141
  5
16E7
331
13EC8
  5
13ECA
331
1654F
  5
16550
331
16557
  5
1655D
331
16670
  5
16679
331
165FA
  5
16602
331
16584
  5
16589
331
165C3
  5
165CB
331
16639
  5
16642
331
1655F
  5
16564
331
16678
  5
16681
331
16602
  5
1660A
331
1658C
  5
16591
331
165CB
  5
165D3
331
16641
  5
1664A
331
166B7
  5
166C0
331
16567
  5
1656C
331
1682E
  5
16837
331
16680
  5
16689
331
1660A
  5
16612
331
16594
  5
16599
331
165D3
  5
165DB
331
16649
  5
16652
331
166BF
  5
166C8
331
1BD02
  5
1BD7F
331
1BDF0
  5
16554
331
16836
  5
17AD8
331
16688
  5
16691
331
16612
  5
1661A
331
1659C
  5
165A1
331
165DB
  5
165E3
331
16651
  5
1665A
331
166C7
  5
16805
331
1BD0A
  5
1BD17
331
1BDA9
  5
1BDB1
331
1BDF8
  5
1BDF8
331
1BCE5
  5
1BCFA
331
1BD12
  5
1BCEF
331
1BDB1
  5
1BDBA
331
1BE47
  5
1BE44
331
1BD1A
  5
1BCEB
331
1BE4F
  5
1BE4F
331
13DF3
  5
13DF5
331
16530
  5
16530
331
13DFB
  5
13DFD
331
1656F
  5
16574
331
16538
  5
16538
331
13EC3
  5
13EC5
331
16577
  5
1657C
331
1661A
  5
16622
331
165A4
  5
165A9
331
165E3
  5
165EB
331
16659
  5
16662
331
16690
  5
16699
331
16540
  5
16540
331
1657F
  5
16584
331
1719E
  5
1BB53
331
167FF
  5
16809
331
16622
  5
1662A
331
165EB
  5
165F3
331
165AC
  5
165B4
331
16661
  5
1666A
331
16698
  5
166A7
331
1BCED
  5
1BD02
331
16669
  5
16672
331
1662A
  5
1663A
331
165F3
  5
165FB
331
165B4
  5
165BF
331
177BE
  5
1BB54
331
1BCF5
  5
1BD0A
331
1BCFD
  5
1BD16
331
1680F
  5
16830
331
166A8
  5
166B1
331
165BC
  5
165C4
331
1BE5F
  5
1BE5D
331
1BD82
  5
1BD8C
331
1BD8A
  5
1BDA7
331
16548
  5
16548
331
13EC9
  5
13ECB
331
16550
  5
16555
331
16558
  5
1655E
331
16671
  5
1667A
331
165FB
  5
16603
331
16585
  5
1658A
331
165C4
  5
165CC
331
1663A
  5
16643
331
166B0
  5
166B9
331
16560
  5
16565
331
166B8
  5
166C1
331
16642
  5
1664B
331
165CC
  5
165D4
331
1658D
  5
16592
331
16603
  5
1660B
331
16679
  5
16682
331
16681
  5
1668A
331
1660B
  5
16613
331
16595
  5
1659A
331
165D4
  5
165DC
331
1664A
  5
16653
331
166C0
  5
166C9
331
1682F
  5
16838
331
1BD03
  5
1BD80
331
1BDE9
  5
16551
331
1BE38
  5
1BE38
331
1BDF1
  5
1719F
331
16837
  5
17AD9
331
16689
  5
16692
331
16613
  5
1661B
331
1659D
  5
165A2
331
165DC
  5
165E4
331
16652
  5
1665B
331
166C8
  5
16806
331
1BCDE
  5
1BCF3
331
1BDAA
  5
1BDB2
331
1BDF9
  5
1BDF9
331
1BCE6
  5
1BCFB
331
1BDB2
  5
1BDE8
331
1BD1B
  5
1BD84
331
1BDBA
  5
1BDEF
331
13DF4
  5
13DF6
331
16568
  5
1656D
331
16531
  5
16531
331
13DFC
  5
13DFE
331
16570
  5
16575
331
16539
  5
16539
331
13EC4
  5
13EC6
331
16578
  5
1657D
331
16691
  5
1669A
331
1661B
  5
16623
331
165A5
  5
165AA
331
165E4
  5
165EC
331
1665A
  5
16663
331
16541
  5
16541
331
16800
  5
16641
331
16699
  5
166A8
331
16662
  5
1666B
331
16623
  5
1662B
331
165EC
  5
165F4
331
165AD
  5
165B5
331
1BCEE
  5
1BD03
331
1BCF6
  5
1BD0C
331
16808
  5
16811
331
166A1
  5
166AA
331
1666A
  5
16673
331
1662B
  5
1663B
331
165F4
  5
165FC
331
165B5
  5
165C0
331
166A9
  5
166B2
331
165BD
  5
165C5
331
17A97
  5
1BB55
331
1BD83
  5
1BD8D
331
1BD8B
  5
1BDA8
331
16549
  5
16549
331
13ECA
  5
13ECC
331
16551
  5
16556
331
16559
  5
1655F
331
16672
  5
1667B
331
165FC
  5
16604
331
16586
  5
1658B
331
165C5
  5
165CD
331
1663B
  5
16644
331
166B1
  5
166BA
331
16561
  5
16566
331
1667A
  5
16683
331
16604
  5
1660C
331
1658E
  5
16593
331
165CD
  5
165D5
331
16643
  5
1664C
331
166B9
  5
166C2
331
16830
  5
16DF2
331
16682
  5
1668B
331
1660C
  5
16614
331
16596
  5
1659B
331
165D5
  5
165DD
331
1664B
  5
16654
331
166C1
  5
166CA
331
1BDEA
  5
1BDF0
331
1BE39
  5
1BE39
331
1BDF2
  5
1BDF2
331
1BCDF
  5
1BCF4
331
16838
  5
18717
331
1668A
  5
16693
331
16614
  5
1661C
331
1659E
  5
165A3
331
165DD
  5
165E5
331
16653
  5
1665C
331
166C9
  5
16808
331
1BDAB
  5
1BDB3
331
1BE41
  5
1BE41
331
1BDFA
  5
1BDFA
331
1BCE7
  5
1BCFC
331
1BD14
  5
1BCF0
331
1BDB3
  5
1BDE9
331
1BE49
  5
1BE49
331
1BE51
  5
1BE51
331
13DF5
  5
13DF7
331
16569
  5
1656E
331
16532
  5
16532
331
16571
  5
16576
331
1653A
  5
1653A
331
13EC5
  5
13EC7
331
16579
  5
1657E
331
16692
  5
1669B
331
1661C
  5
16624
331
165A6
  5
165AB
331
165E5
  5
165ED
331
1665B
  5
16664
331
16542
  5
16542
331
F806
  5
F85B
331
1BCEF
  5
1BD04
331
16801
  5
1680A
331
1669A
  5
166A9
331
16663
  5
1666C
331
16624
  5
1662C
331
165ED
  5
165F5
331
165AE
  5
165B6
331
1BCF7
  5
1BD0D
331
16809
  5
1682A
331
166A2
  5
166AB
331
1666B
  5
16674
331
1662C
  5
1663C
331
165F5
  5
165FD
331
165B6
  5
165C1
331
1BE12
  5
1BE12
331
1BCFF
  5
1BD1B
331
166AA
  5
166B3
331
165BE
  5
165C6
331
1BD7C
  5
1BD86
331
1BD84
  5
1BD8E
331
1BD8C
  5
1BDA9
331
F4
  5
F4
331
1654A
  5
1654A
331
13ECB
  5
13ECD
331
16552
  5
16557
331
1655A
  5
16560
331
16811
  5
16831
331
16673
  5
1667C
331
165FD
  5
16605
331
13DEE
  5
13DF0
331
16562
  5
16567
331
16587
  5
1658C
331
165C6
  5
165CE
331
1663C
  5
16645
331
166B2
  5
166BB
331
17A98
  5
1BB56
331
1667B
  5
16684
331
16605
  5
1660D
331
1658F
  5
16594
331
165CE
  5
165D6
331
16644
  5
1664D
331
166BA
  5
166C3
331
17AD8
  5
1BB57
331
1BDA4
  5
1BDAC
331
1BDEB
  5
1BDF1
331
1BE3A
  5
1BE3A
331
16831
  5
16DF3
331
16683
  5
1668C
331
1660D
  5
16615
331
16597
  5
1659C
331
165D6
  5
165DE
331
1664C
  5
16655
331
166C2
  5
166CB
331
1BDF3
  5
1BDF3
331
1BDAC
  5
1BDB4
331
1668B
  5
16694
331
16615
  5
1661D
331
1659F
  5
165A4
331
165DE
  5
165E6
331
16654
  5
1665D
331
1BCE0
  5
1BCF5
331
1BDFB
  5
1BDFB
331
1BD15
  5
1BCF1
331
1BDB4
  5
1BDEA
331
1BE4A
  5
1BE4A
331
1BE52
  5
1BE52
331
F7EF
  5
F7FD
331
13DF6
  5
13DF8
331
1652B
  5
1652B
331
1656A
  5
1656F
331
16533
  5
16533
331
16572
  5
16577
331
13EC6
  5
13EC8
331
1653B
  5
1653B
331
1657A
  5
1657F
331
1BCE8
  5
1BCFD
331
16693
  5
1669C
331
1661D
  5
16625
331
16543
  5
16543
331
165A7
  5
165AC
331
165E6
  5
165EE
331
1665C
  5
16665
331
1BCF0
  5
1BD05
331
16802
  5
1680B
331
16664
  5
1666D
331
16625
  5
1662D
331
165EE
  5
165F6
331
165AF
  5
165B7
331
1BE5A
  5
1BE5A
331
1680A
  5
1682B
331
166A3
  5
166AC
331
1666C
  5
16675
331
1662D
  5
1663D
331
165F6
  5
165FE
331
165B7
  5
165C2
331
1BCF8
  5
1BD0F
331
1BD7D
  5
1BD87
331
166AB
  5
166B4
331
165BF
  5
165C7
331
1BD85
  5
1BD8F
331
1BD8D
  5
1BDAA
331
F5
  5
F5
331
13ECC
  5
13ECE
331
16553
  5
16558
331
1655B
  5
16561
331
16580
  5
16585
331
16674
  5
1667D
331
165FE
  5
16606
331
13DEF
  5
13DF1
331
16563
  5
16568
331
16588
  5
1658D
331
165C7
  5
165CF
331
1663D
  5
16646
331
166B3
  5
166BC
331
1682A
  5
16832
331
1667C
  5
16685
331
16606
  5
1660E
331
16590
  5
16595
331
165CF
  5
165D7
331
16645
  5
1664E
331
166BB
  5
166C4
331
17AD9
  5
1BB58
331
1BDA5
  5
1BDAD
331
1BD06
  5
1BD83
331
1BDEC
  5
16553
331
1BE3B
  5
1BE3B
331
16832
  5
16E40
331
16684
  5
1668D
331
1660E
  5
16616
331
16598
  5
1659D
331
165D7
  5
165DF
331
1664D
  5
16656
331
166C3
  5
166CC
331
1BDF4
  5
1BDF4
331
1BDAD
  5
1BDB5
331
1668C
  5
16695
331
16616
  5
1661E
331
165DF
  5
165E7
331
16655
  5
1665E
331
1BCE1
  5
1BCF6
331
1BDFC
  5
1BDFC
331
1BD16
  5
1BCF2
331
1BDB5
  5
1BDEB
331
1BE4B
  5
1BE4B
331
1BE53
  5
1BE53
331
13DF7
  5
13DF9
331
1652C
  5
1652C
331
1656B
  5
16570
331
16534
  5
16534
331
16573
  5
16578
331
13EC7
  5
13EC9
331
1653C
  5
1653C
331
1657B
  5
16580
331
165A0
  5
165A5
331
1BCE9
  5
1BCFE
331
16694
  5
1669D
331
1661E
  5
16626
331
165E7
  5
165EF
331
16544
  5
16544
331
165A8
  5
165AD
331
1665D
  5
16666
331
1BCF1
  5
1BD06
331
16803
  5
1680C
331
16665
  5
1666E
331
16626
  5
1662E
331
165EF
  5
165F7
331
165B0
  5
165B8
331
1BE5B
  5
1BE5B
331
1680B
  5
1682C
331
166A4
  5
166AD
331
1666D
  5
16676
331
1662E
  5
1663E
331
165F7
  5
165FF
331
1BCF9
  5
1BD10
331
1BD7E
  5
1BD88
331
166AC
  5
166B5
331
1BD86
  5
1BD90
331
1BD8E
  5
1BDAB
331
1BE34
  5
1BE34
  0
XRECORD
  5
1BF58
102
{ACAD_REACTORS
330
1BF16
102
}
330
1BF16
100
AcDbXrecord
280
     1
340
1B
  0
XRECORD
  5
1BF5E
102
{ACAD_REACTORS
330
1BF18
102
}
330
1BF18
100
AcDbXrecord
280
     1
340
23
  0
LAYOUT
  5
22
102
{ACAD_XDICTIONARY
360
1C079
102
}
102
{ACAD_REACTORS
330
1A
102
}
330
1A
100
AcDbPlotSettings
  1

  2
Brother HL-2170W series
  4
A4
  6

 40
5.027082920074462
 41
5.027085781097412
 42
5.027069091796875
 43
5.027069091796875
 44
209.9733276367187
 45
296.9259948730469
 46
2.459475103511039
 47
0.0
 48
20.0000000000001
 49
21.0
140
809.9999999999996
141
558.0
142
1.0
143
2.753842970434391
 70
 11956
 72
     1
 73
     1
 74
     4
  7
EPSON.ctb
 75
     0
147
0.3631289113925984
148
-20.0000000000001
149
-21.0
100
AcDbLayout
  1
Model
 70
     1
 71
     0
 10
0.0
 20
0.0
 11
12.0
 21
9.0
 12
0.0
 22
0.0
 32
0.0
 14
0.0
 24
0.0
 34
0.0
 15
0.0
 25
0.0
 35
0.0
146
0.0
 13
0.0
 23
0.0
 33
0.0
 16
1.0
 26
0.0
 36
0.0
 17
0.0
 27
1.0
 37
0.0
 76
     0
330
1F
331
E3D4
1001
ACAD_PSEXT
1000
Brother HL-2170W series
1000
Brother HL-2170W series
1000
USB002
1000

1070
     0
  0
LAYOUT
  5
1E
102
{ACAD_XDICTIONARY
360
1C077
102
}
102
{ACAD_REACTORS
330
1A
102
}
330
1A
100
AcDbPlotSettings
  1

  2
C:\PROGRAM FILES\AUTOCAD LT 2000I\plotters\HP DesignJet 430 A3.pc3
  4

  6

 40
0.0
 41
0.0
 42
0.0
 43
0.0
 44
0.0
 45
0.0
 46
0.0
 47
0.0
 48
0.0
 49
0.0
140
0.0
141
0.0
142
1.0
143
1.0
 70
   688
 72
     0
 73
     0
 74
     5
  7
EPSON.ctb
 75
    16
147
1.0
148
0.0
149
0.0
100
AcDbLayout
  1
ﾚｲｱｳﾄ1
 70
     1
 71
     1
 10
0.0
 20
0.0
 11
420.0
 21
297.0
 12
0.0
 22
0.0
 32
0.0
 14
1.000000000000000E+20
 24
1.000000000000000E+20
 34
1.000000000000000E+20
 15
-1.000000000000000E+20
 25
-1.000000000000000E+20
 35
-1.000000000000000E+20
146
0.0
 13
0.0
 23
0.0
 33
0.0
 16
1.0
 26
0.0
 36
0.0
 17
0.0
 27
1.0
 37
0.0
 76
     0
330
1B
  0
LAYOUT
  5
26
102
{ACAD_XDICTIONARY
360
1C07B
102
}
102
{ACAD_REACTORS
330
1A
102
}
330
1A
100
AcDbPlotSettings
  1

  2
C:\PROGRAM FILES\AUTOCAD LT 2000I\plotters\HP DesignJet 430 A3.pc3
  4

  6

 40
0.0
 41
0.0
 42
0.0
 43
0.0
 44
0.0
 45
0.0
 46
0.0
 47
0.0
 48
0.0
 49
0.0
140
0.0
141
0.0
142
1.0
143
1.0
 70
   688
 72
     0
 73
     0
 74
     5
  7
EPSON.ctb
 75
    16
147
1.0
148
0.0
149
0.0
100
AcDbLayout
  1
ﾚｲｱｳﾄ2
 70
     1
 71
     2
 10
0.0
 20
0.0
 11
12.0
 21
9.0
 12
0.0
 22
0.0
 32
0.0
 14
0.0
 24
0.0
 34
0.0
 15
0.0
 25
0.0
 35
0.0
146
0.0
 13
0.0
 23
0.0
 33
0.0
 16
1.0
 26
0.0
 36
0.0
 17
0.0
 27
1.0
 37
0.0
 76
     0
330
23
  0
MATERIAL
  5
E3DF
102
{ACAD_XDICTIONARY
360
E3E0
102
}
102
{ACAD_REACTORS
330
E3D6
102
}
330
E3D6
100
AcDbMaterial
  1
ByBlock
 72
     0
 43
0.0008202099737533
 43
0.0
 43
0.0
 43
0.0
 43
0.0
 43
0.0008202099737533
 43
0.0
 43
0.0
 43
0.0
 43
0.0
 43
1.0
 43
0.0
 43
0.0
 43
0.0
 43
0.0
 43
1.0
 77
     0
 47
0.0008202099737533
 47
0.0
 47
0.0
 47
0.0
 47
0.0
 47
0.0008202099737533
 47
0.0
 47
0.0
 47
0.0
 47
0.0
 47
1.0
 47
0.0
 47
0.0
 47
0.0
 47
0.0
 47
1.0
171
     0
 49
0.0008202099737533
 49
0.0
 49
0.0
 49
0.0
 49
0.0
 49
0.0008202099737533
 49
0.0
 49
0.0
 49
0.0
 49
0.0
 49
1.0
 49
0.0
 49
0.0
 49
0.0
 49
0.0
 49
1.0
175
     0
142
0.0008202099737533
142
0.0
142
0.0
142
0.0
142
0.0
142
0.0008202099737533
142
0.0
142
0.0
142
0.0
142
0.0
142
1.0
142
0.0
142
0.0
142
0.0
142
0.0
142
1.0
179
     0
144
0.0008202099737533
144
0.0
144
0.0
144
0.0
144
0.0
144
0.0008202099737533
144
0.0
144
0.0
144
0.0
144
0.0
144
1.0
144
0.0
144
0.0
144
0.0
144
0.0
144
1.0
147
0.0008202099737533
147
0.0
147
0.0
147
0.0
147
0.0
147
0.0008202099737533
147
0.0
147
0.0
147
0.0
147
0.0
147
1.0
147
0.0
147
0.0
147
0.0
147
0.0
147
1.0
  0
MATERIAL
  5
E3D7
102
{ACAD_XDICTIONARY
360
E3D8
102
}
102
{ACAD_REACTORS
330
E3D6
102
}
330
E3D6
100
AcDbMaterial
  1
ByLayer
 72
     0
 43
0.0008202099737533
 43
0.0
 43
0.0
 43
0.0
 43
0.0
 43
0.0008202099737533
 43
0.0
 43
0.0
 43
0.0
 43
0.0
 43
1.0
 43
0.0
 43
0.0
 43
0.0
 43
0.0
 43
1.0
 77
     0
 47
0.0008202099737533
 47
0.0
 47
0.0
 47
0.0
 47
0.0
 47
0.0008202099737533
 47
0.0
 47
0.0
 47
0.0
 47
0.0
 47
1.0
 47
0.0
 47
0.0
 47
0.0
 47
0.0
 47
1.0
171
     0
 49
0.0008202099737533
 49
0.0
 49
0.0
 49
0.0
 49
0.0
 49
0.0008202099737533
 49
0.0
 49
0.0
 49
0.0
 49
0.0
 49
1.0
 49
0.0
 49
0.0
 49
0.0
 49
0.0
 49
1.0
175
     0
142
0.0008202099737533
142
0.0
142
0.0
142
0.0
142
0.0
142
0.0008202099737533
142
0.0
142
0.0
142
0.0
142
0.0
142
1.0
142
0.0
142
0.0
142
0.0
142
0.0
142
1.0
179
     0
144
0.0008202099737533
144
0.0
144
0.0
144
0.0
144
0.0
144
0.0008202099737533
144
0.0
144
0.0
144
0.0
144
0.0
144
1.0
144
0.0
144
0.0
144
0.0
144
0.0
144
1.0
147
0.0008202099737533
147
0.0
147
0.0
147
0.0
147
0.0
147
0.0008202099737533
147
0.0
147
0.0
147
0.0
147
0.0
147
1.0
147
0.0
147
0.0
147
0.0
147
0.0
147
1.0
  0
MATERIAL
  5
E3E7
102
{ACAD_XDICTIONARY
360
E3E8
102
}
102
{ACAD_REACTORS
330
E3D6
102
}
330
E3D6
100
AcDbMaterial
  1
Global
 72
     0
 43
0.0008202099737533
 43
0.0
 43
0.0
 43
0.0
 43
0.0
 43
0.0008202099737533
 43
0.0
 43
0.0
 43
0.0
 43
0.0
 43
1.0
 43
0.0
 43
0.0
 43
0.0
 43
0.0
 43
1.0
 77
     0
 47
0.0008202099737533
 47
0.0
 47
0.0
 47
0.0
 47
0.0
 47
0.0008202099737533
 47
0.0
 47
0.0
 47
0.0
 47
0.0
 47
1.0
 47
0.0
 47
0.0
 47
0.0
 47
0.0
 47
1.0
171
     0
 49
0.0008202099737533
 49
0.0
 49
0.0
 49
0.0
 49
0.0
 49
0.0008202099737533
 49
0.0
 49
0.0
 49
0.0
 49
0.0
 49
1.0
 49
0.0
 49
0.0
 49
0.0
 49
0.0
 49
1.0
175
     0
142
0.0008202099737533
142
0.0
142
0.0
142
0.0
142
0.0
142
0.0008202099737533
142
0.0
142
0.0
142
0.0
142
0.0
142
1.0
142
0.0
142
0.0
142
0.0
142
0.0
142
1.0
179
     0
144
0.0008202099737533
144
0.0
144
0.0
144
0.0
144
0.0
144
0.0008202099737533
144
0.0
144
0.0
144
0.0
144
0.0
144
1.0
144
0.0
144
0.0
144
0.0
144
0.0
144
1.0
147
0.0008202099737533
147
0.0
147
0.0
147
0.0
147
0.0
147
0.0008202099737533
147
0.0
147
0.0
147
0.0
147
0.0
147
1.0
147
0.0
147
0.0
147
0.0
147
0.0
147
1.0
  0
MLEADERSTYLE
  5
E426
102
{ACAD_REACTORS
330
E425
102
}
330
E425
100
AcDbMLeaderStyle
170
     2
171
     1
172
     0
 90
        2
 40
0.0
 41
0.0
173
     1
 91
-1023410172
340
15
 92
       20
290
     1
 42
0.09
291
     1
 43
-0.36
  3
Standard
341
2B
 44
3.0
300

342
34
174
     6
178
     6
175
     1
176
     0
 93
-1023410169
 45
6.0
292
     0
297
     0
 46
0.18
 94
-1056964608
 47
1.0
 49
1.0
140
1.0
293
     1
141
0.0
294
     1
177
     0
142
1.0
295
     0
296
     0
143
0.125
1001
ACAD_MLEADERVER
1070
     2
  0
MLINESTYLE
  5
18
102
{ACAD_REACTORS
330
17
102
}
330
17
100
AcDbMlineStyle
  2
STANDARD
 70
     0
  3

 62
   256
 51
90.0
 52
90.0
 71
     2
 49
0.5
 62
   256
  6
BYLAYER
 49
-0.5
 62
   256
  6
BYLAYER
  0
ACDBPLACEHOLDER
  5
F
102
{ACAD_REACTORS
330
E
102
}
330
E
  0
SCALE
  5
E404
102
{ACAD_REACTORS
330
E403
102
}
330
E403
100
AcDbScale
 70
     0
300
1:1
140
1.0
141
1.0
290
     1
  0
SCALE
  5
E405
102
{ACAD_REACTORS
330
E403
102
}
330
E403
100
AcDbScale
 70
     0
300
1:2
140
1.0
141
2.0
290
     0
  0
SCALE
  5
E406
102
{ACAD_REACTORS
330
E403
102
}
330
E403
100
AcDbScale
 70
     0
300
1:4
140
1.0
141
4.0
290
     0
  0
SCALE
  5
E407
102
{ACAD_REACTORS
330
E403
102
}
330
E403
100
AcDbScale
 70
     0
300
1:5
140
1.0
141
5.0
290
     0
  0
SCALE
  5
E408
102
{ACAD_REACTORS
330
E403
102
}
330
E403
100
AcDbScale
 70
     0
300
1:8
140
1.0
141
8.0
290
     0
  0
SCALE
  5
E409
102
{ACAD_REACTORS
330
E403
102
}
330
E403
100
AcDbScale
 70
     0
300
1:10
140
1.0
141
10.0
290
     0
  0
SCALE
  5
E40A
102
{ACAD_REACTORS
330
E403
102
}
330
E403
100
AcDbScale
 70
     0
300
1:16
140
1.0
141
16.0
290
     0
  0
SCALE
  5
E40B
102
{ACAD_REACTORS
330
E403
102
}
330
E403
100
AcDbScale
 70
     0
300
1:20
140
1.0
141
20.0
290
     0
  0
SCALE
  5
E40C
102
{ACAD_REACTORS
330
E403
102
}
330
E403
100
AcDbScale
 70
     0
300
1:30
140
1.0
141
30.0
290
     0
  0
SCALE
  5
E40D
102
{ACAD_REACTORS
330
E403
102
}
330
E403
100
AcDbScale
 70
     0
300
1:40
140
1.0
141
40.0
290
     0
  0
SCALE
  5
E40E
102
{ACAD_REACTORS
330
E403
102
}
330
E403
100
AcDbScale
 70
     0
300
1:50
140
1.0
141
50.0
290
     0
  0
SCALE
  5
E40F
102
{ACAD_REACTORS
330
E403
102
}
330
E403
100
AcDbScale
 70
     0
300
1:100
140
1.0
141
100.0
290
     0
  0
SCALE
  5
E410
102
{ACAD_REACTORS
330
E403
102
}
330
E403
100
AcDbScale
 70
     0
300
2:1
140
2.0
141
1.0
290
     0
  0
SCALE
  5
E411
102
{ACAD_REACTORS
330
E403
102
}
330
E403
100
AcDbScale
 70
     0
300
4:1
140
4.0
141
1.0
290
     0
  0
SCALE
  5
E412
102
{ACAD_REACTORS
330
E403
102
}
330
E403
100
AcDbScale
 70
     0
300
8:1
140
8.0
141
1.0
290
     0
  0
SCALE
  5
E413
102
{ACAD_REACTORS
330
E403
102
}
330
E403
100
AcDbScale
 70
     0
300
10:1
140
10.0
141
1.0
290
     0
  0
SCALE
  5
E414
102
{ACAD_REACTORS
330
E403
102
}
330
E403
100
AcDbScale
 70
     0
300
100:1
140
100.0
141
1.0
290
     0
  0
SCALE
  5
E415
102
{ACAD_REACTORS
330
E403
102
}
330
E403
100
AcDbScale
 70
     0
300
1/128" = 1'-0"
140
0.0078125
141
12.0
290
     0
  0
SCALE
  5
E416
102
{ACAD_REACTORS
330
E403
102
}
330
E403
100
AcDbScale
 70
     0
300
1/64" = 1'-0"
140
0.015625
141
12.0
290
     0
  0
SCALE
  5
E417
102
{ACAD_REACTORS
330
E403
102
}
330
E403
100
AcDbScale
 70
     0
300
1/32" = 1'-0"
140
0.03125
141
12.0
290
     0
  0
SCALE
  5
E418
102
{ACAD_REACTORS
330
E403
102
}
330
E403
100
AcDbScale
 70
     0
300
1/16" = 1'-0"
140
0.0625
141
12.0
290
     0
  0
SCALE
  5
E419
102
{ACAD_REACTORS
330
E403
102
}
330
E403
100
AcDbScale
 70
     0
300
3/32" = 1'-0"
140
0.09375
141
12.0
290
     0
  0
SCALE
  5
E41A
102
{ACAD_REACTORS
330
E403
102
}
330
E403
100
AcDbScale
 70
     0
300
1/8" = 1'-0"
140
0.125
141
12.0
290
     0
  0
SCALE
  5
E41B
102
{ACAD_REACTORS
330
E403
102
}
330
E403
100
AcDbScale
 70
     0
300
3/16" = 1'-0"
140
0.1875
141
12.0
290
     0
  0
SCALE
  5
E41C
102
{ACAD_REACTORS
330
E403
102
}
330
E403
100
AcDbScale
 70
     0
300
1/4" = 1'-0"
140
0.25
141
12.0
290
     0
  0
SCALE
  5
E41D
102
{ACAD_REACTORS
330
E403
102
}
330
E403
100
AcDbScale
 70
     0
300
3/8" = 1'-0"
140
0.375
141
12.0
290
     0
  0
SCALE
  5
E41E
102
{ACAD_REACTORS
330
E403
102
}
330
E403
100
AcDbScale
 70
     0
300
1/2" = 1'-0"
140
0.5
141
12.0
290
     0
  0
SCALE
  5
E41F
102
{ACAD_REACTORS
330
E403
102
}
330
E403
100
AcDbScale
 70
     0
300
3/4" = 1'-0"
140
0.75
141
12.0
290
     0
  0
SCALE
  5
E420
102
{ACAD_REACTORS
330
E403
102
}
330
E403
100
AcDbScale
 70
     0
300
1" = 1'-0"
140
1.0
141
12.0
290
     0
  0
SCALE
  5
E421
102
{ACAD_REACTORS
330
E403
102
}
330
E403
100
AcDbScale
 70
     0
300
1-1/2" = 1'-0"
140
1.5
141
12.0
290
     0
  0
SCALE
  5
E422
102
{ACAD_REACTORS
330
E403
102
}
330
E403
100
AcDbScale
 70
     0
300
3" = 1'-0"
140
3.0
141
12.0
290
     0
  0
SCALE
  5
E423
102
{ACAD_REACTORS
330
E403
102
}
330
E403
100
AcDbScale
 70
     0
300
6" = 1'-0"
140
6.0
141
12.0
290
     0
  0
SCALE
  5
E424
102
{ACAD_REACTORS
330
E403
102
}
330
E403
100
AcDbScale
 70
     0
300
1'-0" = 1'-0"
140
12.0
141
12.0
290
     0
  0
TABLESTYLE
  5
E402
102
{ACAD_XDICTIONARY
360
103A9
102
}
102
{ACAD_REACTORS
330
E401
102
}
330
E401
100
AcDbTableStyle
  3
Standard
 70
     0
 71
     0
 40
0.06
 41
0.06
280
     0
281
     0
  7
Standard
140
0.18
170
     2
 62
     0
 63
     7
283
     0
274
    -2
284
     1
 64
     0
275
    -2
285
     1
 65
     0
276
    -2
286
     1
 66
     0
277
    -2
287
     1
 67
     0
278
    -2
288
     1
 68
     0
279
    -2
289
     1
 69
     0
  7
Standard
140
0.25
170
     5
 62
     0
 63
     7
283
     0
274
    -2
284
     1
 64
     0
275
    -2
285
     1
 65
     0
276
    -2
286
     1
 66
     0
277
    -2
287
     1
 67
     0
278
    -2
288
     1
 68
     0
279
    -2
289
     1
 69
     0
  7
Standard
140
0.18
170
     5
 62
     0
 63
     7
283
     0
274
    -2
284
     1
 64
     0
275
    -2
285
     1
 65
     0
276
    -2
286
     1
 66
     0
277
    -2
287
     1
 67
     0
278
    -2
288
     1
 68
     0
279
    -2
289
     1
 69
     0
  0
VISUALSTYLE
  5
E3F5
102
{ACAD_REACTORS
330
E3EF
102
}
330
E3EF
100
AcDbVisualStyle
  2
2dWireframe
 70
     4
 71
     0
 72
     2
 73
     0
 90
        0
 40
-0.6
 41
-30.0
 62
     5
 63
     7
 74
     1
 91
        4
 64
     7
 65
   257
 75
     1
175
     1
 42
1.0
 92
        0
 66
   257
 43
1.0
 76
     1
 77
     6
 78
     2
 67
     7
 79
     5
170
     0
171
     0
290
     0
174
     0
 93
        1
 44
0.0
173
     0
291
     0
 45
0.0
1001
ACAD
1000
AcDbSavedByObjectVersion
1070
     0
  0
VISUALSTYLE
  5
E3F7
102
{ACAD_REACTORS
330
E3EF
102
}
330
E3EF
100
AcDbVisualStyle
  2
3D Hidden
 70
     6
 71
     1
 72
     2
 73
     2
 90
        0
 40
-0.6
 41
-30.0
 62
     5
 63
     7
 74
     2
 91
        2
 64
     7
 65
   257
 75
     2
175
     1
 42
40.0
 92
        0
 66
   257
 43
1.0
 76
     1
 77
     6
 78
     2
 67
     7
 79
     3
170
     0
171
     0
290
     0
174
     0
 93
        1
 44
0.0
173
     0
291
     0
 45
0.0
1001
ACAD
1000
AcDbSavedByObjectVersion
1070
     0
  0
VISUALSTYLE
  5
E3F6
102
{ACAD_REACTORS
330
E3EF
102
}
330
E3EF
100
AcDbVisualStyle
  2
3dWireframe
 70
     5
 71
     0
 72
     2
 73
     0
 90
        0
 40
-0.6
 41
-30.0
 62
     5
 63
     7
 74
     1
 91
        4
 64
     7
 65
   257
 75
     1
175
     1
 42
1.0
 92
        0
 66
   257
 43
1.0
 76
     1
 77
     6
 78
     2
 67
     7
 79
     5
170
     0
171
     0
290
     0
174
     0
 93
        1
 44
0.0
173
     0
291
     0
 45
0.0
1001
ACAD
1000
AcDbSavedByObjectVersion
1070
     0
  0
VISUALSTYLE
  5
E3F4
102
{ACAD_REACTORS
330
E3EF
102
}
330
E3EF
100
AcDbVisualStyle
  2
Basic
 70
     7
 71
     1
 72
     0
 73
     1
 90
        0
 40
-0.6
 41
-30.0
 62
     5
 63
     7
 74
     0
 91
        4
 64
     7
 65
   257
 75
     1
175
     1
 42
1.0
 92
        8
 66
     7
 43
1.0
 76
     1
 77
     6
 78
     2
 67
     7
 79
     5
170
     0
171
     0
290
     0
174
     0
 93
        1
 44
0.0
173
     0
291
     1
 45
0.0
1001
ACAD
1000
AcDbSavedByObjectVersion
1070
     0
  0
VISUALSTYLE
  5
E3FB
102
{ACAD_REACTORS
330
E3EF
102
}
330
E3EF
100
AcDbVisualStyle
  2
Brighten
 70
    12
 71
     2
 72
     2
 73
     0
 90
        0
 40
-0.6
 41
-30.0
 62
     5
 63
     7
 74
     1
 91
        4
 64
     7
 65
   257
 75
     1
175
     1
 42
1.0
 92
        8
 66
     7
 43
1.0
 76
     1
 77
     6
 78
     2
 67
     7
 79
     5
170
     0
171
     0
290
     0
174
     0
 93
        1
 44
50.0
173
     0
291
     1
 45
0.0
1001
ACAD
1000
AcDbSavedByObjectVersion
1070
     0
  0
VISUALSTYLE
  5
E3FF
102
{ACAD_REACTORS
330
E3EF
102
}
330
E3EF
100
AcDbVisualStyle
  2
ColorChange
 70
    16
 71
     2
 72
     2
 73
     3
 90
        0
 40
-0.6
 41
-30.0
 62
     5
 63
     8
 74
     1
 91
        4
 64
     7
 65
   257
 75
     1
175
     1
 42
1.0
 92
        8
 66
     8
 43
1.0
 76
     1
 77
     6
 78
     2
 67
     7
 79
     5
170
     0
171
     0
290
     0
174
     0
 93
        1
 44
0.0
173
     0
291
     1
 45
0.0
1001
ACAD
1000
AcDbSavedByObjectVersion
1070
     0
  0
VISUALSTYLE
  5
E3F8
102
{ACAD_REACTORS
330
E3EF
102
}
330
E3EF
100
AcDbVisualStyle
  2
Conceptual
 70
     9
 71
     3
 72
     2
 73
     0
 90
        0
 40
-0.6
 41
-30.0
 62
     5
 63
     7
 74
     2
 91
        2
 64
     7
 65
   257
 75
     1
175
     1
 42
40.0
 92
        8
 66
     7
 43
1.0
 76
     1
 77
     6
 78
     2
 67
     7
 79
     3
170
     0
171
     0
290
     0
174
     0
 93
        1
 44
0.0
173
     0
291
     0
 45
0.0
1001
ACAD
1000
AcDbSavedByObjectVersion
1070
     0
  0
VISUALSTYLE
  5
E3FA
102
{ACAD_REACTORS
330
E3EF
102
}
330
E3EF
100
AcDbVisualStyle
  2
Dim
 70
    11
 71
     2
 72
     2
 73
     0
 90
        0
 40
-0.6
 41
-30.0
 62
     5
 63
     7
 74
     1
 91
        4
 64
     7
 65
   257
 75
     1
175
     1
 42
1.0
 92
        8
 66
     7
 43
1.0
 76
     1
 77
     6
 78
     2
 67
     7
 79
     5
170
     0
171
     0
290
     0
174
     0
 93
        1
 44
-50.0
173
     0
291
     1
 45
0.0
1001
ACAD
1000
AcDbSavedByObjectVersion
1070
     0
  0
VISUALSTYLE
  5
E3FE
102
{ACAD_REACTORS
330
E3EF
102
}
330
E3EF
100
AcDbVisualStyle
  2
Facepattern
 70
    15
 71
     2
 72
     2
 73
     0
 90
        0
 40
-0.6
 41
-30.0
 62
     5
 63
     7
 74
     1
 91
        4
 64
     7
 65
   257
 75
     1
175
     1
 42
1.0
 92
        8
 66
     7
 43
1.0
 76
     1
 77
     6
 78
     2
 67
     7
 79
     5
170
     0
171
     0
290
     0
174
     0
 93
        1
 44
0.0
173
     0
291
     1
 45
0.0
1001
ACAD
1000
AcDbSavedByObjectVersion
1070
     0
  0
VISUALSTYLE
  5
E3F0
102
{ACAD_REACTORS
330
E3EF
102
}
330
E3EF
100
AcDbVisualStyle
  2
Flat
 70
     0
 71
     2
 72
     1
 73
     1
 90
        2
 40
-0.6
 41
30.0
 62
     5
 63
     7
 74
     0
 91
        4
 64
     7
 65
   257
 75
     1
175
     1
 42
1.0
 92
        8
 66
     7
 43
1.0
 76
     1
 77
     6
 78
     2
 67
     7
 79
     5
170
     0
171
     0
290
     0
174
     0
 93
       13
 44
0.0
173
     0
291
     1
 45
0.0
1001
ACAD
1000
AcDbSavedByObjectVersion
1070
     0
  0
VISUALSTYLE
  5
E3F1
102
{ACAD_REACTORS
330
E3EF
102
}
330
E3EF
100
AcDbVisualStyle
  2
FlatWithEdges
 70
     1
 71
     2
 72
     1
 73
     1
 90
        2
 40
-0.6
 41
30.0
 62
     5
 63
     7
 74
     1
 91
        4
 64
     7
 65
   257
 75
     1
175
     1
 42
1.0
 92
        0
 66
   257
 43
1.0
 76
     1
 77
     6
 78
     2
 67
     7
 79
     5
170
     0
171
     0
290
     0
174
     0
 93
       13
 44
0.0
173
     0
291
     1
 45
0.0
1001
ACAD
1000
AcDbSavedByObjectVersion
1070
     0
  0
VISUALSTYLE
  5
E3F2
102
{ACAD_REACTORS
330
E3EF
102
}
330
E3EF
100
AcDbVisualStyle
  2
Gouraud
 70
     2
 71
     2
 72
     2
 73
     1
 90
        2
 40
-0.6
 41
30.0
 62
     5
 63
     7
 74
     0
 91
        4
 64
     7
 65
   257
 75
     1
175
     1
 42
1.0
 92
        0
 66
     7
 43
1.0
 76
     1
 77
     6
 78
     2
 67
     7
 79
     5
170
     0
171
     0
290
     0
174
     0
 93
       13
 44
0.0
173
     0
291
     1
 45
0.0
1001
ACAD
1000
AcDbSavedByObjectVersion
1070
     0
  0
VISUALSTYLE
  5
E3F3
102
{ACAD_REACTORS
330
E3EF
102
}
330
E3EF
100
AcDbVisualStyle
  2
GouraudWithEdges
 70
     3
 71
     2
 72
     2
 73
     1
 90
        2
 40
-0.6
 41
30.0
 62
     5
 63
     7
 74
     1
 91
        4
 64
     7
 65
   257
 75
     1
175
     1
 42
1.0
 92
        0
 66
   257
 43
1.0
 76
     1
 77
     6
 78
     2
 67
     7
 79
     5
170
     0
171
     0
290
     0
174
     0
 93
       13
 44
0.0
173
     0
291
     1
 45
0.0
1001
ACAD
1000
AcDbSavedByObjectVersion
1070
     0
  0
VISUALSTYLE
  5
E3FD
102
{ACAD_REACTORS
330
E3EF
102
}
330
E3EF
100
AcDbVisualStyle
  2
Linepattern
 70
    14
 71
     2
 72
     2
 73
     0
 90
        0
 40
-0.6
 41
-30.0
 62
     5
 63
     7
 74
     1
 91
        4
 64
     7
 65
   257
 75
     7
175
     7
 42
1.0
 92
        8
 66
     7
 43
1.0
 76
     1
 77
     6
 78
     2
 67
     7
 79
     5
170
     0
171
     0
290
     0
174
     0
 93
        1
 44
0.0
173
     0
291
     1
 45
0.0
1001
ACAD
1000
AcDbSavedByObjectVersion
1070
     0
  0
VISUALSTYLE
  5
E3F9
102
{ACAD_REACTORS
330
E3EF
102
}
330
E3EF
100
AcDbVisualStyle
  2
Realistic
 70
     8
 71
     2
 72
     2
 73
     0
 90
        0
 40
-0.6
 41
-30.0
 62
     5
 63
     7
 74
     1
 91
        0
 64
     7
 65
   257
 75
     1
175
     1
 42
1.0
 92
        8
 66
     8
 43
1.0
 76
     1
 77
     6
 78
     2
 67
     7
 79
     5
170
     0
171
     0
290
     0
174
     0
 93
       13
 44
0.0
173
     0
291
     0
 45
0.0
1001
ACAD
1000
AcDbSavedByObjectVersion
1070
     0
  0
VISUALSTYLE
  5
E3FC
102
{ACAD_REACTORS
330
E3EF
102
}
330
E3EF
100
AcDbVisualStyle
  2
Thicken
 70
    13
 71
     2
 72
     2
 73
     0
 90
        0
 40
-0.6
 41
-30.0
 62
     5
 63
     7
 74
     1
 91
        4
 64
     7
 65
   257
 75
     1
175
     1
 42
1.0
 92
       12
 66
     7
 43
1.0
 76
     1
 77
     6
 78
     2
 67
     7
 79
     5
170
     0
171
     0
290
     0
174
     0
 93
        1
 44
0.0
173
     0
291
     1
 45
0.0
1001
ACAD
1000
AcDbSavedByObjectVersion
1070
     0
  0
DICTIONARYVAR
  5
103B0
102
{ACAD_REACTORS
330
103AC
102
}
330
103AC
100
DictionaryVariables
280
     0
  1
1:1
  0
DICTIONARYVAR
  5
103AE
102
{ACAD_REACTORS
330
103AC
102
}
330
103AC
100
DictionaryVariables
280
     0
  1
STANDARD
  0
DICTIONARYVAR
  5
103AD
102
{ACAD_REACTORS
330
103AC
102
}
330
103AC
100
DictionaryVariables
280
     0
  1
STANDARD
  0
DICTIONARYVAR
  5
1BFA0
102
{ACAD_REACTORS
330
103AC
102
}
330
103AC
100
DictionaryVariables
280
     0
  1
1
  0
DICTIONARYVAR
  5
1BF9F
102
{ACAD_REACTORS
330
103AC
102
}
330
103AC
100
DictionaryVariables
280
     0
  1
0
  0
DICTIONARYVAR
  5
103B1
102
{ACAD_REACTORS
330
103AC
102
}
330
103AC
100
DictionaryVariables
280
     0
  1
0
  0
DICTIONARYVAR
  5
103AF
102
{ACAD_REACTORS
330
103AC
102
}
330
103AC
100
DictionaryVariables
280
     0
  1
0
  0
DICTIONARYVAR
  5
1BF9E
102
{ACAD_REACTORS
330
103AC
102
}
330
103AC
100
DictionaryVariables
280
     0
  1
127
  0
DICTIONARY
  5
1C079
330
22
100
AcDbDictionary
280
     1
281
     1
  3
ACAD_XREC_ROUNDTRIP
360
1C07A
  0
DICTIONARY
  5
1C077
330
1E
100
AcDbDictionary
280
     1
281
     1
  3
ACAD_XREC_ROUNDTRIP
360
1C078
  0
DICTIONARY
  5
1C07B
330
26
100
AcDbDictionary
280
     1
281
     1
  3
ACAD_XREC_ROUNDTRIP
360
1C07C
  0
DICTIONARY
  5
E3E0
330
E3DF
100
AcDbDictionary
280
     1
281
     1
  3
ACAD_XREC_ROUNDTRIP
360
1C07E
  3
BUMPTILE
360
E3E2
  3
DIFFUSETILE
360
E3E1
  3
OPACITYTILE
360
E3E5
  3
REFLECTIONTILE
360
E3E4
  3
REFRACTIONTILE
360
E3E6
  3
SPECULARTILE
360
E3E3
  0
DICTIONARY
  5
E3D8
330
E3D7
100
AcDbDictionary
280
     1
281
     1
  3
ACAD_XREC_ROUNDTRIP
360
1C07D
  3
BUMPTILE
360
E3DA
  3
DIFFUSETILE
360
E3D9
  3
OPACITYTILE
360
E3DD
  3
REFLECTIONTILE
360
E3DC
  3
REFRACTIONTILE
360
E3DE
  3
SPECULARTILE
360
E3DB
  0
DICTIONARY
  5
E3E8
330
E3E7
100
AcDbDictionary
280
     1
281
     1
  3
ACAD_XREC_ROUNDTRIP
360
1C07F
  3
BUMPTILE
360
E3EA
  3
DIFFUSETILE
360
E3E9
  3
OPACITYTILE
360
E3ED
  3
REFLECTIONTILE
360
E3EC
  3
REFRACTIONTILE
360
E3EE
  3
SPECULARTILE
360
E3EB
  0
DICTIONARY
  5
103A9
330
E402
100
AcDbDictionary
280
     1
281
     1
  3
ACAD_ROUNDTRIP_2008_TABLESTYLE_CELLSTYLEMAP
360
1C075
  3
ACAD_XREC_ROUNDTRIP
360
1C080
  0
XRECORD
  5
1C07A
102
{ACAD_REACTORS
330
1C079
102
}
330
1C079
100
AcDbXrecord
280
     1
102
SHADEPLOT
 70
     0
102
SHADEPLOTRESLEVEL
 70
     2
102
SHADEPLOTCUSTOMDPI
 70
   300
  0
XRECORD
  5
1C078
102
{ACAD_REACTORS
330
1C077
102
}
330
1C077
100
AcDbXrecord
280
     1
102
SHADEPLOT
 70
     0
102
SHADEPLOTRESLEVEL
 70
     2
102
SHADEPLOTCUSTOMDPI
 70
   300
  0
XRECORD
  5
1C07C
102
{ACAD_REACTORS
330
1C07B
102
}
330
1C07B
100
AcDbXrecord
280
     1
102
SHADEPLOT
 70
     0
102
SHADEPLOTRESLEVEL
 70
     2
102
SHADEPLOTCUSTOMDPI
 70
   300
  0
XRECORD
  5
1C07E
102
{ACAD_REACTORS
330
E3E0
102
}
330
E3E0
100
AcDbXrecord
280
     1
102
MATERIAL
148
0.0
149
0.0
149
0.0
 93
        0
 94
      127
282
     0
 72
     0
 77
     0
171
     0
175
     0
179
     0
273
     0
  0
XRECORD
  5
E3E2
102
{ACAD_REACTORS
330
E3E0
102
}
330
E3E0
100
AcDbXrecord
280
     1
270
     1
271
     1
  0
XRECORD
  5
E3E1
102
{ACAD_REACTORS
330
E3E0
102
}
330
E3E0
100
AcDbXrecord
280
     1
270
     1
271
     1
  0
XRECORD
  5
E3E5
102
{ACAD_REACTORS
330
E3E0
102
}
330
E3E0
100
AcDbXrecord
280
     1
270
     1
271
     1
  0
XRECORD
  5
E3E4
102
{ACAD_REACTORS
330
E3E0
102
}
330
E3E0
100
AcDbXrecord
280
     1
270
     1
271
     1
  0
XRECORD
  5
E3E6
102
{ACAD_REACTORS
330
E3E0
102
}
330
E3E0
100
AcDbXrecord
280
     1
270
     1
271
     1
  0
XRECORD
  5
E3E3
102
{ACAD_REACTORS
330
E3E0
102
}
330
E3E0
100
AcDbXrecord
280
     1
270
     1
271
     1
  0
XRECORD
  5
1C07D
102
{ACAD_REACTORS
330
E3D8
102
}
330
E3D8
100
AcDbXrecord
280
     1
102
MATERIAL
148
0.0
149
0.0
149
0.0
 93
        0
 94
      127
282
     0
 72
     0
 77
     0
171
     0
175
     0
179
     0
273
     0
  0
XRECORD
  5
E3DA
102
{ACAD_REACTORS
330
E3D8
102
}
330
E3D8
100
AcDbXrecord
280
     1
270
     1
271
     1
  0
XRECORD
  5
E3D9
102
{ACAD_REACTORS
330
E3D8
102
}
330
E3D8
100
AcDbXrecord
280
     1
270
     1
271
     1
  0
XRECORD
  5
E3DD
102
{ACAD_REACTORS
330
E3D8
102
}
330
E3D8
100
AcDbXrecord
280
     1
270
     1
271
     1
  0
XRECORD
  5
E3DC
102
{ACAD_REACTORS
330
E3D8
102
}
330
E3D8
100
AcDbXrecord
280
     1
270
     1
271
     1
  0
XRECORD
  5
E3DE
102
{ACAD_REACTORS
330
E3D8
102
}
330
E3D8
100
AcDbXrecord
280
     1
270
     1
271
     1
  0
XRECORD
  5
E3DB
102
{ACAD_REACTORS
330
E3D8
102
}
330
E3D8
100
AcDbXrecord
280
     1
270
     1
271
     1
  0
XRECORD
  5
1C07F
102
{ACAD_REACTORS
330
E3E8
102
}
330
E3E8
100
AcDbXrecord
280
     1
102
MATERIAL
148
0.0
149
0.0
149
0.0
 93
        0
 94
      127
282
     0
 72
     0
 77
     0
171
     0
175
     0
179
     0
273
     0
  0
XRECORD
  5
E3EA
102
{ACAD_REACTORS
330
E3E8
102
}
330
E3E8
100
AcDbXrecord
280
     1
270
     1
271
     1
  0
XRECORD
  5
E3E9
102
{ACAD_REACTORS
330
E3E8
102
}
330
E3E8
100
AcDbXrecord
280
     1
270
     1
271
     1
  0
XRECORD
  5
E3ED
102
{ACAD_REACTORS
330
E3E8
102
}
330
E3E8
100
AcDbXrecord
280
     1
270
     1
271
     1
  0
XRECORD
  5
E3EC
102
{ACAD_REACTORS
330
E3E8
102
}
330
E3E8
100
AcDbXrecord
280
     1
270
     1
271
     1
  0
XRECORD
  5
E3EE
102
{ACAD_REACTORS
330
E3E8
102
}
330
E3E8
100
AcDbXrecord
280
     1
270
     1
271
     1
  0
XRECORD
  5
E3EB
102
{ACAD_REACTORS
330
E3E8
102
}
330
E3E8
100
AcDbXrecord
280
     1
270
     1
271
     1
  0
CELLSTYLEMAP
  5
1C075
102
{ACAD_REACTORS
330
103A9
102
}
330
103A9
100
AcDbCellStyleMap
 90
        3
300
CELLSTYLE
  1
TABLEFORMAT_BEGIN
 90
        5
170
     1
 91
        0
 92
    32768
 62
   257
 93
        1
300
CONTENTFORMAT
  1
CONTENTFORMAT_BEGIN
 90
        0
 91
        0
 92
      512
 93
        0
300

 40
0.0
140
1.0
 94
        5
 62
     0
340
11
144
0.25
309
CONTENTFORMAT_END
171
     0
 94
        0
309
TABLEFORMAT_END
  1
CELLSTYLE_BEGIN
 90
        1
 91
        1
300
_TITLE
309
CELLSTYLE_END
300
CELLSTYLE
  1
TABLEFORMAT_BEGIN
 90
        5
170
     1
 91
        0
 92
        0
 62
   257
 93
        1
300
CONTENTFORMAT
  1
CONTENTFORMAT_BEGIN
 90
        0
 91
        0
 92
      512
 93
        0
300

 40
0.0
140
1.0
 94
        5
 62
     0
340
11
144
0.18
309
CONTENTFORMAT_END
171
     0
 94
        0
309
TABLEFORMAT_END
  1
CELLSTYLE_BEGIN
 90
        2
 91
        1
300
_HEADER
309
CELLSTYLE_END
300
CELLSTYLE
  1
TABLEFORMAT_BEGIN
 90
        5
170
     1
 91
        0
 92
        0
 62
   257
 93
        1
300
CONTENTFORMAT
  1
CONTENTFORMAT_BEGIN
 90
        0
 91
        0
 92
      512
 93
        0
300

 40
0.0
140
1.0
 94
        2
 62
     0
340
11
144
0.18
309
CONTENTFORMAT_END
171
     0
 94
        0
309
TABLEFORMAT_END
  1
CELLSTYLE_BEGIN
 90
        3
 91
        2
300
_DATA
309
CELLSTYLE_END
  0
XRECORD
  5
1C080
102
{ACAD_REACTORS
330
103A9
102
}
330
103A9
100
AcDbXrecord
280
     1
102
ACAD_ROUNDTRIP_PRE2007_TABLESTYLE
 90
      512
 91
        0
  1

 92
      512
 93
        0
  2

 94
      512
 95
        0
  3

  0
ENDSEC
  0
EOF
