  0
SECTION
  2
HEADER
  9
$ACADVER
  1
AC1018
  9
$ACADMAINTVER
 70
   104
  9
$DWGCODEPAGE
  3
ANSI_932
  9
$LASTSAVEDBY
  1
koba
  9
$INSBASE
 10
0.0
 20
0.0
 30
0.0
  9
$EXTMIN
 10
20.0000000000001
 20
21.0
 30
0.0
  9
$EXTMAX
 10
809.9999999999996
 20
558.0
 30
0.0
  9
$LIMMIN
 10
0.0
 20
0.0
  9
$LIMMAX
 10
840.0
 20
594.0
  9
$ORTHOMODE
 70
     0
  9
$REGENMODE
 70
     1
  9
$FILLMODE
 70
     1
  9
$QTEXTMODE
 70
     0
  9
$MIRRTEXT
 70
     0
  9
$LTSCALE
 40
1.0
  9
$ATTMODE
 70
     1
  9
$TEXTSIZE
 40
3.0
  9
$TRACEWID
 40
1.0
  9
$TEXTSTYLE
  7
AT_VECTOR
  9
$CLAYER
  8
003
  9
$CELTYPE
  6
ByLayer
  9
$CECOLOR
 62
   256
  9
$CELTSCALE
 40
1.0
  9
$DISPSILH
 70
     0
  9
$DIMSCALE
 40
2.0
  9
$DIMASZ
 40
1.5
  9
$DIMEXO
 40
1.5
  9
$DIMDLI
 40
7.0
  9
$DIMRND
 40
0.0
  9
$DIMDLE
 40
0.0
  9
$DIMEXE
 40
1.0
  9
$DIMTP
 40
0.0
  9
$DIMTM
 40
0.0
  9
$DIMTXT
 40
3.0
  9
$DIMCEN
 40
0.0
  9
$DIMTSZ
 40
0.0
  9
$DIMTOL
 70
     0
  9
$DIMLIM
 70
     0
  9
$DIMTIH
 70
     0
  9
$DIMTOH
 70
     0
  9
$DIMSE1
 70
     0
  9
$DIMSE2
 70
     0
  9
$DIMTAD
 70
     1
  9
$DIMZIN
 70
     8
  9
$DIMBLK
  1
Open30
  9
$DIMASO
 70
     1
  9
$DIMSHO
 70
     1
  9
$DIMPOST
  1

  9
$DIMAPOST
  1

  9
$DIMALT
 70
     0
  9
$DIMALTD
 70
     3
  9
$DIMALTF
 40
0.03937007874016
  9
$DIMLFAC
 40
1.0
  9
$DIMTOFL
 70
     1
  9
$DIMTVP
 40
0.0
  9
$DIMTIX
 70
     0
  9
$DIMSOXD
 70
     0
  9
$DIMSAH
 70
     0
  9
$DIMBLK1
  1

  9
$DIMBLK2
  1

  9
$DIMSTYLE
  2
DIM
  9
$DIMCLRD
 70
     4
  9
$DIMCLRE
 70
     4
  9
$DIMCLRT
 70
     7
  9
$DIMTFAC
 40
1.0
  9
$DIMGAP
 40
1.0
  9
$DIMJUST
 70
     0
  9
$DIMSD1
 70
     0
  9
$DIMSD2
 70
     0
  9
$DIMTOLJ
 70
     0
  9
$DIMTZIN
 70
     8
  9
$DIMALTZ
 70
     0
  9
$DIMALTTZ
 70
     0
  9
$DIMUPT
 70
     0
  9
$DIMDEC
 70
     2
  9
$DIMTDEC
 70
     2
  9
$DIMALTU
 70
     2
  9
$DIMALTTD
 70
     3
  9
$DIMTXSTY
  7
DIM
  9
$DIMAUNIT
 70
     0
  9
$DIMADEC
 70
     0
  9
$DIMALTRND
 40
0.0
  9
$DIMAZIN
 70
     0
  9
$DIMDSEP
 70
    46
  9
$DIMATFIT
 70
     3
  9
$DIMFRAC
 70
     0
  9
$DIMLDRBLK
  1
Open30
  9
$DIMLUNIT
 70
     2
  9
$DIMLWD
 70
    20
  9
$DIMLWE
 70
    20
  9
$DIMTMOVE
 70
     0
  9
$LUNITS
 70
     2
  9
$LUPREC
 70
     4
  9
$SKETCHINC
 40
1.0
  9
$FILLETRAD
 40
0.0
  9
$AUNITS
 70
     0
  9
$AUPREC
 70
     0
  9
$MENU
  1
.
  9
$ELEVATION
 40
0.0
  9
$PELEVATION
 40
0.0
  9
$THICKNESS
 40
0.0
  9
$LIMCHECK
 70
     0
  9
$CHAMFERA
 40
10.0
  9
$CHAMFERB
 40
10.0
  9
$CHAMFERC
 40
20.0
  9
$CHAMFERD
 40
0.0
  9
$SKPOLY
 70
     0
  9
$TDCREATE
 40
2452888.428849190
  9
$TDUCREATE
 40
2452888.053849190
  9
$TDUPDATE
 40
2455959.452150058
  9
$TDUUPDATE
 40
2455959.077150058
  9
$TDINDWG
 40
0.5327747801
  9
$TDUSRTIMER
 40
0.5327747801
  9
$USRTIMER
 70
     1
  9
$ANGBASE
 50
0.0
  9
$ANGDIR
 70
     0
  9
$PDMODE
 70
     0
  9
$PDSIZE
 40
0.0
  9
$PLINEWID
 40
0.0
  9
$SPLFRAME
 70
     0
  9
$SPLINETYPE
 70
     6
  9
$SPLINESEGS
 70
     8
  9
$HANDSEED
  5
1BAF8
  9
$SURFTAB1
 70
     6
  9
$SURFTAB2
 70
     6
  9
$SURFTYPE
 70
     6
  9
$SURFU
 70
     6
  9
$SURFV
 70
     6
  9
$UCSBASE
  2

  9
$UCSNAME
  2

  9
$UCSORG
 10
0.0
 20
0.0
 30
0.0
  9
$UCSXDIR
 10
1.0
 20
0.0
 30
0.0
  9
$UCSYDIR
 10
0.0
 20
1.0
 30
0.0
  9
$UCSORTHOREF
  2

  9
$UCSORTHOVIEW
 70
     0
  9
$UCSORGTOP
 10
0.0
 20
0.0
 30
0.0
  9
$UCSORGBOTTOM
 10
0.0
 20
0.0
 30
0.0
  9
$UCSORGLEFT
 10
0.0
 20
0.0
 30
0.0
  9
$UCSORGRIGHT
 10
0.0
 20
0.0
 30
0.0
  9
$UCSORGFRONT
 10
0.0
 20
0.0
 30
0.0
  9
$UCSORGBACK
 10
0.0
 20
0.0
 30
0.0
  9
$PUCSBASE
  2

  9
$PUCSNAME
  2

  9
$PUCSORG
 10
0.0
 20
0.0
 30
0.0
  9
$PUCSXDIR
 10
1.0
 20
0.0
 30
0.0
  9
$PUCSYDIR
 10
0.0
 20
1.0
 30
0.0
  9
$PUCSORTHOREF
  2

  9
$PUCSORTHOVIEW
 70
     0
  9
$PUCSORGTOP
 10
0.0
 20
0.0
 30
0.0
  9
$PUCSORGBOTTOM
 10
0.0
 20
0.0
 30
0.0
  9
$PUCSORGLEFT
 10
0.0
 20
0.0
 30
0.0
  9
$PUCSORGRIGHT
 10
0.0
 20
0.0
 30
0.0
  9
$PUCSORGFRONT
 10
0.0
 20
0.0
 30
0.0
  9
$PUCSORGBACK
 10
0.0
 20
0.0
 30
0.0
  9
$USERI1
 70
     0
  9
$USERI2
 70
     0
  9
$USERI3
 70
     0
  9
$USERI4
 70
     0
  9
$USERI5
 70
     0
  9
$USERR1
 40
0.0
  9
$USERR2
 40
0.0
  9
$USERR3
 40
0.0
  9
$USERR4
 40
0.0
  9
$USERR5
 40
0.0
  9
$WORLDVIEW
 70
     1
  9
$SHADEDGE
 70
     3
  9
$SHADEDIF
 70
    70
  9
$TILEMODE
 70
     1
  9
$MAXACTVP
 70
    64
  9
$PINSBASE
 10
0.0
 20
0.0
 30
0.0
  9
$PLIMCHECK
 70
     0
  9
$PEXTMIN
 10
1.000000000000000E+20
 20
1.000000000000000E+20
 30
1.000000000000000E+20
  9
$PEXTMAX
 10
-1.000000000000000E+20
 20
-1.000000000000000E+20
 30
-1.000000000000000E+20
  9
$PLIMMIN
 10
0.0
 20
0.0
  9
$PLIMMAX
 10
420.0
 20
297.0
  9
$UNITMODE
 70
     0
  9
$VISRETAIN
 70
     1
  9
$PLINEGEN
 70
     0
  9
$PSLTSCALE
 70
     1
  9
$TREEDEPTH
 70
  3020
  9
$CMLSTYLE
  2
Standard
  9
$CMLJUST
 70
     0
  9
$CMLSCALE
 40
20.0
  9
$PROXYGRAPHICS
 70
     1
  9
$MEASUREMENT
 70
     0
  9
$CELWEIGHT
370
    -1
  9
$ENDCAPS
280
     0
  9
$JOINSTYLE
280
     0
  9
$LWDISPLAY
290
     0
  9
$INSUNITS
 70
     4
  9
$HYPERLINKBASE
  1

  9
$STYLESHEET
  1
EPSON.ctb
  9
$XEDIT
290
     1
  9
$CEPSNTYPE
380
     0
  9
$PSTYLEMODE
290
     1
  9
$FINGERPRINTGUID
  2
{9AEAB59C-DF80-11D7-8237-004026CDA8AB}
  9
$VERSIONGUID
  2
{8E0F59BF-437F-4E9E-9A6E-2EBCCDB5B8FB}
  9
$EXTNAMES
290
     1
  9
$PSVPSCALE
 40
0.0
  9
$OLESTARTUP
290
     0
  9
$SORTENTS
280
   127
  9
$INDEXCTL
280
     0
  9
$HIDETEXT
280
     0
  9
$XCLIPFRAME
290
     0
  9
$HALOGAP
280
     0
  9
$OBSCOLOR
 70
   257
  9
$OBSLTYPE
280
     0
  9
$INTERSECTIONDISPLAY
280
     0
  9
$INTERSECTIONCOLOR
 70
   257
  9
$DIMASSOC
280
     1
  9
$PROJECTNAME
  1

  0
ENDSEC
  0
SECTION
  2
CLASSES
  0
CLASS
  1
ACDBDICTIONARYWDFLT
  2
AcDbDictionaryWithDefault
  3
ObjectDBX Classes
 90
        0
 91
        1
280
     0
281
     0
  0
CLASS
  1
MATERIAL
  2
AcDbMaterial
  3
ObjectDBX Classes
 90
     1153
 91
        3
280
     0
281
     0
  0
CLASS
  1
VISUALSTYLE
  2
AcDbVisualStyle
  3
ObjectDBX Classes
 90
     4095
 91
       16
280
     0
281
     0
  0
CLASS
  1
TABLESTYLE
  2
AcDbTableStyle
  3
ObjectDBX Classes
 90
     4095
 91
        1
280
     0
281
     0
  0
CLASS
  1
SCALE
  2
AcDbScale
  3
ObjectDBX Classes
 90
     1153
 91
       33
280
     0
281
     0
  0
CLASS
  1
MLEADERSTYLE
  2
AcDbMLeaderStyle
  3
ACDB_MLEADERSTYLE_CLASS
 90
     4095
 91
        1
280
     0
281
     0
  0
CLASS
  1
SORTENTSTABLE
  2
AcDbSortentsTable
  3
ObjectDBX Classes
 90
        0
 91
        1
280
     0
281
     0
  0
CLASS
  1
CELLSTYLEMAP
  2
AcDbCellStyleMap
  3
ObjectDBX Classes
 90
     1152
 91
        2
280
     0
281
     0
  0
CLASS
  1
DICTIONARYVAR
  2
AcDbDictionaryVar
  3
ObjectDBX Classes
 90
        0
 91
        8
280
     0
281
     0
  0
CLASS
  1
MULTILEADER
  2
AcDbMLeader
  3
ACDB_MLEADER_CLASS
 90
     1025
 91
        0
280
     0
281
     1
  0
ENDSEC
  0
SECTION
  2
TABLES
  0
TABLE
  2
VPORT
  5
8
102
{ACAD_XDICTIONARY
360
1B9D5
102
}
330
0
100
AcDbSymbolTable
 70
     1
  0
VPORT
  5
E3D4
330
8
100
AcDbSymbolTableRecord
100
AcDbViewportTableRecord
  2
*Active
 70
     0
 10
0.0
 20
0.0
 11
1.0
 21
1.0
 12
429.2032566752376
 22
301.2591534041338
 13
0.0
 23
0.0
 14
10.0
 24
10.0
 15
10.0
 25
10.0
 16
0.0
 26
0.0
 36
1.0
 17
0.0
 27
0.0
 37
0.0
 40
607.4805110333112
 41
1.590250329380764
 42
50.0
 43
0.0
 44
0.0
 50
0.0
 51
0.0
 71
     0
 72
   100
 73
     1
 74
     3
 75
     0
 76
     0
 77
     0
 78
     0
281
     0
 65
     1
110
0.0
120
0.0
130
0.0
111
1.0
121
0.0
131
0.0
112
0.0
122
1.0
132
0.0
 79
     0
146
0.0
  0
ENDTAB
  0
TABLE
  2
LTYPE
  5
5
330
0
100
AcDbSymbolTable
 70
     3
  0
LTYPE
  5
14
330
5
100
AcDbSymbolTableRecord
100
AcDbLinetypeTableRecord
  2
ByBlock
 70
     0
  3

 72
    65
 73
     0
 40
0.0
  0
LTYPE
  5
15
330
5
100
AcDbSymbolTableRecord
100
AcDbLinetypeTableRecord
  2
ByLayer
 70
     0
  3

 72
    65
 73
     0
 40
0.0
  0
LTYPE
  5
16
330
5
100
AcDbSymbolTableRecord
100
AcDbLinetypeTableRecord
  2
Continuous
 70
     0
  3
Solid line
 72
    65
 73
     0
 40
0.0
  0
LTYPE
  5
19D
330
5
100
AcDbSymbolTableRecord
100
AcDbLinetypeTableRecord
  2
ACAD_ISO04W100
 70
     0
  3
ISO long-dash dot ____ . ____ . ____ . ____ . _
 72
    65
 73
     4
 40
30.0
 49
24.0
 74
     0
 49
-3.0
 74
     0
 49
0.0
 74
     0
 49
-3.0
 74
     0
  0
LTYPE
  5
19E
330
5
100
AcDbSymbolTableRecord
100
AcDbLinetypeTableRecord
  2
ACAD_ISO02W100
 70
     0
  3
ISO dash __ __ __ __ __ __ __ __ __ __ __ __ __
 72
    65
 73
     2
 40
15.0
 49
12.0
 74
     0
 49
-3.0
 74
     0
  0
ENDTAB
  0
TABLE
  2
LAYER
  5
2
102
{ACAD_XDICTIONARY
360
2859
102
}
330
0
100
AcDbSymbolTable
 70
     7
  0
LAYER
  5
10
102
{ACAD_XDICTIONARY
360
F074
102
}
330
2
100
AcDbSymbolTableRecord
100
AcDbLayerTableRecord
  2
0
 70
     0
 62
     7
  6
Continuous
370
    25
390
F
  0
LAYER
  5
31
102
{ACAD_XDICTIONARY
360
F076
102
}
330
2
100
AcDbSymbolTableRecord
100
AcDbLayerTableRecord
  2
001
 70
     0
 62
     5
  6
Continuous
370
    70
390
F
  0
LAYER
  5
33
102
{ACAD_XDICTIONARY
360
F07A
102
}
330
2
100
AcDbSymbolTableRecord
100
AcDbLayerTableRecord
  2
003
 70
     0
 62
     2
  6
Continuous
370
    25
390
F
  0
LAYER
  5
1A4
102
{ACAD_XDICTIONARY
360
F080
102
}
330
2
100
AcDbSymbolTableRecord
100
AcDbLayerTableRecord
  2
006
 70
     0
 62
     4
  6
ACAD_ISO04W100
370
    20
390
F
  0
LAYER
  5
1A5
102
{ACAD_XDICTIONARY
360
F082
102
}
330
2
100
AcDbSymbolTableRecord
100
AcDbLayerTableRecord
  2
007
 70
     0
 62
     4
  6
ACAD_ISO02W100
370
    20
390
F
  0
LAYER
  5
1A8
330
2
100
AcDbSymbolTableRecord
100
AcDbLayerTableRecord
  2
Defpoints
 70
     0
 62
     7
  6
Continuous
290
     0
370
    25
390
F
  0
LAYER
  5
2B1
102
{ACAD_XDICTIONARY
360
F088
102
}
330
2
100
AcDbSymbolTableRecord
100
AcDbLayerTableRecord
  2
010
 70
     0
 62
     4
  6
Continuous
370
    20
390
F
  0
ENDTAB
  0
TABLE
  2
STYLE
  5
3
330
0
100
AcDbSymbolTable
 70
     3
  0
STYLE
  5
11
330
3
100
AcDbSymbolTableRecord
100
AcDbTextStyleTableRecord
  2
Standard
 70
     0
 40
0.0
 41
1.0
 50
0.0
 71
     0
 42
2.5
  3
txt
  4

  0
STYLE
  5
34
330
3
100
AcDbSymbolTableRecord
100
AcDbTextStyleTableRecord
  2
DIM
 70
     0
 40
0.0
 41
0.75
 50
0.0
 71
     0
 42
60.0
  3
romans.shx
  4
extfont.shx
  0
STYLE
  5
35
330
3
100
AcDbSymbolTableRecord
100
AcDbTextStyleTableRecord
  2
AT_VECTOR
 70
     0
 40
0.0
 41
1.0
 50
0.0
 71
     0
 42
3.0
  3
romans.shx
  4
extfont.shx
  0
ENDTAB
  0
TABLE
  2
VIEW
  5
6
330
0
100
AcDbSymbolTable
 70
     0
  0
ENDTAB
  0
TABLE
  2
UCS
  5
7
330
0
100
AcDbSymbolTable
 70
     0
  0
ENDTAB
  0
TABLE
  2
APPID
  5
9
330
0
100
AcDbSymbolTable
 70
    11
  0
APPID
  5
12
330
9
100
AcDbSymbolTableRecord
100
AcDbRegAppTableRecord
  2
ACAD
 70
     0
  0
APPID
  5
3DA
330
9
100
AcDbSymbolTableRecord
100
AcDbRegAppTableRecord
  2
BS2_OSAMARI_KUTAI
 70
     0
  0
APPID
  5
3DB
330
9
100
AcDbSymbolTableRecord
100
AcDbRegAppTableRecord
  2
BS2_OSAMARI_ISIAGE
 70
     0
  0
APPID
  5
3DC
330
9
100
AcDbSymbolTableRecord
100
AcDbRegAppTableRecord
  2
BS2_OSAMARI_IMOKU
 70
     0
  0
APPID
  5
3DD
330
9
100
AcDbSymbolTableRecord
100
AcDbRegAppTableRecord
  2
BS2_OSAMARI_OSIAGE
 70
     0
  0
APPID
  5
3DE
330
9
100
AcDbSymbolTableRecord
100
AcDbRegAppTableRecord
  2
BS2_OSAMARI_OFZK
 70
     0
  0
APPID
  5
E427
330
9
100
AcDbSymbolTableRecord
100
AcDbRegAppTableRecord
  2
ACAD_MLEADERVER
 70
     0
  0
APPID
  5
F13C
330
9
100
AcDbSymbolTableRecord
100
AcDbRegAppTableRecord
  2
ACAD_EXEMPT_FROM_CAD_STANDARDS
 70
     0
  0
APPID
  5
F7FB
330
9
100
AcDbSymbolTableRecord
100
AcDbRegAppTableRecord
  2
ACAD_PSEXT
 70
     0
  0
APPID
  5
150DE
330
9
100
AcDbSymbolTableRecord
100
AcDbRegAppTableRecord
  2
ACAD_DSTYLE_DIMJAG
 70
     0
  0
APPID
  5
150DF
330
9
100
AcDbSymbolTableRecord
100
AcDbRegAppTableRecord
  2
ACAD_DSTYLE_DIMTALN
 70
     0
  0
ENDTAB
  0
TABLE
  2
DIMSTYLE
  5
A
330
0
100
AcDbSymbolTable
 70
     2
100
AcDbDimStyleTable
 71
     2
340
38
340
1A9
  0
DIMSTYLE
105
38
102
{ACAD_REACTORS
330
177BE
330
177E6
330
17816
330
17886
330
19FD5
330
19FDF
330
19FE8
330
19FE9
330
19FF0
330
1A23E
330
1A23F
330
1A2C5
102
}
330
A
100
AcDbSymbolTableRecord
100
AcDbDimStyleTableRecord
  2
DIM
 70
     0
 40
2.0
 41
1.5
 42
1.5
 43
7.0
 44
1.0
 73
     0
 74
     0
 77
     1
 78
     8
140
3.0
141
0.0
143
0.03937007874016
147
1.0
171
     3
172
     1
176
     4
177
     4
178
     7
271
     2
272
     2
274
     3
283
     0
284
     8
340
34
341
2B
342
2B
371
    20
372
    20
  0
DIMSTYLE
105
1A9
330
A
100
AcDbSymbolTableRecord
100
AcDbDimStyleTableRecord
  2
Standard
 70
     0
340
11
  0
ENDTAB
  0
TABLE
  2
BLOCK_RECORD
  5
1
330
0
100
AcDbSymbolTable
 70
    14
  0
BLOCK_RECORD
  5
1F
102
{ACAD_XDICTIONARY
360
F144
102
}
330
1
100
AcDbSymbolTableRecord
100
AcDbBlockTableRecord
  2
*Model_Space
340
22
  0
BLOCK_RECORD
  5
1B
330
1
100
AcDbSymbolTableRecord
100
AcDbBlockTableRecord
  2
*Paper_Space
340
1E
  0
BLOCK_RECORD
  5
23
330
1
100
AcDbSymbolTableRecord
100
AcDbBlockTableRecord
  2
*Paper_Space0
340
26
  0
BLOCK_RECORD
  5
2B
330
1
100
AcDbSymbolTableRecord
100
AcDbBlockTableRecord
  2
_Open30
340
0
102
{BLKREFS
331
179A5
331
179A6
331
1A13C
331
1A13D
331
1A145
331
1A146
331
1A14E
331
1A14F
331
1A157
331
1A158
331
1A174
331
1A175
331
1A25B
331
1A25C
331
1A264
331
1A265
331
1A2F7
331
1A2F8
331
1A39F
331
1A3A0
331
1A3A8
331
1A3A9
331
1A3B1
331
1A3B2
102
}
  0
BLOCK_RECORD
  5
177BF
330
1
100
AcDbSymbolTableRecord
100
AcDbBlockTableRecord
  2
*D2
340
0
  0
BLOCK_RECORD
  5
177E7
330
1
100
AcDbSymbolTableRecord
100
AcDbBlockTableRecord
  2
*D3
340
0
  0
BLOCK_RECORD
  5
17817
330
1
100
AcDbSymbolTableRecord
100
AcDbBlockTableRecord
  2
*D4
340
0
  0
BLOCK_RECORD
  5
17887
330
1
100
AcDbSymbolTableRecord
100
AcDbBlockTableRecord
  2
*D5
340
0
  0
BLOCK_RECORD
  5
1A03A
330
1
100
AcDbSymbolTableRecord
100
AcDbBlockTableRecord
  2
*D6
340
0
  0
BLOCK_RECORD
  5
1A052
330
1
100
AcDbSymbolTableRecord
100
AcDbBlockTableRecord
  2
*D7
340
0
  0
BLOCK_RECORD
  5
1A05E
330
1
100
AcDbSymbolTableRecord
100
AcDbBlockTableRecord
  2
*D8
340
0
  0
BLOCK_RECORD
  5
1A06A
330
1
100
AcDbSymbolTableRecord
100
AcDbBlockTableRecord
  2
*D9
340
0
  0
BLOCK_RECORD
  5
1A076
330
1
100
AcDbSymbolTableRecord
100
AcDbBlockTableRecord
  2
*D10
340
0
  0
BLOCK_RECORD
  5
1A240
330
1
100
AcDbSymbolTableRecord
100
AcDbBlockTableRecord
  2
*D11
340
0
  0
BLOCK_RECORD
  5
1A24C
330
1
100
AcDbSymbolTableRecord
100
AcDbBlockTableRecord
  2
*D12
340
0
  0
BLOCK_RECORD
  5
1A2CC
330
1
100
AcDbSymbolTableRecord
100
AcDbBlockTableRecord
  2
*D13
340
0
  0
ENDTAB
  0
ENDSEC
  0
SECTION
  2
BLOCKS
  0
BLOCK
  5
20
330
1F
100
AcDbEntity
  8
0
100
AcDbBlockBegin
  2
*Model_Space
 70
     0
 10
0.0
 20
0.0
 30
0.0
  3
*Model_Space
  1

  0
ENDBLK
  5
21
330
1F
100
AcDbEntity
  8
0
100
AcDbBlockEnd
  0
BLOCK
  5
1C
330
1B
100
AcDbEntity
 67
     1
  8
0
100
AcDbBlockBegin
  2
*Paper_Space
 70
     0
 10
0.0
 20
0.0
 30
0.0
  3
*Paper_Space
  1

  0
ENDBLK
  5
1D
330
1B
100
AcDbEntity
 67
     1
  8
0
100
AcDbBlockEnd
  0
BLOCK
  5
24
330
23
100
AcDbEntity
 67
     1
  8
0
100
AcDbBlockBegin
  2
*Paper_Space0
 70
     0
 10
0.0
 20
0.0
 30
0.0
  3
*Paper_Space0
  1

  0
ENDBLK
  5
25
330
23
100
AcDbEntity
 67
     1
  8
0
100
AcDbBlockEnd
  0
BLOCK
  5
2F
330
2B
100
AcDbEntity
  8
0
100
AcDbBlockBegin
  2
_Open30
 70
     0
 10
0.0
 20
0.0
 30
0.0
  3
_Open30
  1

  0
LINE
  5
2C
330
2B
100
AcDbEntity
  8
0
  6
ByBlock
 62
     0
370
    -2
100
AcDbLine
 10
-1.0
 20
0.26794919
 30
0.0
 11
0.0
 21
0.0
 31
0.0
  0
LINE
  5
2D
330
2B
100
AcDbEntity
  8
0
  6
ByBlock
 62
     0
370
    -2
100
AcDbLine
 10
0.0
 20
0.0
 30
0.0
 11
-1.0
 21
-0.26794919
 31
0.0
  0
LINE
  5
2E
330
2B
100
AcDbEntity
  8
0
  6
ByBlock
 62
     0
370
    -2
100
AcDbLine
 10
0.0
 20
0.0
 30
0.0
 11
-1.0
 21
0.0
 31
0.0
  0
ENDBLK
  5
30
330
2B
100
AcDbEntity
  8
0
100
AcDbBlockEnd
  0
BLOCK
  5
177C0
330
177BF
100
AcDbEntity
  8
0
100
AcDbBlockBegin
  2
*D2
 70
     1
 10
0.0
 20
0.0
 30
0.0
  3
*D2
  1

  0
LINE
  5
1A3AE
330
177BF
100
AcDbEntity
  8
003
 62
     4
370
    20
100
AcDbLine
 10
542.1816756313666
 20
309.6894211555722
 30
0.0
 11
542.1816756313666
 21
274.0309622390466
 31
0.0
  0
LINE
  5
1A3AF
330
177BF
100
AcDbEntity
  8
003
 62
     4
370
    20
100
AcDbLine
 10
731.783114469756
 20
309.6894211555722
 30
0.0
 11
731.783114469756
 21
274.0309622390466
 31
0.0
  0
LINE
  5
1A3B0
330
177BF
100
AcDbEntity
  8
003
 62
     4
370
    20
100
AcDbLine
 10
545.1816756313665
 20
276.0309622390466
 30
0.0
 11
728.783114469756
 21
276.0309622390466
 31
0.0
  0
INSERT
  5
1A3B1
330
177BF
100
AcDbEntity
  8
003
 62
     4
370
    20
100
AcDbBlockReference
  2
_Open30
 10
542.1816756313666
 20
276.0309622390466
 30
0.0
 41
3.0
 42
3.0
 43
3.0
 50
180.0
  0
INSERT
  5
1A3B2
330
177BF
100
AcDbEntity
  8
003
 62
     4
370
    20
100
AcDbBlockReference
  2
_Open30
 10
731.783114469756
 20
276.0309622390466
 30
0.0
 41
3.0
 42
3.0
 43
3.0
  0
MTEXT
  5
1A3B3
330
177BF
100
AcDbEntity
  8
003
 62
     7
100
AcDbMText
 10
636.9823950505613
 20
281.0309622390466
 30
0.0
 40
6.0
 41
0.0
 71
     5
 72
     1
  1
開口W
  7
DIM
 73
     1
 44
1.0
  0
POINT
  5
1A3B4
330
177BF
100
AcDbEntity
  8
Defpoints
 62
     0
100
AcDbPoint
 10
542.1816756313666
 20
312.6894211555722
 30
0.0
  0
POINT
  5
1A3B5
330
177BF
100
AcDbEntity
  8
Defpoints
 62
     0
100
AcDbPoint
 10
731.783114469756
 20
312.6894211555722
 30
0.0
  0
POINT
  5
1A3B6
330
177BF
100
AcDbEntity
  8
Defpoints
 62
     0
100
AcDbPoint
 10
731.783114469756
 20
276.0309622390466
 30
0.0
  0
ENDBLK
  5
177C1
330
177BF
100
AcDbEntity
  8
0
100
AcDbBlockEnd
  0
BLOCK
  5
177E8
330
177E7
100
AcDbEntity
  8
0
100
AcDbBlockBegin
  2
*D3
 70
     1
 10
0.0
 20
0.0
 30
0.0
  3
*D3
  1

  0
LINE
  5
1A3A5
330
177E7
100
AcDbEntity
  8
003
 62
     4
370
    20
100
AcDbLine
 10
731.783114469756
 20
309.6894211555722
 30
0.0
 11
731.783114469756
 21
288.0309622390466
 31
0.0
  0
LINE
  5
1A3A6
330
177E7
100
AcDbEntity
  8
003
 62
     4
370
    20
100
AcDbLine
 10
691.7831144697561
 20
327.4394211555723
 30
0.0
 11
691.7831144697561
 21
288.0309622390466
 31
0.0
  0
LINE
  5
1A3A7
330
177E7
100
AcDbEntity
  8
003
 62
     4
370
    20
100
AcDbLine
 10
728.783114469756
 20
290.0309622390466
 30
0.0
 11
694.7831144697561
 21
290.0309622390466
 31
0.0
  0
INSERT
  5
1A3A8
330
177E7
100
AcDbEntity
  8
003
 62
     4
370
    20
100
AcDbBlockReference
  2
_Open30
 10
731.783114469756
 20
290.0309622390466
 30
0.0
 41
3.0
 42
3.0
 43
3.0
  0
INSERT
  5
1A3A9
330
177E7
100
AcDbEntity
  8
003
 62
     4
370
    20
100
AcDbBlockReference
  2
_Open30
 10
691.7831144697561
 20
290.0309622390466
 30
0.0
 41
3.0
 42
3.0
 43
3.0
 50
180.0
  0
MTEXT
  5
1A3AA
330
177E7
100
AcDbEntity
  8
003
 62
     7
100
AcDbMText
 10
711.7831144697561
 20
295.0309622390467
 30
0.0
 40
6.0
 41
0.0
 71
     5
 72
     1
  1
40
  7
DIM
 73
     1
 44
1.0
  0
POINT
  5
1A3AB
330
177E7
100
AcDbEntity
  8
Defpoints
 62
     0
100
AcDbPoint
 10
731.783114469756
 20
312.6894211555722
 30
0.0
  0
POINT
  5
1A3AC
330
177E7
100
AcDbEntity
  8
Defpoints
 62
     0
100
AcDbPoint
 10
691.7831144697561
 20
330.4394211555723
 30
0.0
  0
POINT
  5
1A3AD
330
177E7
100
AcDbEntity
  8
Defpoints
 62
     0
100
AcDbPoint
 10
691.7831144697561
 20
290.0309622390466
 30
0.0
  0
ENDBLK
  5
177E9
330
177E7
100
AcDbEntity
  8
0
100
AcDbBlockEnd
  0
BLOCK
  5
17818
330
17817
100
AcDbEntity
  8
0
100
AcDbBlockBegin
  2
*D4
 70
     1
 10
0.0
 20
0.0
 30
0.0
  3
*D4
  1

  0
LINE
  5
1A39C
330
17817
100
AcDbEntity
  8
003
 62
     4
370
    20
100
AcDbLine
 10
542.1816756313666
 20
309.6894211555722
 30
0.0
 11
542.1816756313666
 21
288.0309622390466
 31
0.0
  0
LINE
  5
1A39D
330
17817
100
AcDbEntity
  8
003
 62
     4
370
    20
100
AcDbLine
 10
582.1816756313665
 20
327.4394211555723
 30
0.0
 11
582.1816756313665
 21
288.0309622390466
 31
0.0
  0
LINE
  5
1A39E
330
17817
100
AcDbEntity
  8
003
 62
     4
370
    20
100
AcDbLine
 10
545.1816756313665
 20
290.0309622390466
 30
0.0
 11
579.1816756313664
 21
290.0309622390466
 31
0.0
  0
INSERT
  5
1A39F
330
17817
100
AcDbEntity
  8
003
 62
     4
370
    20
100
AcDbBlockReference
  2
_Open30
 10
542.1816756313666
 20
290.0309622390466
 30
0.0
 41
3.0
 42
3.0
 43
3.0
 50
180.0
  0
INSERT
  5
1A3A0
330
17817
100
AcDbEntity
  8
003
 62
     4
370
    20
100
AcDbBlockReference
  2
_Open30
 10
582.1816756313665
 20
290.0309622390466
 30
0.0
 41
3.0
 42
3.0
 43
3.0
  0
MTEXT
  5
1A3A1
330
17817
100
AcDbEntity
  8
003
 62
     7
100
AcDbMText
 10
562.1816756313664
 20
295.0309622390467
 30
0.0
 40
6.0
 41
0.0
 71
     5
 72
     1
  1
40
  7
DIM
 73
     1
 44
1.0
  0
POINT
  5
1A3A2
330
17817
100
AcDbEntity
  8
Defpoints
 62
     0
100
AcDbPoint
 10
542.1816756313666
 20
312.6894211555722
 30
0.0
  0
POINT
  5
1A3A3
330
17817
100
AcDbEntity
  8
Defpoints
 62
     0
100
AcDbPoint
 10
582.1816756313665
 20
330.4394211555723
 30
0.0
  0
POINT
  5
1A3A4
330
17817
100
AcDbEntity
  8
Defpoints
 62
     0
100
AcDbPoint
 10
582.1816756313665
 20
290.0309622390466
 30
0.0
  0
ENDBLK
  5
17819
330
17817
100
AcDbEntity
  8
0
100
AcDbBlockEnd
  0
BLOCK
  5
17888
330
17887
100
AcDbEntity
  8
0
100
AcDbBlockBegin
  2
*D5
 70
     1
 10
0.0
 20
0.0
 30
0.0
  3
*D5
  1

  0
LINE
  5
179A2
330
17887
100
AcDbEntity
  8
003
 62
     4
370
    20
100
AcDbLine
 10
316.1719261658237
 20
392.4028041365377
 30
0.0
 11
308.385143830725
 21
392.4028041365377
 31
0.0
  0
LINE
  5
179A3
330
17887
100
AcDbEntity
  8
003
 62
     4
370
    20
100
AcDbLine
 10
316.1719261658237
 20
376.4028041365377
 30
0.0
 11
308.3851438307249
 21
376.4028041365377
 31
0.0
  0
LINE
  5
179A4
330
17887
100
AcDbEntity
  8
003
 62
     4
370
    20
100
AcDbLine
 10
310.385143830725
 20
389.4028041365377
 30
0.0
 11
310.3851438307249
 21
379.4028041365377
 31
0.0
  0
INSERT
  5
179A5
330
17887
100
AcDbEntity
  8
003
 62
     4
370
    20
100
AcDbBlockReference
  2
_Open30
 10
310.385143830725
 20
392.4028041365377
 30
0.0
 41
3.0
 42
3.0
 43
3.0
 50
90.0
  0
INSERT
  5
179A6
330
17887
100
AcDbEntity
  8
003
 62
     4
370
    20
100
AcDbBlockReference
  2
_Open30
 10
310.3851438307249
 20
376.4028041365377
 30
0.0
 41
3.0
 42
3.0
 43
3.0
 50
270.0
  0
MTEXT
  5
179A7
330
17887
100
AcDbEntity
  8
003
 62
     7
100
AcDbMText
 10
305.3851438307249
 20
384.4028041365378
 30
0.0
 40
6.0
 41
0.0
 71
     5
 72
     1
  1
16
  7
DIM
 11
0.0000000000000001
 21
1.0
 31
0.0
 73
     1
 44
1.0
  0
POINT
  5
179A8
330
17887
100
AcDbEntity
  8
Defpoints
 62
     0
100
AcDbPoint
 10
319.1719261658237
 20
392.4028041365377
 30
0.0
  0
POINT
  5
179A9
330
17887
100
AcDbEntity
  8
Defpoints
 62
     0
100
AcDbPoint
 10
319.1719261658237
 20
376.4028041365377
 30
0.0
  0
POINT
  5
179AA
330
17887
100
AcDbEntity
  8
Defpoints
 62
     0
100
AcDbPoint
 10
310.3851438307249
 20
376.4028041365377
 30
0.0
  0
ENDBLK
  5
17889
330
17887
100
AcDbEntity
  8
0
100
AcDbBlockEnd
  0
BLOCK
  5
1A03B
330
1A03A
100
AcDbEntity
  8
0
100
AcDbBlockBegin
  2
*D6
 70
     1
 10
0.0
 20
0.0
 30
0.0
  3
*D6
  1

  0
LINE
  5
1A171
330
1A03A
100
AcDbEntity
  8
003
 62
     4
370
    20
100
AcDbLine
 10
382.9628276318242
 20
409.4028041365383
 30
0.0
 11
382.9628276318242
 21
423.761343781553
 31
0.0
  0
LINE
  5
1A172
330
1A03A
100
AcDbEntity
  8
003
 62
     4
370
    20
100
AcDbLine
 10
342.9628276318242
 20
421.4028041365383
 30
0.0
 11
342.9628276318242
 21
419.761343781553
 31
0.0
  0
LINE
  5
1A173
330
1A03A
100
AcDbEntity
  8
003
 62
     4
370
    20
100
AcDbLine
 10
379.9628276318241
 20
421.761343781553
 30
0.0
 11
345.9628276318242
 21
421.761343781553
 31
0.0
  0
INSERT
  5
1A174
330
1A03A
100
AcDbEntity
  8
003
 62
     4
370
    20
100
AcDbBlockReference
  2
_Open30
 10
382.9628276318242
 20
421.761343781553
 30
0.0
 41
3.0
 42
3.0
 43
3.0
  0
INSERT
  5
1A175
330
1A03A
100
AcDbEntity
  8
003
 62
     4
370
    20
100
AcDbBlockReference
  2
_Open30
 10
342.9628276318242
 20
421.761343781553
 30
0.0
 41
3.0
 42
3.0
 43
3.0
 50
180.0
  0
MTEXT
  5
1A176
330
1A03A
100
AcDbEntity
  8
003
 62
     7
100
AcDbMText
 10
362.9628276318242
 20
426.761343781553
 30
0.0
 40
6.0
 41
0.0
 71
     5
 72
     1
  1
40
  7
DIM
 73
     1
 44
1.0
  0
POINT
  5
1A177
330
1A03A
100
AcDbEntity
  8
Defpoints
 62
     0
100
AcDbPoint
 10
382.9628276318242
 20
406.4028041365384
 30
0.0
  0
POINT
  5
1A178
330
1A03A
100
AcDbEntity
  8
Defpoints
 62
     0
100
AcDbPoint
 10
342.9628276318242
 20
424.4028041365383
 30
0.0
  0
POINT
  5
1A179
330
1A03A
100
AcDbEntity
  8
Defpoints
 62
     0
100
AcDbPoint
 10
342.9628276318242
 20
421.761343781553
 30
0.0
  0
ENDBLK
  5
1A03C
330
1A03A
100
AcDbEntity
  8
0
100
AcDbBlockEnd
  0
BLOCK
  5
1A053
330
1A052
100
AcDbEntity
  8
0
100
AcDbBlockBegin
  2
*D7
 70
     1
 10
0.0
 20
0.0
 30
0.0
  3
*D7
  1

  0
LINE
  5
1A139
330
1A052
100
AcDbEntity
  8
003
  6
Continuous
 62
     4
370
    20
100
AcDbLine
 10
342.9628276318242
 20
359.1528041365386
 30
0.0
 11
342.9628276318242
 21
339.3287722978284
 31
0.0
  0
LINE
  5
1A13A
330
1A052
100
AcDbEntity
  8
003
  6
Continuous
 62
     4
370
    20
100
AcDbLine
 10
357.9628276318239
 20
354.1528041365384
 30
0.0
 11
357.9628276318239
 21
339.3287722978284
 31
0.0
  0
LINE
  5
1A13B
330
1A052
100
AcDbEntity
  8
003
  6
Continuous
 62
     4
370
    20
100
AcDbLine
 10
345.9628276318241
 20
341.3287722978284
 30
0.0
 11
354.9628276318239
 21
341.3287722978284
 31
0.0
  0
INSERT
  5
1A13C
330
1A052
100
AcDbEntity
  8
003
  6
Continuous
 62
     4
370
    20
100
AcDbBlockReference
  2
_Open30
 10
342.9628276318242
 20
341.3287722978284
 30
0.0
 41
3.0
 42
3.0
 43
3.0
 50
180.0
  0
INSERT
  5
1A13D
330
1A052
100
AcDbEntity
  8
003
  6
Continuous
 62
     4
370
    20
100
AcDbBlockReference
  2
_Open30
 10
357.9628276318239
 20
341.3287722978284
 30
0.0
 41
3.0
 42
3.0
 43
3.0
  0
MTEXT
  5
1A13E
330
1A052
100
AcDbEntity
  8
003
  6
Continuous
 62
     7
100
AcDbMText
 10
350.4628276318241
 20
346.3287722978285
 30
0.0
 40
6.0
 41
0.0
 71
     5
 72
     1
  1
15
  7
DIM
 73
     1
 44
1.0
  0
POINT
  5
1A13F
330
1A052
100
AcDbEntity
  8
Defpoints
  6
Continuous
 62
     0
100
AcDbPoint
 10
342.9628276318242
 20
362.1528041365386
 30
0.0
  0
POINT
  5
1A140
330
1A052
100
AcDbEntity
  8
Defpoints
  6
Continuous
 62
     0
100
AcDbPoint
 10
357.9628276318239
 20
357.1528041365384
 30
0.0
  0
POINT
  5
1A141
330
1A052
100
AcDbEntity
  8
Defpoints
  6
Continuous
 62
     0
100
AcDbPoint
 10
357.9628276318239
 20
341.3287722978284
 30
0.0
  0
ENDBLK
  5
1A054
330
1A052
100
AcDbEntity
  8
0
100
AcDbBlockEnd
  0
BLOCK
  5
1A05F
330
1A05E
100
AcDbEntity
  8
0
100
AcDbBlockBegin
  2
*D8
 70
     1
 10
0.0
 20
0.0
 30
0.0
  3
*D8
  1

  0
LINE
  5
1A142
330
1A05E
100
AcDbEntity
  8
003
  6
Continuous
 62
     4
370
    20
100
AcDbLine
 10
421.0576226762523
 20
404.4028041365383
 30
0.0
 11
423.7792110335756
 21
404.4028041365383
 31
0.0
  0
LINE
  5
1A143
330
1A05E
100
AcDbEntity
  8
003
  6
Continuous
 62
     4
370
    20
100
AcDbLine
 10
421.0576226762523
 20
364.4028041365384
 30
0.0
 11
423.7792110335755
 21
364.4028041365384
 31
0.0
  0
LINE
  5
1A144
330
1A05E
100
AcDbEntity
  8
003
  6
Continuous
 62
     4
370
    20
100
AcDbLine
 10
421.7792110335755
 20
401.4028041365383
 30
0.0
 11
421.7792110335755
 21
367.4028041365384
 31
0.0
  0
INSERT
  5
1A145
330
1A05E
100
AcDbEntity
  8
003
  6
Continuous
 62
     4
370
    20
100
AcDbBlockReference
  2
_Open30
 10
421.7792110335755
 20
404.4028041365383
 30
0.0
 41
3.0
 42
3.0
 43
3.0
 50
90.0
  0
INSERT
  5
1A146
330
1A05E
100
AcDbEntity
  8
003
  6
Continuous
 62
     4
370
    20
100
AcDbBlockReference
  2
_Open30
 10
421.7792110335755
 20
364.4028041365384
 30
0.0
 41
3.0
 42
3.0
 43
3.0
 50
270.0
  0
MTEXT
  5
1A147
330
1A05E
100
AcDbEntity
  8
003
  6
Continuous
 62
     7
100
AcDbMText
 10
416.7792110335755
 20
384.4028041365385
 30
0.0
 40
6.0
 41
0.0
 71
     5
 72
     1
  1
40
  7
DIM
 11
0.0000000000000001
 21
1.0
 31
0.0
 73
     1
 44
1.0
  0
POINT
  5
1A148
330
1A05E
100
AcDbEntity
  8
Defpoints
  6
Continuous
 62
     0
100
AcDbPoint
 10
418.0576226762522
 20
404.4028041365383
 30
0.0
  0
POINT
  5
1A149
330
1A05E
100
AcDbEntity
  8
Defpoints
  6
Continuous
 62
     0
100
AcDbPoint
 10
418.0576226762522
 20
364.4028041365384
 30
0.0
  0
POINT
  5
1A14A
330
1A05E
100
AcDbEntity
  8
Defpoints
  6
Continuous
 62
     0
100
AcDbPoint
 10
421.7792110335755
 20
364.4028041365384
 30
0.0
  0
ENDBLK
  5
1A060
330
1A05E
100
AcDbEntity
  8
0
100
AcDbBlockEnd
  0
BLOCK
  5
1A06B
330
1A06A
100
AcDbEntity
  8
0
100
AcDbBlockBegin
  2
*D9
 70
     1
 10
0.0
 20
0.0
 30
0.0
  3
*D9
  1

  0
LINE
  5
1A14B
330
1A06A
100
AcDbEntity
  8
003
  6
Continuous
 62
     4
370
    20
100
AcDbLine
 10
385.9628276318241
 20
406.6528041365383
 30
0.0
 11
401.2240296851826
 21
406.6528041365383
 31
0.0
  0
LINE
  5
1A14C
330
1A06A
100
AcDbEntity
  8
003
  6
Continuous
 62
     4
370
    20
100
AcDbLine
 10
385.9628276318239
 20
362.1528041365386
 30
0.0
 11
401.2240296851825
 21
362.1528041365386
 31
0.0
  0
LINE
  5
1A14D
330
1A06A
100
AcDbEntity
  8
003
  6
Continuous
 62
     4
370
    20
100
AcDbLine
 10
399.2240296851826
 20
403.6528041365383
 30
0.0
 11
399.2240296851825
 21
365.1528041365386
 31
0.0
  0
INSERT
  5
1A14E
330
1A06A
100
AcDbEntity
  8
003
  6
Continuous
 62
     4
370
    20
100
AcDbBlockReference
  2
_Open30
 10
399.2240296851826
 20
406.6528041365383
 30
0.0
 41
3.0
 42
3.0
 43
3.0
 50
90.0
  0
INSERT
  5
1A14F
330
1A06A
100
AcDbEntity
  8
003
  6
Continuous
 62
     4
370
    20
100
AcDbBlockReference
  2
_Open30
 10
399.2240296851825
 20
362.1528041365386
 30
0.0
 41
3.0
 42
3.0
 43
3.0
 50
270.0
  0
MTEXT
  5
1A150
330
1A06A
100
AcDbEntity
  8
003
  6
Continuous
 62
     7
100
AcDbMText
 10
394.2240296851825
 20
384.4028041365386
 30
0.0
 40
6.0
 41
0.0
 71
     5
 72
     1
  1
44.5
  7
DIM
 11
0.0000000000000001
 21
1.0
 31
0.0
 73
     1
 44
1.0
  0
POINT
  5
1A151
330
1A06A
100
AcDbEntity
  8
Defpoints
  6
Continuous
 62
     0
100
AcDbPoint
 10
382.9628276318242
 20
406.6528041365383
 30
0.0
  0
POINT
  5
1A152
330
1A06A
100
AcDbEntity
  8
Defpoints
  6
Continuous
 62
     0
100
AcDbPoint
 10
382.9628276318239
 20
362.1528041365386
 30
0.0
  0
POINT
  5
1A153
330
1A06A
100
AcDbEntity
  8
Defpoints
  6
Continuous
 62
     0
100
AcDbPoint
 10
399.2240296851825
 20
362.1528041365386
 30
0.0
  0
ENDBLK
  5
1A06C
330
1A06A
100
AcDbEntity
  8
0
100
AcDbBlockEnd
  0
BLOCK
  5
1A077
330
1A076
100
AcDbEntity
  8
0
100
AcDbBlockBegin
  2
*D10
 70
     1
 10
0.0
 20
0.0
 30
0.0
  3
*D10
  1

  0
LINE
  5
1A154
330
1A076
100
AcDbEntity
  8
003
  6
Continuous
 62
     4
370
    20
100
AcDbLine
 10
357.9628276318239
 20
354.1528041365384
 30
0.0
 11
357.9628276318239
 21
339.3287722978284
 31
0.0
  0
LINE
  5
1A155
330
1A076
100
AcDbEntity
  8
003
  6
Continuous
 62
     4
370
    20
100
AcDbLine
 10
369.9628276318239
 20
354.1528041365384
 30
0.0
 11
369.9628276318239
 21
339.3287722978284
 31
0.0
  0
LINE
  5
1A156
330
1A076
100
AcDbEntity
  8
003
  6
Continuous
 62
     4
370
    20
100
AcDbLine
 10
360.9628276318239
 20
341.3287722978284
 30
0.0
 11
366.9628276318239
 21
341.3287722978284
 31
0.0
  0
INSERT
  5
1A157
330
1A076
100
AcDbEntity
  8
003
  6
Continuous
 62
     4
370
    20
100
AcDbBlockReference
  2
_Open30
 10
357.9628276318239
 20
341.3287722978284
 30
0.0
 41
3.0
 42
3.0
 43
3.0
 50
180.0
  0
INSERT
  5
1A158
330
1A076
100
AcDbEntity
  8
003
  6
Continuous
 62
     4
370
    20
100
AcDbBlockReference
  2
_Open30
 10
369.9628276318239
 20
341.3287722978284
 30
0.0
 41
3.0
 42
3.0
 43
3.0
  0
MTEXT
  5
1A159
330
1A076
100
AcDbEntity
  8
003
  6
Continuous
 62
     7
100
AcDbMText
 10
363.9628276318239
 20
346.3287722978285
 30
0.0
 40
6.0
 41
0.0
 71
     5
 72
     1
  1
12
  7
DIM
 73
     1
 44
1.0
  0
POINT
  5
1A15A
330
1A076
100
AcDbEntity
  8
Defpoints
  6
Continuous
 62
     0
100
AcDbPoint
 10
357.9628276318239
 20
357.1528041365384
 30
0.0
  0
POINT
  5
1A15B
330
1A076
100
AcDbEntity
  8
Defpoints
  6
Continuous
 62
     0
100
AcDbPoint
 10
369.9628276318239
 20
357.1528041365384
 30
0.0
  0
POINT
  5
1A15C
330
1A076
100
AcDbEntity
  8
Defpoints
  6
Continuous
 62
     0
100
AcDbPoint
 10
369.9628276318239
 20
341.3287722978284
 30
0.0
  0
ENDBLK
  5
1A078
330
1A076
100
AcDbEntity
  8
0
100
AcDbBlockEnd
  0
BLOCK
  5
1A241
330
1A240
100
AcDbEntity
  8
0
100
AcDbBlockBegin
  2
*D11
 70
     1
 10
0.0
 20
0.0
 30
0.0
  3
*D11
  1

  0
LINE
  5
1A258
330
1A240
100
AcDbEntity
  8
003
 62
     4
370
    20
100
AcDbLine
 10
218.1943564946623
 20
404.4028041365383
 30
0.0
 11
235.3344000559546
 21
404.4028041365383
 31
0.0
  0
LINE
  5
1A259
330
1A240
100
AcDbEntity
  8
003
 62
     4
370
    20
100
AcDbLine
 10
218.1943564946623
 20
364.4028041365384
 30
0.0
 11
235.3344000559546
 21
364.4028041365384
 31
0.0
  0
LINE
  5
1A25A
330
1A240
100
AcDbEntity
  8
003
 62
     4
370
    20
100
AcDbLine
 10
233.3344000559546
 20
401.4028041365383
 30
0.0
 11
233.3344000559546
 21
367.4028041365384
 31
0.0
  0
INSERT
  5
1A25B
330
1A240
100
AcDbEntity
  8
003
 62
     4
370
    20
100
AcDbBlockReference
  2
_Open30
 10
233.3344000559546
 20
404.4028041365383
 30
0.0
 41
3.0
 42
3.0
 43
3.0
 50
90.0
  0
INSERT
  5
1A25C
330
1A240
100
AcDbEntity
  8
003
 62
     4
370
    20
100
AcDbBlockReference
  2
_Open30
 10
233.3344000559546
 20
364.4028041365384
 30
0.0
 41
3.0
 42
3.0
 43
3.0
 50
270.0
  0
MTEXT
  5
1A25D
330
1A240
100
AcDbEntity
  8
003
 62
     7
100
AcDbMText
 10
228.3344000559545
 20
384.4028041365385
 30
0.0
 40
6.0
 41
0.0
 71
     5
 72
     1
  1
40
  7
DIM
 11
0.0000000000000001
 21
1.0
 31
0.0
 73
     1
 44
1.0
  0
POINT
  5
1A25E
330
1A240
100
AcDbEntity
  8
Defpoints
 62
     0
100
AcDbPoint
 10
215.1943564946623
 20
404.4028041365383
 30
0.0
  0
POINT
  5
1A25F
330
1A240
100
AcDbEntity
  8
Defpoints
 62
     0
100
AcDbPoint
 10
215.1943564946623
 20
364.4028041365384
 30
0.0
  0
POINT
  5
1A260
330
1A240
100
AcDbEntity
  8
Defpoints
 62
     0
100
AcDbPoint
 10
233.3344000559546
 20
364.4028041365384
 30
0.0
  0
ENDBLK
  5
1A242
330
1A240
100
AcDbEntity
  8
0
100
AcDbBlockEnd
  0
BLOCK
  5
1A24D
330
1A24C
100
AcDbEntity
  8
0
100
AcDbBlockBegin
  2
*D12
 70
     1
 10
0.0
 20
0.0
 30
0.0
  3
*D12
  1

  0
LINE
  5
1A261
330
1A24C
100
AcDbEntity
  8
003
 62
     4
370
    20
100
AcDbLine
 10
195.1943564946623
 20
407.4028041365384
 30
0.0
 11
195.1943564946623
 21
418.4781699656079
 31
0.0
  0
LINE
  5
1A262
330
1A24C
100
AcDbEntity
  8
003
 62
     4
370
    20
100
AcDbLine
 10
215.1943564946623
 20
407.4028041365384
 30
0.0
 11
215.1943564946623
 21
418.4781699656079
 31
0.0
  0
LINE
  5
1A263
330
1A24C
100
AcDbEntity
  8
003
 62
     4
370
    20
100
AcDbLine
 10
198.1943564946623
 20
416.478169965608
 30
0.0
 11
212.1943564946623
 21
416.478169965608
 31
0.0
  0
INSERT
  5
1A264
330
1A24C
100
AcDbEntity
  8
003
 62
     4
370
    20
100
AcDbBlockReference
  2
_Open30
 10
195.1943564946623
 20
416.478169965608
 30
0.0
 41
3.0
 42
3.0
 43
3.0
 50
180.0
  0
INSERT
  5
1A265
330
1A24C
100
AcDbEntity
  8
003
 62
     4
370
    20
100
AcDbBlockReference
  2
_Open30
 10
215.1943564946623
 20
416.478169965608
 30
0.0
 41
3.0
 42
3.0
 43
3.0
  0
MTEXT
  5
1A266
330
1A24C
100
AcDbEntity
  8
003
 62
     7
100
AcDbMText
 10
205.1943564946623
 20
421.478169965608
 30
0.0
 40
6.0
 41
0.0
 71
     5
 72
     1
  1
20
  7
DIM
 73
     1
 44
1.0
  0
POINT
  5
1A267
330
1A24C
100
AcDbEntity
  8
Defpoints
 62
     0
100
AcDbPoint
 10
195.1943564946623
 20
404.4028041365383
 30
0.0
  0
POINT
  5
1A268
330
1A24C
100
AcDbEntity
  8
Defpoints
 62
     0
100
AcDbPoint
 10
215.1943564946623
 20
404.4028041365383
 30
0.0
  0
POINT
  5
1A269
330
1A24C
100
AcDbEntity
  8
Defpoints
 62
     0
100
AcDbPoint
 10
215.1943564946623
 20
416.478169965608
 30
0.0
  0
ENDBLK
  5
1A24E
330
1A24C
100
AcDbEntity
  8
0
100
AcDbBlockEnd
  0
BLOCK
  5
1A2CD
330
1A2CC
100
AcDbEntity
  8
0
100
AcDbBlockBegin
  2
*D13
 70
     1
 10
0.0
 20
0.0
 30
0.0
  3
*D13
  1

  0
LINE
  5
1A2F4
330
1A2CC
100
AcDbEntity
  8
003
 62
     4
370
    20
100
AcDbLine
 10
597.9055821723914
 20
352.6894211555723
 30
0.0
 11
611.3375060850922
 21
352.6894211555723
 31
0.0
  0
LINE
  5
1A2F5
330
1A2CC
100
AcDbEntity
  8
003
 62
     4
370
    20
100
AcDbLine
 10
597.9055821723914
 20
332.6894211555723
 30
0.0
 11
611.3375060850922
 21
332.6894211555723
 31
0.0
  0
LINE
  5
1A2F6
330
1A2CC
100
AcDbEntity
  8
003
 62
     4
370
    20
100
AcDbLine
 10
609.3375060850921
 20
349.6894211555723
 30
0.0
 11
609.3375060850921
 21
335.6894211555723
 31
0.0
  0
INSERT
  5
1A2F7
330
1A2CC
100
AcDbEntity
  8
003
 62
     4
370
    20
100
AcDbBlockReference
  2
_Open30
 10
609.3375060850921
 20
352.6894211555723
 30
0.0
 41
3.0
 42
3.0
 43
3.0
 50
90.0
  0
INSERT
  5
1A2F8
330
1A2CC
100
AcDbEntity
  8
003
 62
     4
370
    20
100
AcDbBlockReference
  2
_Open30
 10
609.3375060850921
 20
332.6894211555723
 30
0.0
 41
3.0
 42
3.0
 43
3.0
 50
270.0
  0
MTEXT
  5
1A2F9
330
1A2CC
100
AcDbEntity
  8
003
 62
     7
100
AcDbMText
 10
604.337506085092
 20
342.6894211555723
 30
0.0
 40
6.0
 41
0.0
 71
     5
 72
     1
  1
20
  7
DIM
 11
0.0000000000000001
 21
1.0
 31
0.0
 73
     1
 44
1.0
  0
POINT
  5
1A2FA
330
1A2CC
100
AcDbEntity
  8
Defpoints
 62
     0
100
AcDbPoint
 10
594.9055821723914
 20
352.6894211555723
 30
0.0
  0
POINT
  5
1A2FB
330
1A2CC
100
AcDbEntity
  8
Defpoints
 62
     0
100
AcDbPoint
 10
594.9055821723914
 20
332.6894211555723
 30
0.0
  0
POINT
  5
1A2FC
330
1A2CC
100
AcDbEntity
  8
Defpoints
 62
     0
100
AcDbPoint
 10
609.3375060850921
 20
332.6894211555723
 30
0.0
  0
ENDBLK
  5
1A2CE
330
1A2CC
100
AcDbEntity
  8
0
100
AcDbBlockEnd
  0
ENDSEC
  0
SECTION
  2
ENTITIES
  0
LINE
  5
F4
330
1F
100
AcDbEntity
  8
001
100
AcDbLine
 10
40.00000000000009
 20
558.0
 30
0.0
 11
799.9999999999998
 21
558.0
 31
0.0
  0
LINE
  5
F5
330
1F
100
AcDbEntity
  8
001
100
AcDbLine
 10
40.0
 20
36.0
 30
0.0
 11
799.9999999999996
 21
36.0
 31
0.0
  0
LINE
  5
F6
330
1F
100
AcDbEntity
  8
001
100
AcDbLine
 10
40.00000000000009
 20
558.0
 30
0.0
 11
40.0
 21
36.0
 31
0.0
  0
LINE
  5
141
330
1F
100
AcDbEntity
  8
001
100
AcDbLine
 10
799.9999999999998
 20
558.0
 30
0.0
 11
799.9999999999996
 21
36.0
 31
0.0
  0
TEXT
  5
F7EF
330
1F
100
AcDbEntity
  8
0
100
AcDbText
 10
752.0146959686857
 20
23.25114259729506
 30
0.0
 40
10.0
  1
-Ｕ７-
  7
AT_VECTOR
 72
     1
 11
776.3956483496381
 21
28.25114259729506
 31
0.0
100
AcDbText
 73
     2
  0
POINT
  5
F7F2
330
1F
100
AcDbEntity
  8
0
100
AcDbPoint
 10
20.0000000000001
 20
558.0
 30
0.0
  0
POINT
  5
F806
330
1F
100
AcDbEntity
  8
0
100
AcDbPoint
 10
809.9999999999996
 20
21.0
 30
0.0
  0
TEXT
  5
1270A
330
1F
100
AcDbEntity
  8
0
100
AcDbText
 10
40.45819394134241
 20
30.38714182789863
 30
0.0
 40
4.0
  1
07.10.01　作成
  7
AT_VECTOR
 11
40.45819394134241
 21
30.38714182789863
 31
0.0
100
AcDbText
 73
     1
  0
LINE
  5
13DEE
330
1F
100
AcDbEntity
  8
003
100
AcDbLine
 10
134.0269563816264
 20
210.4929415200198
 30
0.0
 11
214.026956381626
 21
210.4929415200198
 31
0.0
  0
LINE
  5
13DEF
330
1F
100
AcDbEntity
  8
003
100
AcDbLine
 10
134.0269563816264
 20
223.826274853353
 30
0.0
 11
214.0269563816265
 21
223.826274853353
 31
0.0
  0
LINE
  5
13DF0
330
1F
100
AcDbEntity
  8
003
100
AcDbLine
 10
134.0269563816264
 20
210.4929415200198
 30
0.0
 11
134.0269563816264
 21
223.826274853353
 31
0.0
  0
TEXT
  5
13DF1
330
1F
100
AcDbEntity
  8
0
100
AcDbText
 10
156.1602897149598
 20
213.1596081866863
 30
0.0
 40
7.999999999999998
  1
縦断面図
  7
AT_VECTOR
 72
     1
 11
174.0269563816264
 21
217.1596081866863
 31
0.0
100
AcDbText
 73
     2
  0
LINE
  5
13DF2
330
1F
100
AcDbEntity
  8
003
100
AcDbLine
 10
214.026956381626
 20
210.4929415200198
 30
0.0
 11
214.0269563816265
 21
223.826274853353
 31
0.0
  0
TEXT
  5
13DF3
330
1F
100
AcDbEntity
  8
0
100
AcDbText
 10
61.90814839100202
 20
447.4270156682673
 30
0.0
 40
6.0
  1
外　部
  7
AT_VECTOR
 72
     1
 11
71.90814839100202
 21
450.4270156682673
 31
0.0
100
AcDbText
 73
     2
  0
LINE
  5
13DF4
330
1F
100
AcDbEntity
  8
003
100
AcDbLine
 10
56.90814839100202
 20
454.9270156682673
 30
0.0
 11
86.90814839100202
 21
454.9270156682673
 31
0.0
  0
LINE
  5
13DF5
330
1F
100
AcDbEntity
  8
003
100
AcDbLine
 10
56.90814839100202
 20
445.9270156682674
 30
0.0
 11
86.90814839100202
 21
445.9270156682674
 31
0.0
  0
LINE
  5
13DF6
330
1F
100
AcDbEntity
  8
003
100
AcDbLine
 10
56.90814839100202
 20
454.9270156682673
 30
0.0
 11
56.90814839100202
 21
445.9270156682674
 31
0.0
  0
LINE
  5
13DF7
330
1F
100
AcDbEntity
  8
003
100
AcDbLine
 10
86.90814839100202
 20
454.9270156682673
 30
0.0
 11
86.90814839100202
 21
445.9270156682674
 31
0.0
  0
LINE
  5
13DF8
330
1F
100
AcDbEntity
  8
003
100
AcDbLine
 10
216.4980067191086
 20
454.9270156682673
 30
0.0
 11
216.4980067191086
 21
445.9270156682674
 31
0.0
  0
TEXT
  5
13DF9
330
1F
100
AcDbEntity
  8
0
100
AcDbText
 10
191.2980067191086
 20
447.4270156682673
 30
0.0
 40
6.0
  1
内　部
  7
AT_VECTOR
 72
     1
 11
201.4980067191086
 21
450.4270156682673
 31
0.0
100
AcDbText
 73
     2
  0
LINE
  5
13DFA
330
1F
100
AcDbEntity
  8
003
100
AcDbLine
 10
186.4980067191086
 20
454.9270156682673
 30
0.0
 11
186.4980067191086
 21
445.9270156682674
 31
0.0
  0
LINE
  5
13DFB
330
1F
100
AcDbEntity
  8
003
100
AcDbLine
 10
186.4980067191086
 20
445.9270156682674
 30
0.0
 11
216.4980067191086
 21
445.9270156682674
 31
0.0
  0
LINE
  5
13DFC
330
1F
100
AcDbEntity
  8
003
100
AcDbLine
 10
186.4980067191086
 20
454.9270156682673
 30
0.0
 11
216.4980067191086
 21
454.9270156682673
 31
0.0
  0
LINE
  5
13EC1
330
1F
100
AcDbEntity
  8
003
100
AcDbLine
 10
596.9823950505612
 20
225.7606821491866
 30
0.0
 11
676.9823950505609
 21
225.7606821491866
 31
0.0
  0
LINE
  5
13EC2
330
1F
100
AcDbEntity
  8
003
100
AcDbLine
 10
596.9823950505612
 20
239.0940154825198
 30
0.0
 11
676.9823950505613
 21
239.0940154825198
 31
0.0
  0
LINE
  5
13EC3
330
1F
100
AcDbEntity
  8
003
100
AcDbLine
 10
596.9823950505612
 20
225.7606821491866
 30
0.0
 11
596.9823950505612
 21
239.0940154825198
 31
0.0
  0
TEXT
  5
13EC4
330
1F
100
AcDbEntity
  8
0
100
AcDbText
 10
619.1157283838946
 20
228.4273488158531
 30
0.0
 40
7.999999999999998
  1
横断面図
  7
AT_VECTOR
 72
     1
 11
636.9823950505613
 21
232.4273488158531
 31
0.0
100
AcDbText
 73
     2
  0
LINE
  5
13EC5
330
1F
100
AcDbEntity
  8
003
100
AcDbLine
 10
676.9823950505609
 20
225.7606821491866
 30
0.0
 11
676.9823950505613
 21
239.0940154825198
 31
0.0
  0
LINE
  5
13EC6
330
1F
100
AcDbEntity
  8
003
100
AcDbLine
 10
651.9823950505613
 20
262.8720988033817
 30
0.0
 11
651.9823950505613
 21
253.8720988033817
 31
0.0
  0
TEXT
  5
13EC7
330
1F
100
AcDbEntity
  8
0
100
AcDbText
 10
626.7823950505612
 20
255.3720988033817
 30
0.0
 40
6.0
  1
内　部
  7
AT_VECTOR
 72
     1
 11
636.9823950505613
 21
258.3720988033817
 31
0.0
100
AcDbText
 73
     2
  0
LINE
  5
13EC8
330
1F
100
AcDbEntity
  8
003
100
AcDbLine
 10
621.9823950505613
 20
262.8720988033817
 30
0.0
 11
621.9823950505613
 21
253.8720988033817
 31
0.0
  0
LINE
  5
13EC9
330
1F
100
AcDbEntity
  8
003
100
AcDbLine
 10
621.9823950505613
 20
253.8720988033817
 30
0.0
 11
651.9823950505613
 21
253.8720988033817
 31
0.0
  0
LINE
  5
13ECA
330
1F
100
AcDbEntity
  8
003
100
AcDbLine
 10
621.9823950505613
 20
262.8720988033817
 30
0.0
 11
651.9823950505613
 21
262.8720988033817
 31
0.0
  0
TEXT
  5
13ECB
330
1F
100
AcDbEntity
  8
0
100
AcDbText
 10
626.9823950505613
 20
462.4738480239463
 30
0.0
 40
6.0
  1
外　部
  7
AT_VECTOR
 72
     1
 11
636.9823950505613
 21
465.4738480239463
 31
0.0
100
AcDbText
 73
     2
  0
LINE
  5
13ECC
330
1F
100
AcDbEntity
  8
003
100
AcDbLine
 10
621.9823950505613
 20
469.9738480239463
 30
0.0
 11
651.9823950505613
 21
469.9738480239463
 31
0.0
  0
LINE
  5
13ECD
330
1F
100
AcDbEntity
  8
003
100
AcDbLine
 10
621.9823950505613
 20
460.9738480239463
 30
0.0
 11
651.9823950505613
 21
460.9738480239463
 31
0.0
  0
LINE
  5
13ECE
330
1F
100
AcDbEntity
  8
003
100
AcDbLine
 10
621.9823950505613
 20
469.9738480239463
 30
0.0
 11
621.9823950505613
 21
460.9738480239463
 31
0.0
  0
LINE
  5
13ECF
330
1F
100
AcDbEntity
  8
003
100
AcDbLine
 10
651.9823950505613
 20
469.9738480239463
 30
0.0
 11
651.9823950505613
 21
460.9738480239463
 31
0.0
  0
TEXT
  5
13EED
330
1F
100
AcDbEntity
  8
0
100
AcDbText
 10
316.4621369875017
 20
537.8775302423639
 30
0.0
 40
10.0
  1
【20×40角　バー手摺】
  7
AT_VECTOR
 72
     1
 11
388.1764227017874
 21
542.8775302423639
 31
0.0
100
AcDbText
 73
     2
  0
TEXT
  5
13EEE
330
1F
100
AcDbEntity
  8
0
100
AcDbText
 10
460.1359768398423
 20
538.1067912703838
 30
0.0
 40
7.999999999999998
  1
（木額+木額）
 41
0.85
  7
AT_VECTOR
 72
     1
 11
487.9188339826995
 21
542.1067912703838
 31
0.0
100
AcDbText
 73
     2
  0
LINE
  5
1652B
330
1F
100
AcDbEntity
  8
0
100
AcDbLine
 10
533.6816756313664
 20
441.1894211555721
 30
0.0
 11
534.1816756313664
 21
441.1894211555721
 31
0.0
  0
LINE
  5
1652C
330
1F
100
AcDbEntity
  8
0
100
AcDbLine
 10
532.1816756313665
 20
442.6894211555722
 30
0.0
 11
557.1816756313665
 21
442.6894211555722
 31
0.0
  0
LINE
  5
1652D
330
1F
100
AcDbEntity
  8
007
100
AcDbLine
 10
533.6816756313664
 20
437.6894211555721
 30
0.0
 11
535.6816756313665
 21
437.6894211555721
 31
0.0
  0
LINE
  5
1652E
330
1F
100
AcDbEntity
  8
007
100
AcDbLine
 10
532.1816756313665
 20
431.6594211555722
 30
0.0
 11
535.6816756313665
 21
433.6794211555721
 31
0.0
  0
LINE
  5
1652F
330
1F
100
AcDbEntity
  8
007
100
AcDbLine
 10
532.1816756313665
 20
384.7394211555721
 30
0.0
 11
535.6816756313665
 21
382.7194211555721
 31
0.0
  0
LINE
  5
16530
330
1F
100
AcDbEntity
  8
0
100
AcDbLine
 10
533.6816756313664
 20
374.1894211555722
 30
0.0
 11
534.1816756313664
 21
374.1894211555722
 31
0.0
  0
LINE
  5
16531
330
1F
100
AcDbEntity
  8
007
100
AcDbLine
 10
533.6816756313664
 20
377.6894211555722
 30
0.0
 11
535.6816756313665
 21
377.6894211555722
 31
0.0
  0
LINE
  5
16532
330
1F
100
AcDbEntity
  8
0
100
AcDbLine
 10
532.1816756313665
 20
372.6894211555722
 30
0.0
 11
541.1816756313664
 21
372.6894211555722
 31
0.0
  0
LINE
  5
16533
330
1F
100
AcDbEntity
  8
007
100
AcDbLine
 10
530.1816756313664
 20
377.6894211555722
 30
0.0
 11
530.1816756313664
 21
437.6894211555721
 31
0.0
  0
LINE
  5
16534
330
1F
100
AcDbEntity
  8
007
100
AcDbLine
 10
532.1816756313665
 20
384.7394211555721
 30
0.0
 11
532.1816756313665
 21
431.6594211555722
 31
0.0
  0
LINE
  5
16535
330
1F
100
AcDbEntity
  8
007
100
AcDbLine
 10
530.1816756313664
 20
377.6894211555722
 30
0.0
 11
530.1816756313664
 21
437.6894211555721
 31
0.0
  0
LINE
  5
16536
330
1F
100
AcDbEntity
  8
0
100
AcDbLine
 10
532.1816756313665
 20
372.6894211555722
 30
0.0
 11
532.1816756313665
 21
381.6894211555722
 31
0.0
  0
LINE
  5
16537
330
1F
100
AcDbEntity
  8
0
100
AcDbLine
 10
532.1816756313665
 20
381.6894211555722
 30
0.0
 11
533.6816756313664
 21
381.6894211555722
 31
0.0
  0
LINE
  5
16538
330
1F
100
AcDbEntity
  8
007
100
AcDbLine
 10
532.1816756313665
 20
383.1294211555722
 30
0.0
 11
533.6816756313664
 21
382.2594211555721
 31
0.0
  0
LINE
  5
16539
330
1F
100
AcDbEntity
  8
007
100
AcDbLine
 10
532.1816756313665
 20
381.6894211555722
 30
0.0
 11
532.1816756313665
 21
383.1294211555722
 31
0.0
  0
LINE
  5
1653A
330
1F
100
AcDbEntity
  8
007
100
AcDbLine
 10
533.6816756313664
 20
381.6894211555722
 30
0.0
 11
533.6816756313664
 21
382.2594211555721
 31
0.0
  0
LINE
  5
1653B
330
1F
100
AcDbEntity
  8
007
100
AcDbLine
 10
530.1816756313664
 20
377.6894211555722
 30
0.0
 11
532.1816756313665
 21
377.6894211555722
 31
0.0
  0
LINE
  5
1653C
330
1F
100
AcDbEntity
  8
0
100
AcDbLine
 10
533.6816756313664
 20
374.1894211555722
 30
0.0
 11
533.6816756313664
 21
381.6894211555722
 31
0.0
  0
LINE
  5
1653D
330
1F
100
AcDbEntity
  8
007
100
AcDbLine
 10
521.1816756313664
 20
397.6894211555722
 30
0.0
 11
521.1816756313664
 21
417.6894211555722
 31
0.0
  0
LINE
  5
1653E
330
1F
100
AcDbEntity
  8
007
100
AcDbLine
 10
514.8516756313663
 20
403.1894211555721
 30
0.0
 11
530.1816756313664
 21
403.1894211555721
 31
0.0
  0
LINE
  5
1653F
330
1F
100
AcDbEntity
  8
007
100
AcDbLine
 10
521.1816756313664
 20
397.6894211555722
 30
0.0
 11
530.1816756313664
 21
397.6894211555722
 31
0.0
  0
LINE
  5
16540
330
1F
100
AcDbEntity
  8
007
100
AcDbLine
 10
514.8516756313663
 20
412.1894211555721
 30
0.0
 11
530.1816756313664
 21
412.1894211555721
 31
0.0
  0
LINE
  5
16541
330
1F
100
AcDbEntity
  8
007
100
AcDbLine
 10
521.1816756313664
 20
417.6894211555722
 30
0.0
 11
530.1816756313664
 21
417.6894211555722
 31
0.0
  0
LINE
  5
16542
330
1F
100
AcDbEntity
  8
0
100
AcDbLine
 10
532.1816756313665
 20
434.6894211555722
 30
0.0
 11
533.6816756313664
 21
434.6894211555722
 31
0.0
  0
LINE
  5
16543
330
1F
100
AcDbEntity
  8
007
100
AcDbLine
 10
532.1816756313665
 20
433.1894211555721
 30
0.0
 11
532.1816756313665
 21
434.6894211555722
 31
0.0
  0
LINE
  5
16544
330
1F
100
AcDbEntity
  8
007
100
AcDbLine
 10
533.6816756313664
 20
434.059421155572
 30
0.0
 11
533.6816756313664
 21
434.6894211555722
 31
0.0
  0
LINE
  5
16545
330
1F
100
AcDbEntity
  8
007
100
AcDbLine
 10
530.1816756313664
 20
437.6894211555721
 30
0.0
 11
532.1816756313665
 21
437.6894211555721
 31
0.0
  0
LINE
  5
16546
330
1F
100
AcDbEntity
  8
007
100
AcDbLine
 10
532.1816756313665
 20
433.1894211555721
 30
0.0
 11
533.6816756313664
 21
434.059421155572
 31
0.0
  0
LINE
  5
16547
330
1F
100
AcDbEntity
  8
0
100
AcDbLine
 10
532.1816756313665
 20
434.6894211555722
 30
0.0
 11
532.1816756313665
 21
442.6894211555722
 31
0.0
  0
LINE
  5
16548
330
1F
100
AcDbEntity
  8
0
100
AcDbLine
 10
533.6816756313664
 20
434.6894211555722
 30
0.0
 11
533.6816756313664
 21
441.1894211555721
 31
0.0
  0
LINE
  5
16549
330
1F
100
AcDbEntity
  8
0
100
AcDbLine
 10
639.4823950505611
 20
442.689421155572
 30
0.0
 11
716.783114469756
 21
442.6894211555723
 31
0.0
  0
LINE
  5
1654A
330
1F
100
AcDbEntity
  8
0
100
AcDbLine
 10
639.4823950505611
 20
372.6894211555722
 30
0.0
 11
717.213114469756
 21
372.6894211555722
 31
0.0
  0
LINE
  5
1654C
330
1F
100
AcDbEntity
  8
0
100
AcDbLine
 10
542.1816756313664
 20
374.1894211555722
 30
0.0
 11
542.1816756313664
 21
405.1894211555722
 31
0.0
  0
LINE
  5
1654D
330
1F
100
AcDbEntity
  8
0
100
AcDbLine
 10
540.6816756313665
 20
374.1894211555722
 30
0.0
 11
540.6816756313665
 21
441.1894211555721
 31
0.0
  0
LINE
  5
1654F
330
1F
100
AcDbEntity
  8
0
100
AcDbLine
 10
557.1816756313665
 20
372.6894211555722
 30
0.0
 11
634.4823950505611
 21
372.6894211555722
 31
0.0
  0
LINE
  5
16550
330
1F
100
AcDbEntity
  8
0
100
AcDbLine
 10
542.1816756313664
 20
352.6894211555722
 30
0.0
 11
542.1816756313664
 21
372.6894211555722
 31
0.0
  0
LINE
  5
16551
330
1F
100
AcDbEntity
  8
0
100
AcDbLine
 10
541.1816756313664
 20
353.4994211555721
 30
0.0
 11
541.1816756313664
 21
372.6894211555722
 31
0.0
  0
LINE
  5
16552
330
1F
100
AcDbEntity
  8
0
100
AcDbLine
 10
539.1816756313665
 20
352.6894211555722
 30
0.0
 11
542.1816756313664
 21
352.6894211555722
 31
0.0
  0
LINE
  5
16553
330
1F
100
AcDbEntity
  8
0
100
AcDbLine
 10
539.1816756313665
 20
353.4994211555721
 30
0.0
 11
541.1816756313664
 21
353.4994211555721
 31
0.0
  0
LINE
  5
16554
330
1F
100
AcDbEntity
  8
0
100
AcDbLine
 10
539.1816756313665
 20
352.6894211555722
 30
0.0
 11
539.1816756313665
 21
353.4994211555721
 31
0.0
  0
LINE
  5
16555
330
1F
100
AcDbEntity
  8
0
100
AcDbLine
 10
542.1816756313664
 20
374.1894211555722
 30
0.0
 11
556.0616756313663
 21
374.1894211555722
 31
0.0
  0
LINE
  5
16556
330
1F
100
AcDbEntity
  8
0
100
AcDbLine
 10
542.1816756313664
 20
372.6894211555722
 30
0.0
 11
557.1816756313665
 21
372.6894211555722
 31
0.0
  0
LINE
  5
16557
330
1F
100
AcDbEntity
  8
007
100
AcDbLine
 10
535.6816756313665
 20
377.6894211555722
 30
0.0
 11
535.6816756313665
 21
382.7194211555721
 31
0.0
  0
LINE
  5
16558
330
1F
100
AcDbEntity
  8
0
100
AcDbLine
 10
534.1816756313664
 20
374.1894211555722
 30
0.0
 11
540.6816756313665
 21
374.1894211555722
 31
0.0
  0
LINE
  5
16559
330
1F
100
AcDbEntity
  8
0
100
AcDbLine
 10
557.1816756313665
 20
372.6894211555722
 30
0.0
 11
557.1816756313665
 21
374.809421155572
 31
0.0
  0
LINE
  5
1655A
330
1F
100
AcDbEntity
  8
0
100
AcDbLine
 10
556.0616756313663
 20
374.1894211555722
 30
0.0
 11
556.0616756313663
 21
374.809421155572
 31
0.0
  0
LINE
  5
1655B
330
1F
100
AcDbEntity
  8
0
100
AcDbLine
 10
556.0616756313663
 20
374.809421155572
 30
0.0
 11
557.1816756313665
 21
374.809421155572
 31
0.0
  0
LINE
  5
1655D
330
1F
100
AcDbEntity
  8
0
100
AcDbLine
 10
557.1816756313665
 20
442.6894211555722
 30
0.0
 11
634.4823950505611
 21
442.6894211555723
 31
0.0
  0
LINE
  5
1655E
330
1F
100
AcDbEntity
  8
0
100
AcDbLine
 10
542.1816756313664
 20
426.1894211555722
 30
0.0
 11
542.1816756313664
 21
441.1894211555721
 31
0.0
  0
LINE
  5
1655F
330
1F
100
AcDbEntity
  8
0
100
AcDbLine
 10
542.1816756313664
 20
406.1894211555721
 30
0.0
 11
542.1816756313664
 21
424.6894211555721
 31
0.0
  0
LINE
  5
16560
330
1F
100
AcDbEntity
  8
0
100
AcDbLine
 10
549.1616756313665
 20
406.1894211555721
 30
0.0
 11
549.1616756313665
 21
406.8994211555722
 31
0.0
  0
LINE
  5
16561
330
1F
100
AcDbEntity
  8
0
100
AcDbLine
 10
549.1616756313665
 20
406.8994211555722
 30
0.0
 11
550.1816756313664
 21
406.8994211555722
 31
0.0
  0
LINE
  5
16562
330
1F
100
AcDbEntity
  8
0
100
AcDbLine
 10
550.1816756313664
 20
405.1894211555722
 30
0.0
 11
550.1816756313664
 21
406.8994211555722
 31
0.0
  0
LINE
  5
16563
330
1F
100
AcDbEntity
  8
0
100
AcDbLine
 10
542.1816756313664
 20
406.1894211555721
 30
0.0
 11
549.1616756313665
 21
406.1894211555721
 31
0.0
  0
LINE
  5
16564
330
1F
100
AcDbEntity
  8
0
100
AcDbLine
 10
542.1816756313664
 20
405.1894211555722
 30
0.0
 11
550.1816756313664
 21
405.1894211555722
 31
0.0
  0
LINE
  5
16565
330
1F
100
AcDbEntity
  8
0
100
AcDbLine
 10
542.1816756313664
 20
424.6894211555721
 30
0.0
 11
552.7716756313663
 21
424.6894211555721
 31
0.0
  0
LINE
  5
16566
330
1F
100
AcDbEntity
  8
0
100
AcDbLine
 10
542.1816756313664
 20
426.1894211555722
 30
0.0
 11
554.1816756313664
 21
426.1894211555722
 31
0.0
  0
LINE
  5
16567
330
1F
100
AcDbEntity
  8
0
100
AcDbLine
 10
554.1816756313664
 20
422.6894211555721
 30
0.0
 11
554.1816756313664
 21
426.1894211555722
 31
0.0
  0
LINE
  5
16568
330
1F
100
AcDbEntity
  8
0
100
AcDbLine
 10
552.7716756313663
 20
422.6894211555721
 30
0.0
 11
552.7716756313663
 21
424.6894211555721
 31
0.0
  0
LINE
  5
16569
330
1F
100
AcDbEntity
  8
0
100
AcDbLine
 10
552.7716756313663
 20
422.6894211555721
 30
0.0
 11
554.1816756313664
 21
422.6894211555721
 31
0.0
  0
LINE
  5
1656A
330
1F
100
AcDbEntity
  8
0
100
AcDbLine
 10
542.1816756313664
 20
441.1894211555721
 30
0.0
 11
557.1816756313665
 21
441.1894211555721
 31
0.0
  0
LINE
  5
1656B
330
1F
100
AcDbEntity
  8
0
100
AcDbLine
 10
534.1816756313664
 20
441.1894211555721
 30
0.0
 11
540.6816756313665
 21
441.1894211555721
 31
0.0
  0
LINE
  5
1656C
330
1F
100
AcDbEntity
  8
007
100
AcDbLine
 10
535.6816756313665
 20
433.6794211555721
 30
0.0
 11
535.6816756313665
 21
437.6894211555721
 31
0.0
  0
LINE
  5
1656D
330
1F
100
AcDbEntity
  8
0
100
AcDbLine
 10
557.1816756313665
 20
441.1894211555721
 30
0.0
 11
557.1816756313665
 21
442.6894211555722
 31
0.0
  0
LINE
  5
1656E
330
1F
100
AcDbEntity
  8
0
100
AcDbLine
 10
731.783114469756
 20
374.1894211555722
 30
0.0
 11
731.783114469756
 21
389.1894211555722
 31
0.0
  0
LINE
  5
1656F
330
1F
100
AcDbEntity
  8
007
100
AcDbLine
 10
743.783114469756
 20
377.6894211555722
 30
0.0
 11
743.783114469756
 21
437.6894211555721
 31
0.0
  0
LINE
  5
16570
330
1F
100
AcDbEntity
  8
007
100
AcDbLine
 10
741.783114469756
 20
384.7394211555721
 30
0.0
 11
741.783114469756
 21
431.6594211555722
 31
0.0
  0
LINE
  5
16571
330
1F
100
AcDbEntity
  8
007
100
AcDbLine
 10
743.783114469756
 20
377.6894211555722
 30
0.0
 11
743.783114469756
 21
437.6894211555721
 31
0.0
  0
LINE
  5
16572
330
1F
100
AcDbEntity
  8
0
100
AcDbLine
 10
733.283114469756
 20
374.1894211555722
 30
0.0
 11
733.283114469756
 21
441.1894211555721
 31
0.0
  0
LINE
  5
16573
330
1F
100
AcDbEntity
  8
007
100
AcDbLine
 10
741.783114469756
 20
384.7394211555721
 30
0.0
 11
738.283114469756
 21
382.7194211555721
 31
0.0
  0
LINE
  5
16574
330
1F
100
AcDbEntity
  8
007
100
AcDbLine
 10
740.283114469756
 20
377.6894211555722
 30
0.0
 11
738.283114469756
 21
377.6894211555722
 31
0.0
  0
LINE
  5
16575
330
1F
100
AcDbEntity
  8
0
100
AcDbLine
 10
733.283114469756
 20
374.1894211555722
 30
0.0
 11
739.783114469756
 21
374.1894211555722
 31
0.0
  0
LINE
  5
16576
330
1F
100
AcDbEntity
  8
0
100
AcDbLine
 10
732.783114469756
 20
372.6894211555722
 30
0.0
 11
741.783114469756
 21
372.6894211555722
 31
0.0
  0
LINE
  5
16577
330
1F
100
AcDbEntity
  8
0
100
AcDbLine
 10
731.783114469756
 20
352.6894211555722
 30
0.0
 11
731.783114469756
 21
372.6894211555722
 31
0.0
  0
LINE
  5
16578
330
1F
100
AcDbEntity
  8
0
100
AcDbLine
 10
732.783114469756
 20
353.4994211555721
 30
0.0
 11
732.783114469756
 21
372.6894211555722
 31
0.0
  0
LINE
  5
16579
330
1F
100
AcDbEntity
  8
0
100
AcDbLine
 10
734.7831144697559
 20
352.6894211555722
 30
0.0
 11
734.7831144697559
 21
353.4994211555721
 31
0.0
  0
LINE
  5
1657A
330
1F
100
AcDbEntity
  8
0
100
AcDbLine
 10
731.783114469756
 20
352.6894211555722
 30
0.0
 11
734.7831144697559
 21
352.6894211555722
 31
0.0
  0
LINE
  5
1657B
330
1F
100
AcDbEntity
  8
0
100
AcDbLine
 10
732.783114469756
 20
353.4994211555721
 30
0.0
 11
734.7831144697559
 21
353.4994211555721
 31
0.0
  0
LINE
  5
1657C
330
1F
100
AcDbEntity
  8
0
100
AcDbLine
 10
716.783114469756
 20
372.6894211555722
 30
0.0
 11
731.783114469756
 21
372.6894211555722
 31
0.0
  0
LINE
  5
1657D
330
1F
100
AcDbEntity
  8
0
100
AcDbLine
 10
717.9031144697558
 20
374.1894211555722
 30
0.0
 11
731.783114469756
 21
374.1894211555722
 31
0.0
  0
LINE
  5
1657E
330
1F
100
AcDbEntity
  8
0
100
AcDbLine
 10
716.783114469756
 20
372.6894211555722
 30
0.0
 11
716.783114469756
 21
374.809421155572
 31
0.0
  0
LINE
  5
1657F
330
1F
100
AcDbEntity
  8
0
100
AcDbLine
 10
717.9031144697558
 20
374.1894211555722
 30
0.0
 11
717.9031144697558
 21
374.809421155572
 31
0.0
  0
LINE
  5
16580
330
1F
100
AcDbEntity
  8
0
100
AcDbLine
 10
716.783114469756
 20
374.809421155572
 30
0.0
 11
717.9031144697558
 21
374.809421155572
 31
0.0
  0
LINE
  5
16581
330
1F
100
AcDbEntity
  8
007
100
AcDbLine
 10
738.283114469756
 20
377.6894211555722
 30
0.0
 11
738.283114469756
 21
382.7194211555721
 31
0.0
  0
LINE
  5
16582
330
1F
100
AcDbEntity
  8
0
100
AcDbLine
 10
741.783114469756
 20
372.6894211555722
 30
0.0
 11
741.783114469756
 21
381.6894211555722
 31
0.0
  0
LINE
  5
16583
330
1F
100
AcDbEntity
  8
0
100
AcDbLine
 10
740.283114469756
 20
381.6894211555722
 30
0.0
 11
741.783114469756
 21
381.6894211555722
 31
0.0
  0
LINE
  5
16584
330
1F
100
AcDbEntity
  8
007
100
AcDbLine
 10
740.283114469756
 20
381.6894211555722
 30
0.0
 11
740.283114469756
 21
382.2594211555721
 31
0.0
  0
LINE
  5
16585
330
1F
100
AcDbEntity
  8
007
100
AcDbLine
 10
741.783114469756
 20
381.6894211555722
 30
0.0
 11
741.783114469756
 21
383.1294211555722
 31
0.0
  0
LINE
  5
16586
330
1F
100
AcDbEntity
  8
007
100
AcDbLine
 10
741.783114469756
 20
383.1294211555722
 30
0.0
 11
740.283114469756
 21
382.2594211555721
 31
0.0
  0
LINE
  5
16587
330
1F
100
AcDbEntity
  8
0
100
AcDbLine
 10
739.783114469756
 20
374.1894211555722
 30
0.0
 11
740.283114469756
 21
374.1894211555722
 31
0.0
  0
LINE
  5
16588
330
1F
100
AcDbEntity
  8
0
100
AcDbLine
 10
740.283114469756
 20
374.1894211555722
 30
0.0
 11
740.283114469756
 21
381.6894211555722
 31
0.0
  0
LINE
  5
16589
330
1F
100
AcDbEntity
  8
007
100
AcDbLine
 10
743.783114469756
 20
377.6894211555722
 30
0.0
 11
741.783114469756
 21
377.6894211555722
 31
0.0
  0
LINE
  5
1658A
330
1F
100
AcDbEntity
  8
0
100
AcDbLine
 10
731.783114469756
 20
426.1894211555722
 30
0.0
 11
731.783114469756
 21
441.1894211555721
 31
0.0
  0
LINE
  5
1658B
330
1F
100
AcDbEntity
  8
0
100
AcDbLine
 10
731.783114469756
 20
406.1894211555721
 30
0.0
 11
731.783114469756
 21
409.1894211555722
 31
0.0
  0
LINE
  5
1658C
330
1F
100
AcDbEntity
  8
0
100
AcDbLine
 10
719.783114469756
 20
389.1894211555722
 30
0.0
 11
731.783114469756
 21
389.1894211555722
 31
0.0
  0
LINE
  5
1658D
330
1F
100
AcDbEntity
  8
0
100
AcDbLine
 10
721.1931144697561
 20
390.6894211555722
 30
0.0
 11
731.783114469756
 21
390.6894211555722
 31
0.0
  0
LINE
  5
1658E
330
1F
100
AcDbEntity
  8
0
100
AcDbLine
 10
719.783114469756
 20
392.6894211555722
 30
0.0
 11
721.1931144697561
 21
392.6894211555722
 31
0.0
  0
LINE
  5
1658F
330
1F
100
AcDbEntity
  8
0
100
AcDbLine
 10
719.783114469756
 20
389.1894211555722
 30
0.0
 11
719.783114469756
 21
392.6894211555722
 31
0.0
  0
LINE
  5
16590
330
1F
100
AcDbEntity
  8
0
100
AcDbLine
 10
721.1931144697561
 20
390.6894211555722
 30
0.0
 11
721.1931144697561
 21
392.6894211555722
 31
0.0
  0
LINE
  5
16591
330
1F
100
AcDbEntity
  8
0
100
AcDbLine
 10
731.783114469756
 20
390.6894211555722
 30
0.0
 11
731.783114469756
 21
405.1894211555722
 31
0.0
  0
LINE
  5
16592
330
1F
100
AcDbEntity
  8
0
100
AcDbLine
 10
731.783114469756
 20
405.1894211555722
 30
0.0
 11
731.783114469756
 21
406.1894211555721
 31
0.0
  0
LINE
  5
16593
330
1F
100
AcDbEntity
  8
0
100
AcDbLine
 10
731.783114469756
 20
410.1894211555721
 30
0.0
 11
731.783114469756
 21
424.6894211555721
 31
0.0
  0
LINE
  5
16594
330
1F
100
AcDbEntity
  8
0
100
AcDbLine
 10
724.8031144697559
 20
409.1894211555722
 30
0.0
 11
731.783114469756
 21
409.1894211555722
 31
0.0
  0
LINE
  5
16595
330
1F
100
AcDbEntity
  8
0
100
AcDbLine
 10
723.783114469756
 20
410.1894211555721
 30
0.0
 11
731.783114469756
 21
410.1894211555721
 31
0.0
  0
LINE
  5
16596
330
1F
100
AcDbEntity
  8
0
100
AcDbLine
 10
723.783114469756
 20
408.4794211555721
 30
0.0
 11
723.783114469756
 21
410.1894211555721
 31
0.0
  0
LINE
  5
16597
330
1F
100
AcDbEntity
  8
0
100
AcDbLine
 10
723.783114469756
 20
408.4794211555721
 30
0.0
 11
724.8031144697559
 21
408.4794211555721
 31
0.0
  0
LINE
  5
16598
330
1F
100
AcDbEntity
  8
0
100
AcDbLine
 10
724.8031144697559
 20
408.4794211555721
 30
0.0
 11
724.8031144697559
 21
409.1894211555722
 31
0.0
  0
LINE
  5
16599
330
1F
100
AcDbEntity
  8
0
100
AcDbLine
 10
731.783114469756
 20
424.6894211555721
 30
0.0
 11
731.783114469756
 21
426.1894211555722
 31
0.0
  0
LINE
  5
1659A
330
1F
100
AcDbEntity
  8
007
100
AcDbLine
 10
752.783114469756
 20
397.6894211555722
 30
0.0
 11
752.783114469756
 21
417.6894211555722
 31
0.0
  0
LINE
  5
1659B
330
1F
100
AcDbEntity
  8
007
100
AcDbLine
 10
759.1131144697559
 20
403.1894211555721
 30
0.0
 11
743.783114469756
 21
403.1894211555721
 31
0.0
  0
LINE
  5
1659C
330
1F
100
AcDbEntity
  8
007
100
AcDbLine
 10
752.783114469756
 20
397.6894211555722
 30
0.0
 11
743.783114469756
 21
397.6894211555722
 31
0.0
  0
LINE
  5
1659D
330
1F
100
AcDbEntity
  8
007
100
AcDbLine
 10
759.1131144697559
 20
412.1894211555721
 30
0.0
 11
743.783114469756
 21
412.1894211555721
 31
0.0
  0
LINE
  5
1659E
330
1F
100
AcDbEntity
  8
007
100
AcDbLine
 10
752.783114469756
 20
417.6894211555722
 30
0.0
 11
743.783114469756
 21
417.6894211555722
 31
0.0
  0
LINE
  5
1659F
330
1F
100
AcDbEntity
  8
0
100
AcDbLine
 10
733.283114469756
 20
441.1894211555721
 30
0.0
 11
739.783114469756
 21
441.1894211555721
 31
0.0
  0
LINE
  5
165A0
330
1F
100
AcDbEntity
  8
0
100
AcDbLine
 10
716.783114469756
 20
442.6894211555722
 30
0.0
 11
741.783114469756
 21
442.6894211555722
 31
0.0
  0
LINE
  5
165A1
330
1F
100
AcDbEntity
  8
007
100
AcDbLine
 10
741.783114469756
 20
431.6594211555722
 30
0.0
 11
738.283114469756
 21
433.6794211555721
 31
0.0
  0
LINE
  5
165A2
330
1F
100
AcDbEntity
  8
007
100
AcDbLine
 10
740.283114469756
 20
437.6894211555721
 30
0.0
 11
738.283114469756
 21
437.6894211555721
 31
0.0
  0
LINE
  5
165A3
330
1F
100
AcDbEntity
  8
0
100
AcDbLine
 10
716.783114469756
 20
441.1894211555721
 30
0.0
 11
731.783114469756
 21
441.1894211555721
 31
0.0
  0
LINE
  5
165A4
330
1F
100
AcDbEntity
  8
0
100
AcDbLine
 10
716.783114469756
 20
441.1894211555721
 30
0.0
 11
716.783114469756
 21
442.6894211555722
 31
0.0
  0
LINE
  5
165A5
330
1F
100
AcDbEntity
  8
003
100
AcDbLine
 10
716.783114469756
 20
441.1894211555724
 30
0.0
 11
716.783114469756
 21
442.6894211555723
 31
0.0
  0
LINE
  5
165A6
330
1F
100
AcDbEntity
  8
007
100
AcDbLine
 10
738.283114469756
 20
433.6794211555721
 30
0.0
 11
738.283114469756
 21
437.6894211555721
 31
0.0
  0
LINE
  5
165A7
330
1F
100
AcDbEntity
  8
0
100
AcDbLine
 10
739.783114469756
 20
441.1894211555721
 30
0.0
 11
740.283114469756
 21
441.1894211555721
 31
0.0
  0
LINE
  5
165A8
330
1F
100
AcDbEntity
  8
0
100
AcDbLine
 10
740.283114469756
 20
434.6894211555722
 30
0.0
 11
741.783114469756
 21
434.6894211555722
 31
0.0
  0
LINE
  5
165A9
330
1F
100
AcDbEntity
  8
007
100
AcDbLine
 10
741.783114469756
 20
433.1894211555721
 30
0.0
 11
741.783114469756
 21
434.6894211555722
 31
0.0
  0
LINE
  5
165AA
330
1F
100
AcDbEntity
  8
007
100
AcDbLine
 10
741.783114469756
 20
433.1894211555721
 30
0.0
 11
740.283114469756
 21
434.059421155572
 31
0.0
  0
LINE
  5
165AB
330
1F
100
AcDbEntity
  8
007
100
AcDbLine
 10
740.283114469756
 20
434.059421155572
 30
0.0
 11
740.283114469756
 21
434.6894211555722
 31
0.0
  0
LINE
  5
165AC
330
1F
100
AcDbEntity
  8
007
100
AcDbLine
 10
743.783114469756
 20
437.6894211555721
 30
0.0
 11
741.783114469756
 21
437.6894211555721
 31
0.0
  0
LINE
  5
165AD
330
1F
100
AcDbEntity
  8
0
100
AcDbLine
 10
740.283114469756
 20
434.6894211555722
 30
0.0
 11
740.283114469756
 21
441.1894211555721
 31
0.0
  0
LINE
  5
165AE
330
1F
100
AcDbEntity
  8
0
100
AcDbLine
 10
741.783114469756
 20
434.6894211555722
 30
0.0
 11
741.783114469756
 21
442.6894211555722
 31
0.0
  0
LINE
  5
165AF
330
1F
100
AcDbEntity
  8
0
100
AcDbLine
 10
175.1943564946622
 20
314.4028041365384
 30
0.0
 11
175.1943564946623
 21
414.4368925725212
 31
0.0
  0
LINE
  5
165B0
330
1F
100
AcDbEntity
  8
0
100
AcDbLine
 10
105.1943564946622
 20
267.3228041365387
 30
0.0
 11
105.1943564946623
 21
414.4368925725212
 31
0.0
  0
LINE
  5
165B1
330
1F
100
AcDbEntity
  8
0
100
AcDbLine
 10
133.1843564946622
 20
263.1028041365387
 30
0.0
 11
153.2043564946622
 21
263.1028041365387
 31
0.0
  0
LINE
  5
165B2
330
1F
100
AcDbEntity
  8
0
100
AcDbLine
 10
125.2043564946622
 20
265.0428041365385
 30
0.0
 11
153.2243564946622
 21
265.0428041365385
 31
0.0
  0
LINE
  5
165B3
330
1F
100
AcDbEntity
  8
007
100
AcDbLine
 10
139.5643564946622
 20
258.9028041365384
 30
0.0
 11
163.8443564946621
 21
258.9028041365384
 31
0.0
  0
LINE
  5
165B4
330
1F
100
AcDbEntity
  8
007
100
AcDbLine
 10
132.1943564946622
 20
256.9028041365384
 30
0.0
 11
164.8843564946623
 21
256.9028041365384
 31
0.0
  0
LINE
  5
165B5
330
1F
100
AcDbEntity
  8
007
100
AcDbLine
 10
136.6943564946622
 20
244.4028041365384
 30
0.0
 11
156.6943564946622
 21
244.4028041365384
 31
0.0
  0
LINE
  5
165B6
330
1F
100
AcDbEntity
  8
0
100
AcDbLine
 10
73.35696178208713
 20
235.0666629806164
 30
0.0
 11
115.2743564946623
 21
242.5928041365385
 31
0.0
  0
LINE
  5
165B7
330
1F
100
AcDbEntity
  8
0
100
AcDbLine
 10
73.35696178208713
 20
237.0286320650992
 30
0.0
 11
114.3343564946623
 21
244.4028041365384
 31
0.0
  0
LINE
  5
165BB
330
1F
100
AcDbEntity
  8
0
100
AcDbLine
 10
123.2043564946622
 20
259.1228041365387
 30
0.0
 11
123.2043564946622
 21
275.0428041365385
 31
0.0
  0
LINE
  5
165BC
330
1F
100
AcDbEntity
  8
0
100
AcDbLine
 10
107.2043564946622
 20
257.4028041365384
 30
0.0
 11
107.2043564946622
 21
267.3228041365385
 31
0.0
  0
LINE
  5
165BD
330
1F
100
AcDbEntity
  8
0
100
AcDbLine
 10
105.1943564946622
 20
257.2128041365386
 30
0.0
 11
105.1943564946622
 21
267.3228041365385
 31
0.0
  0
LINE
  5
165BE
330
1F
100
AcDbEntity
  8
0
100
AcDbLine
 10
107.2043564946622
 20
257.4128041365386
 30
0.0
 11
123.2043564946622
 21
259.1228041365387
 31
0.0
  0
LINE
  5
165BF
330
1F
100
AcDbEntity
  8
0
100
AcDbLine
 10
116.3343564946623
 20
256.3328041365387
 30
0.0
 11
123.2043564946622
 21
257.1828041365386
 31
0.0
  0
LINE
  5
165C0
330
1F
100
AcDbEntity
  8
0
100
AcDbLine
 10
114.1943564946622
 20
248.2628041365385
 30
0.0
 11
114.3343564946623
 21
248.1228041365387
 31
0.0
  0
LINE
  5
165C1
330
1F
100
AcDbEntity
  8
0
100
AcDbLine
 10
116.3343564946623
 20
244.4028041365384
 30
0.0
 11
116.3343564946623
 21
256.1628041365386
 31
0.0
  0
LINE
  5
165C2
330
1F
100
AcDbEntity
  8
0
100
AcDbLine
 10
114.3343564946623
 20
244.4028041365384
 30
0.0
 11
114.3343564946623
 21
256.1628041365386
 31
0.0
  0
LINE
  5
165C3
330
1F
100
AcDbEntity
  8
0
100
AcDbLine
 10
106.1943564946622
 20
242.9328041365386
 30
0.0
 11
106.1943564946622
 21
253.4028041365384
 31
0.0
  0
LINE
  5
165C4
330
1F
100
AcDbEntity
  8
0
100
AcDbLine
 10
106.1943564946622
 20
250.4028041365384
 30
0.0
 11
112.6643564946623
 21
243.9328041365386
 31
0.0
  0
LINE
  5
165C5
330
1F
100
AcDbEntity
  8
0
100
AcDbLine
 10
107.6043564946623
 20
243.1928041365386
 30
0.0
 11
114.1943564946622
 21
249.7828041365385
 31
0.0
  0
LINE
  5
165C6
330
1F
100
AcDbEntity
  8
0
100
AcDbLine
 10
106.1943564946622
 20
253.4028041365384
 30
0.0
 11
114.1943564946622
 21
245.4028041365384
 31
0.0
  0
LINE
  5
165C7
330
1F
100
AcDbEntity
  8
0
100
AcDbLine
 10
106.1943564946622
 20
244.6328041365384
 30
0.0
 11
114.1943564946622
 21
252.6328041365384
 31
0.0
  0
LINE
  5
165C8
330
1F
100
AcDbEntity
  8
0
100
AcDbLine
 10
106.1943564946622
 20
247.4028041365384
 30
0.0
 11
113.1943564946622
 21
254.4028041365384
 31
0.0
  0
LINE
  5
165C9
330
1F
100
AcDbEntity
  8
0
100
AcDbLine
 10
106.1943564946622
 20
247.4028041365384
 30
0.0
 11
109.9743564946622
 21
243.6228041365386
 31
0.0
  0
LINE
  5
165CA
330
1F
100
AcDbEntity
  8
0
100
AcDbLine
 10
106.1943564946622
 20
244.6328041365384
 30
0.0
 11
107.6343564946623
 21
243.1928041365386
 31
0.0
  0
LINE
  5
165CB
330
1F
100
AcDbEntity
  8
0
100
AcDbLine
 10
116.3343564946623
 20
242.8928041365387
 30
0.0
 11
116.3343564946623
 21
246.2928041365385
 31
0.0
  0
LINE
  5
165CC
330
1F
100
AcDbEntity
  8
0
100
AcDbLine
 10
114.1943564946622
 20
245.4028041365384
 30
0.0
 11
114.3343564946623
 21
245.2628041365386
 31
0.0
  0
LINE
  5
165CD
330
1F
100
AcDbEntity
  8
0
100
AcDbLine
 10
114.1943564946622
 20
246.7628041365385
 30
0.0
 11
114.3343564946623
 21
246.9028041365384
 31
0.0
  0
LINE
  5
165CE
330
1F
100
AcDbEntity
  8
0
100
AcDbLine
 10
114.4643564946622
 20
242.3628041365384
 30
0.0
 11
116.3343564946623
 21
242.8928041365387
 31
0.0
  0
LINE
  5
165CF
330
1F
100
AcDbEntity
  8
0
100
AcDbLine
 10
111.2843564946623
 20
243.8528041365387
 30
0.0
 11
114.1943564946622
 21
246.7628041365385
 31
0.0
  0
LINE
  5
165D0
330
1F
100
AcDbEntity
  8
0
100
AcDbLine
 10
107.0743564946622
 20
255.3828041365384
 30
0.0
 11
108.0543564946623
 21
254.4028041365384
 31
0.0
  0
LINE
  5
165D1
330
1F
100
AcDbEntity
  8
0
100
AcDbLine
 10
106.1943564946622
 20
250.4028041365384
 30
0.0
 11
110.1943564946622
 21
254.4028041365384
 31
0.0
  0
LINE
  5
165D2
330
1F
100
AcDbEntity
  8
0
100
AcDbLine
 10
106.1943564946622
 20
252.5428041365385
 30
0.0
 11
108.0543564946623
 21
254.4028041365384
 31
0.0
  0
LINE
  5
165D3
330
1F
100
AcDbEntity
  8
0
100
AcDbLine
 10
107.2043564946622
 20
255.4628041365386
 30
0.0
 11
114.3343564946623
 21
256.1428041365386
 31
0.0
  0
LINE
  5
165D4
330
1F
100
AcDbEntity
  8
0
100
AcDbLine
 10
105.1943564946622
 20
254.4028041365384
 30
0.0
 11
105.1943564946622
 21
257.2128041365386
 31
0.0
  0
LINE
  5
165D5
330
1F
100
AcDbEntity
  8
0
100
AcDbLine
 10
105.1943564946622
 20
254.4028041365384
 30
0.0
 11
107.2043564946622
 21
255.4628041365386
 31
0.0
  0
LINE
  5
165D6
330
1F
100
AcDbEntity
  8
0
100
AcDbLine
 10
105.1943564946622
 20
254.4028041365384
 30
0.0
 11
106.1943564946622
 21
253.4028041365384
 31
0.0
  0
LINE
  5
165D7
330
1F
100
AcDbEntity
  8
0
100
AcDbLine
 10
113.1943564946622
 20
254.4028041365384
 30
0.0
 11
114.3343564946623
 21
255.5428041365385
 31
0.0
  0
LINE
  5
165D8
330
1F
100
AcDbEntity
  8
0
100
AcDbLine
 10
116.3343564946623
 20
256.1628041365386
 30
0.0
 11
116.3343564946623
 21
256.3428041365384
 31
0.0
  0
LINE
  5
165D9
330
1F
100
AcDbEntity
  8
0
100
AcDbLine
 10
114.1943564946622
 20
249.7828041365385
 30
0.0
 11
114.3343564946623
 21
249.9228041365386
 31
0.0
  0
LINE
  5
165DA
330
1F
100
AcDbEntity
  8
0
100
AcDbLine
 10
114.1943564946622
 20
251.2828041365385
 30
0.0
 11
114.3343564946623
 21
251.1428041365387
 31
0.0
  0
LINE
  5
165DB
330
1F
100
AcDbEntity
  8
0
100
AcDbLine
 10
114.1943564946622
 20
252.6328041365384
 30
0.0
 11
114.3343564946623
 21
252.7728041365385
 31
0.0
  0
LINE
  5
165DC
330
1F
100
AcDbEntity
  8
0
100
AcDbLine
 10
108.0543564946623
 20
254.4028041365384
 30
0.0
 11
109.3243564946622
 21
255.6728041365386
 31
0.0
  0
LINE
  5
165DD
330
1F
100
AcDbEntity
  8
0
100
AcDbLine
 10
110.1943564946622
 20
254.4028041365384
 30
0.0
 11
111.6943564946622
 21
255.9028041365384
 31
0.0
  0
LINE
  5
165DE
330
1F
100
AcDbEntity
  8
0
100
AcDbLine
 10
109.7743564946623
 20
255.7028041365386
 30
0.0
 11
111.4043564946623
 21
254.0728041365385
 31
0.0
  0
LINE
  5
165DF
330
1F
100
AcDbEntity
  8
0
100
AcDbLine
 10
112.2143564946622
 20
255.9428041365386
 30
0.0
 11
114.3343564946623
 21
253.8228041365385
 31
0.0
  0
LINE
  5
165E0
330
1F
100
AcDbEntity
  8
0
100
AcDbLine
 10
108.0543564946623
 20
254.4028041365384
 30
0.0
 11
114.1943564946622
 21
248.2628041365385
 31
0.0
  0
LINE
  5
165E1
330
1F
100
AcDbEntity
  8
0
100
AcDbLine
 10
111.0743564946622
 20
254.4028041365384
 30
0.0
 11
114.1943564946622
 21
251.2828041365385
 31
0.0
  0
LINE
  5
165E2
330
1F
100
AcDbEntity
  8
007
100
AcDbLine
 10
142.1943564946622
 20
234.9028041365384
 30
0.0
 11
142.1943564946622
 21
254.4028041365384
 31
0.0
  0
LINE
  5
165E3
330
1F
100
AcDbEntity
  8
007
100
AcDbLine
 10
136.6943564946622
 20
244.4028041365384
 30
0.0
 11
136.6943564946622
 21
254.4028041365384
 31
0.0
  0
LINE
  5
165E4
330
1F
100
AcDbEntity
  8
0
100
AcDbLine
 10
130.0643564946622
 20
263.1028041365387
 30
0.0
 11
133.1843564946622
 21
263.1028041365387
 31
0.0
  0
LINE
  5
165E5
330
1F
100
AcDbEntity
  8
0
100
AcDbLine
 10
130.9243564946622
 20
260.4028041365384
 30
0.0
 11
134.3443564946623
 21
260.4028041365384
 31
0.0
  0
LINE
  5
165E6
330
1F
100
AcDbEntity
  8
0
100
AcDbLine
 10
129.7843564946623
 20
258.9028041365384
 30
0.0
 11
134.3443564946623
 21
258.9028041365384
 31
0.0
  0
LINE
  5
165E7
330
1F
100
AcDbEntity
  8
0
100
AcDbLine
 10
130.4843564946622
 20
261.7328041365386
 30
0.0
 11
130.9243564946622
 21
260.4028041365384
 31
0.0
  0
ARC
  5
165E8
330
1F
100
AcDbEntity
  8
0
100
AcDbCircle
 10
127.0143564946623
 20
261.3628041365384
 30
0.0
 40
3.49
100
AcDbArc
 50
6.086351300003014
 51
29.86691599999613
  0
ARC
  5
165E9
330
1F
100
AcDbEntity
  8
0
100
AcDbCircle
 10
126.8343564946623
 20
261.3628041365384
 30
0.0
 40
1.98
100
AcDbArc
 50
355.356719999993
 51
277.8434199999985
  0
ARC
  5
165EA
330
1F
100
AcDbEntity
  8
0
100
AcDbCircle
 10
127.0143564946623
 20
261.3628041365384
 30
0.0
 40
3.49
100
AcDbArc
 50
238.2206000000002
 51
273.7812899999978
  0
LINE
  5
165EB
330
1F
100
AcDbEntity
  8
0
100
AcDbLine
 10
125.1743564946623
 20
257.1828041365386
 30
0.0
 11
125.1743564946623
 21
258.3928041365386
 31
0.0
  0
LINE
  5
165EC
330
1F
100
AcDbEntity
  8
0
100
AcDbLine
 10
123.2043564946622
 20
257.1828041365386
 30
0.0
 11
125.1743564946623
 21
257.1828041365386
 31
0.0
  0
ARC
  5
165ED
330
1F
100
AcDbEntity
  8
0
100
AcDbCircle
 10
126.5343564946623
 20
258.5828041365387
 30
0.0
 40
1.0
100
AcDbArc
 50
315.4063399999949
 51
54.72757799999564
  0
ARC
  5
165EE
330
1F
100
AcDbEntity
  8
0
100
AcDbCircle
 10
129.6243564946623
 20
261.7828041365385
 30
0.0
 40
1.0
100
AcDbArc
 50
214.8040100000059
 51
215.2724199999993
  0
LINE
  5
165EF
330
1F
100
AcDbEntity
  8
0
100
AcDbLine
 10
128.8043564946622
 20
261.2128041365386
 30
0.0
 11
129.7843564946623
 21
258.9028041365384
 31
0.0
  0
LINE
  5
165F0
330
1F
100
AcDbEntity
  8
007
100
AcDbLine
 10
134.3443564946623
 20
260.4028041365384
 30
0.0
 11
136.3543564946623
 21
260.4028041365384
 31
0.0
  0
LINE
  5
165F1
330
1F
100
AcDbEntity
  8
007
100
AcDbLine
 10
134.3443564946623
 20
258.9028041365384
 30
0.0
 11
137.2243564946622
 21
258.9028041365384
 31
0.0
  0
LINE
  5
165F2
330
1F
100
AcDbEntity
  8
007
100
AcDbLine
 10
131.0143564946623
 20
262.4028041365384
 30
0.0
 11
137.5443564946623
 21
262.4028041365384
 31
0.0
  0
LINE
  5
165F3
330
1F
100
AcDbEntity
  8
0
100
AcDbLine
 10
134.3443564946623
 20
258.9028041365384
 30
0.0
 11
134.3443564946623
 21
260.4028041365384
 31
0.0
  0
LINE
  5
165F4
330
1F
100
AcDbEntity
  8
007
100
AcDbLine
 10
131.0143564946623
 20
260.4028041365384
 30
0.0
 11
131.0143564946623
 21
262.4028041365384
 31
0.0
  0
LINE
  5
165F5
330
1F
100
AcDbEntity
  8
007
100
AcDbLine
 10
132.1943564946622
 20
256.9028041365384
 30
0.0
 11
132.1943564946622
 21
258.9028041365384
 31
0.0
  0
LINE
  5
165F6
330
1F
100
AcDbEntity
  8
007
100
AcDbLine
 10
136.3543564946623
 20
260.4028041365384
 30
0.0
 11
137.2243564946622
 21
258.9028041365384
 31
0.0
  0
LINE
  5
165F7
330
1F
100
AcDbEntity
  8
007
100
AcDbLine
 10
137.5443564946623
 20
262.4028041365384
 30
0.0
 11
139.5643564946622
 21
258.9028041365384
 31
0.0
  0
LINE
  5
165F8
330
1F
100
AcDbEntity
  8
0
100
AcDbLine
 10
105.1943564946622
 20
267.3228041365385
 30
0.0
 11
107.2043564946622
 21
267.3228041365385
 31
0.0
  0
LINE
  5
165F9
330
1F
100
AcDbEntity
  8
0
100
AcDbLine
 10
125.2043564946622
 20
265.0428041365385
 30
0.0
 11
125.2043564946622
 21
275.0428041365385
 31
0.0
  0
LINE
  5
165FA
330
1F
100
AcDbEntity
  8
0
100
AcDbLine
 10
123.2043564946622
 20
275.0428041365385
 30
0.0
 11
125.2043564946622
 21
275.0428041365385
 31
0.0
  0
LINE
  5
165FB
330
1F
100
AcDbEntity
  8
0
100
AcDbLine
 10
173.1943564946622
 20
293.4028041365384
 30
0.0
 11
173.1943564946622
 21
314.4028041365384
 31
0.0
  0
LINE
  5
165FC
330
1F
100
AcDbEntity
  8
0
100
AcDbLine
 10
175.1943564946622
 20
293.4028041365384
 30
0.0
 11
175.1943564946622
 21
313.4028041365384
 31
0.0
  0
LINE
  5
165FD
330
1F
100
AcDbEntity
  8
0
100
AcDbLine
 10
154.7843564946623
 20
263.1028041365387
 30
0.0
 11
154.7843564946623
 21
273.5928041365385
 31
0.0
  0
LINE
  5
165FE
330
1F
100
AcDbEntity
  8
007
100
AcDbLine
 10
163.8443564946621
 20
258.9028041365384
 30
0.0
 11
168.7543564946623
 21
267.4028041365384
 31
0.0
  0
LINE
  5
165FF
330
1F
100
AcDbEntity
  8
007
100
AcDbLine
 10
164.8843564946623
 20
256.9028041365384
 30
0.0
 11
170.9443564946622
 21
267.4028041365384
 31
0.0
  0
LINE
  5
16600
330
1F
100
AcDbEntity
  8
007
100
AcDbLine
 10
156.6943564946622
 20
244.4028041365384
 30
0.0
 11
156.6943564946622
 21
254.4028041365384
 31
0.0
  0
LINE
  5
16601
330
1F
100
AcDbEntity
  8
007
100
AcDbLine
 10
151.1943564946622
 20
234.9028041365384
 30
0.0
 11
151.1943564946622
 21
254.4028041365384
 31
0.0
  0
LINE
  5
16602
330
1F
100
AcDbEntity
  8
0
100
AcDbLine
 10
150.7443564946623
 20
263.1028041365387
 30
0.0
 11
154.7843564946623
 21
263.1028041365387
 31
0.0
  0
LINE
  5
16603
330
1F
100
AcDbEntity
  8
0
100
AcDbLine
 10
159.2043564946622
 20
282.0428041365385
 30
0.0
 11
173.2043564946622
 21
282.0428041365385
 31
0.0
  0
LINE
  5
16604
330
1F
100
AcDbEntity
  8
0
100
AcDbLine
 10
162.3143564946622
 20
280.0128041365385
 30
0.0
 11
173.2043564946622
 21
280.0128041365385
 31
0.0
  0
LINE
  5
16605
330
1F
100
AcDbEntity
  8
0
100
AcDbLine
 10
155.4243564946623
 20
275.0428041365385
 30
0.0
 11
155.4243564946623
 21
282.0428041365385
 31
0.0
  0
LINE
  5
16606
330
1F
100
AcDbEntity
  8
0
100
AcDbLine
 10
149.0943564946623
 20
273.9828041365385
 30
0.0
 11
155.4243564946623
 21
275.0428041365385
 31
0.0
  0
LINE
  5
16607
330
1F
100
AcDbEntity
  8
0
100
AcDbLine
 10
153.2243564946622
 20
265.0428041365385
 30
0.0
 11
153.2243564946622
 21
273.3328041365387
 31
0.0
  0
LINE
  5
16608
330
1F
100
AcDbEntity
  8
0
100
AcDbLine
 10
150.5443564946623
 20
271.6528041365384
 30
0.0
 11
150.5443564946623
 21
272.8828041365384
 31
0.0
  0
LINE
  5
16609
330
1F
100
AcDbEntity
  8
0
100
AcDbLine
 10
149.0943564946623
 20
271.6528041365384
 30
0.0
 11
149.0943564946623
 21
273.9828041365385
 31
0.0
  0
LINE
  5
1660A
330
1F
100
AcDbEntity
  8
0
100
AcDbLine
 10
149.0943564946623
 20
271.6528041365384
 30
0.0
 11
150.6443564946623
 21
271.6528041365384
 31
0.0
  0
LINE
  5
1660B
330
1F
100
AcDbEntity
  8
0
100
AcDbLine
 10
149.0943564946623
 20
271.6528041365384
 30
0.0
 11
150.6443564946623
 21
271.6528041365384
 31
0.0
  0
LINE
  5
1660C
330
1F
100
AcDbEntity
  8
0
100
AcDbLine
 10
150.5443564946623
 20
272.8828041365384
 30
0.0
 11
153.2243564946622
 21
273.3328041365387
 31
0.0
  0
ARC
  5
1660D
330
1F
100
AcDbEntity
  8
0
100
AcDbCircle
 10
159.2043564946622
 20
278.4128041365386
 30
0.0
 40
1.98
100
AcDbArc
 50
0.0
 51
279.6051999999979
  0
ARC
  5
1660E
330
1F
100
AcDbEntity
  8
0
100
AcDbCircle
 10
158.8343564946623
 20
275.7428041365386
 30
0.0
 40
1.0
100
AcDbArc
 50
317.0309099999997
 51
46.21887499999902
  0
LINE
  5
1660F
330
1F
100
AcDbEntity
  8
0
100
AcDbLine
 10
154.7843564946623
 20
273.5928041365385
 30
0.0
 11
156.3943564946623
 21
273.8628041365384
 31
0.0
  0
LINE
  5
16610
330
1F
100
AcDbEntity
  8
0
100
AcDbLine
 10
156.3943564946623
 20
273.8628041365384
 30
0.0
 11
157.2043564946622
 21
274.0028041365385
 31
0.0
  0
LINE
  5
16611
330
1F
100
AcDbEntity
  8
0
100
AcDbLine
 10
157.2043564946622
 20
274.0028041365385
 30
0.0
 11
157.2043564946622
 21
275.6928041365386
 31
0.0
  0
ARC
  5
16612
330
1F
100
AcDbEntity
  8
0
100
AcDbCircle
 10
159.2043564946622
 20
278.5028041365385
 30
0.0
 40
3.459999999999999
100
AcDbArc
 50
234.654969999993
 51
275.9743199999976
  0
ARC
  5
16613
330
1F
100
AcDbEntity
  8
0
100
AcDbCircle
 10
161.9443564946622
 20
279.0628041365385
 30
0.0
 40
1.0
100
AcDbArc
 50
220.5391500000017
 51
316.2188700000005
  0
ARC
  5
16614
330
1F
100
AcDbEntity
  8
0
100
AcDbCircle
 10
159.2043564946622
 20
278.5028041365385
 30
0.0
 40
3.459999999999999
100
AcDbArc
 50
357.6829299999963
 51
25.89798900000237
  0
LINE
  5
16615
330
1F
100
AcDbEntity
  8
0
100
AcDbLine
 10
159.2043564946622
 20
282.0428041365385
 30
0.0
 11
159.2043564946622
 21
292.0428041365385
 31
0.0
  0
LINE
  5
16616
330
1F
100
AcDbEntity
  8
0
100
AcDbLine
 10
157.2043564946622
 20
282.0428041365385
 30
0.0
 11
157.2043564946622
 21
292.0428041365385
 31
0.0
  0
LINE
  5
16617
330
1F
100
AcDbEntity
  8
0
100
AcDbLine
 10
155.4243564946623
 20
282.0428041365385
 30
0.0
 11
157.2043564946622
 21
282.0428041365385
 31
0.0
  0
LINE
  5
16618
330
1F
100
AcDbEntity
  8
0
100
AcDbLine
 10
157.2043564946622
 20
292.0428041365385
 30
0.0
 11
159.2043564946622
 21
292.0428041365385
 31
0.0
  0
LINE
  5
16619
330
1F
100
AcDbEntity
  8
0
100
AcDbLine
 10
175.1943564946623
 20
269.4028041365384
 30
0.0
 11
175.1943564946622
 21
293.4028041365384
 31
0.0
  0
LINE
  5
1661A
330
1F
100
AcDbEntity
  8
0
100
AcDbLine
 10
173.2043564946622
 20
270.9028041365384
 30
0.0
 11
173.2043564946622
 21
280.0128041365385
 31
0.0
  0
LINE
  5
1661B
330
1F
100
AcDbEntity
  8
007
100
AcDbLine
 10
167.4943564946623
 20
269.4028041365384
 30
0.0
 11
169.2343564946622
 21
272.4228041365386
 31
0.0
  0
LINE
  5
1661C
330
1F
100
AcDbEntity
  8
007
100
AcDbLine
 10
167.4943564946623
 20
267.4028041365384
 30
0.0
 11
168.7543564946623
 21
267.4028041365384
 31
0.0
  0
LINE
  5
1661D
330
1F
100
AcDbEntity
  8
007
100
AcDbLine
 10
167.4943564946623
 20
269.4028041365384
 30
0.0
 11
170.1943564946622
 21
269.4028041365384
 31
0.0
  0
LINE
  5
1661E
330
1F
100
AcDbEntity
  8
007
100
AcDbLine
 10
167.4943564946623
 20
267.4028041365384
 30
0.0
 11
167.4943564946623
 21
269.4028041365384
 31
0.0
  0
LINE
  5
1661F
330
1F
100
AcDbEntity
  8
007
100
AcDbLine
 10
173.6343564946623
 20
267.4028041365384
 30
0.0
 11
173.6343564946623
 21
269.4028041365384
 31
0.0
  0
LINE
  5
16620
330
1F
100
AcDbEntity
  8
007
100
AcDbLine
 10
170.9443564946622
 20
267.4028041365384
 30
0.0
 11
173.6343564946623
 21
267.4028041365384
 31
0.0
  0
LINE
  5
16621
330
1F
100
AcDbEntity
  8
0
100
AcDbLine
 10
170.1943564946622
 20
269.4028041365384
 30
0.0
 11
170.1943564946622
 21
270.9028041365384
 31
0.0
  0
LINE
  5
16622
330
1F
100
AcDbEntity
  8
007
100
AcDbLine
 10
169.3243564946623
 20
269.4028041365384
 30
0.0
 11
170.1943564946622
 21
270.9028041365384
 31
0.0
  0
LINE
  5
16623
330
1F
100
AcDbEntity
  8
007
100
AcDbLine
 10
169.3243564946623
 20
269.4028041365384
 30
0.0
 11
170.1943564946622
 21
269.4028041365384
 31
0.0
  0
LINE
  5
16624
330
1F
100
AcDbEntity
  8
0
100
AcDbLine
 10
170.1943564946622
 20
270.9028041365384
 30
0.0
 11
173.2043564946622
 21
270.9028041365384
 31
0.0
  0
LINE
  5
16625
330
1F
100
AcDbEntity
  8
007
100
AcDbLine
 10
169.2343564946622
 20
272.4228041365386
 30
0.0
 11
173.2043564946622
 21
272.4228041365386
 31
0.0
  0
LINE
  5
16626
330
1F
100
AcDbEntity
  8
0
100
AcDbLine
 10
170.1943564946622
 20
269.4028041365384
 30
0.0
 11
175.1943564946623
 21
269.4028041365384
 31
0.0
  0
LINE
  5
16627
330
1F
100
AcDbEntity
  8
0
100
AcDbLine
 10
173.1943564946622
 20
282.0428041365385
 30
0.0
 11
173.1943564946622
 21
294.8028041365385
 31
0.0
  0
LINE
  5
16628
330
1F
100
AcDbEntity
  8
0
100
AcDbLine
 10
175.1943564946622
 20
313.4028041365384
 30
0.0
 11
192.2343564946622
 21
313.4028041365384
 31
0.0
  0
LINE
  5
16629
330
1F
100
AcDbEntity
  8
0
100
AcDbLine
 10
175.1943564946622
 20
314.4028041365384
 30
0.0
 11
195.1943564946622
 21
314.4028041365384
 31
0.0
  0
LINE
  5
1662A
330
1F
100
AcDbEntity
  8
0
100
AcDbLine
 10
173.1943564946622
 20
314.4028041365384
 30
0.0
 11
175.1943564946622
 21
314.4028041365384
 31
0.0
  0
LINE
  5
1662B
330
1F
100
AcDbEntity
  8
0
100
AcDbLine
 10
195.1943564946622
 20
311.1728041365386
 30
0.0
 11
195.1943564946622
 21
314.4028041365384
 31
0.0
  0
LINE
  5
1662C
330
1F
100
AcDbEntity
  8
0
100
AcDbLine
 10
192.2343564946622
 20
313.4028041365384
 30
0.0
 11
193.2943564946623
 21
313.4028041365384
 31
0.0
  0
LINE
  5
1662D
330
1F
100
AcDbEntity
  8
0
100
AcDbLine
 10
193.2943564946623
 20
311.1728041365386
 30
0.0
 11
193.2943564946623
 21
313.4028041365384
 31
0.0
  0
LINE
  5
1662E
330
1F
100
AcDbEntity
  8
0
100
AcDbLine
 10
193.2943564946623
 20
311.1728041365386
 30
0.0
 11
195.1943564946622
 21
311.1728041365386
 31
0.0
  0
LINE
  5
16631
330
1F
100
AcDbEntity
  8
0
100
AcDbLine
 10
73.35696178208718
 20
470.2537820967049
 30
0.0
 11
90.19435649466226
 21
470.2537820967048
 31
0.0
  0
LINE
  5
16638
330
1F
100
AcDbEntity
  8
0
100
AcDbLine
 10
175.1943564946622
 20
419.4368925725211
 30
0.0
 11
175.1943564946622
 21
450.2537820967048
 31
0.0
  0
LINE
  5
16639
330
1F
100
AcDbEntity
  8
0
100
AcDbLine
 10
105.1943564946622
 20
419.4368925725211
 30
0.0
 11
105.1943564946622
 21
450.2537820967048
 31
0.0
  0
LINE
  5
1663A
330
1F
100
AcDbEntity
  8
007
100
AcDbLine
 10
117.8743564946623
 20
485.2537820967048
 30
0.0
 11
162.7843564946623
 21
485.2537820967048
 31
0.0
  0
LINE
  5
1663B
330
1F
100
AcDbEntity
  8
007
100
AcDbLine
 10
110.1943564946622
 20
487.2537820967048
 30
0.0
 11
170.1943564946622
 21
487.2537820967048
 31
0.0
  0
LINE
  5
1663C
330
1F
100
AcDbEntity
  8
0
100
AcDbLine
 10
160.5043564946623
 20
472.1737820967047
 30
0.0
 11
173.1943564946622
 21
472.1737820967047
 31
0.0
  0
LINE
  5
1663D
330
1F
100
AcDbEntity
  8
0
100
AcDbLine
 10
159.1943564946622
 20
470.2537820967048
 30
0.0
 11
173.1943564946622
 21
470.2537820967048
 31
0.0
  0
LINE
  5
1663E
330
1F
100
AcDbEntity
  8
0
100
AcDbLine
 10
105.1943564946622
 20
450.2537820967048
 30
0.0
 11
105.1943564946622
 21
485.2537820967049
 31
0.0
  0
LINE
  5
1663F
330
1F
100
AcDbEntity
  8
0
100
AcDbLine
 10
90.19435649466226
 20
470.2537820967048
 30
0.0
 11
90.19435649466226
 21
502.4237820967044
 31
0.0
  0
LINE
  5
16640
330
1F
100
AcDbEntity
  8
0
100
AcDbLine
 10
90.19435649466226
 20
478.1837820967047
 30
0.0
 11
90.19435649466226
 21
491.0937820967047
 31
0.0
  0
LINE
  5
16641
330
1F
100
AcDbEntity
  8
007
100
AcDbLine
 10
115.8543564946623
 20
481.7537820967048
 30
0.0
 11
117.8743564946623
 21
485.2537820967048
 31
0.0
  0
LINE
  5
16642
330
1F
100
AcDbEntity
  8
0
100
AcDbLine
 10
107.1943564946622
 20
478.2537820967048
 30
0.0
 11
107.1943564946622
 21
483.7537820967049
 31
0.0
  0
LINE
  5
16643
330
1F
100
AcDbEntity
  8
007
100
AcDbLine
 10
110.1943564946622
 20
481.7537820967048
 30
0.0
 11
110.1943564946622
 21
483.7537820967049
 31
0.0
  0
LINE
  5
16644
330
1F
100
AcDbEntity
  8
0
100
AcDbLine
 10
107.1943564946622
 20
472.2537820967048
 30
0.0
 11
122.1743564946623
 21
472.2537820967048
 31
0.0
  0
LINE
  5
16645
330
1F
100
AcDbEntity
  8
0
100
AcDbLine
 10
107.1943564946622
 20
470.2537820967048
 30
0.0
 11
123.1943564946622
 21
470.2537820967048
 31
0.0
  0
LINE
  5
16646
330
1F
100
AcDbEntity
  8
0
100
AcDbLine
 10
91.19435649466225
 20
471.2537820967049
 30
0.0
 11
104.1943564946622
 21
471.2537820967049
 31
0.0
  0
LINE
  5
16647
330
1F
100
AcDbEntity
  8
0
100
AcDbLine
 10
100.5227836194084
 20
471.2537820967049
 30
0.0
 11
91.5227836194087
 21
480.2537820967049
 31
0.0
  0
LINE
  5
16648
330
1F
100
AcDbEntity
  8
0
100
AcDbLine
 10
97.69435649466226
 20
471.2537820967049
 30
0.0
 11
90.19435649466236
 21
478.7537820967048
 31
0.0
  0
LINE
  5
16649
330
1F
100
AcDbEntity
  8
0
100
AcDbLine
 10
94.86592936991616
 20
471.2537820967049
 30
0.0
 11
90.19435649466236
 21
475.9253549719587
 31
0.0
  0
LINE
  5
1664A
330
1F
100
AcDbEntity
  8
0
100
AcDbLine
 10
90.19435649466226
 20
475.0674905956897
 30
0.0
 11
95.3806479956774
 21
480.2537820967049
 31
0.0
  0
LINE
  5
1664B
330
1F
100
AcDbEntity
  8
0
100
AcDbLine
 10
90.19435649466226
 20
472.2390634709434
 30
0.0
 11
98.20907512042351
 21
480.2537820967049
 31
0.0
  0
LINE
  5
1664C
330
1F
100
AcDbEntity
  8
0
100
AcDbLine
 10
92.03750224516994
 20
471.2537820967049
 30
0.0
 11
101.0375022451697
 21
480.2537820967049
 31
0.0
  0
LINE
  5
1664D
330
1F
100
AcDbEntity
  8
0
100
AcDbLine
 10
92.03750224516994
 20
471.2537820967049
 30
0.0
 11
90.19435649466236
 21
473.0969278472125
 31
0.0
  0
LINE
  5
1664E
330
1F
100
AcDbEntity
  8
0
100
AcDbLine
 10
90.19435649466226
 20
477.8959177204359
 30
0.0
 11
92.5522208709312
 21
480.2537820967049
 31
0.0
  0
LINE
  5
1664F
330
1F
100
AcDbEntity
  8
0
100
AcDbLine
 10
91.19435649466225
 20
471.2537820967049
 30
0.0
 11
90.19435649466226
 21
470.2537820967048
 31
0.0
  0
LINE
  5
16650
330
1F
100
AcDbEntity
  8
0
100
AcDbLine
 10
107.1943564946622
 20
450.2537820967048
 30
0.0
 11
107.1943564946622
 21
470.2537820967048
 31
0.0
  0
LINE
  5
16651
330
1F
100
AcDbEntity
  8
0
100
AcDbLine
 10
105.1943564946622
 20
450.2537820967048
 30
0.0
 11
107.1943564946622
 21
450.2537820967048
 31
0.0
  0
LINE
  5
16652
330
1F
100
AcDbEntity
  8
0
100
AcDbLine
 10
104.1943564946622
 20
471.2537820967049
 30
0.0
 11
105.1943564946622
 21
470.2537820967048
 31
0.0
  0
LINE
  5
16653
330
1F
100
AcDbEntity
  8
0
100
AcDbLine
 10
105.1943564946622
 20
477.8959177204359
 30
0.0
 11
102.8364921183934
 21
480.2537820967049
 31
0.0
  0
LINE
  5
16654
330
1F
100
AcDbEntity
  8
0
100
AcDbLine
 10
105.1943564946622
 20
472.2390634709434
 30
0.0
 11
97.17963786890102
 21
480.2537820967049
 31
0.0
  0
LINE
  5
16655
330
1F
100
AcDbEntity
  8
0
100
AcDbLine
 10
105.1943564946622
 20
475.0674905956897
 30
0.0
 11
100.0080649936472
 21
480.2537820967049
 31
0.0
  0
LINE
  5
16656
330
1F
100
AcDbEntity
  8
0
100
AcDbLine
 10
100.5227836194084
 20
471.2537820967049
 30
0.0
 11
105.1943564946622
 21
475.9253549719587
 31
0.0
  0
LINE
  5
16657
330
1F
100
AcDbEntity
  8
0
100
AcDbLine
 10
103.3512107441546
 20
471.2537820967049
 30
0.0
 11
105.1943564946622
 21
473.0969278472125
 31
0.0
  0
LINE
  5
16658
330
1F
100
AcDbEntity
  8
0
100
AcDbLine
 10
97.69435649466226
 20
471.2537820967049
 30
0.0
 11
105.1943564946622
 21
478.7537820967048
 31
0.0
  0
LINE
  5
16659
330
1F
100
AcDbEntity
  8
0
100
AcDbLine
 10
103.3512107441546
 20
471.2537820967049
 30
0.0
 11
94.3512107441548
 21
480.2537820967049
 31
0.0
  0
LINE
  5
1665A
330
1F
100
AcDbEntity
  8
0
100
AcDbLine
 10
94.86592936991604
 20
471.2537820967049
 30
0.0
 11
103.8659293699159
 21
480.2537820967049
 31
0.0
  0
LINE
  5
1665B
330
1F
100
AcDbEntity
  8
007
100
AcDbLine
 10
110.1943564946622
 20
481.7537820967048
 30
0.0
 11
115.8543564946623
 21
481.7537820967048
 31
0.0
  0
LINE
  5
1665C
330
1F
100
AcDbEntity
  8
0
100
AcDbLine
 10
107.1943564946622
 20
472.2537820967048
 30
0.0
 11
107.1943564946622
 21
480.2537820967049
 31
0.0
  0
LINE
  5
1665D
330
1F
100
AcDbEntity
  8
0
100
AcDbLine
 10
128.3043564946622
 20
476.2737820967048
 30
0.0
 11
153.9043564946623
 21
476.2737820967048
 31
0.0
  0
LINE
  5
1665E
330
1F
100
AcDbEntity
  8
0
100
AcDbLine
 10
129.1943564946622
 20
474.2537820967048
 30
0.0
 11
153.1943564946622
 21
474.2537820967048
 31
0.0
  0
LINE
  5
1665F
330
1F
100
AcDbEntity
  8
0
100
AcDbLine
 10
123.1943564946622
 20
450.2537820967048
 30
0.0
 11
123.1943564946622
 21
470.2537820967048
 31
0.0
  0
LINE
  5
16660
330
1F
100
AcDbEntity
  8
0
100
AcDbLine
 10
125.1943564946622
 20
450.2537820967048
 30
0.0
 11
125.1943564946622
 21
470.2537820967048
 31
0.0
  0
LINE
  5
16661
330
1F
100
AcDbEntity
  8
0
100
AcDbLine
 10
123.1943564946622
 20
450.2537820967048
 30
0.0
 11
125.1943564946622
 21
450.2537820967048
 31
0.0
  0
ARC
  5
16662
330
1F
100
AcDbEntity
  8
0
100
AcDbCircle
 10
125.1943564946622
 20
474.2537820967048
 30
0.0
 40
3.709999999999999
100
AcDbArc
 50
33.00443600000326
 51
122.57766
  0
LINE
  5
16663
330
1F
100
AcDbEntity
  8
0
100
AcDbLine
 10
125.1943564946622
 20
470.2537820967048
 30
0.0
 11
131.1943564946622
 21
470.2537820967048
 31
0.0
  0
ARC
  5
16664
330
1F
100
AcDbEntity
  8
0
100
AcDbCircle
 10
124.1643564946623
 20
477.1237820967047
 30
0.0
 40
1.0
100
AcDbArc
 50
165.5475699999941
 51
270.5729300000003
  0
ARC
  5
16665
330
1F
100
AcDbEntity
  8
0
100
AcDbCircle
 10
125.1943564946622
 20
474.2537820967048
 30
0.0
 40
3.709999999999999
100
AcDbArc
 50
197.2618200000061
 51
212.660910000006
  0
ARC
  5
16666
330
1F
100
AcDbEntity
  8
0
100
AcDbCircle
 10
122.5443564946623
 20
472.7037820967049
 30
0.0
 40
1.0
100
AcDbArc
 50
47.03091400000328
 51
153.1780100000001
  0
ARC
  5
16667
330
1F
100
AcDbEntity
  8
0
100
AcDbCircle
 10
125.1943564946622
 20
474.2537820967048
 30
0.0
 40
2.129999999999999
100
AcDbArc
 50
202.599210000001
 51
118.6104599999958
  0
LINE
  5
16668
330
1F
100
AcDbEntity
  8
0
100
AcDbLine
 10
129.1943564946622
 20
472.2537820967048
 30
0.0
 11
131.1943564946622
 21
472.2537820967048
 31
0.0
  0
LINE
  5
16669
330
1F
100
AcDbEntity
  8
0
100
AcDbLine
 10
129.1943564946622
 20
472.2537820967048
 30
0.0
 11
129.1943564946622
 21
474.2537820967048
 31
0.0
  0
LINE
  5
1666A
330
1F
100
AcDbEntity
  8
0
100
AcDbLine
 10
131.1943564946622
 20
470.2537820967048
 30
0.0
 11
131.1943564946622
 21
472.2537820967048
 31
0.0
  0
LINE
  5
1666B
330
1F
100
AcDbEntity
  8
0
100
AcDbLine
 10
159.1943564946622
 20
450.2537820967048
 30
0.0
 11
159.1943564946622
 21
470.2537820967048
 31
0.0
  0
LINE
  5
1666C
330
1F
100
AcDbEntity
  8
0
100
AcDbLine
 10
157.1943564946622
 20
450.2537820967048
 30
0.0
 11
157.1943564946622
 21
470.2537820967048
 31
0.0
  0
LINE
  5
1666D
330
1F
100
AcDbEntity
  8
0
100
AcDbLine
 10
157.1943564946622
 20
450.2537820967048
 30
0.0
 11
159.1943564946622
 21
450.2537820967048
 31
0.0
  0
ARC
  5
1666E
330
1F
100
AcDbEntity
  8
0
100
AcDbCircle
 10
158.5743564946623
 20
476.8537820967047
 30
0.0
 40
1.0
100
AcDbArc
 50
272.2906099999988
 51
46.21887499999902
  0
ARC
  5
1666F
330
1F
100
AcDbEntity
  8
0
100
AcDbCircle
 10
157.1943564946622
 20
474.2537820967048
 30
0.0
 40
3.91
100
AcDbArc
 50
56.6753860000005
 51
148.910649999997
  0
ARC
  5
16670
330
1F
100
AcDbEntity
  8
0
100
AcDbCircle
 10
157.1943564946622
 20
474.2537820967048
 30
0.0
 40
3.91
100
AcDbArc
 50
327.8547900000047
 51
341.5187299999943
  0
ARC
  5
16671
330
1F
100
AcDbEntity
  8
0
100
AcDbCircle
 10
159.9343564946622
 20
472.7637820967048
 30
0.0
 40
1.0
100
AcDbArc
 50
14.4524280000011
 51
143.1301000000025
  0
LINE
  5
16672
330
1F
100
AcDbEntity
  8
0
100
AcDbLine
 10
151.1943564946622
 20
470.2537820967048
 30
0.0
 11
157.1943564946622
 21
470.2537820967048
 31
0.0
  0
LINE
  5
16673
330
1F
100
AcDbEntity
  8
0
100
AcDbLine
 10
151.1943564946622
 20
472.2537820967048
 30
0.0
 11
153.1943564946622
 21
472.2537820967048
 31
0.0
  0
LINE
  5
16674
330
1F
100
AcDbEntity
  8
0
100
AcDbLine
 10
151.1943564946622
 20
470.2537820967048
 30
0.0
 11
151.1943564946622
 21
472.2537820967048
 31
0.0
  0
LINE
  5
16675
330
1F
100
AcDbEntity
  8
0
100
AcDbLine
 10
153.1943564946622
 20
472.2537820967048
 30
0.0
 11
153.1943564946622
 21
474.2537820967048
 31
0.0
  0
ARC
  5
16676
330
1F
100
AcDbEntity
  8
0
100
AcDbCircle
 10
157.1943564946622
 20
474.2537820967048
 30
0.0
 40
2.14
100
AcDbArc
 50
48.21124800000074
 51
336.8014000000008
  0
LINE
  5
16677
330
1F
100
AcDbEntity
  8
0
100
AcDbLine
 10
105.1943564946622
 20
485.2537820967049
 30
0.0
 11
114.1943564946622
 21
485.2537820967048
 31
0.0
  0
LINE
  5
16678
330
1F
100
AcDbEntity
  8
007
100
AcDbLine
 10
114.8143564946622
 20
483.7537820967049
 30
0.0
 11
115.6843564946622
 21
485.2537820967048
 31
0.0
  0
LINE
  5
16679
330
1F
100
AcDbEntity
  8
0
100
AcDbLine
 10
114.1943564946622
 20
483.7537820967049
 30
0.0
 11
114.1943564946622
 21
485.2537820967048
 31
0.0
  0
LINE
  5
1667A
330
1F
100
AcDbEntity
  8
007
100
AcDbLine
 10
114.1943564946622
 20
483.7537820967049
 30
0.0
 11
114.8143564946622
 21
483.7537820967049
 31
0.0
  0
LINE
  5
1667B
330
1F
100
AcDbEntity
  8
007
100
AcDbLine
 10
114.1943564946622
 20
485.2537820967048
 30
0.0
 11
115.6843564946622
 21
485.2537820967048
 31
0.0
  0
LINE
  5
1667C
330
1F
100
AcDbEntity
  8
007
100
AcDbLine
 10
110.1943564946622
 20
485.2537820967048
 30
0.0
 11
110.1943564946622
 21
487.2537820967048
 31
0.0
  0
LINE
  5
1667D
330
1F
100
AcDbEntity
  8
0
100
AcDbLine
 10
107.1943564946622
 20
483.7537820967049
 30
0.0
 11
114.1943564946622
 21
483.7537820967049
 31
0.0
  0
LINE
  5
1667E
330
1F
100
AcDbEntity
  8
007
100
AcDbLine
 10
132.1943564946622
 20
496.2537820967049
 30
0.0
 11
152.1943564946622
 21
496.2537820967049
 31
0.0
  0
LINE
  5
1667F
330
1F
100
AcDbEntity
  8
007
100
AcDbLine
 10
137.6943564946622
 20
487.2537820967048
 30
0.0
 11
137.6943564946622
 21
507.4237820967044
 31
0.0
  0
LINE
  5
16680
330
1F
100
AcDbEntity
  8
007
100
AcDbLine
 10
132.1943564946622
 20
487.2537820967048
 30
0.0
 11
132.1943564946622
 21
496.2537820967049
 31
0.0
  0
LINE
  5
16681
330
1F
100
AcDbEntity
  8
007
100
AcDbLine
 10
146.6943564946622
 20
487.2537820967048
 30
0.0
 11
146.6943564946622
 21
507.4237820967044
 31
0.0
  0
LINE
  5
16682
330
1F
100
AcDbEntity
  8
007
100
AcDbLine
 10
152.1943564946622
 20
487.2537820967048
 30
0.0
 11
152.1943564946622
 21
496.2537820967049
 31
0.0
  0
LINE
  5
16683
330
1F
100
AcDbEntity
  8
0
100
AcDbLine
 10
173.2043564946622
 20
475.4337820967046
 30
0.0
 11
173.2043564946622
 21
483.7537820967049
 31
0.0
  0
LINE
  5
16684
330
1F
100
AcDbEntity
  8
007
100
AcDbLine
 10
170.1943564946622
 20
481.7537820967048
 30
0.0
 11
170.1943564946622
 21
483.7537820967049
 31
0.0
  0
LINE
  5
16685
330
1F
100
AcDbEntity
  8
007
100
AcDbLine
 10
162.7843564946623
 20
485.2537820967048
 30
0.0
 11
164.8043564946623
 21
481.7537820967048
 31
0.0
  0
LINE
  5
16686
330
1F
100
AcDbEntity
  8
0
100
AcDbLine
 10
175.1943564946622
 20
485.2537820967048
 30
0.0
 11
175.1943564946622
 21
466.2537820967048
 31
0.0
  0
LINE
  5
16687
330
1F
100
AcDbEntity
  8
0
100
AcDbLine
 10
175.1943564946622
 20
465.2537820967048
 30
0.0
 11
195.1943564946622
 21
465.2537820967048
 31
0.0
  0
LINE
  5
16688
330
1F
100
AcDbEntity
  8
0
100
AcDbLine
 10
175.1943564946622
 20
466.2537820967048
 30
0.0
 11
194.1343564946623
 21
466.2537820967048
 31
0.0
  0
LINE
  5
16689
330
1F
100
AcDbEntity
  8
0
100
AcDbLine
 10
173.1943564946622
 20
451.9737820967049
 30
0.0
 11
173.1943564946622
 21
470.2537820967048
 31
0.0
  0
LINE
  5
1668A
330
1F
100
AcDbEntity
  8
0
100
AcDbLine
 10
171.2343564946622
 20
450.2537820967048
 30
0.0
 11
175.1943564946622
 21
450.2537820967048
 31
0.0
  0
LINE
  5
1668B
330
1F
100
AcDbEntity
  8
0
100
AcDbLine
 10
171.2343564946622
 20
450.2537820967048
 30
0.0
 11
171.2343564946622
 21
451.9737820967049
 31
0.0
  0
LINE
  5
1668C
330
1F
100
AcDbEntity
  8
0
100
AcDbLine
 10
171.2343564946622
 20
451.9737820967049
 30
0.0
 11
173.1943564946622
 21
451.9737820967049
 31
0.0
  0
LINE
  5
1668D
330
1F
100
AcDbEntity
  8
0
100
AcDbLine
 10
175.1943564946622
 20
465.2537820967048
 30
0.0
 11
175.1943564946622
 21
450.2537820967048
 31
0.0
  0
LINE
  5
1668E
330
1F
100
AcDbEntity
  8
007
100
AcDbLine
 10
164.8043564946623
 20
481.7537820967048
 30
0.0
 11
170.1943564946622
 21
481.7537820967048
 31
0.0
  0
LINE
  5
1668F
330
1F
100
AcDbEntity
  8
0
100
AcDbLine
 10
173.1943564946622
 20
472.2537820967048
 30
0.0
 11
173.1943564946622
 21
476.2537820967049
 31
0.0
  0
LINE
  5
16690
330
1F
100
AcDbEntity
  8
0
100
AcDbLine
 10
195.1943564946622
 20
465.2537820967048
 30
0.0
 11
195.1943564946622
 21
468.2537820967048
 31
0.0
  0
LINE
  5
16691
330
1F
100
AcDbEntity
  8
0
100
AcDbLine
 10
194.1343564946623
 20
468.2537820967048
 30
0.0
 11
195.1943564946622
 21
468.2537820967048
 31
0.0
  0
LINE
  5
16692
330
1F
100
AcDbEntity
  8
0
100
AcDbLine
 10
194.1343564946623
 20
466.2537820967048
 30
0.0
 11
194.1343564946623
 21
468.2537820967048
 31
0.0
  0
LINE
  5
16693
330
1F
100
AcDbEntity
  8
0
100
AcDbLine
 10
166.1943564946622
 20
485.2537820967048
 30
0.0
 11
175.1943564946622
 21
485.2537820967048
 31
0.0
  0
LINE
  5
16694
330
1F
100
AcDbEntity
  8
007
100
AcDbLine
 10
170.1943564946622
 20
485.2537820967048
 30
0.0
 11
170.1943564946622
 21
487.2537820967048
 31
0.0
  0
LINE
  5
16695
330
1F
100
AcDbEntity
  8
007
100
AcDbLine
 10
165.6243564946623
 20
483.7537820967049
 30
0.0
 11
166.1943564946622
 21
483.7537820967049
 31
0.0
  0
LINE
  5
16696
330
1F
100
AcDbEntity
  8
007
100
AcDbLine
 10
164.7543564946623
 20
485.2537820967048
 30
0.0
 11
166.1943564946622
 21
485.2537820967048
 31
0.0
  0
LINE
  5
16697
330
1F
100
AcDbEntity
  8
007
100
AcDbLine
 10
164.7543564946623
 20
485.2537820967048
 30
0.0
 11
165.6243564946623
 21
483.7537820967049
 31
0.0
  0
LINE
  5
16698
330
1F
100
AcDbEntity
  8
0
100
AcDbLine
 10
166.1943564946622
 20
483.7537820967049
 30
0.0
 11
166.1943564946622
 21
485.2537820967048
 31
0.0
  0
LINE
  5
16699
330
1F
100
AcDbEntity
  8
0
100
AcDbLine
 10
166.1943564946622
 20
483.7537820967049
 30
0.0
 11
173.2043564946622
 21
483.7537820967049
 31
0.0
  0
LINE
  5
1669A
330
1F
100
AcDbEntity
  8
0
100
AcDbLine
 10
731.7831144697558
 20
469.5454821853724
 30
0.0
 11
731.783114469756
 21
457.6894211555721
 31
0.0
  0
LINE
  5
166A1
330
1F
100
AcDbEntity
  8
0
100
AcDbLine
 10
731.783114469756
 20
457.6894211555721
 30
0.0
 11
763.9531144697556
 21
457.6894211555721
 31
0.0
  0
LINE
  5
166A2
330
1F
100
AcDbEntity
  8
0
100
AcDbLine
 10
732.783114469756
 20
456.6894211555721
 30
0.0
 11
732.783114469756
 21
443.6894211555719
 31
0.0
  0
LINE
  5
166A3
330
1F
100
AcDbEntity
  8
0
100
AcDbLine
 10
732.783114469756
 20
447.3609940308259
 30
0.0
 11
741.783114469756
 21
456.3609940308257
 31
0.0
  0
LINE
  5
166A4
330
1F
100
AcDbEntity
  8
0
100
AcDbLine
 10
732.783114469756
 20
450.1894211555719
 30
0.0
 11
740.283114469756
 21
457.6894211555719
 31
0.0
  0
LINE
  5
166A5
330
1F
100
AcDbEntity
  8
0
100
AcDbLine
 10
732.783114469756
 20
453.0178482803181
 30
0.0
 11
737.45468734501
 21
457.6894211555719
 31
0.0
  0
LINE
  5
166A6
330
1F
100
AcDbEntity
  8
0
100
AcDbLine
 10
736.5968229687409
 20
457.6894211555721
 30
0.0
 11
741.783114469756
 21
452.503129654557
 31
0.0
  0
LINE
  5
166A7
330
1F
100
AcDbEntity
  8
0
100
AcDbLine
 10
733.7683958439944
 20
457.6894211555721
 30
0.0
 11
741.783114469756
 21
449.6747025298108
 31
0.0
  0
LINE
  5
166A8
330
1F
100
AcDbEntity
  8
0
100
AcDbLine
 10
732.783114469756
 20
455.8462754050643
 30
0.0
 11
741.783114469756
 21
446.8462754050646
 31
0.0
  0
LINE
  5
166A9
330
1F
100
AcDbEntity
  8
0
100
AcDbLine
 10
732.783114469756
 20
455.8462754050643
 30
0.0
 11
734.6262602202638
 21
457.6894211555719
 31
0.0
  0
LINE
  5
166AA
330
1F
100
AcDbEntity
  8
0
100
AcDbLine
 10
739.4252500934871
 20
457.6894211555721
 30
0.0
 11
741.783114469756
 21
455.3315567793032
 31
0.0
  0
LINE
  5
166AB
330
1F
100
AcDbEntity
  8
0
100
AcDbLine
 10
732.783114469756
 20
456.6894211555721
 30
0.0
 11
731.783114469756
 21
457.6894211555721
 31
0.0
  0
LINE
  5
166AC
330
1F
100
AcDbEntity
  8
0
100
AcDbLine
 10
732.783114469756
 20
444.5325669060797
 30
0.0
 11
741.783114469756
 21
453.5325669060795
 31
0.0
  0
LINE
  5
166AD
330
1F
100
AcDbEntity
  8
0
100
AcDbLine
 10
732.783114469756
 20
453.0178482803181
 30
0.0
 11
741.783114469756
 21
444.0178482803183
 31
0.0
  0
LINE
  5
166AE
330
1F
100
AcDbEntity
  8
0
100
AcDbLine
 10
732.783114469756
 20
443.6894211555719
 30
0.0
 11
731.783114469756
 21
442.6894211555722
 31
0.0
  0
LINE
  5
166AF
330
1F
100
AcDbEntity
  8
0
100
AcDbLine
 10
739.4252500934871
 20
442.6894211555719
 30
0.0
 11
741.783114469756
 21
445.0472855318408
 31
0.0
  0
LINE
  5
166B0
330
1F
100
AcDbEntity
  8
0
100
AcDbLine
 10
733.7683958439944
 20
442.6894211555719
 30
0.0
 11
741.783114469756
 21
450.7041397813333
 31
0.0
  0
LINE
  5
166B1
330
1F
100
AcDbEntity
  8
0
100
AcDbLine
 10
736.5968229687409
 20
442.6894211555719
 30
0.0
 11
741.783114469756
 21
447.8757126565871
 31
0.0
  0
LINE
  5
166B2
330
1F
100
AcDbEntity
  8
0
100
AcDbLine
 10
732.783114469756
 20
447.3609940308259
 30
0.0
 11
737.45468734501
 21
442.6894211555722
 31
0.0
  0
LINE
  5
166B3
330
1F
100
AcDbEntity
  8
0
100
AcDbLine
 10
732.783114469756
 20
444.5325669060797
 30
0.0
 11
734.6262602202638
 21
442.6894211555722
 31
0.0
  0
LINE
  5
166B4
330
1F
100
AcDbEntity
  8
0
100
AcDbLine
 10
732.783114469756
 20
450.1894211555721
 30
0.0
 11
740.283114469756
 21
442.6894211555722
 31
0.0
  0
LINE
  5
166B5
330
1F
100
AcDbEntity
  8
0
100
AcDbLine
 10
542.1816756313664
 20
469.5454821853724
 30
0.0
 11
542.1816756313664
 21
457.6894211555721
 31
0.0
  0
LINE
  5
166B6
330
1F
100
AcDbEntity
  8
0
100
AcDbLine
 10
542.1816756313664
 20
457.6894211555721
 30
0.0
 11
510.0116756313668
 21
457.6894211555721
 31
0.0
  0
LINE
  5
166B7
330
1F
100
AcDbEntity
  8
0
100
AcDbLine
 10
541.1816756313664
 20
450.1894211555721
 30
0.0
 11
533.6816756313664
 21
442.6894211555722
 31
0.0
  0
LINE
  5
166B8
330
1F
100
AcDbEntity
  8
0
100
AcDbLine
 10
537.3679671323816
 20
442.6894211555719
 30
0.0
 11
532.1816756313665
 21
447.8757126565871
 31
0.0
  0
LINE
  5
166B9
330
1F
100
AcDbEntity
  8
0
100
AcDbLine
 10
540.196394257128
 20
442.6894211555719
 30
0.0
 11
532.1816756313665
 21
450.7041397813333
 31
0.0
  0
LINE
  5
166BA
330
1F
100
AcDbEntity
  8
0
100
AcDbLine
 10
541.1816756313664
 20
455.8462754050643
 30
0.0
 11
532.1816756313665
 21
446.8462754050646
 31
0.0
  0
LINE
  5
166BB
330
1F
100
AcDbEntity
  8
0
100
AcDbLine
 10
540.196394257128
 20
457.6894211555721
 30
0.0
 11
532.1816756313665
 21
449.6747025298108
 31
0.0
  0
LINE
  5
166BC
330
1F
100
AcDbEntity
  8
0
100
AcDbLine
 10
537.3679671323816
 20
457.6894211555721
 30
0.0
 11
532.1816756313665
 21
452.503129654557
 31
0.0
  0
LINE
  5
166BD
330
1F
100
AcDbEntity
  8
0
100
AcDbLine
 10
541.1816756313664
 20
453.0178482803181
 30
0.0
 11
536.5101027561125
 21
457.6894211555719
 31
0.0
  0
LINE
  5
166BE
330
1F
100
AcDbEntity
  8
0
100
AcDbLine
 10
541.1816756313664
 20
450.1894211555719
 30
0.0
 11
533.6816756313664
 21
457.6894211555719
 31
0.0
  0
LINE
  5
166BF
330
1F
100
AcDbEntity
  8
0
100
AcDbLine
 10
541.1816756313664
 20
447.3609940308259
 30
0.0
 11
532.1816756313665
 21
456.3609940308257
 31
0.0
  0
LINE
  5
166C0
330
1F
100
AcDbEntity
  8
0
100
AcDbLine
 10
541.1816756313664
 20
453.0178482803181
 30
0.0
 11
532.1816756313665
 21
444.0178482803183
 31
0.0
  0
LINE
  5
166C1
330
1F
100
AcDbEntity
  8
0
100
AcDbLine
 10
541.1816756313664
 20
444.5325669060797
 30
0.0
 11
532.1816756313665
 21
453.5325669060795
 31
0.0
  0
LINE
  5
166C2
330
1F
100
AcDbEntity
  8
0
100
AcDbLine
 10
541.1816756313664
 20
456.6894211555721
 30
0.0
 11
541.1816756313664
 21
443.6894211555719
 31
0.0
  0
LINE
  5
166C3
330
1F
100
AcDbEntity
  8
0
100
AcDbLine
 10
541.1816756313664
 20
456.6894211555721
 30
0.0
 11
542.1816756313664
 21
457.6894211555721
 31
0.0
  0
LINE
  5
166C4
330
1F
100
AcDbEntity
  8
0
100
AcDbLine
 10
541.1816756313664
 20
455.8462754050643
 30
0.0
 11
539.3385298808587
 21
457.6894211555719
 31
0.0
  0
LINE
  5
166C5
330
1F
100
AcDbEntity
  8
0
100
AcDbLine
 10
534.5395400076354
 20
457.6894211555721
 30
0.0
 11
532.1816756313665
 21
455.3315567793032
 31
0.0
  0
LINE
  5
166C6
330
1F
100
AcDbEntity
  8
0
100
AcDbLine
 10
534.5395400076354
 20
442.6894211555719
 30
0.0
 11
532.1816756313665
 21
445.0472855318408
 31
0.0
  0
LINE
  5
166C7
330
1F
100
AcDbEntity
  8
0
100
AcDbLine
 10
541.1816756313664
 20
444.5325669060797
 30
0.0
 11
539.3385298808587
 21
442.6894211555722
 31
0.0
  0
LINE
  5
166C8
330
1F
100
AcDbEntity
  8
0
100
AcDbLine
 10
541.1816756313664
 20
443.6894211555719
 30
0.0
 11
542.1816756313664
 21
442.6894211555722
 31
0.0
  0
LINE
  5
166C9
330
1F
100
AcDbEntity
  8
0
100
AcDbLine
 10
541.1816756313664
 20
447.3609940308259
 30
0.0
 11
536.5101027561125
 21
442.6894211555722
 31
0.0
  0
LINE
  5
167FF
330
1F
100
AcDbEntity
  8
003
100
AcDbLine
 10
195.1943564946622
 20
465.2537820967048
 30
0.0
 11
235.1943564946622
 21
465.2537820967047
 31
0.0
  0
LINE
  5
16800
330
1F
100
AcDbEntity
  8
0
100
AcDbLine
 10
235.1943564946622
 20
465.2537820967047
 30
0.0
 11
235.1943564946622
 21
490.2537820967048
 31
0.0
  0
LINE
  5
16801
330
1F
100
AcDbEntity
  8
003
100
AcDbLine
 10
175.1943564946622
 20
490.2537820967048
 30
0.0
 11
235.1943564946622
 21
490.2537820967048
 31
0.0
  0
LINE
  5
16802
330
1F
100
AcDbEntity
  8
003
100
AcDbLine
 10
195.1943564946622
 20
468.2537820967048
 30
0.0
 11
175.1943564946622
 21
468.2537820967048
 31
0.0
  0
LINE
  5
16803
330
1F
100
AcDbEntity
  8
003
100
AcDbLine
 10
175.1943564946622
 20
468.2537820967048
 30
0.0
 11
175.1943564946622
 21
490.2537820967048
 31
0.0
  0
LINE
  5
16804
330
1F
100
AcDbEntity
  8
003
100
AcDbLine
 10
175.1943564946622
 20
475.6670350149792
 30
0.0
 11
189.7811035763879
 21
490.2537820967048
 31
0.0
  0
LINE
  5
16805
330
1F
100
AcDbEntity
  8
003
100
AcDbLine
 10
189.7811035763879
 20
468.2537820967048
 30
0.0
 11
211.781103576388
 21
490.2537820967048
 31
0.0
  0
LINE
  5
16806
330
1F
100
AcDbEntity
  8
003
100
AcDbLine
 10
208.781103576388
 20
465.2537820967048
 30
0.0
 11
233.7811035763881
 21
490.2537820967048
 31
0.0
  0
LINE
  5
16808
330
1F
100
AcDbEntity
  8
0
100
AcDbLine
 10
235.1943564946622
 20
314.4028041365385
 30
0.0
 11
235.1943564946622
 21
289.4028041365384
 31
0.0
  0
LINE
  5
16809
330
1F
100
AcDbEntity
  8
003
100
AcDbLine
 10
195.1943564946622
 20
314.4028041365384
 30
0.0
 11
235.1943564946622
 21
314.4028041365385
 31
0.0
  0
LINE
  5
1680A
330
1F
100
AcDbEntity
  8
003
100
AcDbLine
 10
175.1943564946622
 20
289.4028041365384
 30
0.0
 11
235.1943564946622
 21
289.4028041365384
 31
0.0
  0
LINE
  5
1680B
330
1F
100
AcDbEntity
  8
003
100
AcDbLine
 10
195.1943564946622
 20
311.1728041365386
 30
0.0
 11
175.1943564946622
 21
311.1728041365386
 31
0.0
  0
LINE
  5
1680C
330
1F
100
AcDbEntity
  8
003
100
AcDbLine
 10
175.1943564946622
 20
311.1728041365386
 30
0.0
 11
175.1943564946622
 21
289.4028041365384
 31
0.0
  0
LINE
  5
1680D
330
1F
100
AcDbEntity
  8
003
100
AcDbLine
 10
175.1943564946622
 20
299.816057054813
 30
0.0
 11
186.5511035763879
 21
311.1728041365386
 31
0.0
  0
LINE
  5
1680E
330
1F
100
AcDbEntity
  8
003
100
AcDbLine
 10
186.7811035763877
 20
289.4028041365384
 30
0.0
 11
211.781103576388
 21
314.4028041365386
 31
0.0
  0
LINE
  5
1680F
330
1F
100
AcDbEntity
  8
003
100
AcDbLine
 10
208.781103576388
 20
289.4028041365386
 30
0.0
 11
233.7811035763881
 21
314.4028041365385
 31
0.0
  0
LINE
  5
16811
330
1F
100
AcDbEntity
  8
0
100
AcDbLine
 10
731.783114469756
 20
312.6894211555722
 30
0.0
 11
756.783114469756
 21
312.6894211555722
 31
0.0
  0
LINE
  5
1682A
330
1F
100
AcDbEntity
  8
003
100
AcDbLine
 10
731.783114469756
 20
352.6894211555722
 30
0.0
 11
731.783114469756
 21
312.6894211555722
 31
0.0
  0
LINE
  5
1682B
330
1F
100
AcDbEntity
  8
003
100
AcDbLine
 10
756.783114469756
 20
372.6894211555722
 30
0.0
 11
756.783114469756
 21
312.6894211555722
 31
0.0
  0
LINE
  5
1682C
330
1F
100
AcDbEntity
  8
003
100
AcDbLine
 10
734.7831144697559
 20
352.6894211555722
 30
0.0
 11
734.7831144697559
 21
372.6894211555722
 31
0.0
  0
LINE
  5
1682D
330
1F
100
AcDbEntity
  8
003
100
AcDbLine
 10
734.7831144697559
 20
372.6894211555722
 30
0.0
 11
756.783114469756
 21
372.6894211555722
 31
0.0
  0
LINE
  5
1682E
330
1F
100
AcDbEntity
  8
003
100
AcDbLine
 10
746.3698615514816
 20
372.6894211555722
 30
0.0
 11
734.7831144697559
 21
361.1026740738464
 31
0.0
  0
LINE
  5
1682F
330
1F
100
AcDbEntity
  8
003
100
AcDbLine
 10
756.783114469756
 20
361.1026740738465
 30
0.0
 11
731.783114469756
 21
336.1026740738464
 31
0.0
  0
LINE
  5
16830
330
1F
100
AcDbEntity
  8
003
100
AcDbLine
 10
756.783114469756
 20
339.1026740738465
 30
0.0
 11
731.783114469756
 21
314.1026740738462
 31
0.0
  0
LINE
  5
16831
330
1F
100
AcDbEntity
  8
0
100
AcDbLine
 10
542.1816756313666
 20
312.6894211555722
 30
0.0
 11
517.1816756313664
 21
312.6894211555722
 31
0.0
  0
LINE
  5
16832
330
1F
100
AcDbEntity
  8
003
100
AcDbLine
 10
542.1816756313664
 20
352.6894211555722
 30
0.0
 11
542.1816756313667
 21
312.6894211555721
 31
0.0
  0
LINE
  5
16833
330
1F
100
AcDbEntity
  8
003
100
AcDbLine
 10
517.1816756313664
 20
372.6894211555722
 30
0.0
 11
517.1816756313666
 21
312.6894211555721
 31
0.0
  0
LINE
  5
16834
330
1F
100
AcDbEntity
  8
003
100
AcDbLine
 10
539.1816756313665
 20
352.6894211555722
 30
0.0
 11
539.1816756313665
 21
372.6894211555722
 31
0.0
  0
LINE
  5
16835
330
1F
100
AcDbEntity
  8
003
100
AcDbLine
 10
539.1816756313665
 20
372.6894211555722
 30
0.0
 11
517.1816756313664
 21
372.6894211555722
 31
0.0
  0
LINE
  5
16836
330
1F
100
AcDbEntity
  8
003
100
AcDbLine
 10
531.7684227130921
 20
372.6894211555722
 30
0.0
 11
517.1816756313664
 21
358.1026740738465
 31
0.0
  0
LINE
  5
16837
330
1F
100
AcDbEntity
  8
003
100
AcDbLine
 10
539.1816756313665
 20
358.1026740738465
 30
0.0
 11
517.1816756313664
 21
336.1026740738464
 31
0.0
  0
LINE
  5
16838
330
1F
100
AcDbEntity
  8
003
100
AcDbLine
 10
542.1816756313664
 20
339.1026740738465
 30
0.0
 11
517.1816756313667
 21
314.1026740738463
 31
0.0
  0
LINE
  5
16F33
330
1F
100
AcDbEntity
  8
006
100
AcDbLine
 10
552.1816756313666
 20
342.6894211555723
 30
0.0
 11
520.3907741653662
 21
342.6894211555719
 31
0.0
  0
LINE
  5
16F34
330
1F
100
AcDbEntity
  8
007
100
AcDbLine
 10
546.4816756313665
 20
344.9894211555723
 30
0.0
 11
546.4816756313665
 21
340.3894211555723
 31
0.0
  0
LINE
  5
16F35
330
1F
100
AcDbEntity
  8
007
100
AcDbLine
 10
544.1816756313666
 20
346.1894211555723
 30
0.0
 11
544.1816756313666
 21
339.1894211555723
 31
0.0
  0
LINE
  5
16F36
330
1F
100
AcDbEntity
  8
007
100
AcDbLine
 10
534.4516756313665
 20
344.6894211555723
 30
0.0
 11
535.2716756313665
 21
340.6894211555723
 31
0.0
  0
LINE
  5
16F37
330
1F
100
AcDbEntity
  8
007
100
AcDbLine
 10
527.6516756313666
 20
344.6894211555723
 30
0.0
 11
528.4716756313665
 21
340.6894211555723
 31
0.0
  0
LINE
  5
16F38
330
1F
100
AcDbEntity
  8
007
100
AcDbLine
 10
529.3516756313664
 20
344.6894211555723
 30
0.0
 11
530.1716756313665
 21
340.6894211555723
 31
0.0
  0
LINE
  5
16F39
330
1F
100
AcDbEntity
  8
007
100
AcDbLine
 10
531.0516756313664
 20
344.6894211555723
 30
0.0
 11
531.8716756313667
 21
340.6894211555723
 31
0.0
  0
LINE
  5
16F3A
330
1F
100
AcDbEntity
  8
007
100
AcDbLine
 10
532.7516756313665
 20
344.6894211555723
 30
0.0
 11
533.5716756313664
 21
340.6894211555723
 31
0.0
  0
LINE
  5
16F3B
330
1F
100
AcDbEntity
  8
007
100
AcDbLine
 10
526.1016756313664
 20
343.9694211555722
 30
0.0
 11
526.7116756313665
 21
341.0094211555722
 31
0.0
  0
LINE
  5
16F3C
330
1F
100
AcDbEntity
  8
007
100
AcDbLine
 10
524.6016756313664
 20
342.9694211555723
 30
0.0
 11
524.7316756313665
 21
342.3194211555722
 31
0.0
  0
LINE
  5
16F3D
330
1F
100
AcDbEntity
  8
007
100
AcDbLine
 10
524.1816756313665
 20
342.6894211555723
 30
0.0
 11
527.1816756313666
 21
340.6894211555723
 31
0.0
  0
LINE
  5
16F3E
330
1F
100
AcDbEntity
  8
007
100
AcDbLine
 10
536.1516756313666
 20
344.6894211555723
 30
0.0
 11
536.9716756313665
 21
340.6894211555723
 31
0.0
  0
LINE
  5
16F3F
330
1F
100
AcDbEntity
  8
007
100
AcDbLine
 10
537.8516756313664
 20
344.6894211555723
 30
0.0
 11
538.6716756313666
 21
340.6894211555723
 31
0.0
  0
LINE
  5
16F40
330
1F
100
AcDbEntity
  8
007
100
AcDbLine
 10
539.5516756313664
 20
344.6894211555723
 30
0.0
 11
540.3716756313666
 21
340.6894211555723
 31
0.0
  0
LINE
  5
16F41
330
1F
100
AcDbEntity
  8
007
100
AcDbLine
 10
541.2516756313665
 20
344.6894211555723
 30
0.0
 11
542.0716756313664
 21
340.6894211555723
 31
0.0
  0
LINE
  5
16F42
330
1F
100
AcDbEntity
  8
007
100
AcDbLine
 10
542.9516756313666
 20
344.6894211555723
 30
0.0
 11
543.7716756313665
 21
340.6894211555723
 31
0.0
  0
LINE
  5
16F43
330
1F
100
AcDbEntity
  8
007
100
AcDbLine
 10
527.1816756313666
 20
344.6894211555723
 30
0.0
 11
544.1816756313666
 21
344.6894211555723
 31
0.0
  0
LINE
  5
16F44
330
1F
100
AcDbEntity
  8
007
100
AcDbLine
 10
527.1816756313666
 20
344.6894211555723
 30
0.0
 11
524.1816756313665
 21
342.6894211555723
 31
0.0
  0
LINE
  5
16F45
330
1F
100
AcDbEntity
  8
007
100
AcDbLine
 10
544.1816756313666
 20
346.1894211555723
 30
0.0
 11
545.2816756313665
 21
346.1894211555723
 31
0.0
  0
ARC
  5
16F46
330
1F
100
AcDbEntity
  8
007
100
AcDbCircle
 10
545.2816756313665
 20
344.9894211555723
 30
0.0
 40
1.199999999999999
100
AcDbArc
 50
0.0
 51
90.0
  0
LINE
  5
16F47
330
1F
100
AcDbEntity
  8
007
100
AcDbLine
 10
527.1816756313666
 20
340.6894211555723
 30
0.0
 11
544.1816756313666
 21
340.6894211555723
 31
0.0
  0
LINE
  5
16F48
330
1F
100
AcDbEntity
  8
007
100
AcDbLine
 10
544.1816756313666
 20
339.1894211555723
 30
0.0
 11
545.2816756313665
 21
339.1894211555723
 31
0.0
  0
ARC
  5
16F49
330
1F
100
AcDbEntity
  8
007
100
AcDbCircle
 10
545.2816756313665
 20
340.3894211555723
 30
0.0
 40
1.199999999999999
100
AcDbArc
 50
270.0
 51
0.0
  0
LINE
  5
170B8
330
1F
100
AcDbEntity
  8
0
100
AcDbLine
 10
342.962827631824
 20
344.4028041365383
 30
0.0
 11
342.9628276318242
 21
424.4028041365383
 31
0.0
  0
LINE
  5
170EA
330
1F
100
AcDbEntity
  8
003
100
AcDbLine
 10
296.4888948626907
 20
443.0968444167436
 30
0.0
 11
296.4888948626907
 21
283.0968444167436
 31
0.0
  0
LINE
  5
170F3
330
1F
100
AcDbEntity
  8
003
100
AcDbLine
 10
450.0192253782005
 20
443.0968444167435
 30
0.0
 11
450.0192253782005
 21
283.0968444167435
 31
0.0
  0
LINE
  5
170F4
330
1F
100
AcDbEntity
  8
003
100
AcDbLine
 10
296.4888948626907
 20
443.0968444167436
 30
0.0
 11
450.0192253782005
 21
443.0968444167435
 31
0.0
  0
LINE
  5
170F7
330
1F
100
AcDbEntity
  8
003
100
AcDbLine
 10
296.4888948626907
 20
283.0968444167436
 30
0.0
 11
450.0192253782005
 21
283.0968444167435
 31
0.0
  0
TEXT
  5
170FD
330
1F
100
AcDbEntity
  8
0
100
AcDbText
 10
396.9525587115339
 20
286.5968444167435
 30
0.0
 40
8.0
  1
側面図
  7
AT_VECTOR
 72
     1
 11
410.0192253782005
 21
290.5968444167435
 31
0.0
100
AcDbText
 73
     2
  0
LINE
  5
170FE
330
1F
100
AcDbEntity
  8
003
100
AcDbLine
 10
370.0192253782006
 20
298.0968444167435
 30
0.0
 11
450.0192253782005
 21
298.0968444167435
 31
0.0
  0
LINE
  5
170FF
330
1F
100
AcDbEntity
  8
003
100
AcDbLine
 10
370.0192253782006
 20
298.0968444167435
 30
0.0
 11
370.0192253782006
 21
283.0968444167435
 31
0.0
  0
LEADER
  5
17115
330
1F
100
AcDbEntity
  8
003
100
AcDbLeader
  3
DIM
 73
     0
 40
6.0
 41
42.23571428571427
 76
     3
 10
653.0788461027496
 20
336.9092757577821
 30
0.0
 10
644.7140334335582
 20
314.0222952934875
 30
0.0
 10
643.0822598864789
 20
314.0222952934875
 30
0.0
340
17116
1001
ACAD
1000
DSTYLE
1002
{
1070
   147
1040
1.0
1070
    77
1070
     1
1002
}
  0
MTEXT
  5
17116
102
{ACAD_REACTORS
330
17115
102
}
330
1F
100
AcDbEntity
  8
003
 62
     7
100
AcDbMText
 10
641.0822598864789
 20
316.0222952934875
 30
0.0
 40
6.0
 41
0.0
 71
     9
 72
     1
  1
20×40角パイプ
  7
DIM
 73
     1
 44
1.0
  0
LEADER
  5
17117
330
1F
100
AcDbEntity
  8
003
100
AcDbLeader
  3
DIM
 73
     0
 74
     0
 40
6.000000000000001
 41
55.09285714285714
 76
     3
 10
552.8265881585467
 20
354.1847694515591
 30
0.0
 10
571.5976874965039
 20
382.046752994656
 30
0.0
 10
571.6747124629959
 20
382.046752994656
 30
0.0
340
17118
1001
ACAD
1000
DSTYLE
1002
{
1070
   147
1040
1.0
1070
    77
1070
     1
1002
}
  0
MTEXT
  5
17118
102
{ACAD_REACTORS
330
17117
102
}
330
1F
100
AcDbEntity
  8
003
 62
     7
100
AcDbMText
 10
573.6747124629959
 20
384.046752994656
 30
0.0
 40
6.0
 41
0.0
 71
     7
 72
     1
  1
24.5×44.5角パイプ
  7
DIM
 73
     1
 44
1.0
  0
LINE
  5
17125
330
1F
100
AcDbEntity
  8
0
100
AcDbLine
 10
445.7822405535103
 20
110.922472250343
 30
0.0
 11
479.1422405535102
 21
110.922472250343
 31
0.0
  0
LINE
  5
17127
330
1F
100
AcDbEntity
  8
0
100
AcDbLine
 10
445.7822405535103
 20
100.922472250343
 30
0.0
 11
479.1422405535102
 21
100.922472250343
 31
0.0
  0
LINE
  5
17128
330
1F
100
AcDbEntity
  8
0
100
AcDbLine
 10
430.4622405535102
 20
115.242472250343
 30
0.0
 11
435.2822405535103
 21
120.0624722503429
 31
0.0
  0
LINE
  5
17129
330
1F
100
AcDbEntity
  8
0
100
AcDbLine
 10
430.9922405535102
 20
96.50247225034298
 30
0.0
 11
435.2822405535103
 21
100.7924722503429
 31
0.0
  0
LINE
  5
1712A
330
1F
100
AcDbEntity
  8
0
100
AcDbLine
 10
430.7222405535102
 20
106.222472250343
 30
0.0
 11
435.2822405535103
 21
110.7824722503429
 31
0.0
  0
LINE
  5
1712B
330
1F
100
AcDbEntity
  8
0
100
AcDbLine
 10
435.2822405535103
 20
91.77247225034296
 30
0.0
 11
435.2822405535103
 21
118.182472250343
 31
0.0
  0
LINE
  5
1712C
330
1F
100
AcDbEntity
  8
0
100
AcDbLine
 10
455.4622405535102
 20
105.922472250343
 30
0.0
 11
457.4422405535102
 21
103.942472250343
 31
0.0
  0
LINE
  5
1712D
330
1F
100
AcDbEntity
  8
0
100
AcDbLine
 10
455.4622405535102
 20
105.922472250343
 30
0.0
 11
457.5122405535103
 21
107.972472250343
 31
0.0
  0
LINE
  5
1712E
330
1F
100
AcDbEntity
  8
0
100
AcDbLine
 10
455.4622405535102
 20
105.922472250343
 30
0.0
 11
473.1822405535102
 21
105.922472250343
 31
0.0
  0
LINE
  5
1712F
330
1F
100
AcDbEntity
  8
0
100
AcDbLine
 10
435.2822405535103
 20
99.92247225034304
 30
0.0
 11
445.7822405535103
 21
99.92247225034304
 31
0.0
  0
LINE
  5
17130
330
1F
100
AcDbEntity
  8
0
100
AcDbLine
 10
435.2822405535103
 20
111.922472250343
 30
0.0
 11
445.7822405535103
 21
111.922472250343
 31
0.0
  0
LINE
  5
17131
330
1F
100
AcDbEntity
  8
0
100
AcDbLine
 10
435.2822405535103
 20
99.92247225034304
 30
0.0
 11
435.2822405535103
 21
111.922472250343
 31
0.0
  0
LINE
  5
17132
330
1F
100
AcDbEntity
  8
0
100
AcDbLine
 10
445.7822405535103
 20
99.92247225034304
 30
0.0
 11
445.7822405535103
 21
111.922472250343
 31
0.0
  0
LINE
  5
17133
330
1F
100
AcDbEntity
  8
0
100
AcDbLine
 10
435.2822405535103
 20
118.182472250343
 30
0.0
 11
435.2822405535103
 21
124.2924722503429
 31
0.0
  0
LINE
  5
17149
330
1F
100
AcDbEntity
  8
0
100
AcDbLine
 10
506.1422405535101
 20
110.922472250343
 30
0.0
 11
533.5222405535103
 21
110.922472250343
 31
0.0
  0
LINE
  5
1714A
330
1F
100
AcDbEntity
  8
0
100
AcDbLine
 10
521.4622405535102
 20
103.942472250343
 30
0.0
 11
523.4422405535102
 21
105.922472250343
 31
0.0
  0
LINE
  5
1714B
330
1F
100
AcDbEntity
  8
0
100
AcDbLine
 10
521.3922405535103
 20
107.972472250343
 30
0.0
 11
523.4422405535102
 21
105.922472250343
 31
0.0
  0
LINE
  5
1714C
330
1F
100
AcDbEntity
  8
0
100
AcDbLine
 10
505.7222405535102
 20
105.922472250343
 30
0.0
 11
523.4422405535102
 21
105.922472250343
 31
0.0
  0
LINE
  5
1714D
330
1F
100
AcDbEntity
  8
0
100
AcDbLine
 10
506.1422405535101
 20
100.922472250343
 30
0.0
 11
533.5222405535103
 21
100.922472250343
 31
0.0
  0
LINE
  5
1714E
330
1F
100
AcDbEntity
  8
0
100
AcDbLine
 10
479.1422405535102
 20
110.922472250343
 30
0.0
 11
506.1422405535101
 21
110.922472250343
 31
0.0
  0
LINE
  5
1714F
330
1F
100
AcDbEntity
  8
0
100
AcDbLine
 10
479.1422405535102
 20
100.922472250343
 30
0.0
 11
507.9722405535102
 21
100.922472250343
 31
0.0
  0
LINE
  5
17150
330
1F
100
AcDbEntity
  8
0
100
AcDbLine
 10
533.5222405535103
 20
111.922472250343
 30
0.0
 11
544.0222405535102
 21
111.922472250343
 31
0.0
  0
LINE
  5
17151
330
1F
100
AcDbEntity
  8
0
100
AcDbLine
 10
533.5222405535103
 20
99.92247225034304
 30
0.0
 11
544.0222405535102
 21
99.92247225034304
 31
0.0
  0
LINE
  5
17152
330
1F
100
AcDbEntity
  8
0
100
AcDbLine
 10
533.5222405535103
 20
99.92247225034304
 30
0.0
 11
533.5222405535103
 21
100.922472250343
 31
0.0
  0
LINE
  5
17153
330
1F
100
AcDbEntity
  8
0
100
AcDbLine
 10
533.5222405535103
 20
100.922472250343
 30
0.0
 11
533.5222405535103
 21
111.922472250343
 31
0.0
  0
LEADER
  5
17198
330
1F
100
AcDbEntity
  8
003
100
AcDbLeader
  3
DIM
 73
     0
 74
     0
 40
6.000000000000001
 41
55.09285714285714
 76
     3
 10
438.4955721969591
 20
103.2978690281364
 30
0.0
 10
460.0020451108152
 20
66.04756524973382
 30
0.0
 10
463.0056309994223
 20
66.04756524973382
 30
0.0
340
17199
1001
ACAD
1000
DSTYLE
1002
{
1070
   147
1040
1.0
1070
    77
1070
     1
1002
}
  0
MTEXT
  5
17199
102
{ACAD_REACTORS
330
17198
102
}
330
1F
100
AcDbEntity
  8
003
 62
     7
100
AcDbMText
 10
465.0056309994223
 20
68.04756524973382
 30
0.0
 40
6.0
 41
0.0
 71
     7
 72
     1
  1
24.5×44.5角パイプ
  7
DIM
 73
     1
 44
1.0
  0
LEADER
  5
1719A
330
1F
100
AcDbEntity
  8
003
100
AcDbLeader
  3
DIM
 73
     0
 74
     0
 40
6.0
 41
42.23571428571427
 76
     3
 10
483.164838618502
 20
101.7470171406641
 30
0.0
 10
493.9180750754299
 20
83.12186525146287
 30
0.0
 10
495.0389300620608
 20
83.12186525146287
 30
0.0
340
1719B
1001
ACAD
1000
DSTYLE
1002
{
1070
   147
1040
1.0
1070
    77
1070
     1
1002
}
  0
MTEXT
  5
1719B
102
{ACAD_REACTORS
330
1719A
102
}
330
1F
100
AcDbEntity
  8
003
 62
     7
100
AcDbMText
 10
497.0389300620609
 20
85.12186525146288
 30
0.0
 40
6.0
 41
0.0
 71
     7
 72
     1
  1
20×40角パイプ
  7
DIM
 73
     1
 44
1.0
  0
LINE
  5
1719C
330
1F
100
AcDbEntity
  8
003
100
AcDbLine
 10
107.2218498058131
 20
182.6495738426534
 30
0.0
 11
107.2218498058131
 21
50.64461346611892
 31
0.0
  0
LINE
  5
1719D
330
1F
100
AcDbEntity
  8
003
100
AcDbLine
 10
588.2725235235888
 20
182.6495738426533
 30
0.0
 11
588.2725235235888
 21
50.64461346611889
 31
0.0
  0
LINE
  5
1719E
330
1F
100
AcDbEntity
  8
003
100
AcDbLine
 10
588.2725235235888
 20
50.64461346611889
 30
0.0
 11
107.2218498058131
 21
50.64461346611892
 31
0.0
  0
LINE
  5
1719F
330
1F
100
AcDbEntity
  8
003
100
AcDbLine
 10
107.2218498058131
 20
182.6495738426534
 30
0.0
 11
588.2725235235888
 21
182.6495738426533
 31
0.0
  0
LINE
  5
1726A
330
1F
100
AcDbEntity
  8
0
100
AcDbLine
 10
317.9628276318242
 20
404.6528041365384
 30
0.0
 11
337.7128276318241
 21
424.4028041365383
 31
0.0
  0
LINE
  5
1726B
330
1F
100
AcDbEntity
  8
0
100
AcDbLine
 10
317.9628276318241
 20
394.6528041365383
 30
0.0
 11
342.9628276318242
 21
419.6528041365384
 31
0.0
  0
LINE
  5
1726C
330
1F
100
AcDbEntity
  8
0
100
AcDbLine
 10
317.9628276318242
 20
384.6528041365384
 30
0.0
 11
342.9628276318242
 21
409.6528041365384
 31
0.0
  0
LINE
  5
1726D
330
1F
100
AcDbEntity
  8
0
100
AcDbLine
 10
317.962827631824
 20
374.6528041365383
 30
0.0
 11
342.9628276318241
 21
399.6528041365384
 31
0.0
  0
LINE
  5
1726E
330
1F
100
AcDbEntity
  8
0
100
AcDbLine
 10
317.962827631824
 20
354.6528041365383
 30
0.0
 11
342.9628276318241
 21
379.6528041365385
 31
0.0
  0
LINE
  5
1726F
330
1F
100
AcDbEntity
  8
0
100
AcDbLine
 10
317.9628276318242
 20
364.6528041365385
 30
0.0
 11
342.9628276318242
 21
389.6528041365385
 31
0.0
  0
LINE
  5
17270
330
1F
100
AcDbEntity
  8
0
100
AcDbLine
 10
327.712827631824
 20
344.4028041365383
 30
0.0
 11
342.9628276318241
 21
359.6528041365385
 31
0.0
  0
LINE
  5
17271
330
1F
100
AcDbEntity
  8
0
100
AcDbLine
 10
317.9628276318242
 20
344.6528041365385
 30
0.0
 11
342.9628276318242
 21
369.6528041365385
 31
0.0
  0
LINE
  5
17272
330
1F
100
AcDbEntity
  8
0
100
AcDbLine
 10
337.7128276318239
 20
344.4028041365383
 30
0.0
 11
342.9628276318242
 21
349.6528041365386
 31
0.0
  0
LINE
  5
17273
330
1F
100
AcDbEntity
  8
0
100
AcDbLine
 10
317.9628276318242
 20
414.6528041365384
 30
0.0
 11
327.712827631824
 21
424.4028041365383
 31
0.0
  0
LINE
  5
17274
330
1F
100
AcDbEntity
  8
007
100
AcDbLine
 10
325.9628276318241
 20
394.4028041365382
 30
0.0
 11
322.9628276318241
 21
392.4028041365382
 31
0.0
  0
LINE
  5
17275
330
1F
100
AcDbEntity
  8
007
100
AcDbLine
 10
322.9628276318241
 20
392.4028041365382
 30
0.0
 11
325.9628276318241
 21
390.4028041365382
 31
0.0
  0
LINE
  5
17276
330
1F
100
AcDbEntity
  8
007
100
AcDbLine
 10
323.3828276318241
 20
392.6828041365382
 30
0.0
 11
323.5128276318242
 21
392.0328041365382
 31
0.0
  0
LINE
  5
17277
330
1F
100
AcDbEntity
  8
007
100
AcDbLine
 10
324.8828276318241
 20
393.6828041365382
 30
0.0
 11
325.4928276318242
 21
390.7228041365381
 31
0.0
  0
LINE
  5
17278
330
1F
100
AcDbEntity
  8
007
100
AcDbLine
 10
328.132827631824
 20
394.4028041365382
 30
0.0
 11
328.9528276318241
 21
390.4028041365382
 31
0.0
  0
LINE
  5
17279
330
1F
100
AcDbEntity
  8
007
100
AcDbLine
 10
326.4328276318241
 20
394.4028041365382
 30
0.0
 11
327.2528276318242
 21
390.4028041365382
 31
0.0
  0
LINE
  5
1727A
330
1F
100
AcDbEntity
  8
007
100
AcDbLine
 10
334.9328276318241
 20
394.4028041365382
 30
0.0
 11
335.7528276318242
 21
390.4028041365382
 31
0.0
  0
LINE
  5
1727B
330
1F
100
AcDbEntity
  8
007
100
AcDbLine
 10
331.5328276318242
 20
394.4028041365382
 30
0.0
 11
332.3528276318241
 21
390.4028041365382
 31
0.0
  0
LINE
  5
1727C
330
1F
100
AcDbEntity
  8
007
100
AcDbLine
 10
329.8328276318241
 20
394.4028041365382
 30
0.0
 11
330.6528276318242
 21
390.4028041365382
 31
0.0
  0
LINE
  5
1727D
330
1F
100
AcDbEntity
  8
007
100
AcDbLine
 10
333.2328276318242
 20
394.4028041365382
 30
0.0
 11
334.0528276318242
 21
390.4028041365382
 31
0.0
  0
LINE
  5
1727E
330
1F
100
AcDbEntity
  8
007
100
AcDbLine
 10
325.9628276318241
 20
390.4028041365382
 30
0.0
 11
342.9628276318241
 21
390.4028041365382
 31
0.0
  0
LINE
  5
1727F
330
1F
100
AcDbEntity
  8
007
100
AcDbLine
 10
325.9628276318241
 20
394.4028041365382
 30
0.0
 11
342.9628276318241
 21
394.4028041365382
 31
0.0
  0
LINE
  5
17280
330
1F
100
AcDbEntity
  8
006
100
AcDbLine
 10
350.9628276318242
 20
392.4028041365382
 30
0.0
 11
319.1719261658237
 21
392.4028041365377
 31
0.0
  0
LINE
  5
17281
330
1F
100
AcDbEntity
  8
007
100
AcDbLine
 10
336.632827631824
 20
394.4028041365382
 30
0.0
 11
337.4528276318241
 21
390.4028041365382
 31
0.0
  0
LINE
  5
17282
330
1F
100
AcDbEntity
  8
007
100
AcDbLine
 10
338.3328276318241
 20
394.4028041365382
 30
0.0
 11
339.1528276318242
 21
390.4028041365382
 31
0.0
  0
LINE
  5
17283
330
1F
100
AcDbEntity
  8
007
100
AcDbLine
 10
340.0328276318242
 20
394.4028041365382
 30
0.0
 11
340.8528276318241
 21
390.4028041365382
 31
0.0
  0
LINE
  5
17284
330
1F
100
AcDbEntity
  8
007
100
AcDbLine
 10
341.7328276318242
 20
394.4028041365382
 30
0.0
 11
342.5528276318241
 21
390.4028041365382
 31
0.0
  0
ARC
  5
17285
330
1F
100
AcDbEntity
  8
007
100
AcDbCircle
 10
344.0628276318241
 20
394.7028041365381
 30
0.0
 40
1.199999999999999
100
AcDbArc
 50
0.0
 51
90.0
  0
LINE
  5
17286
330
1F
100
AcDbEntity
  8
007
100
AcDbLine
 10
342.9628276318241
 20
395.9028041365382
 30
0.0
 11
342.9628276318241
 21
388.9028041365382
 31
0.0
  0
ARC
  5
17287
330
1F
100
AcDbEntity
  8
007
100
AcDbCircle
 10
344.0628276318241
 20
390.1028041365382
 30
0.0
 40
1.199999999999999
100
AcDbArc
 50
270.0
 51
0.0
  0
LINE
  5
17288
330
1F
100
AcDbEntity
  8
007
100
AcDbLine
 10
342.9628276318241
 20
388.9028041365382
 30
0.0
 11
344.0628276318241
 21
388.9028041365382
 31
0.0
  0
LINE
  5
17289
330
1F
100
AcDbEntity
  8
007
100
AcDbLine
 10
345.2628276318242
 20
394.7028041365381
 30
0.0
 11
345.2628276318242
 21
390.1028041365382
 31
0.0
  0
LINE
  5
1728A
330
1F
100
AcDbEntity
  8
007
100
AcDbLine
 10
342.9628276318241
 20
395.9028041365382
 30
0.0
 11
344.0628276318241
 21
395.9028041365382
 31
0.0
  0
LINE
  5
1728B
330
1F
100
AcDbEntity
  8
007
100
AcDbLine
 10
338.3328276318241
 20
378.4028041365382
 30
0.0
 11
339.1528276318242
 21
374.4028041365382
 31
0.0
  0
LINE
  5
1728C
330
1F
100
AcDbEntity
  8
007
100
AcDbLine
 10
325.9628276318241
 20
374.4028041365382
 30
0.0
 11
342.9628276318241
 21
374.4028041365382
 31
0.0
  0
LINE
  5
1728D
330
1F
100
AcDbEntity
  8
007
100
AcDbLine
 10
325.9628276318241
 20
378.4028041365382
 30
0.0
 11
342.9628276318241
 21
378.4028041365382
 31
0.0
  0
LINE
  5
1728E
330
1F
100
AcDbEntity
  8
006
100
AcDbLine
 10
350.9628276318242
 20
376.4028041365382
 30
0.0
 11
319.1719261658237
 21
376.4028041365377
 31
0.0
  0
LINE
  5
1728F
330
1F
100
AcDbEntity
  8
007
100
AcDbLine
 10
328.132827631824
 20
378.4028041365382
 30
0.0
 11
328.9528276318241
 21
374.4028041365382
 31
0.0
  0
LINE
  5
17290
330
1F
100
AcDbEntity
  8
007
100
AcDbLine
 10
329.8328276318241
 20
378.4028041365382
 30
0.0
 11
330.6528276318242
 21
374.4028041365382
 31
0.0
  0
LINE
  5
17291
330
1F
100
AcDbEntity
  8
007
100
AcDbLine
 10
325.9628276318241
 20
378.4028041365382
 30
0.0
 11
322.9628276318241
 21
376.4028041365382
 31
0.0
  0
LINE
  5
17292
330
1F
100
AcDbEntity
  8
007
100
AcDbLine
 10
322.9628276318241
 20
376.4028041365382
 30
0.0
 11
325.9628276318241
 21
374.4028041365382
 31
0.0
  0
LINE
  5
17293
330
1F
100
AcDbEntity
  8
007
100
AcDbLine
 10
323.3828276318241
 20
376.6828041365382
 30
0.0
 11
323.5128276318242
 21
376.0328041365382
 31
0.0
  0
LINE
  5
17294
330
1F
100
AcDbEntity
  8
007
100
AcDbLine
 10
324.8828276318241
 20
377.6828041365381
 30
0.0
 11
325.4928276318242
 21
374.7228041365381
 31
0.0
  0
LINE
  5
17295
330
1F
100
AcDbEntity
  8
007
100
AcDbLine
 10
326.4328276318241
 20
378.4028041365382
 30
0.0
 11
327.2528276318242
 21
374.4028041365382
 31
0.0
  0
LINE
  5
17296
330
1F
100
AcDbEntity
  8
007
100
AcDbLine
 10
336.632827631824
 20
378.4028041365382
 30
0.0
 11
337.4528276318241
 21
374.4028041365382
 31
0.0
  0
LINE
  5
17297
330
1F
100
AcDbEntity
  8
007
100
AcDbLine
 10
331.5328276318242
 20
378.4028041365382
 30
0.0
 11
332.3528276318241
 21
374.4028041365382
 31
0.0
  0
LINE
  5
17298
330
1F
100
AcDbEntity
  8
007
100
AcDbLine
 10
333.2328276318242
 20
378.4028041365382
 30
0.0
 11
334.0528276318242
 21
374.4028041365382
 31
0.0
  0
LINE
  5
17299
330
1F
100
AcDbEntity
  8
007
100
AcDbLine
 10
334.9328276318241
 20
378.4028041365382
 30
0.0
 11
335.7528276318242
 21
374.4028041365382
 31
0.0
  0
ARC
  5
1729A
330
1F
100
AcDbEntity
  8
007
100
AcDbCircle
 10
344.0628276318241
 20
378.7028041365382
 30
0.0
 40
1.199999999999999
100
AcDbArc
 50
0.0
 51
90.0
  0
ARC
  5
1729B
330
1F
100
AcDbEntity
  8
007
100
AcDbCircle
 10
344.0628276318241
 20
374.1028041365382
 30
0.0
 40
1.199999999999999
100
AcDbArc
 50
270.0
 51
0.0
  0
LINE
  5
1729C
330
1F
100
AcDbEntity
  8
007
100
AcDbLine
 10
345.2628276318242
 20
378.7028041365382
 30
0.0
 11
345.2628276318242
 21
374.1028041365382
 31
0.0
  0
LINE
  5
1729D
330
1F
100
AcDbEntity
  8
007
100
AcDbLine
 10
340.0328276318242
 20
378.4028041365382
 30
0.0
 11
340.8528276318241
 21
374.4028041365382
 31
0.0
  0
LINE
  5
1729E
330
1F
100
AcDbEntity
  8
007
100
AcDbLine
 10
341.7328276318242
 20
378.4028041365382
 30
0.0
 11
342.5528276318241
 21
374.4028041365382
 31
0.0
  0
LINE
  5
1729F
330
1F
100
AcDbEntity
  8
007
100
AcDbLine
 10
342.9628276318241
 20
379.9028041365382
 30
0.0
 11
342.9628276318241
 21
372.9028041365382
 31
0.0
  0
LINE
  5
172A0
330
1F
100
AcDbEntity
  8
007
100
AcDbLine
 10
342.9628276318241
 20
372.9028041365382
 30
0.0
 11
344.0628276318241
 21
372.9028041365382
 31
0.0
  0
LINE
  5
172A1
330
1F
100
AcDbEntity
  8
007
100
AcDbLine
 10
342.9628276318241
 20
379.9028041365382
 30
0.0
 11
344.0628276318241
 21
379.9028041365382
 31
0.0
  0
LINE
  5
172A2
330
1F
100
AcDbEntity
  8
0
100
AcDbLine
 10
544.0222405535102
 20
91.77247225034296
 30
0.0
 11
544.0222405535102
 21
118.182472250343
 31
0.0
  0
LINE
  5
172A3
330
1F
100
AcDbEntity
  8
0
100
AcDbLine
 10
548.3122405535103
 20
96.50247225034298
 30
0.0
 11
544.0222405535102
 21
100.7924722503429
 31
0.0
  0
LINE
  5
172A4
330
1F
100
AcDbEntity
  8
0
100
AcDbLine
 10
548.5822405535102
 20
106.222472250343
 30
0.0
 11
544.0222405535102
 21
110.7824722503429
 31
0.0
  0
LINE
  5
172A5
330
1F
100
AcDbEntity
  8
0
100
AcDbLine
 10
548.8422405535103
 20
115.242472250343
 30
0.0
 11
544.0222405535102
 21
120.0624722503429
 31
0.0
  0
LINE
  5
172A6
330
1F
100
AcDbEntity
  8
0
100
AcDbLine
 10
544.0222405535102
 20
118.182472250343
 30
0.0
 11
544.0222405535102
 21
124.2924722503429
 31
0.0
  0
DIMENSION
  5
177BE
330
1F
100
AcDbEntity
  8
003
100
AcDbDimension
  2
*D2
 10
731.783114469756
 20
276.0309622390466
 30
0.0
 11
636.9823950505613
 21
281.0309622390466
 31
0.0
 70
    32
  1
開口W
 71
     5
 42
189.6014388383894
  3
DIM
100
AcDbAlignedDimension
 13
542.1816756313666
 23
312.6894211555722
 33
0.0
 14
731.783114469756
 24
312.6894211555722
 34
0.0
100
AcDbRotatedDimension
  0
DIMENSION
  5
177E6
330
1F
100
AcDbEntity
  8
003
100
AcDbDimension
  2
*D3
 10
691.7831144697561
 20
290.0309622390466
 30
0.0
 11
711.7831144697561
 21
295.0309622390467
 31
0.0
 70
    32
 71
     5
 42
39.99999999999989
  3
DIM
100
AcDbAlignedDimension
 13
731.783114469756
 23
312.6894211555722
 33
0.0
 14
691.7831144697561
 24
330.4394211555723
 34
0.0
100
AcDbRotatedDimension
  0
DIMENSION
  5
17816
330
1F
100
AcDbEntity
  8
003
100
AcDbDimension
  2
*D4
 10
582.1816756313665
 20
290.0309622390466
 30
0.0
 11
562.1816756313664
 21
295.0309622390467
 31
0.0
 70
    32
 71
     5
 42
39.99999999999989
  3
DIM
100
AcDbAlignedDimension
 13
542.1816756313666
 23
312.6894211555722
 33
0.0
 14
582.1816756313665
 24
330.4394211555723
 34
0.0
 50
180.0
100
AcDbRotatedDimension
  0
DIMENSION
  5
17886
330
1F
100
AcDbEntity
  8
003
100
AcDbDimension
  2
*D5
 10
310.3851438307249
 20
376.4028041365377
 30
0.0
 11
305.3851438307249
 21
384.4028041365378
 31
0.0
 70
    32
 71
     5
 42
16.0
  3
DIM
100
AcDbAlignedDimension
 13
319.1719261658237
 23
392.4028041365377
 33
0.0
 14
319.1719261658237
 24
376.4028041365377
 34
0.0
 50
90.0
100
AcDbRotatedDimension
  0
LINE
  5
17A97
330
1F
100
AcDbEntity
  8
003
100
AcDbLine
 10
230.7811035763883
 20
289.4028041365388
 30
0.0
 11
235.1943564946622
 21
293.8160570548127
 31
0.0
  0
LINE
  5
17A98
330
1F
100
AcDbEntity
  8
003
100
AcDbLine
 10
230.781103576388
 20
465.2537820967048
 30
0.0
 11
235.1943564946622
 21
469.667035014979
 31
0.0
  0
LINE
  5
17AD8
330
1F
100
AcDbEntity
  8
003
100
AcDbLine
 10
756.7831144697562
 20
317.1026740738464
 30
0.0
 11
752.3698615514821
 21
312.6894211555722
 31
0.0
  0
LINE
  5
17AD9
330
1F
100
AcDbEntity
  8
003
100
AcDbLine
 10
542.1816756313667
 20
317.1026740738464
 30
0.0
 11
537.7684227130925
 21
312.6894211555721
 31
0.0
  0
TEXT
  5
19C9E
330
1F
100
AcDbEntity
  8
0
  6
Continuous
 62
     7
100
AcDbText
 10
119.2118498058131
 20
174.3695738426535
 30
0.0
 40
6.0
  1
取付手順
  7
AT_VECTOR
100
AcDbText
  0
TEXT
  5
19C9F
330
1F
100
AcDbEntity
  8
0
  6
Continuous
 62
     7
100
AcDbText
 10
122.2318498058131
 20
158.6543375819411
 30
0.0
 40
6.0
  1
（１）両壁に３２×３８×３２チャンネルをＭ４×２０のビスで止める。
  7
AT_VECTOR
100
AcDbText
  0
TEXT
  5
19CA0
330
1F
100
AcDbEntity
  8
0
  6
Continuous
 62
     7
100
AcDbText
 10
122.2318498058131
 20
149.9343375819411
 30
0.0
 40
6.0
  1
（２）２０×４０角パイプに２４．５×４４．５角パイプ（Ｌ＝４０）２個を入れる
  7
AT_VECTOR
100
AcDbText
  0
TEXT
  5
19CA1
330
1F
100
AcDbEntity
  8
0
  6
Continuous
 62
     7
100
AcDbText
 10
122.2318498058131
 20
140.9980580732865
 30
0.0
 40
6.0
  1
（３）（１）のチャンネルに（２）の角パイプを合わせる
  7
AT_VECTOR
100
AcDbText
  0
TEXT
  5
19CA2
330
1F
100
AcDbEntity
  8
0
  6
Continuous
 62
     7
100
AcDbText
 10
122.2318498058131
 20
131.6880580732866
 30
0.0
 40
6.0
  1
（４）（２）の２４．５×４４．５角パイプを端部へ寄せチャンネルにＭ４×４１
  7
AT_VECTOR
100
AcDbText
  0
LINE
  5
19CCA
330
1F
100
AcDbEntity
  8
0
  6
Continuous
 62
     7
100
AcDbLine
 10
117.1818498058131
 20
173.7395738426535
 30
0.0
 11
150.9618498058131
 21
173.7395738426535
 31
0.0
  0
TEXT
  5
19CD6
330
1F
100
AcDbEntity
  8
0
  6
Continuous
 62
     7
100
AcDbText
 10
122.1518498058131
 20
122.7180580732865
 30
0.0
 40
6.0
  1
　　　　のビスで止める。
  7
AT_VECTOR
100
AcDbText
  0
LINE
  5
19FD4
330
1F
100
AcDbEntity
  8
007
100
AcDbLine
 10
382.9628276318242
 20
404.4028041365386
 30
0.0
 11
348.9628276318242
 21
404.4028041365383
 31
0.0
  0
DIMENSION
  5
19FD5
330
1F
100
AcDbEntity
  8
003
100
AcDbDimension
  2
*D6
 10
342.9628276318242
 20
421.761343781553
 30
0.0
 11
362.9628276318242
 21
426.761343781553
 31
0.0
 70
    32
 71
     5
 42
39.99999999999995
  3
DIM
100
AcDbAlignedDimension
 13
382.9628276318242
 23
406.4028041365384
 33
0.0
 14
342.9628276318242
 24
424.4028041365383
 34
0.0
 50
180.0
100
AcDbRotatedDimension
  0
LINE
  5
19FD6
330
1F
100
AcDbEntity
  8
007
100
AcDbLine
 10
342.9628276318242
 20
402.1528041365383
 30
0.0
 11
374.9628276318242
 21
402.1528041365383
 31
0.0
  0
LINE
  5
19FD7
330
1F
100
AcDbEntity
  8
007
100
AcDbLine
 10
344.9628276318242
 20
400.1528041365384
 30
0.0
 11
374.9628276318242
 21
400.1528041365384
 31
0.0
  0
LINE
  5
19FD8
330
1F
100
AcDbEntity
  8
007
100
AcDbLine
 10
342.9628276318242
 20
404.6528041365384
 30
0.0
 11
382.9628276318242
 21
404.6528041365384
 31
0.0
  0
LINE
  5
19FD9
330
1F
100
AcDbEntity
  8
003
100
AcDbLine
 10
342.9628276318242
 20
406.6528041365383
 30
0.0
 11
382.9628276318242
 21
406.6528041365383
 31
0.0
  0
LINE
  5
19FDB
330
1F
100
AcDbEntity
  8
007
100
AcDbLine
 10
352.9628276318226
 20
366.1528041365384
 30
0.0
 11
354.9628276318226
 21
364.1528041365384
 31
0.0
  0
LINE
  5
19FDC
330
1F
100
AcDbEntity
  8
007
100
AcDbLine
 10
344.9628276318242
 20
366.1528041365384
 30
0.0
 11
374.9628276318239
 21
366.1528041365386
 31
0.0
  0
LINE
  5
19FDD
330
1F
100
AcDbEntity
  8
007
100
AcDbLine
 10
342.9628276318242
 20
364.1528041365384
 30
0.0
 11
382.9628276318239
 21
364.1528041365386
 31
0.0
  0
LINE
  5
19FDE
330
1F
100
AcDbEntity
  8
003
100
AcDbLine
 10
342.9628276318242
 20
362.1528041365386
 30
0.0
 11
382.9628276318239
 21
362.1528041365386
 31
0.0
  0
DIMENSION
  5
19FDF
330
1F
100
AcDbEntity
  8
003
  6
Continuous
100
AcDbDimension
  2
*D7
 10
357.9628276318239
 20
341.3287722978284
 30
0.0
 11
350.4628276318241
 21
346.3287722978285
 31
0.0
 70
    32
 71
     5
 42
14.99999999999977
  3
DIM
100
AcDbAlignedDimension
 13
342.9628276318242
 23
362.1528041365386
 33
0.0
 14
357.9628276318239
 24
357.1528041365384
 34
0.0
100
AcDbRotatedDimension
  0
LINE
  5
19FE0
330
1F
100
AcDbEntity
  8
007
100
AcDbLine
 10
436.4127485819901
 20
402.402804136539
 30
0.0
 11
348.9628276318239
 21
402.4028041365384
 31
0.0
  0
LINE
  5
19FE1
330
1F
100
AcDbEntity
  8
006
100
AcDbLine
 10
357.9628276318239
 20
357.1528041365384
 30
0.0
 11
357.9628276318244
 21
411.6528041365386
 31
0.0
  0
LINE
  5
19FE2
330
1F
100
AcDbEntity
  8
007
100
AcDbLine
 10
359.5628276318243
 20
372.1528041365386
 30
0.0
 11
359.5628276318243
 21
401.4128041365386
 31
0.0
  0
LINE
  5
19FE3
330
1F
100
AcDbEntity
  8
007
100
AcDbLine
 10
356.3628276318245
 20
372.1528041365386
 30
0.0
 11
356.3628276318245
 21
401.4128041365386
 31
0.0
  0
LINE
  5
19FE4
330
1F
100
AcDbEntity
  8
003
100
AcDbLine
 10
382.9628276318242
 20
406.6528041365383
 30
0.0
 11
382.9628276318239
 21
362.1528041365386
 31
0.0
  0
LINE
  5
19FE5
330
1F
100
AcDbEntity
  8
006
100
AcDbLine
 10
369.9628276318239
 20
357.1528041365384
 30
0.0
 11
369.9628276318244
 21
411.6528041365386
 31
0.0
  0
LINE
  5
19FE6
330
1F
100
AcDbEntity
  8
007
100
AcDbLine
 10
368.3628276318245
 20
372.1528041365386
 30
0.0
 11
368.3628276318245
 21
401.4128041365386
 31
0.0
  0
LINE
  5
19FE7
330
1F
100
AcDbEntity
  8
007
100
AcDbLine
 10
371.5628276318243
 20
372.1528041365386
 30
0.0
 11
371.5628276318243
 21
401.4128041365386
 31
0.0
  0
DIMENSION
  5
19FE8
330
1F
100
AcDbEntity
  8
003
  6
Continuous
100
AcDbDimension
  2
*D8
 10
421.7792110335755
 20
364.4028041365384
 30
0.0
 11
416.7792110335755
 21
384.4028041365385
 31
0.0
 70
    32
 71
     5
 42
40.0
  3
DIM
100
AcDbAlignedDimension
 13
418.0576226762522
 23
404.4028041365383
 33
0.0
 14
418.0576226762522
 24
364.4028041365384
 34
0.0
 50
90.0
100
AcDbRotatedDimension
  0
DIMENSION
  5
19FE9
330
1F
100
AcDbEntity
  8
003
  6
Continuous
100
AcDbDimension
  2
*D9
 10
399.2240296851825
 20
362.1528041365386
 30
0.0
 11
394.2240296851825
 21
384.4028041365386
 31
0.0
 70
    32
 71
     5
 42
44.49999999999977
  3
DIM
100
AcDbAlignedDimension
 13
382.9628276318242
 23
406.6528041365383
 33
0.0
 14
382.9628276318239
 24
362.1528041365386
 34
0.0
 50
90.0
100
AcDbRotatedDimension
  0
LINE
  5
19FEA
330
1F
100
AcDbEntity
  8
007
100
AcDbLine
 10
436.4127485819901
 20
366.4028041365384
 30
0.0
 11
376.9628276318239
 21
366.4028041365384
 31
0.0
  0
LINE
  5
19FEB
330
1F
100
AcDbEntity
  8
003
100
AcDbLine
 10
382.9628276318242
 20
364.4028041365384
 30
0.0
 11
436.4127485819901
 21
364.4028041365384
 31
0.0
  0
LEADER
  5
19FEC
330
1F
100
AcDbEntity
  8
003
  6
Continuous
100
AcDbLeader
  3
DIM
 73
     0
 74
     0
 40
6.0
 41
18.08571428571429
 76
     3
 10
369.962827631824
 20
362.1528041365386
 30
0.0
 10
394.6576857945298
 20
319.3800551130254
 30
0.0
 10
395.320679623068
 20
319.3800551130254
 30
0.0
340
19FED
1001
ACAD
1000
DSTYLE
1002
{
1070
   147
1040
1.0
1070
    77
1070
     1
1002
}
  0
MTEXT
  5
19FED
102
{ACAD_REACTORS
330
19FEC
102
}
330
1F
100
AcDbEntity
  8
003
  6
Continuous
 62
     7
100
AcDbMText
 10
397.320679623068
 20
321.3800551130254
 30
0.0
 40
6.0
 41
0.0
 71
     7
 72
     1
  1
Ｍ4ビス
  7
DIM
 73
     1
 44
1.0
  0
DIMENSION
  5
19FF0
330
1F
100
AcDbEntity
  8
003
  6
Continuous
100
AcDbDimension
  2
*D10
 10
369.9628276318239
 20
341.3287722978284
 30
0.0
 11
363.9628276318239
 21
346.3287722978285
 31
0.0
 70
    32
 71
     5
 42
12.0
  3
DIM
100
AcDbAlignedDimension
 13
357.9628276318239
 23
357.1528041365384
 33
0.0
 14
369.9628276318239
 24
357.1528041365384
 34
0.0
100
AcDbRotatedDimension
1001
ACAD
1000
DSTYLE
1002
{
1070
   279
1070
     1
1002
}
  0
LINE
  5
19FF1
330
1F
100
AcDbEntity
  8
007
100
AcDbLine
 10
376.9628276318239
 20
366.4028041365384
 30
0.0
 11
376.9628276318239
 21
364.4028041365384
 31
0.0
  0
LINE
  5
19FF2
330
1F
100
AcDbEntity
  8
007
100
AcDbLine
 10
382.9628276318239
 20
364.4028041365384
 30
0.0
 11
376.9628276318239
 21
364.4028041365384
 31
0.0
  0
LINE
  5
19FF3
330
1F
100
AcDbEntity
  8
007
100
AcDbLine
 10
355.9628276318244
 20
364.4528041365386
 30
0.0
 11
355.9628276318244
 21
372.1528041365386
 31
0.0
  0
LINE
  5
19FF4
330
1F
100
AcDbEntity
  8
007
100
AcDbLine
 10
359.9628276318244
 20
364.4528041365386
 30
0.0
 11
359.9628276318244
 21
372.1528041365386
 31
0.0
  0
LINE
  5
19FF5
330
1F
100
AcDbEntity
  8
007
100
AcDbLine
 10
367.9628276318244
 20
364.4528041365386
 30
0.0
 11
367.9628276318244
 21
372.1528041365386
 31
0.0
  0
LINE
  5
19FF6
330
1F
100
AcDbEntity
  8
007
100
AcDbLine
 10
371.9628276318244
 20
364.4528041365386
 30
0.0
 11
371.9628276318244
 21
372.1528041365386
 31
0.0
  0
LINE
  5
19FF7
330
1F
100
AcDbEntity
  8
007
100
AcDbLine
 10
366.4628276318244
 20
362.1528041365386
 30
0.0
 11
367.9628276318244
 21
364.4528041365386
 31
0.0
  0
LINE
  5
19FF8
330
1F
100
AcDbEntity
  8
007
100
AcDbLine
 10
371.9628276318244
 20
364.4528041365386
 30
0.0
 11
373.4628276318244
 21
362.1528041365386
 31
0.0
  0
LINE
  5
19FF9
330
1F
100
AcDbEntity
  8
007
100
AcDbLine
 10
374.9628276318239
 20
366.1528041365386
 30
0.0
 11
374.9628276318242
 21
364.1528041365386
 31
0.0
  0
LINE
  5
19FFA
330
1F
100
AcDbEntity
  8
007
100
AcDbLine
 10
368.9628276318225
 20
366.1528041365386
 30
0.0
 11
370.9628276318226
 21
364.1528041365384
 31
0.0
  0
LINE
  5
19FFB
330
1F
100
AcDbEntity
  8
007
100
AcDbLine
 10
354.4628276318244
 20
362.1528041365386
 30
0.0
 11
355.9628276318244
 21
364.4528041365386
 31
0.0
  0
LINE
  5
19FFC
330
1F
100
AcDbEntity
  8
007
100
AcDbLine
 10
359.9628276318244
 20
364.4528041365386
 30
0.0
 11
361.4628276318244
 21
362.1528041365386
 31
0.0
  0
LINE
  5
19FFD
330
1F
100
AcDbEntity
  8
007
100
AcDbLine
 10
360.9628276318223
 20
366.1528041365386
 30
0.0
 11
362.9628276318223
 21
364.1528041365384
 31
0.0
  0
LINE
  5
19FFE
330
1F
100
AcDbEntity
  8
007
100
AcDbLine
 10
367.9628276318244
 20
372.1528041365386
 30
0.0
 11
371.9628276318244
 21
372.1528041365386
 31
0.0
  0
LINE
  5
19FFF
330
1F
100
AcDbEntity
  8
007
100
AcDbLine
 10
355.9628276318244
 20
372.1528041365386
 30
0.0
 11
359.9628276318244
 21
372.1528041365386
 31
0.0
  0
LEADER
  5
1A000
330
1F
100
AcDbEntity
  8
003
  6
Continuous
100
AcDbLeader
  3
DIM
 73
     0
 74
     0
 40
6.0
 41
42.23571428571427
 76
     3
 10
408.3928378285847
 20
397.0866533564128
 30
0.0
 10
399.6860241946395
 20
414.2965988084148
 30
0.0
 10
401.9681001324316
 20
414.2965988084148
 30
0.0
340
1A001
1001
ACAD
1000
DSTYLE
1002
{
1070
   147
1040
1.0
1070
    77
1070
     1
1002
}
  0
MTEXT
  5
1A001
102
{ACAD_REACTORS
330
1A000
102
}
330
1F
100
AcDbEntity
  8
003
  6
Continuous
 62
     7
100
AcDbMText
 10
403.9681001324316
 20
416.2965988084147
 30
0.0
 40
6.0
 41
0.0
 71
     7
 72
     1
  1
20×40角パイプ
  7
DIM
 73
     1
 44
1.0
  0
LINE
  5
1A002
330
1F
100
AcDbEntity
  8
003
100
AcDbLine
 10
382.9628276318242
 20
404.4028041365383
 30
0.0
 11
436.4127485819901
 21
404.4028041365383
 31
0.0
  0
LINE
  5
1A003
330
1F
100
AcDbEntity
  8
007
100
AcDbLine
 10
364.9628276318239
 20
402.1528041365383
 30
0.0
 11
366.9628276318239
 21
400.1528041365384
 31
0.0
  0
LINE
  5
1A004
330
1F
100
AcDbEntity
  8
007
100
AcDbLine
 10
367.9628276318244
 20
400.1528041365384
 30
0.0
 11
367.9628276318244
 21
402.1528041365383
 31
0.0
  0
LINE
  5
1A005
330
1F
100
AcDbEntity
  8
007
100
AcDbLine
 10
372.9628276318244
 20
402.1528041365383
 30
0.0
 11
374.9628276318242
 21
400.1528041365384
 31
0.0
  0
LINE
  5
1A006
330
1F
100
AcDbEntity
  8
007
100
AcDbLine
 10
371.9628276318244
 20
400.1528041365384
 30
0.0
 11
371.9628276318244
 21
402.1528041365383
 31
0.0
  0
LINE
  5
1A007
330
1F
100
AcDbEntity
  8
007
100
AcDbLine
 10
374.9628276318242
 20
402.1528041365383
 30
0.0
 11
374.9628276318242
 21
400.1528041365384
 31
0.0
  0
LINE
  5
1A008
330
1F
100
AcDbEntity
  8
007
100
AcDbLine
 10
355.9628276318244
 20
400.1528041365384
 30
0.0
 11
355.9628276318244
 21
402.1528041365383
 31
0.0
  0
LINE
  5
1A009
330
1F
100
AcDbEntity
  8
007
100
AcDbLine
 10
359.9628276318244
 20
400.1528041365384
 30
0.0
 11
359.9628276318244
 21
402.1528041365383
 31
0.0
  0
LINE
  5
1A00A
330
1F
100
AcDbEntity
  8
007
100
AcDbLine
 10
357.9628276318244
 20
403.0128041365385
 30
0.0
 11
359.5628276318243
 21
401.4128041365386
 31
0.0
  0
LINE
  5
1A00B
330
1F
100
AcDbEntity
  8
007
100
AcDbLine
 10
356.3628276318245
 20
401.4128041365386
 30
0.0
 11
357.9628276318244
 21
403.0128041365385
 31
0.0
  0
LINE
  5
1A00C
330
1F
100
AcDbEntity
  8
007
100
AcDbLine
 10
344.9628276318242
 20
400.1528041365384
 30
0.0
 11
344.9628276318242
 21
366.1528041365384
 31
0.0
  0
LINE
  5
1A014
330
1F
100
AcDbEntity
  8
007
100
AcDbLine
 10
342.9628276318239
 20
368.152804136537
 30
0.0
 11
346.9628276318226
 21
364.1528041365384
 31
0.0
  0
LINE
  5
1A017
330
1F
100
AcDbEntity
  8
007
100
AcDbLine
 10
342.9628276318239
 20
376.152804136537
 30
0.0
 11
344.9628276318242
 21
374.1528041365368
 31
0.0
  0
LINE
  5
1A018
330
1F
100
AcDbEntity
  8
007
100
AcDbLine
 10
342.9628276318239
 20
384.152804136537
 30
0.0
 11
344.9628276318242
 21
382.1528041365368
 31
0.0
  0
LINE
  5
1A028
330
1F
100
AcDbEntity
  8
007
100
AcDbLine
 10
348.9628276318239
 20
402.4028041365384
 30
0.0
 11
348.9628276318242
 21
404.4028041365383
 31
0.0
  0
LINE
  5
1A02B
330
1F
100
AcDbEntity
  8
007
100
AcDbLine
 10
342.9628276318242
 20
392.1528041365373
 30
0.0
 11
344.9628276318242
 21
390.152804136537
 31
0.0
  0
LINE
  5
1A02C
330
1F
100
AcDbEntity
  8
007
100
AcDbLine
 10
342.9628276318242
 20
400.1528041365372
 30
0.0
 11
344.9628276318242
 21
398.152804136537
 31
0.0
  0
LINE
  5
1A031
330
1F
100
AcDbEntity
  8
007
100
AcDbLine
 10
348.962827631823
 20
402.1528041365383
 30
0.0
 11
350.962827631823
 21
400.1528041365384
 31
0.0
  0
LINE
  5
1A17C
330
1F
100
AcDbEntity
  8
007
100
AcDbLine
 10
207.1943564946623
 20
363.9528041365385
 30
0.0
 11
207.1943564946623
 21
400.1528041365384
 31
0.0
  0
LINE
  5
1A17D
330
1F
100
AcDbEntity
  8
003
  6
Continuous
100
AcDbLine
 10
212.6943564946623
 20
402.1528041365383
 30
0.0
 11
212.6943564946623
 21
400.1528041365384
 31
0.0
  0
LINE
  5
1A17E
330
1F
100
AcDbEntity
  8
007
100
AcDbLine
 10
203.1943564946623
 20
363.9528041365385
 30
0.0
 11
203.1943564946623
 21
400.1528041365384
 31
0.0
  0
LINE
  5
1A17F
330
1F
100
AcDbEntity
  8
003
  6
Continuous
100
AcDbLine
 10
197.6943564946623
 20
402.1528041365384
 30
0.0
 11
197.6943564946624
 21
400.1528041365384
 31
0.0
  0
LWPOLYLINE
  5
1A180
330
1F
100
AcDbEntity
  8
003
100
AcDbPolyline
 90
        4
 70
     1
 43
0.0
 10
192.9443564946623
 20
406.6528041365383
 10
217.4443564946623
 20
406.6528041365383
 10
217.4443564946623
 20
362.1528041365384
 10
192.9443564946623
 20
362.1528041365384
  0
LWPOLYLINE
  5
1A181
330
1F
100
AcDbEntity
  8
003
100
AcDbPolyline
 90
        4
 70
     1
 43
0.0
 10
195.1943564946623
 20
404.4028041365383
 10
215.1943564946623
 20
404.4028041365383
 10
215.1943564946623
 20
364.4028041365384
 10
195.1943564946623
 20
364.4028041365384
  0
LWPOLYLINE
  5
1A182
330
1F
100
AcDbEntity
  8
003
100
AcDbPolyline
 90
        4
 70
     1
 43
0.0
 10
197.1943564946623
 20
402.4028041365384
 10
213.1943564946623
 20
402.4028041365384
 10
213.1943564946623
 20
366.4028041365384
 10
197.1943564946623
 20
366.4028041365384
  0
LWPOLYLINE
  5
1A183
330
1F
100
AcDbEntity
  8
003
100
AcDbPolyline
 90
        4
 70
     1
 43
0.0
 10
194.9443564946623
 20
404.6528041365384
 10
215.4443564946623
 20
404.6528041365384
 10
215.4443564946623
 20
364.1528041365384
 10
194.9443564946623
 20
364.1528041365384
  0
LINE
  5
1A184
330
1F
100
AcDbEntity
  8
010
100
AcDbLine
 10
195.1943564946623
 20
366.725134606874
 30
0.0
 11
197.1943564946623
 21
368.725134606874
 31
0.0
  0
LINE
  5
1A185
330
1F
100
AcDbEntity
  8
010
100
AcDbLine
 10
213.1943564946623
 20
367.0474650772105
 30
0.0
 11
215.1943564946623
 21
369.0474650772105
 31
0.0
  0
LINE
  5
1A186
330
1F
100
AcDbEntity
  8
010
100
AcDbLine
 10
215.4443564946623
 20
365.7619311712781
 30
0.0
 11
217.4443564946623
 21
367.7619311712781
 31
0.0
  0
LINE
  5
1A187
330
1F
100
AcDbEntity
  8
010
100
AcDbLine
 10
194.15755993026
 20
362.1528041365384
 30
0.0
 11
196.1575599302598
 21
364.1528041365384
 31
0.0
  0
LINE
  5
1A188
330
1F
100
AcDbEntity
  8
010
100
AcDbLine
 10
192.9443564946623
 20
364.4751346068749
 30
0.0
 11
194.9443564946623
 21
366.4751346068751
 31
0.0
  0
LINE
  5
1A189
330
1F
100
AcDbEntity
  8
010
100
AcDbLine
 10
204.7641616480578
 20
362.1528041365384
 30
0.0
 11
206.7641616480573
 21
364.1528041365384
 31
0.0
  0
LINE
  5
1A18A
330
1F
100
AcDbEntity
  8
007
100
AcDbLine
 10
201.6943564946623
 20
362.1528041365384
 30
0.0
 11
203.1943564946623
 21
363.9528041365385
 31
0.0
  0
LINE
  5
1A18B
330
1F
100
AcDbEntity
  8
010
100
AcDbLine
 10
197.693093836192
 20
362.1528041365384
 30
0.0
 11
199.693093836192
 21
364.1528041365384
 31
0.0
  0
LINE
  5
1A18C
330
1F
100
AcDbEntity
  8
010
100
AcDbLine
 10
196.4075599302596
 20
364.4028041365384
 30
0.0
 11
198.4075599302595
 21
366.4028041365384
 31
0.0
  0
LINE
  5
1A18D
330
1F
100
AcDbEntity
  8
010
100
AcDbLine
 10
201.2286277421249
 20
362.1528041365384
 30
0.0
 11
203.2286277421249
 21
364.1528041365384
 31
0.0
  0
LINE
  5
1A18E
330
1F
100
AcDbEntity
  8
010
100
AcDbLine
 10
199.9430938361918
 20
364.4028041365384
 30
0.0
 11
201.9430938361918
 21
366.4028041365384
 31
0.0
  0
LINE
  5
1A18F
330
1F
100
AcDbEntity
  8
010
100
AcDbLine
 10
203.4786277421244
 20
364.4028041365384
 30
0.0
 11
205.4786277421244
 21
366.4028041365384
 31
0.0
  0
LINE
  5
1A190
330
1F
100
AcDbEntity
  8
007
100
AcDbLine
 10
207.1943564946623
 20
363.9528041365385
 30
0.0
 11
208.6943564946623
 21
362.1528041365384
 31
0.0
  0
LINE
  5
1A191
330
1F
100
AcDbEntity
  8
010
100
AcDbLine
 10
208.2996955539897
 20
362.1528041365384
 30
0.0
 11
210.2996955539897
 21
364.1528041365384
 31
0.0
  0
LINE
  5
1A192
330
1F
100
AcDbEntity
  8
010
100
AcDbLine
 10
210.5496955539902
 20
364.4028041365384
 30
0.0
 11
212.5496955539902
 21
366.4028041365384
 31
0.0
  0
LINE
  5
1A193
330
1F
100
AcDbEntity
  8
010
100
AcDbLine
 10
207.0141616480573
 20
364.4028041365384
 30
0.0
 11
209.0141616480573
 21
366.4028041365384
 31
0.0
  0
LINE
  5
1A194
330
1F
100
AcDbEntity
  8
010
100
AcDbLine
 10
211.8352294599226
 20
362.1528041365384
 30
0.0
 11
213.8352294599226
 21
364.1528041365384
 31
0.0
  0
LINE
  5
1A195
330
1F
100
AcDbEntity
  8
010
100
AcDbLine
 10
214.0852294599228
 20
364.4028041365384
 30
0.0
 11
215.1943564946623
 21
365.5119311712781
 31
0.0
  0
LINE
  5
1A196
330
1F
100
AcDbEntity
  8
010
100
AcDbLine
 10
215.3707633658553
 20
362.1528041365384
 30
0.0
 11
217.4443564946623
 21
364.2263972653457
 31
0.0
  0
LINE
  5
1A197
330
1F
100
AcDbEntity
  8
007
100
AcDbLine
 10
205.1943564946623
 20
402.7528041365384
 30
0.0
 11
207.1943564946623
 21
400.1528041365384
 31
0.0
  0
LINE
  5
1A198
330
1F
100
AcDbEntity
  8
010
100
AcDbLine
 10
213.1943564946623
 20
398.8672702306055
 30
0.0
 11
215.1943564946623
 21
400.8672702306055
 31
0.0
  0
LINE
  5
1A199
330
1F
100
AcDbEntity
  8
010
100
AcDbLine
 10
192.9443564946623
 20
399.8304736662015
 30
0.0
 11
194.9443564946623
 21
401.8304736662016
 31
0.0
  0
LINE
  5
1A19A
330
1F
100
AcDbEntity
  8
010
100
AcDbLine
 10
195.1943564946623
 20
398.544939760269
 30
0.0
 11
197.1943564946623
 21
400.5449397602689
 31
0.0
  0
LINE
  5
1A19B
330
1F
100
AcDbEntity
  8
007
100
AcDbLine
 10
203.1943564946623
 20
400.1528041365384
 30
0.0
 11
205.1943564946623
 21
402.7528041365384
 31
0.0
  0
LINE
  5
1A19C
330
1F
100
AcDbEntity
  8
010
100
AcDbLine
 10
192.9443564946623
 20
385.6883380424708
 30
0.0
 11
194.9443564946623
 21
387.6883380424711
 31
0.0
  0
LINE
  5
1A19D
330
1F
100
AcDbEntity
  8
010
100
AcDbLine
 10
192.9443564946623
 20
396.294939760269
 30
0.0
 11
194.9443564946623
 21
398.294939760269
 31
0.0
  0
LINE
  5
1A19E
330
1F
100
AcDbEntity
  8
010
100
AcDbLine
 10
192.9443564946623
 20
389.2238719484037
 30
0.0
 11
194.9443564946623
 21
391.2238719484037
 31
0.0
  0
LINE
  5
1A19F
330
1F
100
AcDbEntity
  8
010
100
AcDbLine
 10
192.9443564946623
 20
392.7594058543361
 30
0.0
 11
194.9443564946623
 21
394.7594058543364
 31
0.0
  0
LINE
  5
1A1A0
330
1F
100
AcDbEntity
  8
010
100
AcDbLine
 10
192.9443564946623
 20
371.5462024187402
 30
0.0
 11
194.9443564946623
 21
373.5462024187405
 31
0.0
  0
LINE
  5
1A1A1
330
1F
100
AcDbEntity
  8
010
100
AcDbLine
 10
192.9443564946623
 20
368.0106685128078
 30
0.0
 11
194.9443564946623
 21
370.0106685128078
 31
0.0
  0
LINE
  5
1A1A2
330
1F
100
AcDbEntity
  8
010
100
AcDbLine
 10
192.9443564946623
 20
375.0817363246731
 30
0.0
 11
194.9443564946623
 21
377.0817363246731
 31
0.0
  0
LINE
  5
1A1A3
330
1F
100
AcDbEntity
  8
010
100
AcDbLine
 10
192.9443564946623
 20
378.6172702306055
 30
0.0
 11
194.9443564946623
 21
380.6172702306057
 31
0.0
  0
LINE
  5
1A1A4
330
1F
100
AcDbEntity
  8
010
100
AcDbLine
 10
192.9443564946623
 20
382.1528041365384
 30
0.0
 11
194.9443564946623
 21
384.1528041365384
 31
0.0
  0
LINE
  5
1A1A5
330
1F
100
AcDbEntity
  8
010
100
AcDbLine
 10
215.4443564946625
 20
383.439600700942
 30
0.0
 11
217.4443564946623
 21
385.439600700942
 31
0.0
  0
LINE
  5
1A1A7
330
1F
100
AcDbEntity
  8
006
100
AcDbLine
 10
200.1943564946623
 20
376.4028041365384
 30
0.0
 11
210.1943564946623
 21
376.4028041365384
 31
0.0
  0
LINE
  5
1A1A8
330
1F
100
AcDbEntity
  8
006
100
AcDbLine
 10
205.1943564946623
 20
381.4028041365384
 30
0.0
 11
205.1943564946623
 21
371.4028041365384
 31
0.0
  0
LINE
  5
1A1A9
330
1F
100
AcDbEntity
  8
010
100
AcDbLine
 10
195.1943564946623
 20
370.2606685128069
 30
0.0
 11
197.1943564946623
 21
372.2606685128069
 31
0.0
  0
LINE
  5
1A1AA
330
1F
100
AcDbEntity
  8
010
100
AcDbLine
 10
195.1943564946623
 20
373.7962024187396
 30
0.0
 11
197.1943564946623
 21
375.7962024187396
 31
0.0
  0
LINE
  5
1A1AB
330
1F
100
AcDbEntity
  8
010
100
AcDbLine
 10
195.1943564946623
 20
380.8672702306051
 30
0.0
 11
197.1943564946623
 21
382.8672702306051
 31
0.0
  0
LINE
  5
1A1AC
330
1F
100
AcDbEntity
  8
010
100
AcDbLine
 10
195.1943564946623
 20
377.3317363246722
 30
0.0
 11
197.1943564946623
 21
379.3317363246722
 31
0.0
  0
LINE
  5
1A1AD
330
1F
100
AcDbEntity
  8
010
100
AcDbLine
 10
213.1943564946623
 20
370.5829989831434
 30
0.0
 11
215.1943564946623
 21
372.5829989831434
 31
0.0
  0
LINE
  5
1A1AE
330
1F
100
AcDbEntity
  8
010
100
AcDbLine
 10
213.1943564946623
 20
374.1185328890763
 30
0.0
 11
215.1943564946623
 21
376.1185328890763
 31
0.0
  0
LINE
  5
1A1AF
330
1F
100
AcDbEntity
  8
010
100
AcDbLine
 10
213.1943564946625
 20
377.6540667950091
 30
0.0
 11
215.1943564946623
 21
379.6540667950091
 31
0.0
  0
LINE
  5
1A1B0
330
1F
100
AcDbEntity
  8
010
100
AcDbLine
 10
213.1943564946623
 20
381.1896007009416
 30
0.0
 11
215.1943564946623
 21
383.1896007009416
 31
0.0
  0
LINE
  5
1A1B1
330
1F
100
AcDbEntity
  8
010
100
AcDbLine
 10
215.4443564946623
 20
369.297465077211
 30
0.0
 11
217.4443564946623
 21
371.297465077211
 31
0.0
  0
LINE
  5
1A1B2
330
1F
100
AcDbEntity
  8
010
100
AcDbLine
 10
215.4443564946623
 20
372.8329989831436
 30
0.0
 11
217.4443564946623
 21
374.8329989831439
 31
0.0
  0
LINE
  5
1A1B3
330
1F
100
AcDbEntity
  8
010
100
AcDbLine
 10
215.4443564946623
 20
379.9040667950091
 30
0.0
 11
217.4443564946623
 21
381.9040667950091
 31
0.0
  0
LINE
  5
1A1B4
330
1F
100
AcDbEntity
  8
010
100
AcDbLine
 10
215.4443564946623
 20
376.3685328890763
 30
0.0
 11
217.4443564946623
 21
378.3685328890763
 31
0.0
  0
LINE
  5
1A1B5
330
1F
100
AcDbEntity
  8
003
  6
Continuous
100
AcDbLine
 10
197.1943564946623
 20
400.1528041365384
 30
0.0
 11
213.1943564946623
 21
400.1528041365384
 31
0.0
  0
LINE
  5
1A1B7
330
1F
100
AcDbEntity
  8
006
100
AcDbLine
 10
200.1943564946623
 20
392.4028041365384
 30
0.0
 11
210.1943564946623
 21
392.4028041365384
 31
0.0
  0
LINE
  5
1A1B8
330
1F
100
AcDbEntity
  8
006
100
AcDbLine
 10
205.1943564946623
 20
397.4028041365384
 30
0.0
 11
205.1943564946623
 21
387.4028041365384
 31
0.0
  0
LINE
  5
1A1B9
330
1F
100
AcDbEntity
  8
010
100
AcDbLine
 10
195.1943564946623
 20
387.9383380424706
 30
0.0
 11
197.1943564946623
 21
389.9383380424706
 31
0.0
  0
LINE
  5
1A1BA
330
1F
100
AcDbEntity
  8
010
100
AcDbLine
 10
195.1943564946623
 20
384.402804136538
 30
0.0
 11
197.1943564946623
 21
386.402804136538
 31
0.0
  0
LINE
  5
1A1BB
330
1F
100
AcDbEntity
  8
010
100
AcDbLine
 10
195.1943564946623
 20
391.4738719484033
 30
0.0
 11
197.1943564946623
 21
393.4738719484032
 31
0.0
  0
LINE
  5
1A1BC
330
1F
100
AcDbEntity
  8
010
100
AcDbLine
 10
195.1943564946623
 20
395.0094058543361
 30
0.0
 11
197.1943564946623
 21
397.0094058543361
 31
0.0
  0
LINE
  5
1A1BD
330
1F
100
AcDbEntity
  8
010
100
AcDbLine
 10
213.1943564946623
 20
388.2606685128073
 30
0.0
 11
215.1943564946623
 21
390.2606685128073
 31
0.0
  0
LINE
  5
1A1BE
330
1F
100
AcDbEntity
  8
010
100
AcDbLine
 10
213.1943564946623
 20
384.7251346068745
 30
0.0
 11
215.1943564946623
 21
386.7251346068745
 31
0.0
  0
LINE
  5
1A1BF
330
1F
100
AcDbEntity
  8
010
100
AcDbLine
 10
213.1943564946625
 20
391.7962024187403
 30
0.0
 11
215.1943564946623
 21
393.7962024187402
 31
0.0
  0
LINE
  5
1A1C0
330
1F
100
AcDbEntity
  8
010
100
AcDbLine
 10
213.1943564946623
 20
395.3317363246727
 30
0.0
 11
215.1943564946623
 21
397.3317363246727
 31
0.0
  0
LINE
  5
1A1C1
330
1F
100
AcDbEntity
  8
010
100
AcDbLine
 10
215.4443564946623
 20
386.9751346068745
 30
0.0
 11
217.4443564946623
 21
388.9751346068745
 31
0.0
  0
LINE
  5
1A1C2
330
1F
100
AcDbEntity
  8
010
100
AcDbLine
 10
215.4443564946623
 20
397.5817363246727
 30
0.0
 11
217.4443564946623
 21
399.5817363246727
 31
0.0
  0
LINE
  5
1A1C3
330
1F
100
AcDbEntity
  8
010
100
AcDbLine
 10
215.4443564946623
 20
390.5106685128073
 30
0.0
 11
217.4443564946623
 21
392.5106685128073
 31
0.0
  0
LINE
  5
1A1C4
330
1F
100
AcDbEntity
  8
010
100
AcDbLine
 10
215.4443564946625
 20
394.0462024187402
 30
0.0
 11
217.4443564946623
 21
396.0462024187402
 31
0.0
  0
LINE
  5
1A1C5
330
1F
100
AcDbEntity
  8
010
100
AcDbLine
 10
192.9443564946623
 20
403.3660075721343
 30
0.0
 11
196.2311530590664
 21
406.6528041365383
 31
0.0
  0
LINE
  5
1A1C6
330
1F
100
AcDbEntity
  8
010
100
AcDbLine
 10
204.8377547768645
 20
404.6528041365384
 30
0.0
 11
206.8377547768645
 21
406.6528041365383
 31
0.0
  0
LINE
  5
1A1C7
330
1F
100
AcDbEntity
  8
010
100
AcDbLine
 10
206.123288682797
 20
402.4028041365384
 30
0.0
 11
208.123288682797
 21
404.4028041365383
 31
0.0
  0
LINE
  5
1A1C8
330
1F
100
AcDbEntity
  8
003
  6
Continuous
100
AcDbLine
 10
197.6943564946623
 20
402.1528041365384
 30
0.0
 11
212.6943564946623
 21
402.1528041365383
 31
0.0
  0
LINE
  5
1A1C9
330
1F
100
AcDbEntity
  8
010
100
AcDbLine
 10
197.7666869649992
 20
404.6528041365384
 30
0.0
 11
199.7666869649992
 21
406.6528041365383
 31
0.0
  0
LINE
  5
1A1CA
330
1F
100
AcDbEntity
  8
010
100
AcDbLine
 10
201.3022208709317
 20
404.6528041365384
 30
0.0
 11
203.3022208709317
 21
406.6528041365383
 31
0.0
  0
LINE
  5
1A1CB
330
1F
100
AcDbEntity
  8
010
100
AcDbLine
 10
195.1943564946623
 20
402.0804736662016
 30
0.0
 11
197.5166869649992
 21
404.4028041365383
 31
0.0
  0
LINE
  5
1A1CC
330
1F
100
AcDbEntity
  8
010
100
AcDbLine
 10
199.0522208709317
 20
402.4028041365384
 30
0.0
 11
201.0522208709317
 21
404.4028041365383
 31
0.0
  0
LINE
  5
1A1CD
330
1F
100
AcDbEntity
  8
010
100
AcDbLine
 10
202.5877547768645
 20
402.4028041365384
 30
0.0
 11
204.5877547768645
 21
404.4028041365383
 31
0.0
  0
LINE
  5
1A1CE
330
1F
100
AcDbEntity
  8
010
100
AcDbLine
 10
208.373288682797
 20
404.6528041365384
 30
0.0
 11
210.373288682797
 21
406.6528041365383
 31
0.0
  0
LINE
  5
1A1CF
330
1F
100
AcDbEntity
  8
010
100
AcDbLine
 10
211.9088225887299
 20
404.6528041365384
 30
0.0
 11
213.9088225887299
 21
406.6528041365383
 31
0.0
  0
LINE
  5
1A1D0
330
1F
100
AcDbEntity
  8
010
100
AcDbLine
 10
209.6588225887299
 20
402.4028041365384
 30
0.0
 11
211.6588225887299
 21
404.4028041365383
 31
0.0
  0
LINE
  5
1A1D1
330
1F
100
AcDbEntity
  8
010
100
AcDbLine
 10
213.1943564946623
 20
402.4028041365384
 30
0.0
 11
215.1943564946623
 21
404.4028041365383
 31
0.0
  0
LINE
  5
1A1D2
330
1F
100
AcDbEntity
  8
010
100
AcDbLine
 10
215.4443564946623
 20
404.6528041365384
 30
0.0
 11
217.4443564946623
 21
406.6528041365383
 31
0.0
  0
LINE
  5
1A1D3
330
1F
100
AcDbEntity
  8
010
100
AcDbLine
 10
215.4443564946623
 20
401.1172702306055
 30
0.0
 11
217.4443564946623
 21
403.1172702306055
 31
0.0
  0
ARC
  5
1A1D4
330
1F
100
AcDbEntity
  8
003
100
AcDbCircle
 10
206.3610230946624
 20
393.5694707365383
 30
0.0
 40
0.5833333000000001
100
AcDbArc
 50
180.0
 51
270.0
  0
ARC
  5
1A1D5
330
1F
100
AcDbEntity
  8
003
100
AcDbCircle
 10
206.3610230946624
 20
391.2361375365385
 30
0.0
 40
0.5833333000000001
100
AcDbArc
 50
90.0
 51
180.0
  0
CIRCLE
  5
1A1D6
330
1F
100
AcDbEntity
  8
003
100
AcDbCircle
 10
205.1943564946623
 20
392.4028041365384
 30
0.0
 40
3.4999998
  0
LINE
  5
1A1D7
330
1F
100
AcDbEntity
  8
003
100
AcDbLine
 10
205.7776897946624
 20
393.5694707365383
 30
0.0
 11
205.7776897946624
 21
394.7361373365384
 31
0.0
  0
LINE
  5
1A1D8
330
1F
100
AcDbEntity
  8
003
100
AcDbLine
 10
204.6110231946625
 20
393.5694707365383
 30
0.0
 11
204.6110231946625
 21
394.7361373365384
 31
0.0
  0
LINE
  5
1A1D9
330
1F
100
AcDbEntity
  8
003
100
AcDbLine
 10
204.6110231946625
 20
394.7361373365384
 30
0.0
 11
205.7776897946624
 21
394.7361373365384
 31
0.0
  0
LINE
  5
1A1DA
330
1F
100
AcDbEntity
  8
003
100
AcDbLine
 10
205.7776897946624
 20
390.0694709365384
 30
0.0
 11
205.7776897946624
 21
391.2361375365385
 31
0.0
  0
LINE
  5
1A1DB
330
1F
100
AcDbEntity
  8
003
100
AcDbLine
 10
204.6226898606624
 20
390.0694709365384
 30
0.0
 11
204.6226898606624
 21
391.2361375365385
 31
0.0
  0
LINE
  5
1A1DC
330
1F
100
AcDbEntity
  8
003
100
AcDbLine
 10
204.6226898606624
 20
390.0694709365384
 30
0.0
 11
205.7776897946624
 21
390.0694709365384
 31
0.0
  0
LINE
  5
1A1DD
330
1F
100
AcDbEntity
  8
003
100
AcDbLine
 10
202.8610232946626
 20
392.9861374365382
 30
0.0
 11
204.0276898946625
 21
392.9861374365382
 31
0.0
  0
LINE
  5
1A1DE
330
1F
100
AcDbEntity
  8
003
100
AcDbLine
 10
202.8610232946626
 20
391.8194708365384
 30
0.0
 11
204.0393565606623
 21
391.8194708365384
 31
0.0
  0
LINE
  5
1A1DF
330
1F
100
AcDbEntity
  8
003
100
AcDbLine
 10
202.8610232946626
 20
391.8194708365384
 30
0.0
 11
202.8610232946626
 21
392.9861374365382
 31
0.0
  0
ARC
  5
1A1E0
330
1F
100
AcDbEntity
  8
003
100
AcDbCircle
 10
204.0276898946625
 20
393.5694707365383
 30
0.0
 40
0.5833333000000001
100
AcDbArc
 50
270.0
 51
0.0
  0
ARC
  5
1A1E1
330
1F
100
AcDbEntity
  8
003
100
AcDbCircle
 10
204.0393565606623
 20
391.2361375365385
 30
0.0
 40
0.5833333000000001
100
AcDbArc
 50
0.0
 51
90.0
  0
LINE
  5
1A1E2
330
1F
100
AcDbEntity
  8
003
100
AcDbLine
 10
206.3610230946624
 20
392.9861374365382
 30
0.0
 11
207.5276896946625
 21
392.9861374365382
 31
0.0
  0
LINE
  5
1A1E3
330
1F
100
AcDbEntity
  8
003
100
AcDbLine
 10
206.3610230946624
 20
391.8194708365384
 30
0.0
 11
207.5276896946625
 21
391.8194708365384
 31
0.0
  0
LINE
  5
1A1E4
330
1F
100
AcDbEntity
  8
003
100
AcDbLine
 10
207.5276896946625
 20
391.8194708365384
 30
0.0
 11
207.5276896946625
 21
392.9861374365382
 31
0.0
  0
ARC
  5
1A1E5
330
1F
100
AcDbEntity
  8
003
100
AcDbCircle
 10
206.3610230946624
 20
377.5694707365383
 30
0.0
 40
0.5833333000000001
100
AcDbArc
 50
180.0
 51
270.0
  0
ARC
  5
1A1E6
330
1F
100
AcDbEntity
  8
003
100
AcDbCircle
 10
206.3610230946624
 20
375.2361375365385
 30
0.0
 40
0.5833333000000001
100
AcDbArc
 50
90.0
 51
180.0
  0
CIRCLE
  5
1A1E7
330
1F
100
AcDbEntity
  8
003
100
AcDbCircle
 10
205.1943564946623
 20
376.4028041365384
 30
0.0
 40
3.4999998
  0
LINE
  5
1A1E8
330
1F
100
AcDbEntity
  8
003
100
AcDbLine
 10
205.7776897946624
 20
377.5694707365383
 30
0.0
 11
205.7776897946624
 21
378.7361373365384
 31
0.0
  0
LINE
  5
1A1E9
330
1F
100
AcDbEntity
  8
003
100
AcDbLine
 10
204.6110231946625
 20
377.5694707365383
 30
0.0
 11
204.6110231946625
 21
378.7361373365384
 31
0.0
  0
LINE
  5
1A1EA
330
1F
100
AcDbEntity
  8
003
100
AcDbLine
 10
204.6110231946625
 20
378.7361373365384
 30
0.0
 11
205.7776897946624
 21
378.7361373365384
 31
0.0
  0
LINE
  5
1A1EB
330
1F
100
AcDbEntity
  8
003
100
AcDbLine
 10
205.7776897946624
 20
374.0694709365385
 30
0.0
 11
205.7776897946624
 21
375.2361375365385
 31
0.0
  0
LINE
  5
1A1EC
330
1F
100
AcDbEntity
  8
003
100
AcDbLine
 10
204.6226898606624
 20
374.0694709365385
 30
0.0
 11
204.6226898606624
 21
375.2361375365385
 31
0.0
  0
LINE
  5
1A1ED
330
1F
100
AcDbEntity
  8
003
100
AcDbLine
 10
204.6226898606624
 20
374.0694709365385
 30
0.0
 11
205.7776897946624
 21
374.0694709365385
 31
0.0
  0
LINE
  5
1A1EE
330
1F
100
AcDbEntity
  8
003
100
AcDbLine
 10
202.8610232946626
 20
376.9861374365382
 30
0.0
 11
204.0276898946625
 21
376.9861374365382
 31
0.0
  0
LINE
  5
1A1EF
330
1F
100
AcDbEntity
  8
003
100
AcDbLine
 10
202.8610232946626
 20
375.8194708365384
 30
0.0
 11
204.0393565606623
 21
375.8194708365384
 31
0.0
  0
LINE
  5
1A1F0
330
1F
100
AcDbEntity
  8
003
100
AcDbLine
 10
202.8610232946626
 20
375.8194708365384
 30
0.0
 11
202.8610232946626
 21
376.9861374365382
 31
0.0
  0
ARC
  5
1A1F1
330
1F
100
AcDbEntity
  8
003
100
AcDbCircle
 10
204.0276898946625
 20
377.5694707365383
 30
0.0
 40
0.5833333000000001
100
AcDbArc
 50
270.0
 51
0.0
  0
ARC
  5
1A1F2
330
1F
100
AcDbEntity
  8
003
100
AcDbCircle
 10
204.0393565606623
 20
375.2361375365385
 30
0.0
 40
0.5833333000000001
100
AcDbArc
 50
0.0
 51
90.0
  0
LINE
  5
1A1F3
330
1F
100
AcDbEntity
  8
003
100
AcDbLine
 10
206.3610230946624
 20
376.9861374365382
 30
0.0
 11
207.5276896946625
 21
376.9861374365382
 31
0.0
  0
LINE
  5
1A1F4
330
1F
100
AcDbEntity
  8
003
100
AcDbLine
 10
206.3610230946624
 20
375.8194708365384
 30
0.0
 11
207.5276896946625
 21
375.8194708365384
 31
0.0
  0
LINE
  5
1A1F5
330
1F
100
AcDbEntity
  8
003
100
AcDbLine
 10
207.5276896946625
 20
375.8194708365384
 30
0.0
 11
207.5276896946625
 21
376.9861374365382
 31
0.0
  0
LEADER
  5
1A237
330
1F
100
AcDbEntity
  8
003
100
AcDbLeader
  3
DIM
 73
     0
 40
6.000000000000001
 41
55.09285714285714
 76
     3
 10
192.9443564946623
 20
385.6883380424708
 30
0.0
 10
171.3087794695437
 20
395.4556544016077
 30
0.0
 10
170.0681822915623
 20
395.4556544016077
 30
0.0
340
1A238
1001
ACAD
1000
DSTYLE
1002
{
1070
   147
1040
1.0
1070
    77
1070
     1
1002
}
  0
MTEXT
  5
1A238
102
{ACAD_REACTORS
330
1A237
102
}
330
1F
100
AcDbEntity
  8
003
 62
     7
100
AcDbMText
 10
168.0681822915623
 20
397.4556544016077
 30
0.0
 40
6.0
 41
0.0
 71
     9
 72
     1
  1
24.5×44.5角パイプ
  7
DIM
 73
     1
 44
1.0
  0
LEADER
  5
1A239
330
1F
100
AcDbEntity
  8
003
100
AcDbLeader
  3
DIM
 73
     0
 74
     0
 40
6.0
 41
42.23571428571427
 76
     3
 10
209.8591879744515
 20
402.9927672562309
 30
0.0
 10
224.2470372234811
 20
427.913253167192
 30
0.0
 10
226.4813356499264
 20
427.913253167192
 30
0.0
340
1A23A
1001
ACAD
1000
DSTYLE
1002
{
1070
   147
1040
1.0
1070
    77
1070
     1
1002
}
  0
MTEXT
  5
1A23A
102
{ACAD_REACTORS
330
1A239
102
}
330
1F
100
AcDbEntity
  8
003
 62
     7
100
AcDbMText
 10
228.4813356499264
 20
429.9132531671919
 30
0.0
 40
6.0
 41
0.0
 71
     7
 72
     1
  1
20×40角パイプ
  7
DIM
 73
     1
 44
1.0
  0
DIMENSION
  5
1A23E
330
1F
100
AcDbEntity
  8
003
100
AcDbDimension
  2
*D11
 10
233.3344000559546
 20
364.4028041365384
 30
0.0
 11
228.3344000559545
 21
384.4028041365385
 31
0.0
 70
    32
 71
     5
 42
40.0
  3
DIM
100
AcDbAlignedDimension
 13
215.1943564946623
 23
404.4028041365383
 33
0.0
 14
215.1943564946623
 24
364.4028041365384
 34
0.0
 50
90.0
100
AcDbRotatedDimension
  0
DIMENSION
  5
1A23F
330
1F
100
AcDbEntity
  8
003
100
AcDbDimension
  2
*D12
 10
215.1943564946623
 20
416.478169965608
 30
0.0
 11
205.1943564946623
 21
421.478169965608
 31
0.0
 70
    32
 71
     5
 42
20.0
  3
DIM
100
AcDbAlignedDimension
 13
195.1943564946623
 23
404.4028041365383
 33
0.0
 14
215.1943564946623
 24
404.4028041365383
 34
0.0
100
AcDbRotatedDimension
  0
LEADER
  5
1A272
330
1F
100
AcDbEntity
  8
003
  6
Continuous
100
AcDbLeader
  3
DIM
 73
     0
 74
     0
 40
6.000000000000004
 41
53.91428571428568
 76
     3
 10
211.1218834500395
 20
369.8736574122691
 30
0.0
 10
217.853153266827
 20
348.5964604981334
 30
0.0
 10
218.466883871991
 20
348.5964604981334
 30
0.0
340
1A273
1001
ACAD
1000
DSTYLE
1002
{
1070
   147
1040
1.0
1070
    77
1070
     1
1002
}
  0
MTEXT
  5
1A273
102
{ACAD_REACTORS
330
1A272
102
}
330
1F
100
AcDbEntity
  8
003
  6
Continuous
 62
     7
100
AcDbMText
 10
220.466883871991
 20
350.5964604981334
 30
0.0
 40
6.0
 41
0.0
 71
     7
 72
     1
  1
［32×38×32（ｽﾃﾝ）
  7
DIM
 73
     1
 44
1.0
  0
LEADER
  5
1A274
330
1F
100
AcDbEntity
  8
003
  6
Continuous
100
AcDbLeader
  3
DIM
 73
     0
 74
     0
 40
6.000000000000004
 41
53.91428571428568
 76
     3
 10
374.3446428492102
 20
364.9669608477503
 30
0.0
 10
388.1755274436258
 20
343.6897639336146
 30
0.0
 10
388.7892580487898
 20
343.6897639336146
 30
0.0
340
1A275
1001
ACAD
1000
DSTYLE
1002
{
1070
   147
1040
1.0
1070
    77
1070
     1
1002
}
  0
MTEXT
  5
1A275
102
{ACAD_REACTORS
330
1A274
102
}
330
1F
100
AcDbEntity
  8
003
  6
Continuous
 62
     7
100
AcDbMText
 10
390.7892580487899
 20
345.6897639336146
 30
0.0
 40
6.0
 41
0.0
 71
     7
 72
     1
  1
［32×38×32（ｽﾃﾝ）
  7
DIM
 73
     1
 44
1.0
  0
LEADER
  5
1A279
330
1F
100
AcDbEntity
  8
003
  6
Continuous
100
AcDbLeader
  3
DIM
 73
     0
 74
     0
 40
6.0
 41
18.08571428571429
 76
     3
 10
558.6837356584446
 20
344.6351980734168
 30
0.0
 10
567.4937041004168
 20
359.8945110279908
 30
0.0
 10
569.4770165792256
 20
359.8945110279908
 30
0.0
340
1A27A
1001
ACAD
1000
DSTYLE
1002
{
1070
   147
1040
1.0
1070
    77
1070
     1
1002
}
  0
MTEXT
  5
1A27A
102
{ACAD_REACTORS
330
1A279
102
}
330
1F
100
AcDbEntity
  8
003
  6
Continuous
 62
     7
100
AcDbMText
 10
571.4770165792256
 20
361.8945110279908
 30
0.0
 40
6.0
 41
0.0
 71
     7
 72
     1
  1
Ｍ4ビス
  7
DIM
 73
     1
 44
1.0
  0
LINE
  5
1A27B
330
1F
100
AcDbEntity
  8
007
100
AcDbLine
 10
582.1816756313665
 20
352.6894211555721
 30
0.0
 11
548.1816756313665
 21
352.6894211555734
 31
0.0
  0
LINE
  5
1A27C
330
1F
100
AcDbEntity
  8
007
100
AcDbLine
 10
582.1816756313665
 20
332.6894211555723
 30
0.0
 11
548.1816756313665
 21
332.6894211555723
 31
0.0
  0
LINE
  5
1A27E
330
1F
100
AcDbEntity
  8
003
100
AcDbLine
 10
582.1816756313665
 20
330.4394211555723
 30
0.0
 11
542.1816756313664
 21
330.4394211555723
 31
0.0
  0
LINE
  5
1A27F
330
1F
100
AcDbEntity
  8
003
100
AcDbLine
 10
582.1816756313665
 20
354.9394211555723
 30
0.0
 11
542.1816756313664
 21
354.9394211555723
 31
0.0
  0
LINE
  5
1A280
330
1F
100
AcDbEntity
  8
010
100
AcDbLine
 10
551.9316756313651
 20
350.1894211555732
 30
0.0
 11
566.9316756313665
 21
335.1894211555723
 31
0.0
  0
LINE
  5
1A281
330
1F
100
AcDbEntity
  8
010
100
AcDbLine
 10
547.9316756313647
 20
350.1894211555732
 30
0.0
 11
562.9316756313674
 21
335.1894211555723
 31
0.0
  0
LINE
  5
1A282
330
1F
100
AcDbEntity
  8
010
100
AcDbLine
 10
542.1816756313664
 20
351.9394211555716
 30
0.0
 11
558.9316756313669
 21
335.1894211555723
 31
0.0
  0
LINE
  5
1A283
330
1F
100
AcDbEntity
  8
007
100
AcDbLine
 10
548.1816756313665
 20
352.6894211555734
 30
0.0
 11
548.1816756313665
 21
332.6894211555723
 31
0.0
  0
LINE
  5
1A284
330
1F
100
AcDbEntity
  8
010
100
AcDbLine
 10
567.9316756313665
 20
350.1894211555725
 30
0.0
 11
574.1816756313665
 21
343.9394211555725
 31
0.0
  0
LINE
  5
1A285
330
1F
100
AcDbEntity
  8
010
100
AcDbLine
 10
563.931675631366
 20
350.1894211555728
 30
0.0
 11
574.1816756313665
 21
339.939421155572
 31
0.0
  0
LINE
  5
1A286
330
1F
100
AcDbEntity
  8
010
100
AcDbLine
 10
559.9316756313656
 20
350.1894211555728
 30
0.0
 11
574.1816756313665
 21
335.9394211555728
 31
0.0
  0
LINE
  5
1A287
330
1F
100
AcDbEntity
  8
010
100
AcDbLine
 10
555.9316756313656
 20
350.189421155573
 30
0.0
 11
570.9316756313674
 21
335.1894211555723
 31
0.0
  0
LINE
  5
1A288
330
1F
100
AcDbEntity
  8
007
100
AcDbLine
 10
574.1816756313665
 20
350.1894211555723
 30
0.0
 11
574.1816756313665
 21
335.1894211555723
 31
0.0
  0
LINE
  5
1A289
330
1F
100
AcDbEntity
  8
010
100
AcDbLine
 10
571.9316756313665
 20
350.1894211555723
 30
0.0
 11
574.1816756313665
 21
347.9394211555723
 31
0.0
  0
LINE
  5
1A28A
330
1F
100
AcDbEntity
  8
006
100
AcDbLine
 10
552.1816756313665
 20
342.6894211555723
 30
0.0
 11
562.1816756313664
 21
342.6894211555723
 31
0.0
  0
LINE
  5
1A28B
330
1F
100
AcDbEntity
  8
007
100
AcDbLine
 10
574.1816756313665
 20
335.1894211555723
 30
0.0
 11
544.1816756313665
 21
335.1894211555723
 31
0.0
  0
LINE
  5
1A28C
330
1F
100
AcDbEntity
  8
010
100
AcDbLine
 10
542.1816756313664
 20
347.9394211555716
 30
0.0
 11
554.9316756313656
 21
335.1894211555723
 31
0.0
  0
LINE
  5
1A296
330
1F
100
AcDbEntity
  8
010
100
AcDbLine
 10
542.1816756313664
 20
335.9394211555718
 30
0.0
 11
544.1816756313665
 21
333.939421155573
 31
0.0
  0
LINE
  5
1A298
330
1F
100
AcDbEntity
  8
010
100
AcDbLine
 10
542.1816756313664
 20
343.9394211555718
 30
0.0
 11
550.9316756313669
 21
335.1894211555723
 31
0.0
  0
LINE
  5
1A299
330
1F
100
AcDbEntity
  8
010
100
AcDbLine
 10
542.1816756313664
 20
339.9394211555714
 30
0.0
 11
546.9316756313656
 21
335.1894211555723
 31
0.0
  0
LINE
  5
1A29A
330
1F
100
AcDbEntity
  8
006
100
AcDbLine
 10
564.1816756313665
 20
342.6894211555723
 30
0.0
 11
574.1816756313665
 21
342.6894211555723
 31
0.0
  0
LINE
  5
1A29B
330
1F
100
AcDbEntity
  8
006
100
AcDbLine
 10
557.1816756313665
 20
347.6894211555723
 30
0.0
 11
557.1816756313665
 21
337.6894211555723
 31
0.0
  0
LINE
  5
1A29C
330
1F
100
AcDbEntity
  8
003
100
AcDbLine
 10
556.5983423313664
 20
345.0227543555723
 30
0.0
 11
557.7650089313665
 21
345.0227543555723
 31
0.0
  0
LINE
  5
1A29D
330
1F
100
AcDbEntity
  8
003
100
AcDbLine
 10
556.6100089973669
 20
340.3560879555721
 30
0.0
 11
557.7650089313665
 21
340.3560879555721
 31
0.0
  0
ARC
  5
1A29E
330
1F
100
AcDbEntity
  8
003
100
AcDbCircle
 10
556.0150090313664
 20
343.8560877555724
 30
0.0
 40
0.5833333000000001
100
AcDbArc
 50
270.0
 51
0.0
  0
ARC
  5
1A29F
330
1F
100
AcDbEntity
  8
003
100
AcDbCircle
 10
556.0266756973669
 20
341.5227545555722
 30
0.0
 40
0.5833333000000001
100
AcDbArc
 50
0.0
 51
90.0
  0
LINE
  5
1A2A0
330
1F
100
AcDbEntity
  8
003
100
AcDbLine
 10
556.5983423313664
 20
343.8560877555724
 30
0.0
 11
556.5983423313664
 21
345.0227543555723
 31
0.0
  0
LINE
  5
1A2A1
330
1F
100
AcDbEntity
  8
003
100
AcDbLine
 10
556.6100089973669
 20
340.3560879555721
 30
0.0
 11
556.6100089973669
 21
341.5227545555722
 31
0.0
  0
ARC
  5
1A2A2
330
1F
100
AcDbEntity
  8
003
100
AcDbCircle
 10
558.3483422313666
 20
343.8560877555724
 30
0.0
 40
0.5833333000000001
100
AcDbArc
 50
180.0
 51
270.0
  0
ARC
  5
1A2A3
330
1F
100
AcDbEntity
  8
003
100
AcDbCircle
 10
558.3483422313666
 20
341.5227545555722
 30
0.0
 40
0.5833333000000001
100
AcDbArc
 50
90.0
 51
180.0
  0
LINE
  5
1A2A4
330
1F
100
AcDbEntity
  8
003
100
AcDbLine
 10
557.7650089313665
 20
343.8560877555724
 30
0.0
 11
557.7650089313665
 21
345.0227543555723
 31
0.0
  0
LINE
  5
1A2A5
330
1F
100
AcDbEntity
  8
003
100
AcDbLine
 10
557.7650089313665
 20
340.3560879555721
 30
0.0
 11
557.7650089313665
 21
341.5227545555722
 31
0.0
  0
LINE
  5
1A2A6
330
1F
100
AcDbEntity
  8
003
100
AcDbLine
 10
558.3483422313666
 20
343.2727544555723
 30
0.0
 11
559.5150088313666
 21
343.2727544555723
 31
0.0
  0
LINE
  5
1A2A7
330
1F
100
AcDbEntity
  8
003
100
AcDbLine
 10
558.3483422313666
 20
342.1060878555723
 30
0.0
 11
559.5150088313666
 21
342.1060878555723
 31
0.0
  0
LINE
  5
1A2A8
330
1F
100
AcDbEntity
  8
003
100
AcDbLine
 10
559.5150088313666
 20
342.1060878555723
 30
0.0
 11
559.5150088313666
 21
343.2727544555723
 31
0.0
  0
LINE
  5
1A2A9
330
1F
100
AcDbEntity
  8
003
100
AcDbLine
 10
554.8483424313667
 20
342.1060878555723
 30
0.0
 11
554.8483424313667
 21
343.2727544555723
 31
0.0
  0
CIRCLE
  5
1A2AA
330
1F
100
AcDbEntity
  8
003
100
AcDbCircle
 10
557.1816756313665
 20
342.6894211555723
 30
0.0
 40
3.4999998
  0
LINE
  5
1A2AB
330
1F
100
AcDbEntity
  8
003
100
AcDbLine
 10
554.8483424313667
 20
343.2727544555723
 30
0.0
 11
556.0150090313664
 21
343.2727544555723
 31
0.0
  0
LINE
  5
1A2AC
330
1F
100
AcDbEntity
  8
003
100
AcDbLine
 10
554.8483424313667
 20
342.1060878555723
 30
0.0
 11
556.0266756973669
 21
342.1060878555723
 31
0.0
  0
LINE
  5
1A2AD
330
1F
100
AcDbEntity
  8
006
100
AcDbLine
 10
569.1816756313665
 20
347.6894211555723
 30
0.0
 11
569.1816756313665
 21
337.6894211555723
 31
0.0
  0
LINE
  5
1A2AE
330
1F
100
AcDbEntity
  8
003
100
AcDbLine
 10
568.610008997367
 20
340.3560879555721
 30
0.0
 11
569.7650089313665
 21
340.3560879555721
 31
0.0
  0
LINE
  5
1A2AF
330
1F
100
AcDbEntity
  8
003
100
AcDbLine
 10
568.5983423313664
 20
345.0227543555723
 30
0.0
 11
569.7650089313665
 21
345.0227543555723
 31
0.0
  0
LINE
  5
1A2B0
330
1F
100
AcDbEntity
  8
003
100
AcDbLine
 10
568.610008997367
 20
340.3560879555721
 30
0.0
 11
568.610008997367
 21
341.5227545555722
 31
0.0
  0
LINE
  5
1A2B1
330
1F
100
AcDbEntity
  8
003
100
AcDbLine
 10
568.5983423313664
 20
343.8560877555724
 30
0.0
 11
568.5983423313664
 21
345.0227543555723
 31
0.0
  0
LINE
  5
1A2B2
330
1F
100
AcDbEntity
  8
003
100
AcDbLine
 10
566.8483424313667
 20
342.1060878555723
 30
0.0
 11
568.026675697367
 21
342.1060878555723
 31
0.0
  0
LINE
  5
1A2B3
330
1F
100
AcDbEntity
  8
003
100
AcDbLine
 10
566.8483424313667
 20
343.2727544555723
 30
0.0
 11
568.0150090313664
 21
343.2727544555723
 31
0.0
  0
LINE
  5
1A2B4
330
1F
100
AcDbEntity
  8
003
100
AcDbLine
 10
566.8483424313667
 20
342.1060878555723
 30
0.0
 11
566.8483424313667
 21
343.2727544555723
 31
0.0
  0
ARC
  5
1A2B5
330
1F
100
AcDbEntity
  8
003
100
AcDbCircle
 10
568.026675697367
 20
341.5227545555722
 30
0.0
 40
0.5833333000000001
100
AcDbArc
 50
0.0
 51
90.0
  0
ARC
  5
1A2B6
330
1F
100
AcDbEntity
  8
003
100
AcDbCircle
 10
568.0150090313664
 20
343.8560877555724
 30
0.0
 40
0.5833333000000001
100
AcDbArc
 50
270.0
 51
0.0
  0
LINE
  5
1A2B7
330
1F
100
AcDbEntity
  8
003
100
AcDbLine
 10
571.5150088313666
 20
342.1060878555723
 30
0.0
 11
571.5150088313666
 21
343.2727544555723
 31
0.0
  0
LINE
  5
1A2B8
330
1F
100
AcDbEntity
  8
003
100
AcDbLine
 10
570.3483422313666
 20
342.1060878555723
 30
0.0
 11
571.5150088313666
 21
342.1060878555723
 31
0.0
  0
LINE
  5
1A2B9
330
1F
100
AcDbEntity
  8
003
100
AcDbLine
 10
570.3483422313666
 20
343.2727544555723
 30
0.0
 11
571.5150088313666
 21
343.2727544555723
 31
0.0
  0
LINE
  5
1A2BA
330
1F
100
AcDbEntity
  8
003
100
AcDbLine
 10
569.7650089313665
 20
340.3560879555721
 30
0.0
 11
569.7650089313665
 21
341.5227545555722
 31
0.0
  0
LINE
  5
1A2BB
330
1F
100
AcDbEntity
  8
003
100
AcDbLine
 10
569.7650089313665
 20
343.8560877555724
 30
0.0
 11
569.7650089313665
 21
345.0227543555723
 31
0.0
  0
ARC
  5
1A2BC
330
1F
100
AcDbEntity
  8
003
100
AcDbCircle
 10
570.3483422313666
 20
341.5227545555722
 30
0.0
 40
0.5833333000000001
100
AcDbArc
 50
90.0
 51
180.0
  0
ARC
  5
1A2BD
330
1F
100
AcDbEntity
  8
003
100
AcDbCircle
 10
570.3483422313666
 20
343.8560877555724
 30
0.0
 40
0.5833333000000001
100
AcDbArc
 50
180.0
 51
270.0
  0
CIRCLE
  5
1A2BE
330
1F
100
AcDbEntity
  8
003
100
AcDbCircle
 10
569.1816756313665
 20
342.6894211555723
 30
0.0
 40
3.4999998
  0
LINE
  5
1A2BF
330
1F
100
AcDbEntity
  8
007
100
AcDbLine
 10
574.1816756313665
 20
350.1894211555723
 30
0.0
 11
544.1816756313665
 21
350.1894211555736
 31
0.0
  0
LINE
  5
1A2C4
330
1F
100
AcDbEntity
  8
003
  6
Continuous
100
AcDbLine
 10
582.1816756313665
 20
354.9394211555723
 30
0.0
 11
582.1816756313665
 21
330.4394211555723
 31
0.0
  0
DIMENSION
  5
1A2C5
330
1F
100
AcDbEntity
  8
003
100
AcDbDimension
  2
*D13
 10
609.3375060850921
 20
332.6894211555723
 30
0.0
 11
604.337506085092
 21
342.6894211555723
 31
0.0
 70
    32
 71
     5
 42
20.0
  3
DIM
100
AcDbAlignedDimension
 13
594.9055821723914
 23
352.6894211555723
 33
0.0
 14
594.9055821723914
 24
332.6894211555723
 34
0.0
 50
90.0
100
AcDbRotatedDimension
  0
LINE
  5
1A2C6
330
1F
100
AcDbEntity
  8
003
100
AcDbLine
 10
582.1816756313665
 20
332.6894211555723
 30
0.0
 11
634.4823950505611
 21
332.6894211555723
 31
0.0
  0
LINE
  5
1A2C7
330
1F
100
AcDbEntity
  8
003
100
AcDbLine
 10
582.1816756313665
 20
352.6894211555723
 30
0.0
 11
634.4823950505611
 21
352.6894211555724
 31
0.0
  0
LINE
  5
1A2C8
330
1F
100
AcDbEntity
  8
007
100
AcDbLine
 10
544.1816756313665
 20
352.6894211555733
 30
0.0
 11
542.1816756313666
 21
352.6894211555734
 31
0.0
  0
LINE
  5
1A2C9
330
1F
100
AcDbEntity
  8
007
100
AcDbLine
 10
544.1816756313665
 20
352.6894211555733
 30
0.0
 11
544.1816756313665
 21
350.1894211555736
 31
0.0
  0
LINE
  5
1A2CA
330
1F
100
AcDbEntity
  8
007
100
AcDbLine
 10
544.1816756313665
 20
332.6894211555723
 30
0.0
 11
542.1816756313664
 21
332.6894211555723
 31
0.0
  0
LINE
  5
1A2CB
330
1F
100
AcDbEntity
  8
007
100
AcDbLine
 10
544.1816756313665
 20
335.1894211555723
 30
0.0
 11
544.1816756313665
 21
332.6894211555723
 31
0.0
  0
LINE
  5
1A2FF
330
1F
100
AcDbEntity
  8
006
100
AcDbLine
 10
721.783114469756
 20
342.6894211555723
 30
0.0
 11
753.5740159357564
 21
342.6894211555719
 31
0.0
  0
LINE
  5
1A300
330
1F
100
AcDbEntity
  8
007
100
AcDbLine
 10
727.483114469756
 20
344.9894211555723
 30
0.0
 11
727.483114469756
 21
340.3894211555723
 31
0.0
  0
LINE
  5
1A301
330
1F
100
AcDbEntity
  8
007
100
AcDbLine
 10
729.783114469756
 20
346.1894211555723
 30
0.0
 11
729.783114469756
 21
339.1894211555723
 31
0.0
  0
LINE
  5
1A302
330
1F
100
AcDbEntity
  8
007
100
AcDbLine
 10
739.513114469756
 20
344.6894211555723
 30
0.0
 11
738.6931144697561
 21
340.6894211555723
 31
0.0
  0
LINE
  5
1A303
330
1F
100
AcDbEntity
  8
007
100
AcDbLine
 10
746.313114469756
 20
344.6894211555723
 30
0.0
 11
745.493114469756
 21
340.6894211555723
 31
0.0
  0
LINE
  5
1A304
330
1F
100
AcDbEntity
  8
007
100
AcDbLine
 10
744.6131144697561
 20
344.6894211555723
 30
0.0
 11
743.793114469756
 21
340.6894211555723
 31
0.0
  0
LINE
  5
1A305
330
1F
100
AcDbEntity
  8
007
100
AcDbLine
 10
742.9131144697561
 20
344.6894211555723
 30
0.0
 11
742.093114469756
 21
340.6894211555723
 31
0.0
  0
LINE
  5
1A306
330
1F
100
AcDbEntity
  8
007
100
AcDbLine
 10
741.2131144697561
 20
344.6894211555723
 30
0.0
 11
740.3931144697561
 21
340.6894211555723
 31
0.0
  0
LINE
  5
1A307
330
1F
100
AcDbEntity
  8
007
100
AcDbLine
 10
747.8631144697561
 20
343.9694211555722
 30
0.0
 11
747.253114469756
 21
341.0094211555722
 31
0.0
  0
LINE
  5
1A308
330
1F
100
AcDbEntity
  8
007
100
AcDbLine
 10
749.3631144697562
 20
342.9694211555723
 30
0.0
 11
749.233114469756
 21
342.3194211555722
 31
0.0
  0
LINE
  5
1A309
330
1F
100
AcDbEntity
  8
007
100
AcDbLine
 10
749.783114469756
 20
342.6894211555723
 30
0.0
 11
746.783114469756
 21
340.6894211555723
 31
0.0
  0
LINE
  5
1A30A
330
1F
100
AcDbEntity
  8
007
100
AcDbLine
 10
737.813114469756
 20
344.6894211555723
 30
0.0
 11
736.993114469756
 21
340.6894211555723
 31
0.0
  0
LINE
  5
1A30B
330
1F
100
AcDbEntity
  8
007
100
AcDbLine
 10
736.1131144697561
 20
344.6894211555723
 30
0.0
 11
735.293114469756
 21
340.6894211555723
 31
0.0
  0
LINE
  5
1A30C
330
1F
100
AcDbEntity
  8
007
100
AcDbLine
 10
734.4131144697561
 20
344.6894211555723
 30
0.0
 11
733.593114469756
 21
340.6894211555723
 31
0.0
  0
LINE
  5
1A30D
330
1F
100
AcDbEntity
  8
007
100
AcDbLine
 10
732.7131144697561
 20
344.6894211555723
 30
0.0
 11
731.8931144697561
 21
340.6894211555723
 31
0.0
  0
LINE
  5
1A30E
330
1F
100
AcDbEntity
  8
007
100
AcDbLine
 10
731.013114469756
 20
344.6894211555723
 30
0.0
 11
730.1931144697561
 21
340.6894211555723
 31
0.0
  0
LINE
  5
1A30F
330
1F
100
AcDbEntity
  8
007
100
AcDbLine
 10
746.783114469756
 20
344.6894211555723
 30
0.0
 11
729.783114469756
 21
344.6894211555723
 31
0.0
  0
LINE
  5
1A310
330
1F
100
AcDbEntity
  8
007
100
AcDbLine
 10
746.783114469756
 20
344.6894211555723
 30
0.0
 11
749.783114469756
 21
342.6894211555723
 31
0.0
  0
LINE
  5
1A311
330
1F
100
AcDbEntity
  8
007
100
AcDbLine
 10
729.783114469756
 20
346.1894211555723
 30
0.0
 11
728.683114469756
 21
346.1894211555723
 31
0.0
  0
ARC
  5
1A312
330
1F
100
AcDbEntity
  8
007
100
AcDbCircle
 10
728.683114469756
 20
344.9894211555723
 30
0.0
 40
1.199999999999999
100
AcDbArc
 50
90.0
 51
180.0
  0
LINE
  5
1A313
330
1F
100
AcDbEntity
  8
007
100
AcDbLine
 10
746.783114469756
 20
340.6894211555723
 30
0.0
 11
729.783114469756
 21
340.6894211555723
 31
0.0
  0
LINE
  5
1A314
330
1F
100
AcDbEntity
  8
007
100
AcDbLine
 10
729.783114469756
 20
339.1894211555723
 30
0.0
 11
728.683114469756
 21
339.1894211555723
 31
0.0
  0
ARC
  5
1A315
330
1F
100
AcDbEntity
  8
007
100
AcDbCircle
 10
728.683114469756
 20
340.3894211555723
 30
0.0
 40
1.199999999999999
100
AcDbArc
 50
180.0
 51
270.0
  0
LINE
  5
1A316
330
1F
100
AcDbEntity
  8
007
100
AcDbLine
 10
691.7831144697561
 20
352.6894211555721
 30
0.0
 11
725.7831144697561
 21
352.6894211555734
 31
0.0
  0
LINE
  5
1A317
330
1F
100
AcDbEntity
  8
007
100
AcDbLine
 10
691.7831144697561
 20
332.6894211555723
 30
0.0
 11
725.7831144697561
 21
332.6894211555723
 31
0.0
  0
LINE
  5
1A318
330
1F
100
AcDbEntity
  8
003
100
AcDbLine
 10
691.7831144697561
 20
330.4394211555723
 30
0.0
 11
731.7831144697561
 21
330.4394211555723
 31
0.0
  0
LINE
  5
1A319
330
1F
100
AcDbEntity
  8
003
100
AcDbLine
 10
691.7831144697561
 20
354.9394211555723
 30
0.0
 11
731.7831144697561
 21
354.9394211555723
 31
0.0
  0
LINE
  5
1A31A
330
1F
100
AcDbEntity
  8
010
100
AcDbLine
 10
722.0331144697574
 20
350.1894211555732
 30
0.0
 11
707.0331144697561
 21
335.1894211555723
 31
0.0
  0
LINE
  5
1A31B
330
1F
100
AcDbEntity
  8
010
100
AcDbLine
 10
726.033114469758
 20
350.1894211555732
 30
0.0
 11
711.0331144697552
 21
335.1894211555723
 31
0.0
  0
LINE
  5
1A31C
330
1F
100
AcDbEntity
  8
010
100
AcDbLine
 10
731.7831144697561
 20
351.9394211555716
 30
0.0
 11
715.0331144697556
 21
335.1894211555723
 31
0.0
  0
LINE
  5
1A31D
330
1F
100
AcDbEntity
  8
007
100
AcDbLine
 10
725.7831144697561
 20
352.6894211555734
 30
0.0
 11
725.7831144697561
 21
332.6894211555723
 31
0.0
  0
LINE
  5
1A31E
330
1F
100
AcDbEntity
  8
010
100
AcDbLine
 10
706.0331144697561
 20
350.1894211555725
 30
0.0
 11
699.7831144697561
 21
343.9394211555725
 31
0.0
  0
LINE
  5
1A31F
330
1F
100
AcDbEntity
  8
010
100
AcDbLine
 10
710.0331144697565
 20
350.1894211555728
 30
0.0
 11
699.7831144697561
 21
339.939421155572
 31
0.0
  0
LINE
  5
1A320
330
1F
100
AcDbEntity
  8
010
100
AcDbLine
 10
714.033114469757
 20
350.1894211555728
 30
0.0
 11
699.7831144697561
 21
335.9394211555728
 31
0.0
  0
LINE
  5
1A321
330
1F
100
AcDbEntity
  8
010
100
AcDbLine
 10
718.033114469757
 20
350.189421155573
 30
0.0
 11
703.0331144697552
 21
335.1894211555723
 31
0.0
  0
LINE
  5
1A322
330
1F
100
AcDbEntity
  8
007
100
AcDbLine
 10
699.7831144697561
 20
350.1894211555723
 30
0.0
 11
699.7831144697561
 21
335.1894211555723
 31
0.0
  0
LINE
  5
1A323
330
1F
100
AcDbEntity
  8
010
100
AcDbLine
 10
702.0331144697561
 20
350.1894211555723
 30
0.0
 11
699.7831144697561
 21
347.9394211555723
 31
0.0
  0
LINE
  5
1A325
330
1F
100
AcDbEntity
  8
007
100
AcDbLine
 10
699.7831144697561
 20
335.1894211555723
 30
0.0
 11
729.7831144697561
 21
335.1894211555723
 31
0.0
  0
LINE
  5
1A326
330
1F
100
AcDbEntity
  8
010
100
AcDbLine
 10
731.7831144697561
 20
347.9394211555716
 30
0.0
 11
719.033114469757
 21
335.1894211555723
 31
0.0
  0
LINE
  5
1A327
330
1F
100
AcDbEntity
  8
010
100
AcDbLine
 10
731.7831144697561
 20
335.9394211555718
 30
0.0
 11
729.7831144697561
 21
333.939421155573
 31
0.0
  0
LINE
  5
1A328
330
1F
100
AcDbEntity
  8
010
100
AcDbLine
 10
731.7831144697561
 20
343.9394211555718
 30
0.0
 11
723.0331144697556
 21
335.1894211555723
 31
0.0
  0
LINE
  5
1A329
330
1F
100
AcDbEntity
  8
010
100
AcDbLine
 10
731.7831144697561
 20
339.9394211555714
 30
0.0
 11
727.033114469757
 21
335.1894211555723
 31
0.0
  0
LINE
  5
1A34F
330
1F
100
AcDbEntity
  8
007
100
AcDbLine
 10
699.7831144697561
 20
350.1894211555723
 30
0.0
 11
729.7831144697561
 21
350.1894211555736
 31
0.0
  0
LINE
  5
1A350
330
1F
100
AcDbEntity
  8
003
  6
Continuous
100
AcDbLine
 10
691.7831144697561
 20
354.9394211555723
 30
0.0
 11
691.7831144697561
 21
330.4394211555723
 31
0.0
  0
LINE
  5
1A352
330
1F
100
AcDbEntity
  8
003
100
AcDbLine
 10
691.7831144697561
 20
332.6894211555723
 30
0.0
 11
639.4823950505614
 21
332.6894211555723
 31
0.0
  0
LINE
  5
1A353
330
1F
100
AcDbEntity
  8
003
100
AcDbLine
 10
691.7831144697561
 20
352.6894211555723
 30
0.0
 11
639.4823950505614
 21
352.6894211555724
 31
0.0
  0
LINE
  5
1A354
330
1F
100
AcDbEntity
  8
007
100
AcDbLine
 10
729.7831144697561
 20
352.6894211555733
 30
0.0
 11
731.783114469756
 21
352.6894211555734
 31
0.0
  0
LINE
  5
1A355
330
1F
100
AcDbEntity
  8
007
100
AcDbLine
 10
729.7831144697561
 20
352.6894211555733
 30
0.0
 11
729.7831144697561
 21
350.1894211555736
 31
0.0
  0
LINE
  5
1A356
330
1F
100
AcDbEntity
  8
007
100
AcDbLine
 10
729.7831144697561
 20
332.6894211555723
 30
0.0
 11
731.7831144697561
 21
332.6894211555723
 31
0.0
  0
LINE
  5
1A357
330
1F
100
AcDbEntity
  8
007
100
AcDbLine
 10
729.7831144697561
 20
335.1894211555723
 30
0.0
 11
729.7831144697561
 21
332.6894211555723
 31
0.0
  0
LEADER
  5
1A37F
330
1F
100
AcDbEntity
  8
003
  6
Continuous
100
AcDbLeader
  3
DIM
 73
     0
 40
6.000000000000004
 41
53.91428571428568
 76
     3
 10
711.7744809075698
 20
347.9307875933857
 30
0.0
 10
697.9435963131542
 20
379.9778771884976
 30
0.0
 10
697.3298657079901
 20
379.9778771884976
 30
0.0
340
1A380
1001
ACAD
1000
DSTYLE
1002
{
1070
   147
1040
1.0
1070
    77
1070
     1
1002
}
  0
MTEXT
  5
1A380
102
{ACAD_REACTORS
330
1A37F
102
}
330
1F
100
AcDbEntity
  8
003
  6
Continuous
 62
     7
100
AcDbMText
 10
695.3298657079901
 20
381.9778771884976
 30
0.0
 40
6.0
 41
0.0
 71
     9
 72
     1
  1
［32×38×32（ｽﾃﾝ）
  7
DIM
 73
     1
 44
1.0
  0
LINE
  5
1A392
330
1F
100
AcDbEntity
  8
003
100
AcDbLine
 10
696.5513069255136
 20
319.132294230594
 30
0.0
 11
726.5513069255133
 21
319.132294230594
 31
0.0
  0
TEXT
  5
1A393
330
1F
100
AcDbEntity
  8
0
100
AcDbText
 10
701.5513069255135
 20
310.632294230594
 30
0.0
 40
6.0
  1
上部面
  7
AT_VECTOR
 72
     1
 11
711.5513069255134
 21
313.632294230594
 31
0.0
100
AcDbText
 73
     2
  0
LINE
  5
1A394
330
1F
100
AcDbEntity
  8
003
100
AcDbLine
 10
696.5513069255136
 20
308.132294230594
 30
0.0
 11
726.5513069255133
 21
308.132294230594
 31
0.0
  0
LINE
  5
1A395
330
1F
100
AcDbEntity
  8
003
100
AcDbLine
 10
696.5513069255136
 20
319.132294230594
 30
0.0
 11
696.5513069255136
 21
308.132294230594
 31
0.0
  0
LINE
  5
1A396
330
1F
100
AcDbEntity
  8
003
100
AcDbLine
 10
726.5513069255133
 20
319.132294230594
 30
0.0
 11
726.5513069255133
 21
308.132294230594
 31
0.0
  0
LINE
  5
1A397
330
1F
100
AcDbEntity
  8
003
100
AcDbLine
 10
546.9498680871241
 20
319.132294230594
 30
0.0
 11
576.9498680871239
 21
319.132294230594
 31
0.0
  0
TEXT
  5
1A398
330
1F
100
AcDbEntity
  8
0
100
AcDbText
 10
551.949868087124
 20
310.632294230594
 30
0.0
 40
6.0
  1
下部面
  7
AT_VECTOR
 72
     1
 11
561.949868087124
 21
313.632294230594
 31
0.0
100
AcDbText
 73
     2
  0
LINE
  5
1A399
330
1F
100
AcDbEntity
  8
003
100
AcDbLine
 10
546.9498680871241
 20
308.132294230594
 30
0.0
 11
576.9498680871239
 21
308.132294230594
 31
0.0
  0
LINE
  5
1A39A
330
1F
100
AcDbEntity
  8
003
100
AcDbLine
 10
546.9498680871241
 20
319.132294230594
 30
0.0
 11
546.9498680871241
 21
308.132294230594
 31
0.0
  0
LINE
  5
1A39B
330
1F
100
AcDbEntity
  8
003
100
AcDbLine
 10
576.9498680871239
 20
319.132294230594
 30
0.0
 11
576.9498680871239
 21
308.132294230594
 31
0.0
  0
TEXT
  5
1A3C9
330
1F
100
AcDbEntity
  8
0
100
AcDbText
 10
347.8818811555561
 20
524.3595102587994
 30
0.0
 40
7.999999999999998
  1
（コ型チャンネル仕様）
 41
0.85
  7
AT_VECTOR
 72
     1
 11
391.8552144888894
 21
528.3595102587994
 31
0.0
100
AcDbText
 73
     2
  0
LEADER
  5
1AF0C
330
1F
100
AcDbEntity
  8
003
  6
Continuous
100
AcDbLeader
  3
DIM
 73
     0
 74
     0
 40
6.0
 41
18.08571428571429
 76
     3
 10
204.1338472977103
 20
362.5159678052752
 30
0.0
 10
215.9947931690451
 20
332.577131073133
 30
0.0
 10
216.6577869975833
 20
332.577131073133
 30
0.0
340
1AF0D
1001
ACAD
1000
DSTYLE
1002
{
1070
   147
1040
1.0
1070
    77
1070
     1
1002
}
  0
MTEXT
  5
1AF0D
102
{ACAD_REACTORS
330
1AF0C
102
}
330
1F
100
AcDbEntity
  8
003
  6
Continuous
 62
     7
100
AcDbMText
 10
218.6577869975833
 20
334.577131073133
 30
0.0
 40
6.0
 41
0.0
 71
     7
 72
     1
  1
Ｍ4ビス
  7
DIM
 73
     1
 44
1.0
  0
LEADER
  5
1AF2C
330
1F
100
AcDbEntity
  8
003
100
AcDbLeader
  3
DIM
 73
     0
 74
     0
 40
6.000000000000001
 41
55.09285714285714
 76
     3
 10
380.2461790554763
 20
406.6528041365383
 30
0.0
 10
388.0852224576841
 20
430.2617123196397
 30
0.0
 10
389.3258196356655
 20
430.2617123196397
 30
0.0
340
1AF2D
1001
ACAD
1000
DSTYLE
1002
{
1070
   147
1040
1.0
1070
    77
1070
     1
1002
}
  0
MTEXT
  5
1AF2D
102
{ACAD_REACTORS
330
1AF2C
102
}
330
1F
100
AcDbEntity
  8
003
 62
     7
100
AcDbMText
 10
391.3258196356655
 20
432.2617123196397
 30
0.0
 40
6.0
 41
0.0
 71
     7
 72
     1
  1
24.5×44.5角パイプ
  7
DIM
 73
     1
 44
1.0
  0
ENDSEC
  0
SECTION
  2
OBJECTS
  0
DICTIONARY
  5
C
330
0
100
AcDbDictionary
281
     1
  3
ACAD_COLOR
350
E400
  3
ACAD_GROUP
350
D
  3
ACAD_LAYOUT
350
1A
  3
ACAD_MATERIAL
350
E3D6
  3
ACAD_MLEADERSTYLE
350
E425
  3
ACAD_MLINESTYLE
350
17
  3
ACAD_PLOTSETTINGS
350
19
  3
ACAD_PLOTSTYLENAME
350
E
  3
ACAD_SCALELIST
350
E403
  3
ACAD_TABLESTYLE
350
E401
  3
ACAD_VISUALSTYLE
350
E3EF
  3
AcadDim
350
2AE
  3
ACDB_RECOMPOSE_DATA
350
103AB
  3
AcDbVariableDictionary
350
103AC
  0
DICTIONARY
  5
1B9D5
330
8
100
AcDbDictionary
280
     1
281
     1
  0
DICTIONARY
  5
2859
330
2
100
AcDbDictionary
280
     1
281
     1
  3
ACAD_LAYERFILTERS
360
16274
  3
ACAD_LAYERSTATES
360
285A
  3
ACLYDICTIONARY
360
16273
  0
DICTIONARY
  5
F074
330
10
100
AcDbDictionary
280
     1
281
     1
  3
ADSK_XREC_LAYER_RECONCILED
360
F075
  0
DICTIONARY
  5
F076
330
31
100
AcDbDictionary
280
     1
281
     1
  3
ADSK_XREC_LAYER_RECONCILED
360
F077
  0
DICTIONARY
  5
F07A
330
33
100
AcDbDictionary
280
     1
281
     1
  3
ADSK_XREC_LAYER_RECONCILED
360
F07B
  0
DICTIONARY
  5
F080
330
1A4
100
AcDbDictionary
280
     1
281
     1
  3
ADSK_XREC_LAYER_RECONCILED
360
F081
  0
DICTIONARY
  5
F082
330
1A5
100
AcDbDictionary
280
     1
281
     1
  3
ADSK_XREC_LAYER_RECONCILED
360
F083
  0
DICTIONARY
  5
F088
330
2B1
100
AcDbDictionary
280
     1
281
     1
  3
ADSK_XREC_LAYER_RECONCILED
360
F089
  0
DICTIONARY
  5
F144
330
1F
100
AcDbDictionary
280
     1
281
     1
  3
ACAD_SORTENTS
360
F145
  0
DICTIONARY
  5
E400
102
{ACAD_REACTORS
330
C
102
}
330
C
100
AcDbDictionary
281
     1
  0
DICTIONARY
  5
D
102
{ACAD_REACTORS
330
C
102
}
330
C
100
AcDbDictionary
281
     1
  0
DICTIONARY
  5
1A
102
{ACAD_REACTORS
330
C
102
}
330
C
100
AcDbDictionary
281
     1
  3
Model
350
22
  3
ﾚｲｱｳﾄ1
350
1E
  3
ﾚｲｱｳﾄ2
350
26
  0
DICTIONARY
  5
E3D6
102
{ACAD_REACTORS
330
C
102
}
330
C
100
AcDbDictionary
281
     1
  3
ByBlock
350
E3DF
  3
ByLayer
350
E3D7
  3
Global
350
E3E7
  0
DICTIONARY
  5
E425
102
{ACAD_REACTORS
330
C
102
}
330
C
100
AcDbDictionary
281
     1
  3
Standard
350
E426
  0
DICTIONARY
  5
17
102
{ACAD_REACTORS
330
C
102
}
330
C
100
AcDbDictionary
281
     1
  3
Standard
350
18
  0
DICTIONARY
  5
19
102
{ACAD_REACTORS
330
C
102
}
330
C
100
AcDbDictionary
281
     1
  0
ACDBDICTIONARYWDFLT
  5
E
102
{ACAD_REACTORS
330
C
102
}
330
C
100
AcDbDictionary
281
     1
  3
Normal
350
F
100
AcDbDictionaryWithDefault
340
F
  0
DICTIONARY
  5
E403
102
{ACAD_REACTORS
330
C
102
}
330
C
100
AcDbDictionary
281
     1
  3
A0
350
E404
  3
A1
350
E405
  3
A2
350
E406
  3
A3
350
E407
  3
A4
350
E408
  3
A5
350
E409
  3
A6
350
E40A
  3
A7
350
E40B
  3
A8
350
E40C
  3
A9
350
E40D
  3
B0
350
E40E
  3
B1
350
E40F
  3
B2
350
E410
  3
B3
350
E411
  3
B4
350
E412
  3
B5
350
E413
  3
B6
350
E414
  3
B7
350
E415
  3
B8
350
E416
  3
B9
350
E417
  3
C0
350
E418
  3
C1
350
E419
  3
C2
350
E41A
  3
C3
350
E41B
  3
C4
350
E41C
  3
C5
350
E41D
  3
C6
350
E41E
  3
C7
350
E41F
  3
C8
350
E420
  3
C9
350
E421
  3
D0
350
E422
  3
D1
350
E423
  3
D2
350
E424
  0
DICTIONARY
  5
E401
102
{ACAD_REACTORS
330
C
102
}
330
C
100
AcDbDictionary
281
     1
  3
Standard
350
E402
  0
DICTIONARY
  5
E3EF
102
{ACAD_REACTORS
330
C
102
}
330
C
100
AcDbDictionary
281
     1
  3
2dWireframe
350
E3F5
  3
3D Hidden
350
E3F7
  3
3dWireframe
350
E3F6
  3
Basic
350
E3F4
  3
Brighten
350
E3FB
  3
ColorChange
350
E3FF
  3
Conceptual
350
E3F8
  3
Dim
350
E3FA
  3
Facepattern
350
E3FE
  3
Flat
350
E3F0
  3
FlatWithEdges
350
E3F1
  3
Gouraud
350
E3F2
  3
GouraudWithEdges
350
E3F3
  3
Linepattern
350
E3FD
  3
Realistic
350
E3F9
  3
Thicken
350
E3FC
  0
XRECORD
  5
2AE
102
{ACAD_REACTORS
330
C
102
}
330
C
100
AcDbXrecord
280
     1
 90
   990106
  3

 60
     0
 61
     0
 62
     4
 63
     4
 64
     1
 65
     0
 66
     0
 67
     3
 68
     1
 69
     0
 70
     0
 71
     0
 72
     0
 40
0.0
170
     2
  0
XRECORD
  5
103AB
102
{ACAD_REACTORS
330
C
102
}
330
C
100
AcDbXrecord
280
     1
 90
        1
330
E402
  0
DICTIONARY
  5
103AC
102
{ACAD_REACTORS
330
C
102
}
330
C
100
AcDbDictionary
281
     1
  3
CANNOSCALE
350
103B0
  3
CMLEADERSTYLE
350
103AE
  3
CTABLESTYLE
350
103AD
  3
DIMASSOC
350
1BA02
  3
INDEXCTL
350
1BA01
  3
LIGHTINGUNITS
350
103B1
  3
MSLTSCALE
350
103AF
  3
SORTENTS
350
1BA00
  0
DICTIONARY
  5
16274
102
{ACAD_REACTORS
330
2859
102
}
330
2859
100
AcDbDictionary
281
     1
  0
DICTIONARY
  5
285A
102
{ACAD_REACTORS
330
2859
102
}
330
2859
100
AcDbDictionary
281
     1
  0
DICTIONARY
  5
16273
102
{ACAD_REACTORS
330
2859
102
}
330
2859
100
AcDbDictionary
281
     1
1001
ACAD
1000
<All
  0
XRECORD
  5
F075
102
{ACAD_REACTORS
330
F074
102
}
330
F074
100
AcDbXrecord
280
     1
290
     1
  0
XRECORD
  5
F077
102
{ACAD_REACTORS
330
F076
102
}
330
F076
100
AcDbXrecord
280
     1
290
     1
  0
XRECORD
  5
F07B
102
{ACAD_REACTORS
330
F07A
102
}
330
F07A
100
AcDbXrecord
280
     1
290
     1
  0
XRECORD
  5
F081
102
{ACAD_REACTORS
330
F080
102
}
330
F080
100
AcDbXrecord
280
     1
290
     1
  0
XRECORD
  5
F083
102
{ACAD_REACTORS
330
F082
102
}
330
F082
100
AcDbXrecord
280
     1
290
     1
  0
XRECORD
  5
F089
102
{ACAD_REACTORS
330
F088
102
}
330
F088
100
AcDbXrecord
280
     1
290
     1
  0
SORTENTSTABLE
  5
F145
102
{ACAD_REACTORS
330
F144
102
}
330
F144
100
AcDbSortentsTable
330
1F
331
16548
  5
16548
331
13EC9
  5
13ECB
331
16550
  5
16550
331
16558
  5
16558
331
16671
  5
16675
331
165FB
  5
165FE
331
16585
  5
16585
331
165C4
  5
165C7
331
1663A
  5
1663E
331
166B0
  5
166B4
331
16560
  5
16560
331
16679
  5
1667D
331
16603
  5
16606
331
1658D
  5
1658D
331
165CC
  5
165CF
331
16642
  5
16646
331
166B8
  5
166BC
331
1682F
  5
16832
331
16681
  5
16685
331
1660B
  5
1660E
331
16595
  5
16595
331
165D4
  5
165D7
331
1664A
  5
1664E
331
166C0
  5
166C4
331
16837
  5
16DF3
331
16689
  5
1668D
331
16613
  5
16616
331
1659D
  5
1659D
331
165DC
  5
165DF
331
16652
  5
16656
331
166C8
  5
166CC
331
170FE
  5
17101
331
1712B
  5
1712E
331
17282
  5
17285
331
17A98
  5
17AD8
331
17133
  5
1714B
331
1728A
  5
1728D
331
19FD7
  5
19FD8
331
17AD8
  5
17AD9
331
1714B
  5
1714E
331
17292
  5
17295
331
19FDF
  5
19FE0
331
17153
  5
1719A
331
1729A
  5
1729D
331
19FE7
  5
19FE8
331
16568
  5
16568
331
13DF4
  5
13DF6
331
16531
  5
16531
331
13DFC
  5
13DFE
331
16570
  5
16570
331
16539
  5
16539
331
13EC4
  5
13EC6
331
16578
  5
16578
331
16691
  5
16695
331
1661B
  5
1661E
331
165A5
  5
165A5
331
165E4
  5
165E7
331
1665A
  5
1665E
331
16541
  5
16541
331
17116
  5
17119
331
165AD
  5
165AD
331
165EC
  5
165EF
331
16623
  5
16626
331
16662
  5
16666
331
16699
  5
1669D
331
16800
  5
1663C
331
16F37
  5
16F3A
331
165B5
  5
165B8
331
165F4
  5
165F7
331
1662B
  5
1662E
331
1666A
  5
1666E
331
166A1
  5
166A5
331
16808
  5
1680B
331
16F3F
  5
16F42
331
165BD
  5
165C0
331
166A9
  5
166AD
331
16F47
  5
16F4A
331
1719B
  5
1719E
331
172A2
  5
172A5
331
19CA0
  5
19CA1
331
1726B
  5
1726E
331
19FF7
  5
19FF8
331
17273
  5
17276
331
19FFF
  5
1A000
331
1727B
  5
1727E
331
1A007
  5
1A008
331
16549
  5
16549
331
141
  5
16E7
331
13ECA
  5
13ECC
331
16551
  5
16551
331
16559
  5
16559
331
16672
  5
16676
331
165FC
  5
165FF
331
16586
  5
16586
331
165C5
  5
165C8
331
1663B
  5
1663F
331
166B1
  5
166B5
331
16561
  5
16561
331
1667A
  5
1667E
331
16604
  5
16607
331
1658E
  5
1658E
331
165CD
  5
165D0
331
16643
  5
16647
331
166B9
  5
166BD
331
16830
  5
16833
331
16682
  5
16686
331
1660C
  5
1660F
331
16596
  5
16596
331
165D5
  5
165D8
331
1664B
  5
1664F
331
166C1
  5
166C5
331
16838
  5
16E40
331
1668A
  5
1668E
331
16614
  5
16617
331
1659E
  5
1659E
331
165DD
  5
165E0
331
16653
  5
16657
331
166C9
  5
16802
331
170F7
  5
170FF
331
170FF
  5
17113
331
1712C
  5
1712F
331
17283
  5
17286
331
1A017
  5
1A018
331
1728B
  5
1728E
331
19FD8
  5
19FD9
331
17AD9
  5
18717
331
1714C
  5
1714F
331
17293
  5
17296
331
19FE0
  5
19FE1
331
1729B
  5
1729E
331
19FE8
  5
19FE9
331
16569
  5
16569
331
13DF5
  5
13DF7
331
16532
  5
16532
331
16571
  5
16571
331
1653A
  5
1653A
331
13EC5
  5
13EC7
331
16579
  5
16579
331
16692
  5
16696
331
1661C
  5
1661F
331
165A6
  5
165A6
331
165E5
  5
165E8
331
1665B
  5
1665F
331
16542
  5
16542
331
F806
  5
F85B
331
17117
  5
1711A
331
165AE
  5
165AE
331
165ED
  5
165F0
331
16624
  5
16627
331
16663
  5
16667
331
1669A
  5
166A4
331
16801
  5
16804
331
16F38
  5
16F3B
331
165B6
  5
165B9
331
165F5
  5
165F8
331
1662C
  5
1662F
331
1666B
  5
1666F
331
166A2
  5
166A6
331
16809
  5
1680C
331
16F40
  5
16F43
331
165BE
  5
165C1
331
166AA
  5
166AE
331
16F48
  5
16F4B
331
17127
  5
1712A
331
19FF0
  5
19FF1
331
1719C
  5
1719F
331
172A3
  5
172A6
331
19CA1
  5
19CA2
331
1726C
  5
1726F
331
19FF8
  5
19FF9
331
17274
  5
17277
331
1A000
  5
1A001
331
1727C
  5
1727F
331
1A008
  5
1A009
331
1654A
  5
1654A
331
13ECB
  5
13ECD
331
16552
  5
16552
331
1655A
  5
1655A
331
16811
  5
1682C
331
16673
  5
16677
331
165FD
  5
16600
331
16562
  5
16562
331
13DEE
  5
13DF0
331
16587
  5
16587
331
165C6
  5
165C9
331
1663C
  5
16640
331
166B2
  5
166B6
331
170B8
  5
170EC
331
1667B
  5
1667F
331
16605
  5
16608
331
1658F
  5
1658F
331
165CE
  5
165D1
331
16644
  5
16648
331
166BA
  5
166BE
331
16831
  5
16834
331
16683
  5
16687
331
1660D
  5
16610
331
16597
  5
16597
331
165D6
  5
165D9
331
1664C
  5
16650
331
166C2
  5
166C6
331
1668B
  5
1668F
331
16615
  5
16618
331
1659F
  5
1659F
331
165DE
  5
165E1
331
16654
  5
16658
331
1712D
  5
17130
331
17284
  5
17287
331
1728C
  5
1728F
331
19FD9
  5
19FDB
331
1A018
  5
1A027
331
1714D
  5
17150
331
17294
  5
17297
331
19FE1
  5
19FE2
331
1A028
  5
1A02B
331
1729C
  5
1729F
331
19FE9
  5
19FEA
331
1656A
  5
1656A
331
1652B
  5
1652B
331
F7EF
  5
F7FD
331
13DF6
  5
13DF8
331
16533
  5
16533
331
16572
  5
16572
331
1653B
  5
1653B
331
13EC6
  5
13EC8
331
1657A
  5
1657A
331
16693
  5
16697
331
1661D
  5
16620
331
16543
  5
16543
331
165A7
  5
165A7
331
165E6
  5
165E9
331
1665C
  5
16660
331
165AF
  5
165AF
331
165EE
  5
165F1
331
16625
  5
16628
331
16664
  5
16668
331
16802
  5
16805
331
16F39
  5
16F3C
331
17118
  5
1711B
331
165B7
  5
165BD
331
165F6
  5
165F9
331
1662D
  5
16630
331
1666C
  5
16670
331
166A3
  5
166A7
331
1680A
  5
1680D
331
16F41
  5
16F44
331
165BF
  5
165C2
331
166AB
  5
166AF
331
16F49
  5
170BA
331
19FF1
  5
19FF2
331
1719D
  5
171A0
331
172A4
  5
172A7
331
19CA2
  5
19CA3
331
19FF9
  5
19FFA
331
1726D
  5
17270
331
19CCA
  5
19CCB
331
17275
  5
17278
331
1A001
  5
1A002
331
1727D
  5
17280
331
1A009
  5
1A00A
331
13ECC
  5
13ECE
331
16553
  5
16553
331
1655B
  5
1655B
331
16580
  5
16580
331
16674
  5
16678
331
165FE
  5
16601
331
13DEF
  5
13DF1
331
16563
  5
16563
331
16588
  5
16588
331
165C7
  5
165CA
331
1663D
  5
16641
331
166B3
  5
166B7
331
1682A
  5
1682D
331
1667C
  5
16680
331
16606
  5
16609
331
16590
  5
16590
331
165CF
  5
165D2
331
16645
  5
16649
331
166BB
  5
166BF
331
16832
  5
16835
331
16684
  5
16688
331
1660E
  5
16611
331
16598
  5
16598
331
165D7
  5
165DA
331
1664D
  5
16651
331
166C3
  5
166C7
331
1668C
  5
16690
331
16616
  5
16619
331
165DF
  5
165E2
331
16655
  5
16659
331
1712E
  5
17131
331
17285
  5
17288
331
1728D
  5
17290
331
1714E
  5
17151
331
17295
  5
17298
331
19FE2
  5
19FE3
331
1A031
  5
1A17A
331
1729D
  5
172A0
331
19FEA
  5
19FEB
331
1656B
  5
1656B
331
13DF7
  5
13DF9
331
1652C
  5
1652C
331
16534
  5
16534
331
16573
  5
16573
331
13EC7
  5
13EC9
331
1653C
  5
1653C
331
1657B
  5
1657B
331
165A0
  5
165A0
331
16694
  5
16698
331
1661E
  5
16621
331
165E7
  5
165EA
331
16544
  5
16544
331
165A8
  5
165A8
331
1665D
  5
16661
331
165B0
  5
165B3
331
165EF
  5
165F2
331
16626
  5
16629
331
16665
  5
16669
331
16803
  5
16806
331
16F3A
  5
16F3D
331
165F7
  5
165FA
331
1662E
  5
16633
331
1666D
  5
16671
331
166A4
  5
166A8
331
1680B
  5
1680E
331
16F42
  5
16F45
331
166AC
  5
166B0
331
1719E
  5
171A1
331
172A5
  5
172A8
331
19FF2
  5
19FF3
331
1726E
  5
17271
331
19FFA
  5
19FFB
331
17276
  5
17279
331
1A002
  5
1A003
331
1727E
  5
17281
331
1A00A
  5
1A00B
331
F4
  5
F4
331
1654C
  5
1654C
331
13ECD
  5
13ECF
331
16554
  5
16554
331
13EED
  5
13EEF
331
16581
  5
16581
331
165C0
  5
165C3
331
16675
  5
16679
331
165FF
  5
16602
331
16564
  5
16564
331
16589
  5
16589
331
165C8
  5
165CB
331
1663E
  5
16642
331
166B4
  5
166B8
331
1682B
  5
1682E
331
1667D
  5
16681
331
16607
  5
1660A
331
16591
  5
16591
331
165D0
  5
165D3
331
16646
  5
1664A
331
166BC
  5
166C0
331
170EA
  5
170F5
331
16833
  5
16836
331
16685
  5
16689
331
1660F
  5
16612
331
16599
  5
16599
331
165D8
  5
165DB
331
1664E
  5
16652
331
166C4
  5
166C8
331
1668D
  5
16691
331
16617
  5
1661A
331
16656
  5
1665A
331
1712F
  5
17132
331
17286
  5
17289
331
1728E
  5
17291
331
19FDB
  5
19FDC
331
1714F
  5
17152
331
17296
  5
17299
331
19FE3
  5
19FE4
331
1729E
  5
172A1
331
19FEB
  5
19FEC
331
13DF0
  5
13DF2
331
1656C
  5
1656C
331
13DF8
  5
13DFA
331
1652D
  5
1652D
331
16535
  5
16535
331
16574
  5
16574
331
1653D
  5
1653D
331
1657C
  5
1657C
331
165A1
  5
165A1
331
165E0
  5
165E3
331
16695
  5
16699
331
1661F
  5
16622
331
16545
  5
16545
331
165A9
  5
165A9
331
165E8
  5
165EB
331
1665E
  5
16662
331
16F33
  5
16F36
331
16F3B
  5
16F3E
331
16627
  5
1662A
331
165B1
  5
165B4
331
165F0
  5
165F3
331
16666
  5
1666A
331
16804
  5
16808
331
16F43
  5
16F46
331
1666E
  5
16672
331
166A5
  5
166A9
331
1680C
  5
1680F
331
166AD
  5
166B1
331
1719F
  5
17217
331
172A6
  5
172AD
331
19FF3
  5
19FF4
331
1726F
  5
17272
331
177BE
  5
177E6
331
19FFB
  5
19FFC
331
17277
  5
1727A
331
1A003
  5
1A004
331
1727F
  5
17282
331
1A00B
  5
1A00C
331
F5
  5
F5
331
13ECE
  5
13ED0
331
1654D
  5
1654D
331
13EEE
  5
13EF0
331
16555
  5
16555
331
165F8
  5
165FB
331
1655D
  5
1655D
331
16582
  5
16582
331
165C1
  5
165C4
331
16676
  5
1667A
331
16600
  5
16603
331
16565
  5
16565
331
1658A
  5
1658A
331
165C9
  5
165CC
331
1663F
  5
16643
331
166B5
  5
166B9
331
1682C
  5
1682F
331
1667E
  5
16682
331
16608
  5
1660B
331
16592
  5
16592
331
165D1
  5
165D4
331
16647
  5
1664B
331
166BD
  5
166C1
331
170F3
  5
170F6
331
16834
  5
16837
331
16686
  5
1668A
331
16610
  5
16613
331
1659A
  5
1659A
331
165D9
  5
165DC
331
1664F
  5
16653
331
166C5
  5
166C9
331
1668E
  5
16692
331
16657
  5
1665B
331
17128
  5
1712B
331
177E6
  5
17816
331
17130
  5
17133
331
17287
  5
1728A
331
19FD4
  5
19FD5
331
1728F
  5
17292
331
19FDC
  5
19FDD
331
17816
  5
17886
331
17150
  5
17153
331
17297
  5
1729A
331
19FE4
  5
19FE5
331
1A02B
  5
1A02C
331
19FEC
  5
19FED
331
1729F
  5
172A2
331
13DF1
  5
13DF3
331
1652E
  5
1652E
331
F7F2
  5
F806
331
13DF9
  5
13DFB
331
1656D
  5
1656D
331
13EC1
  5
13EC3
331
16536
  5
16536
331
16575
  5
16575
331
16618
  5
1661B
331
1653E
  5
1653E
331
1657D
  5
1657D
331
165A2
  5
165A2
331
165E1
  5
165E4
331
16696
  5
1669A
331
1665F
  5
16663
331
16620
  5
16623
331
16546
  5
16546
331
165AA
  5
165AA
331
165E9
  5
165EC
331
16F34
  5
16F37
331
16F3C
  5
16F3F
331
16628
  5
1662B
331
165B2
  5
165B5
331
165F1
  5
165F4
331
16667
  5
1666B
331
16805
  5
16809
331
16F44
  5
16F47
331
1666F
  5
16673
331
166A6
  5
166AA
331
1680D
  5
16811
331
166AE
  5
166B2
331
17198
  5
1719B
331
19FF4
  5
19FF5
331
17886
  5
17A97
331
19FFC
  5
19FFD
331
17270
  5
17273
331
1A004
  5
1A005
331
17278
  5
1727B
331
1A00C
  5
1A012
331
F6
  5
1505
331
13ECF
  5
13ED1
331
1270A
  5
1270A
331
16556
  5
16556
331
165F9
  5
165FC
331
1655E
  5
1655E
331
16583
  5
16583
331
165C2
  5
165C5
331
16638
  5
1663B
331
16677
  5
1667B
331
16601
  5
16604
331
16566
  5
16566
331
1658B
  5
1658B
331
165CA
  5
165CD
331
16640
  5
16644
331
166B6
  5
166BA
331
1682D
  5
16830
331
1667F
  5
16683
331
16609
  5
1660C
331
16593
  5
16593
331
165D2
  5
165D5
331
16648
  5
1664C
331
166BE
  5
166C2
331
170F4
  5
170F9
331
16835
  5
16838
331
16687
  5
1668B
331
16611
  5
16614
331
1659B
  5
1659B
331
165DA
  5
165DD
331
16650
  5
16654
331
166C6
  5
166CA
331
1668F
  5
16693
331
17129
  5
1712C
331
17280
  5
17283
331
1A014
  5
1A017
331
19FD5
  5
19FD6
331
17131
  5
17134
331
17288
  5
1728B
331
19FDD
  5
19FDE
331
17149
  5
1714C
331
17290
  5
17293
331
19FE5
  5
19FE6
331
17151
  5
17154
331
17298
  5
1729B
331
1A02C
  5
1A031
331
19FED
  5
19FEE
331
19C9E
  5
19C9F
331
13DF2
  5
13DF4
331
1652F
  5
1652F
331
13DFA
  5
13DFC
331
1656E
  5
1656E
331
16537
  5
16537
331
13EC2
  5
13EC4
331
16576
  5
16576
331
16619
  5
1661C
331
1653F
  5
1653F
331
1657E
  5
1657E
331
165A3
  5
165A3
331
165E2
  5
165E5
331
16658
  5
1665C
331
16697
  5
1669B
331
16547
  5
16547
331
165AB
  5
165AB
331
165EA
  5
165ED
331
16621
  5
16624
331
16660
  5
16664
331
16F35
  5
16F38
331
16F3D
  5
16F40
331
165B3
  5
165B6
331
165F2
  5
165F5
331
16629
  5
1662C
331
16668
  5
1666C
331
16806
  5
1680A
331
16F45
  5
16F48
331
165BB
  5
165BE
331
16631
  5
1663A
331
166A7
  5
166AB
331
1680E
  5
1682A
331
166AF
  5
166B3
331
17199
  5
1719C
331
172A0
  5
172A3
331
19FF5
  5
19FF6
331
17271
  5
17274
331
19FFD
  5
19FFE
331
1A005
  5
1A006
331
17279
  5
1727C
331
19CD6
  5
19CD7
331
13EC8
  5
13ECA
331
1654F
  5
1654F
331
16557
  5
16557
331
16670
  5
16674
331
165FA
  5
165FD
331
1655F
  5
1655F
331
16584
  5
16584
331
165C3
  5
165C6
331
16639
  5
1663D
331
16678
  5
1667C
331
16602
  5
16605
331
16567
  5
16567
331
1658C
  5
1658C
331
165CB
  5
165CE
331
16641
  5
16645
331
166B7
  5
166BB
331
1682E
  5
16831
331
16680
  5
16684
331
1660A
  5
1660D
331
16594
  5
16594
331
165D3
  5
165D6
331
16649
  5
1664D
331
166BF
  5
166C3
331
16836
  5
16DF2
331
16688
  5
1668C
331
16612
  5
16615
331
1659C
  5
1659C
331
165DB
  5
165DE
331
16651
  5
16655
331
166C7
  5
166CB
331
170FD
  5
17100
331
1712A
  5
1712D
331
17281
  5
17284
331
17A97
  5
17A98
331
17132
  5
17135
331
17289
  5
1728C
331
19FD6
  5
19FD7
331
1714A
  5
1714D
331
17291
  5
17294
331
19FDE
  5
19FDF
331
17152
  5
17155
331
17299
  5
1729C
331
19FE6
  5
19FE7
331
19C9F
  5
19CA0
331
13DF3
  5
13DF5
331
1656F
  5
1656F
331
16530
  5
16530
331
13DFB
  5
13DFD
331
16538
  5
16538
331
13EC3
  5
13EC5
331
16577
  5
16577
331
16690
  5
16694
331
1661A
  5
1661D
331
16540
  5
16540
331
1657F
  5
1657F
331
165A4
  5
165A4
331
165E3
  5
165E6
331
16659
  5
1665D
331
17115
  5
17118
331
16F36
  5
16F39
331
167FF
  5
16803
331
165AC
  5
165AC
331
165EB
  5
165EE
331
16622
  5
16625
331
16661
  5
16665
331
16698
  5
1669C
331
16F3E
  5
16F41
331
165B4
  5
165B7
331
165F3
  5
165F6
331
1662A
  5
1662D
331
16669
  5
1666D
331
16F46
  5
16F49
331
165BC
  5
165BF
331
166A8
  5
166AC
331
1680F
  5
1682B
331
17125
  5
17129
331
1719A
  5
1719D
331
172A1
  5
172A4
331
1726A
  5
1726D
331
19FF6
  5
19FF7
331
17272
  5
17275
331
19FFE
  5
19FFF
331
1727A
  5
1727D
331
1A006
  5
1A007
  0
LAYOUT
  5
22
102
{ACAD_REACTORS
330
1A
102
}
330
1A
100
AcDbPlotSettings
  1

  2
Brother HL-2170W series
  4
A4
  6

 40
5.027082920074462
 41
5.027085781097412
 42
5.027069091796875
 43
5.027069091796875
 44
209.9733276367187
 45
296.9259948730469
 46
2.459475103511039
 47
0.0
 48
20.0000000000001
 49
21.0
140
809.9999999999996
141
558.0
142
1.0
143
2.753842970434391
 70
 11956
 72
     1
 73
     1
 74
     4
  7
EPSON.ctb
 75
     0
147
0.3631289113925984
 76
     0
 77
     2
 78
   300
148
-20.0000000000001
149
-21.0
100
AcDbLayout
  1
Model
 70
     1
 71
     0
 10
0.0
 20
0.0
 11
12.0
 21
9.0
 12
0.0
 22
0.0
 32
0.0
 14
0.0
 24
0.0
 34
0.0
 15
0.0
 25
0.0
 35
0.0
146
0.0
 13
0.0
 23
0.0
 33
0.0
 16
1.0
 26
0.0
 36
0.0
 17
0.0
 27
1.0
 37
0.0
 76
     0
330
1F
331
E3D4
1001
ACAD_PSEXT
1000
Brother HL-2170W series
1000
Brother HL-2170W series
1000
USB002
1000

1070
     0
  0
LAYOUT
  5
1E
102
{ACAD_REACTORS
330
1A
102
}
330
1A
100
AcDbPlotSettings
  1

  2
C:\PROGRAM FILES\AUTOCAD LT 2000I\plotters\HP DesignJet 430 A3.pc3
  4

  6

 40
0.0
 41
0.0
 42
0.0
 43
0.0
 44
0.0
 45
0.0
 46
0.0
 47
0.0
 48
0.0
 49
0.0
140
0.0
141
0.0
142
1.0
143
1.0
 70
   688
 72
     0
 73
     0
 74
     5
  7
EPSON.ctb
 75
    16
147
1.0
 76
     0
 77
     2
 78
   300
148
0.0
149
0.0
100
AcDbLayout
  1
ﾚｲｱｳﾄ1
 70
     1
 71
     1
 10
0.0
 20
0.0
 11
420.0
 21
297.0
 12
0.0
 22
0.0
 32
0.0
 14
1.000000000000000E+20
 24
1.000000000000000E+20
 34
1.000000000000000E+20
 15
-1.000000000000000E+20
 25
-1.000000000000000E+20
 35
-1.000000000000000E+20
146
0.0
 13
0.0
 23
0.0
 33
0.0
 16
1.0
 26
0.0
 36
0.0
 17
0.0
 27
1.0
 37
0.0
 76
     0
330
1B
  0
LAYOUT
  5
26
102
{ACAD_REACTORS
330
1A
102
}
330
1A
100
AcDbPlotSettings
  1

  2
C:\PROGRAM FILES\AUTOCAD LT 2000I\plotters\HP DesignJet 430 A3.pc3
  4

  6

 40
0.0
 41
0.0
 42
0.0
 43
0.0
 44
0.0
 45
0.0
 46
0.0
 47
0.0
 48
0.0
 49
0.0
140
0.0
141
0.0
142
1.0
143
1.0
 70
   688
 72
     0
 73
     0
 74
     5
  7
EPSON.ctb
 75
    16
147
1.0
 76
     0
 77
     2
 78
   300
148
0.0
149
0.0
100
AcDbLayout
  1
ﾚｲｱｳﾄ2
 70
     1
 71
     2
 10
0.0
 20
0.0
 11
12.0
 21
9.0
 12
0.0
 22
0.0
 32
0.0
 14
0.0
 24
0.0
 34
0.0
 15
0.0
 25
0.0
 35
0.0
146
0.0
 13
0.0
 23
0.0
 33
0.0
 16
1.0
 26
0.0
 36
0.0
 17
0.0
 27
1.0
 37
0.0
 76
     0
330
23
  0
MATERIAL
  5
E3DF
102
{ACAD_XDICTIONARY
360
E3E0
102
}
102
{ACAD_REACTORS
330
E3D6
102
}
330
E3D6
100
AcDbMaterial
  1
ByBlock
 72
     0
 43
0.0008202099737533
 43
0.0
 43
0.0
 43
0.0
 43
0.0
 43
0.0008202099737533
 43
0.0
 43
0.0
 43
0.0
 43
0.0
 43
1.0
 43
0.0
 43
0.0
 43
0.0
 43
0.0
 43
1.0
 77
     0
 47
0.0008202099737533
 47
0.0
 47
0.0
 47
0.0
 47
0.0
 47
0.0008202099737533
 47
0.0
 47
0.0
 47
0.0
 47
0.0
 47
1.0
 47
0.0
 47
0.0
 47
0.0
 47
0.0
 47
1.0
171
     0
 49
0.0008202099737533
 49
0.0
 49
0.0
 49
0.0
 49
0.0
 49
0.0008202099737533
 49
0.0
 49
0.0
 49
0.0
 49
0.0
 49
1.0
 49
0.0
 49
0.0
 49
0.0
 49
0.0
 49
1.0
175
     0
142
0.0008202099737533
142
0.0
142
0.0
142
0.0
142
0.0
142
0.0008202099737533
142
0.0
142
0.0
142
0.0
142
0.0
142
1.0
142
0.0
142
0.0
142
0.0
142
0.0
142
1.0
179
     0
144
0.0008202099737533
144
0.0
144
0.0
144
0.0
144
0.0
144
0.0008202099737533
144
0.0
144
0.0
144
0.0
144
0.0
144
1.0
144
0.0
144
0.0
144
0.0
144
0.0
144
1.0
147
0.0008202099737533
147
0.0
147
0.0
147
0.0
147
0.0
147
0.0008202099737533
147
0.0
147
0.0
147
0.0
147
0.0
147
1.0
147
0.0
147
0.0
147
0.0
147
0.0
147
1.0
  0
MATERIAL
  5
E3D7
102
{ACAD_XDICTIONARY
360
E3D8
102
}
102
{ACAD_REACTORS
330
E3D6
102
}
330
E3D6
100
AcDbMaterial
  1
ByLayer
 72
     0
 43
0.0008202099737533
 43
0.0
 43
0.0
 43
0.0
 43
0.0
 43
0.0008202099737533
 43
0.0
 43
0.0
 43
0.0
 43
0.0
 43
1.0
 43
0.0
 43
0.0
 43
0.0
 43
0.0
 43
1.0
 77
     0
 47
0.0008202099737533
 47
0.0
 47
0.0
 47
0.0
 47
0.0
 47
0.0008202099737533
 47
0.0
 47
0.0
 47
0.0
 47
0.0
 47
1.0
 47
0.0
 47
0.0
 47
0.0
 47
0.0
 47
1.0
171
     0
 49
0.0008202099737533
 49
0.0
 49
0.0
 49
0.0
 49
0.0
 49
0.0008202099737533
 49
0.0
 49
0.0
 49
0.0
 49
0.0
 49
1.0
 49
0.0
 49
0.0
 49
0.0
 49
0.0
 49
1.0
175
     0
142
0.0008202099737533
142
0.0
142
0.0
142
0.0
142
0.0
142
0.0008202099737533
142
0.0
142
0.0
142
0.0
142
0.0
142
1.0
142
0.0
142
0.0
142
0.0
142
0.0
142
1.0
179
     0
144
0.0008202099737533
144
0.0
144
0.0
144
0.0
144
0.0
144
0.0008202099737533
144
0.0
144
0.0
144
0.0
144
0.0
144
1.0
144
0.0
144
0.0
144
0.0
144
0.0
144
1.0
147
0.0008202099737533
147
0.0
147
0.0
147
0.0
147
0.0
147
0.0008202099737533
147
0.0
147
0.0
147
0.0
147
0.0
147
1.0
147
0.0
147
0.0
147
0.0
147
0.0
147
1.0
  0
MATERIAL
  5
E3E7
102
{ACAD_XDICTIONARY
360
E3E8
102
}
102
{ACAD_REACTORS
330
E3D6
102
}
330
E3D6
100
AcDbMaterial
  1
Global
 72
     0
 43
0.0008202099737533
 43
0.0
 43
0.0
 43
0.0
 43
0.0
 43
0.0008202099737533
 43
0.0
 43
0.0
 43
0.0
 43
0.0
 43
1.0
 43
0.0
 43
0.0
 43
0.0
 43
0.0
 43
1.0
 77
     0
 47
0.0008202099737533
 47
0.0
 47
0.0
 47
0.0
 47
0.0
 47
0.0008202099737533
 47
0.0
 47
0.0
 47
0.0
 47
0.0
 47
1.0
 47
0.0
 47
0.0
 47
0.0
 47
0.0
 47
1.0
171
     0
 49
0.0008202099737533
 49
0.0
 49
0.0
 49
0.0
 49
0.0
 49
0.0008202099737533
 49
0.0
 49
0.0
 49
0.0
 49
0.0
 49
1.0
 49
0.0
 49
0.0
 49
0.0
 49
0.0
 49
1.0
175
     0
142
0.0008202099737533
142
0.0
142
0.0
142
0.0
142
0.0
142
0.0008202099737533
142
0.0
142
0.0
142
0.0
142
0.0
142
1.0
142
0.0
142
0.0
142
0.0
142
0.0
142
1.0
179
     0
144
0.0008202099737533
144
0.0
144
0.0
144
0.0
144
0.0
144
0.0008202099737533
144
0.0
144
0.0
144
0.0
144
0.0
144
1.0
144
0.0
144
0.0
144
0.0
144
0.0
144
1.0
147
0.0008202099737533
147
0.0
147
0.0
147
0.0
147
0.0
147
0.0008202099737533
147
0.0
147
0.0
147
0.0
147
0.0
147
1.0
147
0.0
147
0.0
147
0.0
147
0.0
147
1.0
  0
MLEADERSTYLE
  5
E426
102
{ACAD_REACTORS
330
E425
102
}
330
E425
100
AcDbMLeaderStyle
170
     2
171
     1
172
     0
 90
        2
 40
0.0
 41
0.0
173
     1
 91
-1023410172
340
15
 92
       20
290
     1
 42
0.09
291
     1
 43
-0.36
  3
Standard
341
2B
 44
3.0
300

342
34
174
     6
178
     6
175
     1
176
     0
 93
-1023410169
 45
6.0
292
     0
297
     0
 46
0.18
 94
-1056964608
 47
1.0
 49
1.0
140
1.0
293
     1
141
0.0
294
     1
177
     0
142
1.0
295
     0
296
     0
143
0.125
1001
ACAD_MLEADERVER
1070
     2
  0
MLINESTYLE
  5
18
102
{ACAD_REACTORS
330
17
102
}
330
17
100
AcDbMlineStyle
  2
STANDARD
 70
     0
  3

 62
   256
 51
90.0
 52
90.0
 71
     2
 49
0.5
 62
   256
  6
BYLAYER
 49
-0.5
 62
   256
  6
BYLAYER
  0
ACDBPLACEHOLDER
  5
F
102
{ACAD_REACTORS
330
E
102
}
330
E
  0
SCALE
  5
E404
102
{ACAD_REACTORS
330
E403
102
}
330
E403
100
AcDbScale
 70
     0
300
1:1
140
1.0
141
1.0
290
     1
  0
SCALE
  5
E405
102
{ACAD_REACTORS
330
E403
102
}
330
E403
100
AcDbScale
 70
     0
300
1:2
140
1.0
141
2.0
290
     0
  0
SCALE
  5
E406
102
{ACAD_REACTORS
330
E403
102
}
330
E403
100
AcDbScale
 70
     0
300
1:4
140
1.0
141
4.0
290
     0
  0
SCALE
  5
E407
102
{ACAD_REACTORS
330
E403
102
}
330
E403
100
AcDbScale
 70
     0
300
1:5
140
1.0
141
5.0
290
     0
  0
SCALE
  5
E408
102
{ACAD_REACTORS
330
E403
102
}
330
E403
100
AcDbScale
 70
     0
300
1:8
140
1.0
141
8.0
290
     0
  0
SCALE
  5
E409
102
{ACAD_REACTORS
330
E403
102
}
330
E403
100
AcDbScale
 70
     0
300
1:10
140
1.0
141
10.0
290
     0
  0
SCALE
  5
E40A
102
{ACAD_REACTORS
330
E403
102
}
330
E403
100
AcDbScale
 70
     0
300
1:16
140
1.0
141
16.0
290
     0
  0
SCALE
  5
E40B
102
{ACAD_REACTORS
330
E403
102
}
330
E403
100
AcDbScale
 70
     0
300
1:20
140
1.0
141
20.0
290
     0
  0
SCALE
  5
E40C
102
{ACAD_REACTORS
330
E403
102
}
330
E403
100
AcDbScale
 70
     0
300
1:30
140
1.0
141
30.0
290
     0
  0
SCALE
  5
E40D
102
{ACAD_REACTORS
330
E403
102
}
330
E403
100
AcDbScale
 70
     0
300
1:40
140
1.0
141
40.0
290
     0
  0
SCALE
  5
E40E
102
{ACAD_REACTORS
330
E403
102
}
330
E403
100
AcDbScale
 70
     0
300
1:50
140
1.0
141
50.0
290
     0
  0
SCALE
  5
E40F
102
{ACAD_REACTORS
330
E403
102
}
330
E403
100
AcDbScale
 70
     0
300
1:100
140
1.0
141
100.0
290
     0
  0
SCALE
  5
E410
102
{ACAD_REACTORS
330
E403
102
}
330
E403
100
AcDbScale
 70
     0
300
2:1
140
2.0
141
1.0
290
     0
  0
SCALE
  5
E411
102
{ACAD_REACTORS
330
E403
102
}
330
E403
100
AcDbScale
 70
     0
300
4:1
140
4.0
141
1.0
290
     0
  0
SCALE
  5
E412
102
{ACAD_REACTORS
330
E403
102
}
330
E403
100
AcDbScale
 70
     0
300
8:1
140
8.0
141
1.0
290
     0
  0
SCALE
  5
E413
102
{ACAD_REACTORS
330
E403
102
}
330
E403
100
AcDbScale
 70
     0
300
10:1
140
10.0
141
1.0
290
     0
  0
SCALE
  5
E414
102
{ACAD_REACTORS
330
E403
102
}
330
E403
100
AcDbScale
 70
     0
300
100:1
140
100.0
141
1.0
290
     0
  0
SCALE
  5
E415
102
{ACAD_REACTORS
330
E403
102
}
330
E403
100
AcDbScale
 70
     0
300
1/128" = 1'-0"
140
0.0078125
141
12.0
290
     0
  0
SCALE
  5
E416
102
{ACAD_REACTORS
330
E403
102
}
330
E403
100
AcDbScale
 70
     0
300
1/64" = 1'-0"
140
0.015625
141
12.0
290
     0
  0
SCALE
  5
E417
102
{ACAD_REACTORS
330
E403
102
}
330
E403
100
AcDbScale
 70
     0
300
1/32" = 1'-0"
140
0.03125
141
12.0
290
     0
  0
SCALE
  5
E418
102
{ACAD_REACTORS
330
E403
102
}
330
E403
100
AcDbScale
 70
     0
300
1/16" = 1'-0"
140
0.0625
141
12.0
290
     0
  0
SCALE
  5
E419
102
{ACAD_REACTORS
330
E403
102
}
330
E403
100
AcDbScale
 70
     0
300
3/32" = 1'-0"
140
0.09375
141
12.0
290
     0
  0
SCALE
  5
E41A
102
{ACAD_REACTORS
330
E403
102
}
330
E403
100
AcDbScale
 70
     0
300
1/8" = 1'-0"
140
0.125
141
12.0
290
     0
  0
SCALE
  5
E41B
102
{ACAD_REACTORS
330
E403
102
}
330
E403
100
AcDbScale
 70
     0
300
3/16" = 1'-0"
140
0.1875
141
12.0
290
     0
  0
SCALE
  5
E41C
102
{ACAD_REACTORS
330
E403
102
}
330
E403
100
AcDbScale
 70
     0
300
1/4" = 1'-0"
140
0.25
141
12.0
290
     0
  0
SCALE
  5
E41D
102
{ACAD_REACTORS
330
E403
102
}
330
E403
100
AcDbScale
 70
     0
300
3/8" = 1'-0"
140
0.375
141
12.0
290
     0
  0
SCALE
  5
E41E
102
{ACAD_REACTORS
330
E403
102
}
330
E403
100
AcDbScale
 70
     0
300
1/2" = 1'-0"
140
0.5
141
12.0
290
     0
  0
SCALE
  5
E41F
102
{ACAD_REACTORS
330
E403
102
}
330
E403
100
AcDbScale
 70
     0
300
3/4" = 1'-0"
140
0.75
141
12.0
290
     0
  0
SCALE
  5
E420
102
{ACAD_REACTORS
330
E403
102
}
330
E403
100
AcDbScale
 70
     0
300
1" = 1'-0"
140
1.0
141
12.0
290
     0
  0
SCALE
  5
E421
102
{ACAD_REACTORS
330
E403
102
}
330
E403
100
AcDbScale
 70
     0
300
1-1/2" = 1'-0"
140
1.5
141
12.0
290
     0
  0
SCALE
  5
E422
102
{ACAD_REACTORS
330
E403
102
}
330
E403
100
AcDbScale
 70
     0
300
3" = 1'-0"
140
3.0
141
12.0
290
     0
  0
SCALE
  5
E423
102
{ACAD_REACTORS
330
E403
102
}
330
E403
100
AcDbScale
 70
     0
300
6" = 1'-0"
140
6.0
141
12.0
290
     0
  0
SCALE
  5
E424
102
{ACAD_REACTORS
330
E403
102
}
330
E403
100
AcDbScale
 70
     0
300
1'-0" = 1'-0"
140
12.0
141
12.0
290
     0
  0
TABLESTYLE
  5
E402
102
{ACAD_XDICTIONARY
360
103A9
102
}
102
{ACAD_REACTORS
330
E401
102
}
330
E401
100
AcDbTableStyle
  3
Standard
 70
     0
 71
     0
 40
0.06
 41
0.06
280
     0
281
     0
  7
Standard
140
0.18
170
     2
 62
     0
 63
     7
283
     0
274
    -2
284
     1
 64
     0
275
    -2
285
     1
 65
     0
276
    -2
286
     1
 66
     0
277
    -2
287
     1
 67
     0
278
    -2
288
     1
 68
     0
279
    -2
289
     1
 69
     0
  7
Standard
140
0.25
170
     5
 62
     0
 63
     7
283
     0
274
    -2
284
     1
 64
     0
275
    -2
285
     1
 65
     0
276
    -2
286
     1
 66
     0
277
    -2
287
     1
 67
     0
278
    -2
288
     1
 68
     0
279
    -2
289
     1
 69
     0
  7
Standard
140
0.18
170
     5
 62
     0
 63
     7
283
     0
274
    -2
284
     1
 64
     0
275
    -2
285
     1
 65
     0
276
    -2
286
     1
 66
     0
277
    -2
287
     1
 67
     0
278
    -2
288
     1
 68
     0
279
    -2
289
     1
 69
     0
  0
VISUALSTYLE
  5
E3F5
102
{ACAD_REACTORS
330
E3EF
102
}
330
E3EF
100
AcDbVisualStyle
  2
2dWireframe
 70
     4
 71
     0
 72
     2
 73
     0
 90
        0
 40
-0.6
 41
-30.0
 62
     5
 63
     7
 74
     1
 91
        4
 64
     7
 65
   257
 75
     1
175
     1
 42
1.0
 92
        0
 66
   257
 43
1.0
 76
     1
 77
     6
 78
     2
 67
     7
 79
     5
170
     0
171
     0
290
     0
174
     0
 93
        1
 44
0.0
173
     0
291
     0
 45
0.0
1001
ACAD
1000
AcDbSavedByObjectVersion
1070
     0
  0
VISUALSTYLE
  5
E3F7
102
{ACAD_REACTORS
330
E3EF
102
}
330
E3EF
100
AcDbVisualStyle
  2
3D Hidden
 70
     6
 71
     1
 72
     2
 73
     2
 90
        0
 40
-0.6
 41
-30.0
 62
     5
 63
     7
 74
     2
 91
        2
 64
     7
 65
   257
 75
     2
175
     1
 42
40.0
 92
        0
 66
   257
 43
1.0
 76
     1
 77
     6
 78
     2
 67
     7
 79
     3
170
     0
171
     0
290
     0
174
     0
 93
        1
 44
0.0
173
     0
291
     0
 45
0.0
1001
ACAD
1000
AcDbSavedByObjectVersion
1070
     0
  0
VISUALSTYLE
  5
E3F6
102
{ACAD_REACTORS
330
E3EF
102
}
330
E3EF
100
AcDbVisualStyle
  2
3dWireframe
 70
     5
 71
     0
 72
     2
 73
     0
 90
        0
 40
-0.6
 41
-30.0
 62
     5
 63
     7
 74
     1
 91
        4
 64
     7
 65
   257
 75
     1
175
     1
 42
1.0
 92
        0
 66
   257
 43
1.0
 76
     1
 77
     6
 78
     2
 67
     7
 79
     5
170
     0
171
     0
290
     0
174
     0
 93
        1
 44
0.0
173
     0
291
     0
 45
0.0
1001
ACAD
1000
AcDbSavedByObjectVersion
1070
     0
  0
VISUALSTYLE
  5
E3F4
102
{ACAD_REACTORS
330
E3EF
102
}
330
E3EF
100
AcDbVisualStyle
  2
Basic
 70
     7
 71
     1
 72
     0
 73
     1
 90
        0
 40
-0.6
 41
-30.0
 62
     5
 63
     7
 74
     0
 91
        4
 64
     7
 65
   257
 75
     1
175
     1
 42
1.0
 92
        8
 66
     7
 43
1.0
 76
     1
 77
     6
 78
     2
 67
     7
 79
     5
170
     0
171
     0
290
     0
174
     0
 93
        1
 44
0.0
173
     0
291
     1
 45
0.0
1001
ACAD
1000
AcDbSavedByObjectVersion
1070
     0
  0
VISUALSTYLE
  5
E3FB
102
{ACAD_REACTORS
330
E3EF
102
}
330
E3EF
100
AcDbVisualStyle
  2
Brighten
 70
    12
 71
     2
 72
     2
 73
     0
 90
        0
 40
-0.6
 41
-30.0
 62
     5
 63
     7
 74
     1
 91
        4
 64
     7
 65
   257
 75
     1
175
     1
 42
1.0
 92
        8
 66
     7
 43
1.0
 76
     1
 77
     6
 78
     2
 67
     7
 79
     5
170
     0
171
     0
290
     0
174
     0
 93
        1
 44
50.0
173
     0
291
     1
 45
0.0
1001
ACAD
1000
AcDbSavedByObjectVersion
1070
     0
  0
VISUALSTYLE
  5
E3FF
102
{ACAD_REACTORS
330
E3EF
102
}
330
E3EF
100
AcDbVisualStyle
  2
ColorChange
 70
    16
 71
     2
 72
     2
 73
     3
 90
        0
 40
-0.6
 41
-30.0
 62
     5
 63
     8
 74
     1
 91
        4
 64
     7
 65
   257
 75
     1
175
     1
 42
1.0
 92
        8
 66
     8
 43
1.0
 76
     1
 77
     6
 78
     2
 67
     7
 79
     5
170
     0
171
     0
290
     0
174
     0
 93
        1
 44
0.0
173
     0
291
     1
 45
0.0
1001
ACAD
1000
AcDbSavedByObjectVersion
1070
     0
  0
VISUALSTYLE
  5
E3F8
102
{ACAD_REACTORS
330
E3EF
102
}
330
E3EF
100
AcDbVisualStyle
  2
Conceptual
 70
     9
 71
     3
 72
     2
 73
     0
 90
        0
 40
-0.6
 41
-30.0
 62
     5
 63
     7
 74
     2
 91
        2
 64
     7
 65
   257
 75
     1
175
     1
 42
40.0
 92
        8
 66
     7
 43
1.0
 76
     1
 77
     6
 78
     2
 67
     7
 79
     3
170
     0
171
     0
290
     0
174
     0
 93
        1
 44
0.0
173
     0
291
     0
 45
0.0
1001
ACAD
1000
AcDbSavedByObjectVersion
1070
     0
  0
VISUALSTYLE
  5
E3FA
102
{ACAD_REACTORS
330
E3EF
102
}
330
E3EF
100
AcDbVisualStyle
  2
Dim
 70
    11
 71
     2
 72
     2
 73
     0
 90
        0
 40
-0.6
 41
-30.0
 62
     5
 63
     7
 74
     1
 91
        4
 64
     7
 65
   257
 75
     1
175
     1
 42
1.0
 92
        8
 66
     7
 43
1.0
 76
     1
 77
     6
 78
     2
 67
     7
 79
     5
170
     0
171
     0
290
     0
174
     0
 93
        1
 44
-50.0
173
     0
291
     1
 45
0.0
1001
ACAD
1000
AcDbSavedByObjectVersion
1070
     0
  0
VISUALSTYLE
  5
E3FE
102
{ACAD_REACTORS
330
E3EF
102
}
330
E3EF
100
AcDbVisualStyle
  2
Facepattern
 70
    15
 71
     2
 72
     2
 73
     0
 90
        0
 40
-0.6
 41
-30.0
 62
     5
 63
     7
 74
     1
 91
        4
 64
     7
 65
   257
 75
     1
175
     1
 42
1.0
 92
        8
 66
     7
 43
1.0
 76
     1
 77
     6
 78
     2
 67
     7
 79
     5
170
     0
171
     0
290
     0
174
     0
 93
        1
 44
0.0
173
     0
291
     1
 45
0.0
1001
ACAD
1000
AcDbSavedByObjectVersion
1070
     0
  0
VISUALSTYLE
  5
E3F0
102
{ACAD_REACTORS
330
E3EF
102
}
330
E3EF
100
AcDbVisualStyle
  2
Flat
 70
     0
 71
     2
 72
     1
 73
     1
 90
        2
 40
-0.6
 41
30.0
 62
     5
 63
     7
 74
     0
 91
        4
 64
     7
 65
   257
 75
     1
175
     1
 42
1.0
 92
        8
 66
     7
 43
1.0
 76
     1
 77
     6
 78
     2
 67
     7
 79
     5
170
     0
171
     0
290
     0
174
     0
 93
       13
 44
0.0
173
     0
291
     1
 45
0.0
1001
ACAD
1000
AcDbSavedByObjectVersion
1070
     0
  0
VISUALSTYLE
  5
E3F1
102
{ACAD_REACTORS
330
E3EF
102
}
330
E3EF
100
AcDbVisualStyle
  2
FlatWithEdges
 70
     1
 71
     2
 72
     1
 73
     1
 90
        2
 40
-0.6
 41
30.0
 62
     5
 63
     7
 74
     1
 91
        4
 64
     7
 65
   257
 75
     1
175
     1
 42
1.0
 92
        0
 66
   257
 43
1.0
 76
     1
 77
     6
 78
     2
 67
     7
 79
     5
170
     0
171
     0
290
     0
174
     0
 93
       13
 44
0.0
173
     0
291
     1
 45
0.0
1001
ACAD
1000
AcDbSavedByObjectVersion
1070
     0
  0
VISUALSTYLE
  5
E3F2
102
{ACAD_REACTORS
330
E3EF
102
}
330
E3EF
100
AcDbVisualStyle
  2
Gouraud
 70
     2
 71
     2
 72
     2
 73
     1
 90
        2
 40
-0.6
 41
30.0
 62
     5
 63
     7
 74
     0
 91
        4
 64
     7
 65
   257
 75
     1
175
     1
 42
1.0
 92
        0
 66
     7
 43
1.0
 76
     1
 77
     6
 78
     2
 67
     7
 79
     5
170
     0
171
     0
290
     0
174
     0
 93
       13
 44
0.0
173
     0
291
     1
 45
0.0
1001
ACAD
1000
AcDbSavedByObjectVersion
1070
     0
  0
VISUALSTYLE
  5
E3F3
102
{ACAD_REACTORS
330
E3EF
102
}
330
E3EF
100
AcDbVisualStyle
  2
GouraudWithEdges
 70
     3
 71
     2
 72
     2
 73
     1
 90
        2
 40
-0.6
 41
30.0
 62
     5
 63
     7
 74
     1
 91
        4
 64
     7
 65
   257
 75
     1
175
     1
 42
1.0
 92
        0
 66
   257
 43
1.0
 76
     1
 77
     6
 78
     2
 67
     7
 79
     5
170
     0
171
     0
290
     0
174
     0
 93
       13
 44
0.0
173
     0
291
     1
 45
0.0
1001
ACAD
1000
AcDbSavedByObjectVersion
1070
     0
  0
VISUALSTYLE
  5
E3FD
102
{ACAD_REACTORS
330
E3EF
102
}
330
E3EF
100
AcDbVisualStyle
  2
Linepattern
 70
    14
 71
     2
 72
     2
 73
     0
 90
        0
 40
-0.6
 41
-30.0
 62
     5
 63
     7
 74
     1
 91
        4
 64
     7
 65
   257
 75
     7
175
     7
 42
1.0
 92
        8
 66
     7
 43
1.0
 76
     1
 77
     6
 78
     2
 67
     7
 79
     5
170
     0
171
     0
290
     0
174
     0
 93
        1
 44
0.0
173
     0
291
     1
 45
0.0
1001
ACAD
1000
AcDbSavedByObjectVersion
1070
     0
  0
VISUALSTYLE
  5
E3F9
102
{ACAD_REACTORS
330
E3EF
102
}
330
E3EF
100
AcDbVisualStyle
  2
Realistic
 70
     8
 71
     2
 72
     2
 73
     0
 90
        0
 40
-0.6
 41
-30.0
 62
     5
 63
     7
 74
     1
 91
        0
 64
     7
 65
   257
 75
     1
175
     1
 42
1.0
 92
        8
 66
     8
 43
1.0
 76
     1
 77
     6
 78
     2
 67
     7
 79
     5
170
     0
171
     0
290
     0
174
     0
 93
       13
 44
0.0
173
     0
291
     0
 45
0.0
1001
ACAD
1000
AcDbSavedByObjectVersion
1070
     0
  0
VISUALSTYLE
  5
E3FC
102
{ACAD_REACTORS
330
E3EF
102
}
330
E3EF
100
AcDbVisualStyle
  2
Thicken
 70
    13
 71
     2
 72
     2
 73
     0
 90
        0
 40
-0.6
 41
-30.0
 62
     5
 63
     7
 74
     1
 91
        4
 64
     7
 65
   257
 75
     1
175
     1
 42
1.0
 92
       12
 66
     7
 43
1.0
 76
     1
 77
     6
 78
     2
 67
     7
 79
     5
170
     0
171
     0
290
     0
174
     0
 93
        1
 44
0.0
173
     0
291
     1
 45
0.0
1001
ACAD
1000
AcDbSavedByObjectVersion
1070
     0
  0
DICTIONARYVAR
  5
103B0
102
{ACAD_REACTORS
330
103AC
102
}
330
103AC
100
DictionaryVariables
280
     0
  1
1:1
  0
DICTIONARYVAR
  5
103AE
102
{ACAD_REACTORS
330
103AC
102
}
330
103AC
100
DictionaryVariables
280
     0
  1
STANDARD
  0
DICTIONARYVAR
  5
103AD
102
{ACAD_REACTORS
330
103AC
102
}
330
103AC
100
DictionaryVariables
280
     0
  1
STANDARD
  0
DICTIONARYVAR
  5
1BA02
102
{ACAD_REACTORS
330
103AC
102
}
330
103AC
100
DictionaryVariables
280
     0
  1
1
  0
DICTIONARYVAR
  5
1BA01
102
{ACAD_REACTORS
330
103AC
102
}
330
103AC
100
DictionaryVariables
280
     0
  1
0
  0
DICTIONARYVAR
  5
103B1
102
{ACAD_REACTORS
330
103AC
102
}
330
103AC
100
DictionaryVariables
280
     0
  1
0
  0
DICTIONARYVAR
  5
103AF
102
{ACAD_REACTORS
330
103AC
102
}
330
103AC
100
DictionaryVariables
280
     0
  1
0
  0
DICTIONARYVAR
  5
1BA00
102
{ACAD_REACTORS
330
103AC
102
}
330
103AC
100
DictionaryVariables
280
     0
  1
127
  0
DICTIONARY
  5
E3E0
330
E3DF
100
AcDbDictionary
280
     1
281
     1
  3
ACAD_XREC_ROUNDTRIP
360
1BAF5
  3
BUMPTILE
360
E3E2
  3
DIFFUSETILE
360
E3E1
  3
OPACITYTILE
360
E3E5
  3
REFLECTIONTILE
360
E3E4
  3
REFRACTIONTILE
360
E3E6
  3
SPECULARTILE
360
E3E3
  0
DICTIONARY
  5
E3D8
330
E3D7
100
AcDbDictionary
280
     1
281
     1
  3
ACAD_XREC_ROUNDTRIP
360
1BAF4
  3
BUMPTILE
360
E3DA
  3
DIFFUSETILE
360
E3D9
  3
OPACITYTILE
360
E3DD
  3
REFLECTIONTILE
360
E3DC
  3
REFRACTIONTILE
360
E3DE
  3
SPECULARTILE
360
E3DB
  0
DICTIONARY
  5
E3E8
330
E3E7
100
AcDbDictionary
280
     1
281
     1
  3
ACAD_XREC_ROUNDTRIP
360
1BAF6
  3
BUMPTILE
360
E3EA
  3
DIFFUSETILE
360
E3E9
  3
OPACITYTILE
360
E3ED
  3
REFLECTIONTILE
360
E3EC
  3
REFRACTIONTILE
360
E3EE
  3
SPECULARTILE
360
E3EB
  0
DICTIONARY
  5
103A9
330
E402
100
AcDbDictionary
280
     1
281
     1
  3
ACAD_ROUNDTRIP_2008_TABLESTYLE_CELLSTYLEMAP
360
1BAF3
  3
ACAD_XREC_ROUNDTRIP
360
1BAF7
  0
XRECORD
  5
1BAF5
102
{ACAD_REACTORS
330
E3E0
102
}
330
E3E0
100
AcDbXrecord
280
     1
102
MATERIAL
148
0.0
149
0.0
149
0.0
 93
        0
 94
      127
282
     0
 72
     0
 77
     0
171
     0
175
     0
179
     0
273
     0
  0
XRECORD
  5
E3E2
102
{ACAD_REACTORS
330
E3E0
102
}
330
E3E0
100
AcDbXrecord
280
     1
270
     1
271
     1
  0
XRECORD
  5
E3E1
102
{ACAD_REACTORS
330
E3E0
102
}
330
E3E0
100
AcDbXrecord
280
     1
270
     1
271
     1
  0
XRECORD
  5
E3E5
102
{ACAD_REACTORS
330
E3E0
102
}
330
E3E0
100
AcDbXrecord
280
     1
270
     1
271
     1
  0
XRECORD
  5
E3E4
102
{ACAD_REACTORS
330
E3E0
102
}
330
E3E0
100
AcDbXrecord
280
     1
270
     1
271
     1
  0
XRECORD
  5
E3E6
102
{ACAD_REACTORS
330
E3E0
102
}
330
E3E0
100
AcDbXrecord
280
     1
270
     1
271
     1
  0
XRECORD
  5
E3E3
102
{ACAD_REACTORS
330
E3E0
102
}
330
E3E0
100
AcDbXrecord
280
     1
270
     1
271
     1
  0
XRECORD
  5
1BAF4
102
{ACAD_REACTORS
330
E3D8
102
}
330
E3D8
100
AcDbXrecord
280
     1
102
MATERIAL
148
0.0
149
0.0
149
0.0
 93
        0
 94
      127
282
     0
 72
     0
 77
     0
171
     0
175
     0
179
     0
273
     0
  0
XRECORD
  5
E3DA
102
{ACAD_REACTORS
330
E3D8
102
}
330
E3D8
100
AcDbXrecord
280
     1
270
     1
271
     1
  0
XRECORD
  5
E3D9
102
{ACAD_REACTORS
330
E3D8
102
}
330
E3D8
100
AcDbXrecord
280
     1
270
     1
271
     1
  0
XRECORD
  5
E3DD
102
{ACAD_REACTORS
330
E3D8
102
}
330
E3D8
100
AcDbXrecord
280
     1
270
     1
271
     1
  0
XRECORD
  5
E3DC
102
{ACAD_REACTORS
330
E3D8
102
}
330
E3D8
100
AcDbXrecord
280
     1
270
     1
271
     1
  0
XRECORD
  5
E3DE
102
{ACAD_REACTORS
330
E3D8
102
}
330
E3D8
100
AcDbXrecord
280
     1
270
     1
271
     1
  0
XRECORD
  5
E3DB
102
{ACAD_REACTORS
330
E3D8
102
}
330
E3D8
100
AcDbXrecord
280
     1
270
     1
271
     1
  0
XRECORD
  5
1BAF6
102
{ACAD_REACTORS
330
E3E8
102
}
330
E3E8
100
AcDbXrecord
280
     1
102
MATERIAL
148
0.0
149
0.0
149
0.0
 93
        0
 94
      127
282
     0
 72
     0
 77
     0
171
     0
175
     0
179
     0
273
     0
  0
XRECORD
  5
E3EA
102
{ACAD_REACTORS
330
E3E8
102
}
330
E3E8
100
AcDbXrecord
280
     1
270
     1
271
     1
  0
XRECORD
  5
E3E9
102
{ACAD_REACTORS
330
E3E8
102
}
330
E3E8
100
AcDbXrecord
280
     1
270
     1
271
     1
  0
XRECORD
  5
E3ED
102
{ACAD_REACTORS
330
E3E8
102
}
330
E3E8
100
AcDbXrecord
280
     1
270
     1
271
     1
  0
XRECORD
  5
E3EC
102
{ACAD_REACTORS
330
E3E8
102
}
330
E3E8
100
AcDbXrecord
280
     1
270
     1
271
     1
  0
XRECORD
  5
E3EE
102
{ACAD_REACTORS
330
E3E8
102
}
330
E3E8
100
AcDbXrecord
280
     1
270
     1
271
     1
  0
XRECORD
  5
E3EB
102
{ACAD_REACTORS
330
E3E8
102
}
330
E3E8
100
AcDbXrecord
280
     1
270
     1
271
     1
  0
CELLSTYLEMAP
  5
1BAF3
102
{ACAD_REACTORS
330
103A9
102
}
330
103A9
100
AcDbCellStyleMap
 90
        3
300
CELLSTYLE
  1
TABLEFORMAT_BEGIN
 90
        5
170
     1
 91
        0
 92
    32768
 62
   257
 93
        1
300
CONTENTFORMAT
  1
CONTENTFORMAT_BEGIN
 90
        0
 91
        0
 92
      512
 93
        0
300

 40
0.0
140
1.0
 94
        5
 62
     0
340
11
144
0.25
309
CONTENTFORMAT_END
171
     0
 94
        0
309
TABLEFORMAT_END
  1
CELLSTYLE_BEGIN
 90
        1
 91
        1
300
_TITLE
309
CELLSTYLE_END
300
CELLSTYLE
  1
TABLEFORMAT_BEGIN
 90
        5
170
     1
 91
        0
 92
        0
 62
   257
 93
        1
300
CONTENTFORMAT
  1
CONTENTFORMAT_BEGIN
 90
        0
 91
        0
 92
      512
 93
        0
300

 40
0.0
140
1.0
 94
        5
 62
     0
340
11
144
0.18
309
CONTENTFORMAT_END
171
     0
 94
        0
309
TABLEFORMAT_END
  1
CELLSTYLE_BEGIN
 90
        2
 91
        1
300
_HEADER
309
CELLSTYLE_END
300
CELLSTYLE
  1
TABLEFORMAT_BEGIN
 90
        5
170
     1
 91
        0
 92
        0
 62
   257
 93
        1
300
CONTENTFORMAT
  1
CONTENTFORMAT_BEGIN
 90
        0
 91
        0
 92
      512
 93
        0
300

 40
0.0
140
1.0
 94
        2
 62
     0
340
11
144
0.18
309
CONTENTFORMAT_END
171
     0
 94
        0
309
TABLEFORMAT_END
  1
CELLSTYLE_BEGIN
 90
        3
 91
        2
300
_DATA
309
CELLSTYLE_END
  0
XRECORD
  5
1BAF7
102
{ACAD_REACTORS
330
103A9
102
}
330
103A9
100
AcDbXrecord
280
     1
102
ACAD_ROUNDTRIP_PRE2007_TABLESTYLE
 90
      512
 91
        0
  1

 92
      512
 93
        0
  2

 94
      512
 95
        0
  3

  0
ENDSEC
  0
EOF
