  0
SECTION
  2
HEADER
  9
$ACADVER
  1
AC1015
  9
$ACADMAINTVER
 70
    20
  9
$DWGCODEPAGE
  3
ANSI_932
  9
$INSBASE
 10
0.0
 20
0.0
 30
0.0
  9
$EXTMIN
 10
20.0000000000001
 20
21.0
 30
0.0
  9
$EXTMAX
 10
809.9999999999996
 20
558.0
 30
0.0
  9
$LIMMIN
 10
0.0
 20
0.0
  9
$LIMMAX
 10
840.0
 20
594.0
  9
$ORTHOMODE
 70
     0
  9
$REGENMODE
 70
     1
  9
$FILLMODE
 70
     1
  9
$QTEXTMODE
 70
     0
  9
$MIRRTEXT
 70
     0
  9
$LTSCALE
 40
1.0
  9
$ATTMODE
 70
     1
  9
$TEXTSIZE
 40
3.0
  9
$TRACEWID
 40
1.0
  9
$TEXTSTYLE
  7
AT_VECTOR
  9
$CLAYER
  8
003
  9
$CELTYPE
  6
ByLayer
  9
$CECOLOR
 62
   256
  9
$CELTSCALE
 40
1.0
  9
$DISPSILH
 70
     0
  9
$DIMSCALE
 40
2.0
  9
$DIMASZ
 40
1.5
  9
$DIMEXO
 40
1.5
  9
$DIMDLI
 40
7.0
  9
$DIMRND
 40
0.0
  9
$DIMDLE
 40
0.0
  9
$DIMEXE
 40
1.0
  9
$DIMTP
 40
0.0
  9
$DIMTM
 40
0.0
  9
$DIMTXT
 40
3.0
  9
$DIMCEN
 40
0.0
  9
$DIMTSZ
 40
0.0
  9
$DIMTOL
 70
     0
  9
$DIMLIM
 70
     0
  9
$DIMTIH
 70
     0
  9
$DIMTOH
 70
     0
  9
$DIMSE1
 70
     0
  9
$DIMSE2
 70
     0
  9
$DIMTAD
 70
     1
  9
$DIMZIN
 70
     8
  9
$DIMBLK
  1
Open30
  9
$DIMASO
 70
     1
  9
$DIMSHO
 70
     1
  9
$DIMPOST
  1

  9
$DIMAPOST
  1

  9
$DIMALT
 70
     0
  9
$DIMALTD
 70
     3
  9
$DIMALTF
 40
0.03937007874016
  9
$DIMLFAC
 40
1.0
  9
$DIMTOFL
 70
     1
  9
$DIMTVP
 40
0.0
  9
$DIMTIX
 70
     0
  9
$DIMSOXD
 70
     0
  9
$DIMSAH
 70
     0
  9
$DIMBLK1
  1

  9
$DIMBLK2
  1

  9
$DIMSTYLE
  2
DIM
  9
$DIMCLRD
 70
     4
  9
$DIMCLRE
 70
     4
  9
$DIMCLRT
 70
     7
  9
$DIMTFAC
 40
1.0
  9
$DIMGAP
 40
1.0
  9
$DIMJUST
 70
     0
  9
$DIMSD1
 70
     0
  9
$DIMSD2
 70
     0
  9
$DIMTOLJ
 70
     0
  9
$DIMTZIN
 70
     8
  9
$DIMALTZ
 70
     0
  9
$DIMALTTZ
 70
     0
  9
$DIMUPT
 70
     0
  9
$DIMDEC
 70
     2
  9
$DIMTDEC
 70
     2
  9
$DIMALTU
 70
     2
  9
$DIMALTTD
 70
     3
  9
$DIMTXSTY
  7
DIM
  9
$DIMAUNIT
 70
     0
  9
$DIMADEC
 70
     0
  9
$DIMALTRND
 40
0.0
  9
$DIMAZIN
 70
     0
  9
$DIMDSEP
 70
    46
  9
$DIMATFIT
 70
     3
  9
$DIMFRAC
 70
     0
  9
$DIMLDRBLK
  1
Open30
  9
$DIMLUNIT
 70
     2
  9
$DIMLWD
 70
    20
  9
$DIMLWE
 70
    20
  9
$DIMTMOVE
 70
     0
  9
$LUNITS
 70
     2
  9
$LUPREC
 70
     4
  9
$SKETCHINC
 40
1.0
  9
$FILLETRAD
 40
0.0
  9
$AUNITS
 70
     0
  9
$AUPREC
 70
     0
  9
$MENU
  1
.
  9
$ELEVATION
 40
0.0
  9
$PELEVATION
 40
0.0
  9
$THICKNESS
 40
0.0
  9
$LIMCHECK
 70
     0
  9
$CHAMFERA
 40
10.0
  9
$CHAMFERB
 40
10.0
  9
$CHAMFERC
 40
20.0
  9
$CHAMFERD
 40
0.0
  9
$SKPOLY
 70
     0
  9
$TDCREATE
 40
2452888.428849190
  9
$TDUCREATE
 40
2452888.053849190
  9
$TDUPDATE
 40
2455959.451806632
  9
$TDUUPDATE
 40
2455959.076806632
  9
$TDINDWG
 40
0.5044507407
  9
$TDUSRTIMER
 40
0.5044507407
  9
$USRTIMER
 70
     1
  9
$ANGBASE
 50
0.0
  9
$ANGDIR
 70
     0
  9
$PDMODE
 70
     0
  9
$PDSIZE
 40
0.0
  9
$PLINEWID
 40
0.0
  9
$SPLFRAME
 70
     0
  9
$SPLINETYPE
 70
     6
  9
$SPLINESEGS
 70
     8
  9
$HANDSEED
  5
1C1C1
  9
$SURFTAB1
 70
     6
  9
$SURFTAB2
 70
     6
  9
$SURFTYPE
 70
     6
  9
$SURFU
 70
     6
  9
$SURFV
 70
     6
  9
$UCSBASE
  2

  9
$UCSNAME
  2

  9
$UCSORG
 10
0.0
 20
0.0
 30
0.0
  9
$UCSXDIR
 10
1.0
 20
0.0
 30
0.0
  9
$UCSYDIR
 10
0.0
 20
1.0
 30
0.0
  9
$UCSORTHOREF
  2

  9
$UCSORTHOVIEW
 70
     0
  9
$UCSORGTOP
 10
0.0
 20
0.0
 30
0.0
  9
$UCSORGBOTTOM
 10
0.0
 20
0.0
 30
0.0
  9
$UCSORGLEFT
 10
0.0
 20
0.0
 30
0.0
  9
$UCSORGRIGHT
 10
0.0
 20
0.0
 30
0.0
  9
$UCSORGFRONT
 10
0.0
 20
0.0
 30
0.0
  9
$UCSORGBACK
 10
0.0
 20
0.0
 30
0.0
  9
$PUCSBASE
  2

  9
$PUCSNAME
  2

  9
$PUCSORG
 10
0.0
 20
0.0
 30
0.0
  9
$PUCSXDIR
 10
1.0
 20
0.0
 30
0.0
  9
$PUCSYDIR
 10
0.0
 20
1.0
 30
0.0
  9
$PUCSORTHOREF
  2

  9
$PUCSORTHOVIEW
 70
     0
  9
$PUCSORGTOP
 10
0.0
 20
0.0
 30
0.0
  9
$PUCSORGBOTTOM
 10
0.0
 20
0.0
 30
0.0
  9
$PUCSORGLEFT
 10
0.0
 20
0.0
 30
0.0
  9
$PUCSORGRIGHT
 10
0.0
 20
0.0
 30
0.0
  9
$PUCSORGFRONT
 10
0.0
 20
0.0
 30
0.0
  9
$PUCSORGBACK
 10
0.0
 20
0.0
 30
0.0
  9
$USERI1
 70
     0
  9
$USERI2
 70
     0
  9
$USERI3
 70
     0
  9
$USERI4
 70
     0
  9
$USERI5
 70
     0
  9
$USERR1
 40
0.0
  9
$USERR2
 40
0.0
  9
$USERR3
 40
0.0
  9
$USERR4
 40
0.0
  9
$USERR5
 40
0.0
  9
$WORLDVIEW
 70
     1
  9
$SHADEDGE
 70
     3
  9
$SHADEDIF
 70
    70
  9
$TILEMODE
 70
     1
  9
$MAXACTVP
 70
    64
  9
$PINSBASE
 10
0.0
 20
0.0
 30
0.0
  9
$PLIMCHECK
 70
     0
  9
$PEXTMIN
 10
1.000000000000000E+20
 20
1.000000000000000E+20
 30
1.000000000000000E+20
  9
$PEXTMAX
 10
-1.000000000000000E+20
 20
-1.000000000000000E+20
 30
-1.000000000000000E+20
  9
$PLIMMIN
 10
0.0
 20
0.0
  9
$PLIMMAX
 10
420.0
 20
297.0
  9
$UNITMODE
 70
     0
  9
$VISRETAIN
 70
     1
  9
$PLINEGEN
 70
     0
  9
$PSLTSCALE
 70
     1
  9
$TREEDEPTH
 70
  3020
  9
$CMLSTYLE
  2
Standard
  9
$CMLJUST
 70
     0
  9
$CMLSCALE
 40
20.0
  9
$PROXYGRAPHICS
 70
     1
  9
$MEASUREMENT
 70
     0
  9
$CELWEIGHT
370
    -1
  9
$ENDCAPS
280
     0
  9
$JOINSTYLE
280
     0
  9
$LWDISPLAY
290
     0
  9
$INSUNITS
 70
     4
  9
$HYPERLINKBASE
  1

  9
$STYLESHEET
  1
EPSON.ctb
  9
$XEDIT
290
     1
  9
$CEPSNTYPE
380
     0
  9
$PSTYLEMODE
290
     1
  9
$FINGERPRINTGUID
  2
{9AEAB59C-DF80-11D7-8237-004026CDA8AB}
  9
$VERSIONGUID
  2
{9F0FDA41-43F2-4994-9E7F-D39710C29082}
  9
$EXTNAMES
290
     1
  9
$PSVPSCALE
 40
0.0
  9
$OLESTARTUP
290
     0
  0
ENDSEC
  0
SECTION
  2
CLASSES
  0
CLASS
  1
ACDBDICTIONARYWDFLT
  2
AcDbDictionaryWithDefault
  3
ObjectDBX Classes
 90
        0
280
     0
281
     0
  0
CLASS
  1
ACDBPLACEHOLDER
  2
AcDbPlaceHolder
  3
ObjectDBX Classes
 90
        0
280
     0
281
     0
  0
CLASS
  1
LAYOUT
  2
AcDbLayout
  3
ObjectDBX Classes
 90
        0
280
     0
281
     0
  0
CLASS
  1
MATERIAL
  2
AcDbMaterial
  3
ObjectDBX Classes
 90
     1153
280
     0
281
     0
  0
CLASS
  1
VISUALSTYLE
  2
AcDbVisualStyle
  3
ObjectDBX Classes
 90
     4095
280
     0
281
     0
  0
CLASS
  1
TABLESTYLE
  2
AcDbTableStyle
  3
ObjectDBX Classes
 90
     4095
280
     0
281
     0
  0
CLASS
  1
SCALE
  2
AcDbScale
  3
ObjectDBX Classes
 90
     1153
280
     0
281
     0
  0
CLASS
  1
MLEADERSTYLE
  2
AcDbMLeaderStyle
  3
ACDB_MLEADERSTYLE_CLASS
 90
     4095
280
     0
281
     0
  0
CLASS
  1
SORTENTSTABLE
  2
AcDbSortentsTable
  3
ObjectDBX Classes
 90
        0
280
     0
281
     0
  0
CLASS
  1
CELLSTYLEMAP
  2
AcDbCellStyleMap
  3
ObjectDBX Classes
 90
     1152
280
     0
281
     0
  0
CLASS
  1
DICTIONARYVAR
  2
AcDbDictionaryVar
  3
ObjectDBX Classes
 90
        0
280
     0
281
     0
  0
CLASS
  1
MULTILEADER
  2
AcDbMLeader
  3
ACDB_MLEADER_CLASS
 90
    33793
280
     0
281
     1
  0
ENDSEC
  0
SECTION
  2
TABLES
  0
TABLE
  2
VPORT
  5
8
102
{ACAD_XDICTIONARY
360
1C0A6
102
}
330
0
100
AcDbSymbolTable
 70
     1
  0
VPORT
  5
E3D4
330
8
100
AcDbSymbolTableRecord
100
AcDbViewportTableRecord
  2
*Active
 70
     0
 10
0.0
 20
0.0
 11
1.0
 21
1.0
 12
429.1987704856414
 22
301.2591534041338
 13
0.0
 23
0.0
 14
10.0
 24
10.0
 15
10.0
 25
10.0
 16
0.0
 26
0.0
 36
1.0
 17
0.0
 27
0.0
 37
0.0
 40
607.3324037787886
 41
1.590250329380764
 42
50.0
 43
0.0
 44
0.0
 50
0.0
 51
0.0
 71
     0
 72
   100
 73
     1
 74
     3
 75
     0
 76
     0
 77
     0
 78
     0
281
     0
 65
     1
110
0.0
120
0.0
130
0.0
111
1.0
121
0.0
131
0.0
112
0.0
122
1.0
132
0.0
 79
     0
146
0.0
  0
ENDTAB
  0
TABLE
  2
LTYPE
  5
5
330
0
100
AcDbSymbolTable
 70
     3
  0
LTYPE
  5
14
330
5
100
AcDbSymbolTableRecord
100
AcDbLinetypeTableRecord
  2
ByBlock
 70
     0
  3

 72
    65
 73
     0
 40
0.0
  0
LTYPE
  5
15
330
5
100
AcDbSymbolTableRecord
100
AcDbLinetypeTableRecord
  2
ByLayer
 70
     0
  3

 72
    65
 73
     0
 40
0.0
  0
LTYPE
  5
16
330
5
100
AcDbSymbolTableRecord
100
AcDbLinetypeTableRecord
  2
Continuous
 70
     0
  3
Solid line
 72
    65
 73
     0
 40
0.0
  0
LTYPE
  5
19D
330
5
100
AcDbSymbolTableRecord
100
AcDbLinetypeTableRecord
  2
ACAD_ISO04W100
 70
     0
  3
ISO long-dash dot ____ . ____ . ____ . ____ . _
 72
    65
 73
     4
 40
30.0
 49
24.0
 74
     0
 49
-3.0
 74
     0
 49
0.0
 74
     0
 49
-3.0
 74
     0
  0
LTYPE
  5
19E
330
5
100
AcDbSymbolTableRecord
100
AcDbLinetypeTableRecord
  2
ACAD_ISO02W100
 70
     0
  3
ISO dash __ __ __ __ __ __ __ __ __ __ __ __ __
 72
    65
 73
     2
 40
15.0
 49
12.0
 74
     0
 49
-3.0
 74
     0
  0
ENDTAB
  0
TABLE
  2
LAYER
  5
2
102
{ACAD_XDICTIONARY
360
2859
102
}
330
0
100
AcDbSymbolTable
 70
     9
  0
LAYER
  5
10
102
{ACAD_XDICTIONARY
360
F074
102
}
330
2
100
AcDbSymbolTableRecord
100
AcDbLayerTableRecord
  2
0
 70
     0
 62
     7
  6
Continuous
370
    25
390
F
  0
LAYER
  5
31
102
{ACAD_XDICTIONARY
360
F076
102
}
330
2
100
AcDbSymbolTableRecord
100
AcDbLayerTableRecord
  2
001
 70
     0
 62
     5
  6
Continuous
370
    70
390
F
  0
LAYER
  5
33
102
{ACAD_XDICTIONARY
360
F07A
102
}
330
2
100
AcDbSymbolTableRecord
100
AcDbLayerTableRecord
  2
003
 70
     0
 62
     2
  6
Continuous
370
    25
390
F
  0
LAYER
  5
1A4
102
{ACAD_XDICTIONARY
360
F080
102
}
330
2
100
AcDbSymbolTableRecord
100
AcDbLayerTableRecord
  2
006
 70
     0
 62
     4
  6
ACAD_ISO04W100
370
    20
390
F
  0
LAYER
  5
1A5
102
{ACAD_XDICTIONARY
360
F082
102
}
330
2
100
AcDbSymbolTableRecord
100
AcDbLayerTableRecord
  2
007
 70
     0
 62
     4
  6
ACAD_ISO02W100
370
    20
390
F
  0
LAYER
  5
1A8
330
2
100
AcDbSymbolTableRecord
100
AcDbLayerTableRecord
  2
Defpoints
 70
     0
 62
     7
  6
Continuous
290
     0
370
    25
390
F
  0
LAYER
  5
2B1
102
{ACAD_XDICTIONARY
360
F088
102
}
330
2
100
AcDbSymbolTableRecord
100
AcDbLayerTableRecord
  2
010
 70
     0
 62
     4
  6
Continuous
370
    20
390
F
  0
LAYER
  5
162A6
330
2
100
AcDbSymbolTableRecord
100
AcDbLayerTableRecord
  2
YKK_11
 70
     0
 62
     7
  6
Continuous
370
    -3
390
F
  0
LAYER
  5
162A8
330
2
100
AcDbSymbolTableRecord
100
AcDbLayerTableRecord
  2
YKK_13
 70
     0
 62
     4
  6
Continuous
370
    -3
390
F
  0
ENDTAB
  0
TABLE
  2
STYLE
  5
3
330
0
100
AcDbSymbolTable
 70
     3
  0
STYLE
  5
11
330
3
100
AcDbSymbolTableRecord
100
AcDbTextStyleTableRecord
  2
Standard
 70
     0
 40
0.0
 41
1.0
 50
0.0
 71
     0
 42
2.5
  3
txt
  4

  0
STYLE
  5
34
330
3
100
AcDbSymbolTableRecord
100
AcDbTextStyleTableRecord
  2
DIM
 70
     0
 40
0.0
 41
0.75
 50
0.0
 71
     0
 42
60.0
  3
romans.shx
  4
extfont.shx
  0
STYLE
  5
35
330
3
100
AcDbSymbolTableRecord
100
AcDbTextStyleTableRecord
  2
AT_VECTOR
 70
     0
 40
0.0
 41
1.0
 50
0.0
 71
     0
 42
3.0
  3
romans.shx
  4
extfont.shx
  0
ENDTAB
  0
TABLE
  2
VIEW
  5
6
330
0
100
AcDbSymbolTable
 70
     0
  0
ENDTAB
  0
TABLE
  2
UCS
  5
7
330
0
100
AcDbSymbolTable
 70
     0
  0
ENDTAB
  0
TABLE
  2
APPID
  5
9
330
0
100
AcDbSymbolTable
 70
    11
  0
APPID
  5
12
330
9
100
AcDbSymbolTableRecord
100
AcDbRegAppTableRecord
  2
ACAD
 70
     0
  0
APPID
  5
3DA
330
9
100
AcDbSymbolTableRecord
100
AcDbRegAppTableRecord
  2
BS2_OSAMARI_KUTAI
 70
     0
  0
APPID
  5
3DB
330
9
100
AcDbSymbolTableRecord
100
AcDbRegAppTableRecord
  2
BS2_OSAMARI_ISIAGE
 70
     0
  0
APPID
  5
3DC
330
9
100
AcDbSymbolTableRecord
100
AcDbRegAppTableRecord
  2
BS2_OSAMARI_IMOKU
 70
     0
  0
APPID
  5
3DD
330
9
100
AcDbSymbolTableRecord
100
AcDbRegAppTableRecord
  2
BS2_OSAMARI_OSIAGE
 70
     0
  0
APPID
  5
3DE
330
9
100
AcDbSymbolTableRecord
100
AcDbRegAppTableRecord
  2
BS2_OSAMARI_OFZK
 70
     0
  0
APPID
  5
E427
330
9
100
AcDbSymbolTableRecord
100
AcDbRegAppTableRecord
  2
ACAD_MLEADERVER
 70
     0
  0
APPID
  5
F13C
330
9
100
AcDbSymbolTableRecord
100
AcDbRegAppTableRecord
  2
ACAD_EXEMPT_FROM_CAD_STANDARDS
 70
     0
  0
APPID
  5
F7FB
330
9
100
AcDbSymbolTableRecord
100
AcDbRegAppTableRecord
  2
ACAD_PSEXT
 70
     0
  0
APPID
  5
150DE
330
9
100
AcDbSymbolTableRecord
100
AcDbRegAppTableRecord
  2
ACAD_DSTYLE_DIMJAG
 70
     0
  0
APPID
  5
150DF
330
9
100
AcDbSymbolTableRecord
100
AcDbRegAppTableRecord
  2
ACAD_DSTYLE_DIMTALN
 70
     0
  0
ENDTAB
  0
TABLE
  2
DIMSTYLE
  5
A
330
0
100
AcDbSymbolTable
 70
     2
100
AcDbDimStyleTable
 71
     2
340
38
340
1A9
  0
DIMSTYLE
105
38
102
{ACAD_REACTORS
330
177BE
330
1899A
330
1899B
330
18F99
330
1AA2E
330
1AFF0
330
1B00F
330
1B919
330
1B91A
330
1B91B
330
1B91C
330
1B91D
330
1C055
102
}
330
A
100
AcDbSymbolTableRecord
100
AcDbDimStyleTableRecord
  2
DIM
 70
     0
 40
2.0
 41
1.5
 42
1.5
 43
7.0
 44
1.0
 73
     0
 74
     0
 77
     1
 78
     8
140
3.0
141
0.0
143
0.03937007874016
147
1.0
171
     3
172
     1
176
     4
177
     4
178
     7
271
     2
272
     2
274
     3
283
     0
284
     8
340
34
341
2B
342
2B
371
    20
372
    20
  0
DIMSTYLE
105
1A9
330
A
100
AcDbSymbolTableRecord
100
AcDbDimStyleTableRecord
  2
Standard
 70
     0
340
11
  0
ENDTAB
  0
TABLE
  2
BLOCK_RECORD
  5
1
330
0
100
AcDbSymbolTable
 70
    15
  0
BLOCK_RECORD
  5
1F
102
{ACAD_XDICTIONARY
360
F144
102
}
330
1
100
AcDbSymbolTableRecord
100
AcDbBlockTableRecord
  2
*Model_Space
340
22
  0
BLOCK_RECORD
  5
1B
330
1
100
AcDbSymbolTableRecord
100
AcDbBlockTableRecord
  2
*Paper_Space
340
1E
  0
BLOCK_RECORD
  5
23
330
1
100
AcDbSymbolTableRecord
100
AcDbBlockTableRecord
  2
*Paper_Space0
340
26
  0
BLOCK_RECORD
  5
2B
330
1
100
AcDbSymbolTableRecord
100
AcDbBlockTableRecord
  2
_Open30
340
0
102
{BLKREFS
331
1AA32
331
1AA33
331
1AF81
331
1AF82
331
1AFE9
331
1AFEA
331
1B000
331
1B001
331
1B018
331
1B019
331
1BF1C
331
1BF1D
331
1BF25
331
1BF26
331
1BF2E
331
1BF2F
331
1BF37
331
1BF38
331
1BF42
331
1BF43
331
1BF54
331
1BF55
331
1C04F
331
1C050
331
1C065
331
1C066
331
1C077
331
1C078
102
}
  0
BLOCK_RECORD
  5
177BF
330
1
100
AcDbSymbolTableRecord
100
AcDbBlockTableRecord
  2
*D2
340
0
  0
BLOCK_RECORD
  5
18D33
330
1
100
AcDbSymbolTableRecord
100
AcDbBlockTableRecord
  2
*D3
340
0
  0
BLOCK_RECORD
  5
18D3F
330
1
100
AcDbSymbolTableRecord
100
AcDbBlockTableRecord
  2
*D4
340
0
  0
BLOCK_RECORD
  5
18F9A
330
1
100
AcDbSymbolTableRecord
100
AcDbBlockTableRecord
  2
*D5
340
0
  0
BLOCK_RECORD
  5
1AC62
330
1
100
AcDbSymbolTableRecord
100
AcDbBlockTableRecord
  2
*D6
340
0
  0
BLOCK_RECORD
  5
1AFF1
330
1
100
AcDbSymbolTableRecord
100
AcDbBlockTableRecord
  2
*D7
340
0
  0
BLOCK_RECORD
  5
1B010
330
1
100
AcDbSymbolTableRecord
100
AcDbBlockTableRecord
  2
*D8
340
0
  0
BLOCK_RECORD
  5
1BD2D
330
1
100
AcDbSymbolTableRecord
100
AcDbBlockTableRecord
  2
*D9
340
0
  0
BLOCK_RECORD
  5
1BD39
330
1
100
AcDbSymbolTableRecord
100
AcDbBlockTableRecord
  2
*D10
340
0
  0
BLOCK_RECORD
  5
1BD45
330
1
100
AcDbSymbolTableRecord
100
AcDbBlockTableRecord
  2
*D11
340
0
  0
BLOCK_RECORD
  5
1BD51
330
1
100
AcDbSymbolTableRecord
100
AcDbBlockTableRecord
  2
*D12
340
0
  0
BLOCK_RECORD
  5
1BD5D
330
1
100
AcDbSymbolTableRecord
100
AcDbBlockTableRecord
  2
*D13
340
0
  0
BLOCK_RECORD
  5
1C056
330
1
100
AcDbSymbolTableRecord
100
AcDbBlockTableRecord
  2
*D14
340
0
  0
ENDTAB
  0
ENDSEC
  0
SECTION
  2
BLOCKS
  0
BLOCK
  5
20
330
1F
100
AcDbEntity
  8
0
100
AcDbBlockBegin
  2
*Model_Space
 70
     0
 10
0.0
 20
0.0
 30
0.0
  3
*Model_Space
  1

  0
ENDBLK
  5
21
330
1F
100
AcDbEntity
  8
0
100
AcDbBlockEnd
  0
BLOCK
  5
1C
330
1B
100
AcDbEntity
 67
     1
  8
0
100
AcDbBlockBegin
  2
*Paper_Space
 70
     0
 10
0.0
 20
0.0
 30
0.0
  3
*Paper_Space
  1

  0
ENDBLK
  5
1D
330
1B
100
AcDbEntity
 67
     1
  8
0
100
AcDbBlockEnd
  0
BLOCK
  5
24
330
23
100
AcDbEntity
 67
     1
  8
0
100
AcDbBlockBegin
  2
*Paper_Space0
 70
     0
 10
0.0
 20
0.0
 30
0.0
  3
*Paper_Space0
  1

  0
ENDBLK
  5
25
330
23
100
AcDbEntity
 67
     1
  8
0
100
AcDbBlockEnd
  0
BLOCK
  5
2F
330
2B
100
AcDbEntity
  8
0
100
AcDbBlockBegin
  2
_Open30
 70
     0
 10
0.0
 20
0.0
 30
0.0
  3
_Open30
  1

  0
LINE
  5
2C
330
2B
100
AcDbEntity
  8
0
  6
ByBlock
 62
     0
370
    -2
100
AcDbLine
 10
-1.0
 20
0.26794919
 30
0.0
 11
0.0
 21
0.0
 31
0.0
  0
LINE
  5
2D
330
2B
100
AcDbEntity
  8
0
  6
ByBlock
 62
     0
370
    -2
100
AcDbLine
 10
0.0
 20
0.0
 30
0.0
 11
-1.0
 21
-0.26794919
 31
0.0
  0
LINE
  5
2E
330
2B
100
AcDbEntity
  8
0
  6
ByBlock
 62
     0
370
    -2
100
AcDbLine
 10
0.0
 20
0.0
 30
0.0
 11
-1.0
 21
0.0
 31
0.0
  0
ENDBLK
  5
30
330
2B
100
AcDbEntity
  8
0
100
AcDbBlockEnd
  0
BLOCK
  5
177C0
330
177BF
100
AcDbEntity
  8
0
100
AcDbBlockBegin
  2
*D2
 70
     1
 10
0.0
 20
0.0
 30
0.0
  3
*D2
  1

  0
LINE
  5
1C04C
330
177BF
100
AcDbEntity
  8
003
 62
     4
370
    20
100
AcDbLine
 10
498.2610474127942
 20
305.6894211555724
 30
0.0
 11
498.2610474127942
 21
265.7819805096931
 31
0.0
  0
LINE
  5
1C04D
330
177BF
100
AcDbEntity
  8
003
 62
     4
370
    20
100
AcDbLine
 10
678.9674862511837
 20
305.6894211555717
 30
0.0
 11
678.9674862511837
 21
265.7819805096931
 31
0.0
  0
LINE
  5
1C04E
330
177BF
100
AcDbEntity
  8
003
 62
     4
370
    20
100
AcDbLine
 10
501.2610474127942
 20
267.7819805096931
 30
0.0
 11
675.9674862511838
 21
267.7819805096931
 31
0.0
  0
INSERT
  5
1C04F
330
177BF
100
AcDbEntity
  8
003
 62
     4
370
    20
100
AcDbBlockReference
  2
_Open30
 10
498.2610474127942
 20
267.7819805096931
 30
0.0
 41
3.0
 42
3.0
 43
3.0
 50
180.0
  0
INSERT
  5
1C050
330
177BF
100
AcDbEntity
  8
003
 62
     4
370
    20
100
AcDbBlockReference
  2
_Open30
 10
678.9674862511837
 20
267.7819805096931
 30
0.0
 41
3.0
 42
3.0
 43
3.0
  0
MTEXT
  5
1C051
330
177BF
100
AcDbEntity
  8
003
 62
     7
100
AcDbMText
 10
588.6142668319889
 20
272.7819805096931
 30
0.0
 40
6.0
 41
0.0
 71
     5
 72
     1
  1
開口W
  7
DIM
 73
     1
 44
1.0
1001
ACAD
1000
MTEXTBEGIN
1070
    73
1070
     1
1070
    44
1040
1.0
1070
    74
1070
     0
1000
MTEXTEND
  0
POINT
  5
1C052
330
177BF
100
AcDbEntity
  8
Defpoints
 62
     0
100
AcDbPoint
 10
498.2610474127942
 20
308.6894211555724
 30
0.0
  0
POINT
  5
1C053
330
177BF
100
AcDbEntity
  8
Defpoints
 62
     0
100
AcDbPoint
 10
678.9674862511837
 20
308.6894211555717
 30
0.0
  0
POINT
  5
1C054
330
177BF
100
AcDbEntity
  8
Defpoints
 62
     0
100
AcDbPoint
 10
678.9674862511837
 20
267.7819805096931
 30
0.0
  0
ENDBLK
  5
177C1
330
177BF
100
AcDbEntity
  8
0
100
AcDbBlockEnd
  0
BLOCK
  5
18D34
330
18D33
100
AcDbEntity
  8
0
100
AcDbBlockBegin
  2
*D3
 70
     1
 10
0.0
 20
0.0
 30
0.0
  3
*D3
  1

  0
LINE
  5
1AF7E
330
18D33
100
AcDbEntity
  8
003
 62
     4
370
    20
100
AcDbLine
 10
555.9114071223908
 20
343.6894211555724
 30
0.0
 11
560.1948359091756
 21
343.6894211555724
 31
0.0
  0
LINE
  5
1AF7F
330
18D33
100
AcDbEntity
  8
003
 62
     4
370
    20
100
AcDbLine
 10
555.9114071223908
 20
311.6894211555724
 30
0.0
 11
560.1948359091756
 21
311.6894211555724
 31
0.0
  0
LINE
  5
1AF80
330
18D33
100
AcDbEntity
  8
003
 62
     4
370
    20
100
AcDbLine
 10
558.1948359091756
 20
340.6894211555724
 30
0.0
 11
558.1948359091756
 21
314.6894211555724
 31
0.0
  0
INSERT
  5
1AF81
330
18D33
100
AcDbEntity
  8
003
 62
     4
370
    20
100
AcDbBlockReference
  2
_Open30
 10
558.1948359091756
 20
343.6894211555724
 30
0.0
 41
3.0
 42
3.0
 43
3.0
 50
90.0
  0
INSERT
  5
1AF82
330
18D33
100
AcDbEntity
  8
003
 62
     4
370
    20
100
AcDbBlockReference
  2
_Open30
 10
558.1948359091756
 20
311.6894211555724
 30
0.0
 41
3.0
 42
3.0
 43
3.0
 50
270.0
  0
MTEXT
  5
1AF83
330
18D33
100
AcDbEntity
  8
003
 62
     7
100
AcDbMText
 10
553.1948359091755
 20
327.6894211555724
 30
0.0
 40
6.0
 41
0.0
 71
     5
 72
     1
  1
32φ
  7
DIM
 11
0.0000000000000001
 21
1.0
 31
0.0
 73
     1
 44
1.0
1001
ACAD
1000
MTEXTBEGIN
1070
    73
1070
     1
1070
    44
1040
1.0
1070
    74
1070
     0
1000
MTEXTEND
  0
POINT
  5
1AF84
330
18D33
100
AcDbEntity
  8
Defpoints
 62
     0
100
AcDbPoint
 10
552.9114071223908
 20
343.6894211555724
 30
0.0
  0
POINT
  5
1AF85
330
18D33
100
AcDbEntity
  8
Defpoints
 62
     0
100
AcDbPoint
 10
552.9114071223908
 20
311.6894211555724
 30
0.0
  0
POINT
  5
1AF86
330
18D33
100
AcDbEntity
  8
Defpoints
 62
     0
100
AcDbPoint
 10
558.1948359091756
 20
311.6894211555724
 30
0.0
  0
ENDBLK
  5
18D35
330
18D33
100
AcDbEntity
  8
0
100
AcDbBlockEnd
  0
BLOCK
  5
18D40
330
18D3F
100
AcDbEntity
  8
0
100
AcDbBlockBegin
  2
*D4
 70
     1
 10
0.0
 20
0.0
 30
0.0
  3
*D4
  1

  0
LINE
  5
1C074
330
18D3F
100
AcDbEntity
  8
003
 62
     4
370
    20
100
AcDbLine
 10
521.2610474127936
 20
346.6894211555724
 30
0.0
 11
533.8632862660659
 21
346.6894211555724
 31
0.0
  0
LINE
  5
1C075
330
18D3F
100
AcDbEntity
  8
003
 62
     4
370
    20
100
AcDbLine
 10
521.2610474127943
 20
308.6894211555724
 30
0.0
 11
533.8632862660659
 21
308.6894211555724
 31
0.0
  0
LINE
  5
1C076
330
18D3F
100
AcDbEntity
  8
003
 62
     4
370
    20
100
AcDbLine
 10
531.863286266066
 20
343.6894211555724
 30
0.0
 11
531.863286266066
 21
311.6894211555724
 31
0.0
  0
INSERT
  5
1C077
330
18D3F
100
AcDbEntity
  8
003
 62
     4
370
    20
100
AcDbBlockReference
  2
_Open30
 10
531.863286266066
 20
346.6894211555724
 30
0.0
 41
3.0
 42
3.0
 43
3.0
 50
90.0
  0
INSERT
  5
1C078
330
18D3F
100
AcDbEntity
  8
003
 62
     4
370
    20
100
AcDbBlockReference
  2
_Open30
 10
531.863286266066
 20
308.6894211555724
 30
0.0
 41
3.0
 42
3.0
 43
3.0
 50
270.0
  0
MTEXT
  5
1C079
330
18D3F
100
AcDbEntity
  8
003
 62
     7
100
AcDbMText
 10
526.8632862660658
 20
327.6894211555724
 30
0.0
 40
6.0
 41
0.0
 71
     5
 72
     1
  1
38φ
  7
DIM
 11
0.0000000000000001
 21
1.0
 31
0.0
 73
     1
 44
1.0
1001
ACAD
1000
MTEXTBEGIN
1070
    73
1070
     1
1070
    44
1040
1.0
1070
    74
1070
     0
1000
MTEXTEND
  0
POINT
  5
1C07A
330
18D3F
100
AcDbEntity
  8
Defpoints
 62
     0
100
AcDbPoint
 10
518.2610474127937
 20
346.6894211555724
 30
0.0
  0
POINT
  5
1C07B
330
18D3F
100
AcDbEntity
  8
Defpoints
 62
     0
100
AcDbPoint
 10
518.2610474127943
 20
308.6894211555724
 30
0.0
  0
POINT
  5
1C07C
330
18D3F
100
AcDbEntity
  8
Defpoints
 62
     0
100
AcDbPoint
 10
531.863286266066
 20
308.6894211555724
 30
0.0
  0
ENDBLK
  5
18D41
330
18D3F
100
AcDbEntity
  8
0
100
AcDbBlockEnd
  0
BLOCK
  5
18F9B
330
18F9A
100
AcDbEntity
  8
0
100
AcDbBlockBegin
  2
*D5
 70
     1
 10
0.0
 20
0.0
 30
0.0
  3
*D5
  1

  0
LINE
  5
1AFE6
330
18F9A
100
AcDbEntity
  8
003
 62
     4
370
    20
100
AcDbLine
 10
678.9674862511837
 20
305.6894211555724
 30
0.0
 11
678.9674862511837
 21
279.7819805096931
 31
0.0
  0
LINE
  5
1AFE7
330
18F9A
100
AcDbEntity
  8
003
 62
     4
370
    20
100
AcDbLine
 10
658.9674862511838
 20
305.6894211555724
 30
0.0
 11
658.9674862511838
 21
279.7819805096931
 31
0.0
  0
LINE
  5
1AFE8
330
18F9A
100
AcDbEntity
  8
003
 62
     4
370
    20
100
AcDbLine
 10
675.9674862511838
 20
281.7819805096931
 30
0.0
 11
661.9674862511837
 21
281.7819805096931
 31
0.0
  0
INSERT
  5
1AFE9
330
18F9A
100
AcDbEntity
  8
003
 62
     4
370
    20
100
AcDbBlockReference
  2
_Open30
 10
678.9674862511837
 20
281.7819805096931
 30
0.0
 41
3.0
 42
3.0
 43
3.0
  0
INSERT
  5
1AFEA
330
18F9A
100
AcDbEntity
  8
003
 62
     4
370
    20
100
AcDbBlockReference
  2
_Open30
 10
658.9674862511838
 20
281.7819805096931
 30
0.0
 41
3.0
 42
3.0
 43
3.0
 50
180.0
  0
MTEXT
  5
1AFEB
330
18F9A
100
AcDbEntity
  8
003
 62
     7
100
AcDbMText
 10
668.9674862511838
 20
286.7819805096931
 30
0.0
 40
6.0
 41
0.0
 71
     5
 72
     1
  1
20
  7
DIM
 73
     1
 44
1.0
1001
ACAD
1000
MTEXTBEGIN
1070
    73
1070
     1
1070
    44
1040
1.0
1070
    74
1070
     0
1000
MTEXTEND
  0
POINT
  5
1AFEC
330
18F9A
100
AcDbEntity
  8
Defpoints
 62
     0
100
AcDbPoint
 10
678.9674862511837
 20
308.6894211555724
 30
0.0
  0
POINT
  5
1AFED
330
18F9A
100
AcDbEntity
  8
Defpoints
 62
     0
100
AcDbPoint
 10
658.9674862511838
 20
308.6894211555724
 30
0.0
  0
POINT
  5
1AFEE
330
18F9A
100
AcDbEntity
  8
Defpoints
 62
     0
100
AcDbPoint
 10
658.9674862511838
 20
281.7819805096931
 30
0.0
  0
ENDBLK
  5
18F9C
330
18F9A
100
AcDbEntity
  8
0
100
AcDbBlockEnd
  0
BLOCK
  5
1AC63
330
1AC62
100
AcDbEntity
  8
0
100
AcDbBlockBegin
  2
*D6
 70
     1
 10
0.0
 20
0.0
 30
0.0
  3
*D6
  1

  0
LINE
  5
1BF51
330
1AC62
100
AcDbEntity
  8
003
 62
     4
370
    20
100
AcDbLine
 10
346.0719990715078
 20
377.84686587426
 30
0.0
 11
332.9262817775142
 21
377.84686587426
 31
0.0
  0
LINE
  5
1BF52
330
1AC62
100
AcDbEntity
  8
003
 62
     4
370
    20
100
AcDbLine
 10
346.0719990715078
 20
357.6748658742602
 30
0.0
 11
332.9262817775142
 21
357.6748658742602
 31
0.0
  0
LINE
  5
1BF53
330
1AC62
100
AcDbEntity
  8
003
 62
     4
370
    20
100
AcDbLine
 10
334.9262817775142
 20
374.8468658742599
 30
0.0
 11
334.9262817775142
 21
360.6748658742601
 31
0.0
  0
INSERT
  5
1BF54
330
1AC62
100
AcDbEntity
  8
003
 62
     4
370
    20
100
AcDbBlockReference
  2
_Open30
 10
334.9262817775142
 20
377.84686587426
 30
0.0
 41
3.0
 42
3.0
 43
3.0
 50
90.0
  0
INSERT
  5
1BF55
330
1AC62
100
AcDbEntity
  8
003
 62
     4
370
    20
100
AcDbBlockReference
  2
_Open30
 10
334.9262817775142
 20
357.6748658742602
 30
0.0
 41
3.0
 42
3.0
 43
3.0
 50
270.0
  0
MTEXT
  5
1BF56
330
1AC62
100
AcDbEntity
  8
003
 62
     7
100
AcDbMText
 10
329.9262817775141
 20
367.7608658742601
 30
0.0
 40
6.0
 41
0.0
 71
     5
 72
     1
  1
38
  7
DIM
 11
0.0000000000000001
 21
1.0
 31
0.0
 73
     1
 44
1.0
1001
ACAD
1000
MTEXTBEGIN
1070
    73
1070
     1
1070
    44
1040
1.0
1070
    74
1070
     0
1000
MTEXTEND
  0
POINT
  5
1BF57
330
1AC62
100
AcDbEntity
  8
Defpoints
 62
     0
100
AcDbPoint
 10
349.0719990715078
 20
377.84686587426
 30
0.0
  0
POINT
  5
1BF58
330
1AC62
100
AcDbEntity
  8
Defpoints
 62
     0
100
AcDbPoint
 10
349.0719990715078
 20
357.6748658742602
 30
0.0
  0
POINT
  5
1BF59
330
1AC62
100
AcDbEntity
  8
Defpoints
 62
     0
100
AcDbPoint
 10
334.9262817775142
 20
357.6748658742602
 30
0.0
  0
ENDBLK
  5
1AC64
330
1AC62
100
AcDbEntity
  8
0
100
AcDbBlockEnd
  0
BLOCK
  5
1AFF2
330
1AFF1
100
AcDbEntity
  8
0
100
AcDbBlockBegin
  2
*D7
 70
     1
 10
0.0
 20
0.0
 30
0.0
  3
*D7
  1

  0
LINE
  5
1AFFD
330
1AFF1
100
AcDbEntity
  8
003
 62
     4
370
    20
100
AcDbLine
 10
681.9574862511835
 20
372.6894211555724
 30
0.0
 11
728.2791606713778
 21
372.6894211555724
 31
0.0
  0
LINE
  5
1AFFE
330
1AFF1
100
AcDbEntity
  8
003
 62
     4
370
    20
100
AcDbLine
 10
681.9674862511837
 20
308.6894211555717
 30
0.0
 11
728.2791606713778
 21
308.6894211555717
 31
0.0
  0
LINE
  5
1AFFF
330
1AFF1
100
AcDbEntity
  8
003
 62
     4
370
    20
100
AcDbLine
 10
726.2791606713777
 20
369.6894211555724
 30
0.0
 11
726.2791606713777
 21
311.6894211555717
 31
0.0
  0
INSERT
  5
1B000
330
1AFF1
100
AcDbEntity
  8
003
 62
     4
370
    20
100
AcDbBlockReference
  2
_Open30
 10
726.2791606713777
 20
372.6894211555724
 30
0.0
 41
3.0
 42
3.0
 43
3.0
 50
90.0
  0
INSERT
  5
1B001
330
1AFF1
100
AcDbEntity
  8
003
 62
     4
370
    20
100
AcDbBlockReference
  2
_Open30
 10
726.2791606713777
 20
308.6894211555717
 30
0.0
 41
3.0
 42
3.0
 43
3.0
 50
270.0
  0
MTEXT
  5
1B002
330
1AFF1
100
AcDbEntity
  8
003
 62
     7
100
AcDbMText
 10
721.2791606713777
 20
332.0291671177276
 30
0.0
 40
6.0
 41
0.0
 71
     5
 72
     1
  1
64
  7
DIM
 11
0.0000000000000001
 21
1.0
 31
0.0
 73
     1
 44
1.0
1001
ACAD
1000
MTEXTBEGIN
1070
    73
1070
     1
1070
    44
1040
1.0
1070
    74
1070
     0
1000
MTEXTEND
  0
POINT
  5
1B003
330
1AFF1
100
AcDbEntity
  8
Defpoints
 62
     0
100
AcDbPoint
 10
678.9574862511836
 20
372.6894211555724
 30
0.0
  0
POINT
  5
1B004
330
1AFF1
100
AcDbEntity
  8
Defpoints
 62
     0
100
AcDbPoint
 10
678.9674862511837
 20
308.6894211555717
 30
0.0
  0
POINT
  5
1B005
330
1AFF1
100
AcDbEntity
  8
Defpoints
 62
     0
100
AcDbPoint
 10
726.2791606713777
 20
308.6894211555717
 30
0.0
  0
ENDBLK
  5
1AFF3
330
1AFF1
100
AcDbEntity
  8
0
100
AcDbBlockEnd
  0
BLOCK
  5
1B011
330
1B010
100
AcDbEntity
  8
0
100
AcDbBlockBegin
  2
*D8
 70
     1
 10
0.0
 20
0.0
 30
0.0
  3
*D8
  1

  0
LINE
  5
1B013
330
1B010
100
AcDbEntity
  8
003
 62
     4
370
    20
100
AcDbLine
 10
666.0581289027838
 20
363.6894211555727
 30
0.0
 11
652.1576677611074
 21
363.6894211555727
 31
0.0
  0
LINE
  5
1B014
330
1B010
100
AcDbEntity
  8
003
 62
     4
370
    20
100
AcDbLine
 10
666.0581289027838
 20
372.6894211555724
 30
0.0
 11
652.1576677611074
 21
372.6894211555724
 31
0.0
  0
LINE
  5
1B015
330
1B010
100
AcDbEntity
  8
003
 62
     4
370
    20
100
AcDbLine
 10
654.1576677611073
 20
360.6894211555726
 30
0.0
 11
654.1576677611073
 21
357.6894211555726
 31
0.0
  0
LINE
  5
1B016
330
1B010
100
AcDbEntity
  8
003
 62
     4
370
    20
100
AcDbLine
 10
654.1576677611073
 20
375.6894211555724
 30
0.0
 11
654.1576677611073
 21
378.6894211555723
 31
0.0
  0
LINE
  5
1B017
330
1B010
100
AcDbEntity
  8
003
 62
     4
370
    20
100
AcDbLine
 10
654.1576677611073
 20
363.6894211555727
 30
0.0
 11
654.1576677611073
 21
372.6894211555724
 31
0.0
  0
INSERT
  5
1B018
330
1B010
100
AcDbEntity
  8
003
 62
     4
370
    20
100
AcDbBlockReference
  2
_Open30
 10
654.1576677611073
 20
363.6894211555727
 30
0.0
 41
3.0
 42
3.0
 43
3.0
 50
90.0
  0
INSERT
  5
1B019
330
1B010
100
AcDbEntity
  8
003
 62
     4
370
    20
100
AcDbBlockReference
  2
_Open30
 10
654.1576677611073
 20
372.6894211555724
 30
0.0
 41
3.0
 42
3.0
 43
3.0
 50
270.0
  0
MTEXT
  5
1B01A
330
1B010
100
AcDbEntity
  8
003
 62
     7
100
AcDbMText
 10
649.1576677611073
 20
368.1894211555726
 30
0.0
 40
6.0
 41
0.0
 71
     5
 72
     1
  1
9
  7
DIM
 11
0.0000000000000001
 21
1.0
 31
0.0
 73
     1
 44
1.0
1001
ACAD
1000
MTEXTBEGIN
1070
    73
1070
     1
1070
    44
1040
1.0
1070
    74
1070
     0
1000
MTEXTEND
  0
POINT
  5
1B01B
330
1B010
100
AcDbEntity
  8
Defpoints
 62
     0
100
AcDbPoint
 10
669.0581289027838
 20
363.6894211555727
 30
0.0
  0
POINT
  5
1B01C
330
1B010
100
AcDbEntity
  8
Defpoints
 62
     0
100
AcDbPoint
 10
669.0581289027838
 20
372.6894211555724
 30
0.0
  0
POINT
  5
1B01D
330
1B010
100
AcDbEntity
  8
Defpoints
 62
     0
100
AcDbPoint
 10
654.1576677611073
 20
372.6894211555724
 30
0.0
  0
ENDBLK
  5
1B012
330
1B010
100
AcDbEntity
  8
0
100
AcDbBlockEnd
  0
BLOCK
  5
1BD2E
330
1BD2D
100
AcDbEntity
  8
0
100
AcDbBlockBegin
  2
*D9
 70
     1
 10
0.0
 20
0.0
 30
0.0
  3
*D9
  1

  0
LINE
  5
1BF19
330
1BD2D
100
AcDbEntity
  8
003
 62
     4
370
    20
100
AcDbLine
 10
175.1943564946623
 20
358.4028041365384
 30
0.0
 11
175.1943564946623
 21
345.3847126180265
 31
0.0
  0
LINE
  5
1BF1A
330
1BD2D
100
AcDbEntity
  8
003
 62
     4
370
    20
100
AcDbLine
 10
220.1943564946623
 20
385.3372901188775
 30
0.0
 11
220.1943564946623
 21
345.3847126180265
 31
0.0
  0
LINE
  5
1BF1B
330
1BD2D
100
AcDbEntity
  8
003
 62
     4
370
    20
100
AcDbLine
 10
178.1943564946623
 20
347.3847126180265
 30
0.0
 11
217.1943564946623
 21
347.3847126180265
 31
0.0
  0
INSERT
  5
1BF1C
330
1BD2D
100
AcDbEntity
  8
003
 62
     4
370
    20
100
AcDbBlockReference
  2
_Open30
 10
175.1943564946623
 20
347.3847126180265
 30
0.0
 41
3.0
 42
3.0
 43
3.0
 50
180.0
  0
INSERT
  5
1BF1D
330
1BD2D
100
AcDbEntity
  8
003
 62
     4
370
    20
100
AcDbBlockReference
  2
_Open30
 10
220.1943564946623
 20
347.3847126180265
 30
0.0
 41
3.0
 42
3.0
 43
3.0
  0
MTEXT
  5
1BF1E
330
1BD2D
100
AcDbEntity
  8
003
 62
     7
100
AcDbMText
 10
202.6943564946623
 20
352.3847126180265
 30
0.0
 40
6.0
 41
0.0
 71
     5
 72
     1
  1
45
  7
DIM
 73
     1
 44
1.0
1001
ACAD
1000
MTEXTBEGIN
1070
    73
1070
     1
1070
    44
1040
1.0
1070
    74
1070
     0
1000
MTEXTEND
  0
POINT
  5
1BF1F
330
1BD2D
100
AcDbEntity
  8
Defpoints
 62
     0
100
AcDbPoint
 10
175.1943564946623
 20
361.4028041365384
 30
0.0
  0
POINT
  5
1BF20
330
1BD2D
100
AcDbEntity
  8
Defpoints
 62
     0
100
AcDbPoint
 10
220.1943564946623
 20
388.3372901188775
 30
0.0
  0
POINT
  5
1BF21
330
1BD2D
100
AcDbEntity
  8
Defpoints
 62
     0
100
AcDbPoint
 10
220.1943564946623
 20
347.3847126180265
 30
0.0
  0
ENDBLK
  5
1BD2F
330
1BD2D
100
AcDbEntity
  8
0
100
AcDbBlockEnd
  0
BLOCK
  5
1BD3A
330
1BD39
100
AcDbEntity
  8
0
100
AcDbBlockBegin
  2
*D10
 70
     1
 10
0.0
 20
0.0
 30
0.0
  3
*D10
  1

  0
LINE
  5
1BF22
330
1BD39
100
AcDbEntity
  8
003
 62
     4
370
    20
100
AcDbLine
 10
175.1943564946623
 20
358.4028041365384
 30
0.0
 11
175.1943564946623
 21
331.3847126180265
 31
0.0
  0
LINE
  5
1BF23
330
1BD39
100
AcDbEntity
  8
003
 62
     4
370
    20
100
AcDbLine
 10
239.1943564946623
 20
377.4028041365384
 30
0.0
 11
239.1943564946623
 21
331.3847126180265
 31
0.0
  0
LINE
  5
1BF24
330
1BD39
100
AcDbEntity
  8
003
 62
     4
370
    20
100
AcDbLine
 10
178.1943564946623
 20
333.3847126180265
 30
0.0
 11
236.1943564946623
 21
333.3847126180265
 31
0.0
  0
INSERT
  5
1BF25
330
1BD39
100
AcDbEntity
  8
003
 62
     4
370
    20
100
AcDbBlockReference
  2
_Open30
 10
175.1943564946623
 20
333.3847126180265
 30
0.0
 41
3.0
 42
3.0
 43
3.0
 50
180.0
  0
INSERT
  5
1BF26
330
1BD39
100
AcDbEntity
  8
003
 62
     4
370
    20
100
AcDbBlockReference
  2
_Open30
 10
239.1943564946623
 20
333.3847126180265
 30
0.0
 41
3.0
 42
3.0
 43
3.0
  0
MTEXT
  5
1BF27
330
1BD39
100
AcDbEntity
  8
003
 62
     7
100
AcDbMText
 10
207.1943564946623
 20
338.3847126180265
 30
0.0
 40
6.0
 41
0.0
 71
     5
 72
     1
  1
64
  7
DIM
 73
     1
 44
1.0
1001
ACAD
1000
MTEXTBEGIN
1070
    73
1070
     1
1070
    44
1040
1.0
1070
    74
1070
     0
1000
MTEXTEND
  0
POINT
  5
1BF28
330
1BD39
100
AcDbEntity
  8
Defpoints
 62
     0
100
AcDbPoint
 10
175.1943564946623
 20
361.4028041365384
 30
0.0
  0
POINT
  5
1BF29
330
1BD39
100
AcDbEntity
  8
Defpoints
 62
     0
100
AcDbPoint
 10
239.1943564946623
 20
380.4028041365384
 30
0.0
  0
POINT
  5
1BF2A
330
1BD39
100
AcDbEntity
  8
Defpoints
 62
     0
100
AcDbPoint
 10
239.1943564946623
 20
333.3847126180265
 30
0.0
  0
ENDBLK
  5
1BD3B
330
1BD39
100
AcDbEntity
  8
0
100
AcDbBlockEnd
  0
BLOCK
  5
1BD46
330
1BD45
100
AcDbEntity
  8
0
100
AcDbBlockBegin
  2
*D11
 70
     1
 10
0.0
 20
0.0
 30
0.0
  3
*D11
  1

  0
LINE
  5
1BF2B
330
1BD45
100
AcDbEntity
  8
003
 62
     4
370
    20
100
AcDbLine
 10
176.1943564946623
 20
389.4028041365384
 30
0.0
 11
166.3682800229419
 21
389.4028041365384
 31
0.0
  0
LINE
  5
1BF2C
330
1BD45
100
AcDbEntity
  8
003
 62
     4
370
    20
100
AcDbLine
 10
176.1943564946623
 20
371.4028041365384
 30
0.0
 11
166.3682800229419
 21
371.4028041365384
 31
0.0
  0
LINE
  5
1BF2D
330
1BD45
100
AcDbEntity
  8
003
 62
     4
370
    20
100
AcDbLine
 10
168.3682800229419
 20
386.4028041365384
 30
0.0
 11
168.3682800229419
 21
374.4028041365384
 31
0.0
  0
INSERT
  5
1BF2E
330
1BD45
100
AcDbEntity
  8
003
 62
     4
370
    20
100
AcDbBlockReference
  2
_Open30
 10
168.3682800229419
 20
389.4028041365384
 30
0.0
 41
3.0
 42
3.0
 43
3.0
 50
90.0
  0
INSERT
  5
1BF2F
330
1BD45
100
AcDbEntity
  8
003
 62
     4
370
    20
100
AcDbBlockReference
  2
_Open30
 10
168.3682800229419
 20
371.4028041365384
 30
0.0
 41
3.0
 42
3.0
 43
3.0
 50
270.0
  0
MTEXT
  5
1BF30
330
1BD45
100
AcDbEntity
  8
003
 62
     7
100
AcDbMText
 10
163.3682800229418
 20
380.4028041365384
 30
0.0
 40
6.0
 41
0.0
 71
     5
 72
     1
  1
18
  7
DIM
 11
0.0000000000000001
 21
1.0
 31
0.0
 73
     1
 44
1.0
1001
ACAD
1000
MTEXTBEGIN
1070
    73
1070
     1
1070
    44
1040
1.0
1070
    74
1070
     0
1000
MTEXTEND
  0
POINT
  5
1BF31
330
1BD45
100
AcDbEntity
  8
Defpoints
 62
     0
100
AcDbPoint
 10
179.1943564946623
 20
389.4028041365384
 30
0.0
  0
POINT
  5
1BF32
330
1BD45
100
AcDbEntity
  8
Defpoints
 62
     0
100
AcDbPoint
 10
179.1943564946623
 20
371.4028041365384
 30
0.0
  0
POINT
  5
1BF33
330
1BD45
100
AcDbEntity
  8
Defpoints
 62
     0
100
AcDbPoint
 10
168.3682800229419
 20
371.4028041365384
 30
0.0
  0
ENDBLK
  5
1BD47
330
1BD45
100
AcDbEntity
  8
0
100
AcDbBlockEnd
  0
BLOCK
  5
1BD52
330
1BD51
100
AcDbEntity
  8
0
100
AcDbBlockBegin
  2
*D12
 70
     1
 10
0.0
 20
0.0
 30
0.0
  3
*D12
  1

  0
LINE
  5
1BF34
330
1BD51
100
AcDbEntity
  8
003
 62
     4
370
    20
100
AcDbLine
 10
172.1943564946623
 20
399.4028041365384
 30
0.0
 11
150.9106887147656
 21
399.4028041365384
 31
0.0
  0
LINE
  5
1BF35
330
1BD51
100
AcDbEntity
  8
003
 62
     4
370
    20
100
AcDbLine
 10
172.1943564946623
 20
361.4028041365384
 30
0.0
 11
150.9106887147656
 21
361.4028041365384
 31
0.0
  0
LINE
  5
1BF36
330
1BD51
100
AcDbEntity
  8
003
 62
     4
370
    20
100
AcDbLine
 10
152.9106887147656
 20
396.4028041365384
 30
0.0
 11
152.9106887147656
 21
364.4028041365384
 31
0.0
  0
INSERT
  5
1BF37
330
1BD51
100
AcDbEntity
  8
003
 62
     4
370
    20
100
AcDbBlockReference
  2
_Open30
 10
152.9106887147656
 20
399.4028041365384
 30
0.0
 41
3.0
 42
3.0
 43
3.0
 50
90.0
  0
INSERT
  5
1BF38
330
1BD51
100
AcDbEntity
  8
003
 62
     4
370
    20
100
AcDbBlockReference
  2
_Open30
 10
152.9106887147656
 20
361.4028041365384
 30
0.0
 41
3.0
 42
3.0
 43
3.0
 50
270.0
  0
MTEXT
  5
1BF39
330
1BD51
100
AcDbEntity
  8
003
 62
     7
100
AcDbMText
 10
147.9106887147656
 20
380.4028041365384
 30
0.0
 40
6.0
 41
0.0
 71
     5
 72
     1
  1
38
  7
DIM
 11
0.0000000000000001
 21
1.0
 31
0.0
 73
     1
 44
1.0
1001
ACAD
1000
MTEXTBEGIN
1070
    73
1070
     1
1070
    44
1040
1.0
1070
    74
1070
     0
1000
MTEXTEND
  0
POINT
  5
1BF3A
330
1BD51
100
AcDbEntity
  8
Defpoints
 62
     0
100
AcDbPoint
 10
175.1943564946623
 20
399.4028041365384
 30
0.0
  0
POINT
  5
1BF3B
330
1BD51
100
AcDbEntity
  8
Defpoints
 62
     0
100
AcDbPoint
 10
175.1943564946623
 20
361.4028041365384
 30
0.0
  0
POINT
  5
1BF3C
330
1BD51
100
AcDbEntity
  8
Defpoints
 62
     0
100
AcDbPoint
 10
152.9106887147656
 20
361.4028041365384
 30
0.0
  0
ENDBLK
  5
1BD53
330
1BD51
100
AcDbEntity
  8
0
100
AcDbBlockEnd
  0
BLOCK
  5
1BD5E
330
1BD5D
100
AcDbEntity
  8
0
100
AcDbBlockBegin
  2
*D13
 70
     1
 10
0.0
 20
0.0
 30
0.0
  3
*D13
  1

  0
LINE
  5
1BF3D
330
1BD5D
100
AcDbEntity
  8
003
 62
     4
370
    20
100
AcDbLine
 10
175.1943564946623
 20
402.4028041365384
 30
0.0
 11
175.1943564946623
 21
414.9067942997196
 31
0.0
  0
LINE
  5
1BF3E
330
1BD5D
100
AcDbEntity
  8
003
 62
     4
370
    20
100
AcDbLine
 10
184.1943564946623
 20
397.4028041365384
 30
0.0
 11
184.1943564946623
 21
414.9067942997196
 31
0.0
  0
LINE
  5
1BF3F
330
1BD5D
100
AcDbEntity
  8
003
 62
     4
370
    20
100
AcDbLine
 10
172.1943564946623
 20
412.9067942997196
 30
0.0
 11
169.1943564946623
 21
412.9067942997196
 31
0.0
  0
LINE
  5
1BF40
330
1BD5D
100
AcDbEntity
  8
003
 62
     4
370
    20
100
AcDbLine
 10
187.1943564946623
 20
412.9067942997196
 30
0.0
 11
190.1943564946623
 21
412.9067942997196
 31
0.0
  0
LINE
  5
1BF41
330
1BD5D
100
AcDbEntity
  8
003
 62
     4
370
    20
100
AcDbLine
 10
175.1943564946623
 20
412.9067942997196
 30
0.0
 11
184.1943564946623
 21
412.9067942997196
 31
0.0
  0
INSERT
  5
1BF42
330
1BD5D
100
AcDbEntity
  8
003
 62
     4
370
    20
100
AcDbBlockReference
  2
_Open30
 10
175.1943564946623
 20
412.9067942997196
 30
0.0
 41
3.0
 42
3.0
 43
3.0
  0
INSERT
  5
1BF43
330
1BD5D
100
AcDbEntity
  8
003
 62
     4
370
    20
100
AcDbBlockReference
  2
_Open30
 10
184.1943564946623
 20
412.9067942997196
 30
0.0
 41
3.0
 42
3.0
 43
3.0
 50
180.0
  0
MTEXT
  5
1BF44
330
1BD5D
100
AcDbEntity
  8
003
 62
     7
100
AcDbMText
 10
179.6943564946623
 20
417.9067942997196
 30
0.0
 40
6.0
 41
0.0
 71
     5
 72
     1
  1
9
  7
DIM
 73
     1
 44
1.0
1001
ACAD
1000
MTEXTBEGIN
1070
    73
1070
     1
1070
    44
1040
1.0
1070
    74
1070
     0
1000
MTEXTEND
  0
POINT
  5
1BF45
330
1BD5D
100
AcDbEntity
  8
Defpoints
 62
     0
100
AcDbPoint
 10
175.1943564946623
 20
399.4028041365384
 30
0.0
  0
POINT
  5
1BF46
330
1BD5D
100
AcDbEntity
  8
Defpoints
 62
     0
100
AcDbPoint
 10
184.1943564946623
 20
394.4028041365384
 30
0.0
  0
POINT
  5
1BF47
330
1BD5D
100
AcDbEntity
  8
Defpoints
 62
     0
100
AcDbPoint
 10
184.1943564946623
 20
412.9067942997196
 30
0.0
  0
ENDBLK
  5
1BD5F
330
1BD5D
100
AcDbEntity
  8
0
100
AcDbBlockEnd
  0
BLOCK
  5
1C057
330
1C056
100
AcDbEntity
  8
0
100
AcDbBlockBegin
  2
*D14
 70
     1
 10
0.0
 20
0.0
 30
0.0
  3
*D14
  1

  0
LINE
  5
1C062
330
1C056
100
AcDbEntity
  8
003
 62
     4
370
    20
100
AcDbLine
 10
498.2610474127941
 20
305.6894211555724
 30
0.0
 11
498.2610474127941
 21
279.7819805096931
 31
0.0
  0
LINE
  5
1C063
330
1C056
100
AcDbEntity
  8
003
 62
     4
370
    20
100
AcDbLine
 10
518.2610474127941
 20
305.6894211555724
 30
0.0
 11
518.2610474127941
 21
279.7819805096931
 31
0.0
  0
LINE
  5
1C064
330
1C056
100
AcDbEntity
  8
003
 62
     4
370
    20
100
AcDbLine
 10
501.2610474127941
 20
281.7819805096931
 30
0.0
 11
515.2610474127941
 21
281.7819805096931
 31
0.0
  0
INSERT
  5
1C065
330
1C056
100
AcDbEntity
  8
003
 62
     4
370
    20
100
AcDbBlockReference
  2
_Open30
 10
498.2610474127941
 20
281.7819805096931
 30
0.0
 41
3.0
 42
3.0
 43
3.0
 50
180.0
  0
INSERT
  5
1C066
330
1C056
100
AcDbEntity
  8
003
 62
     4
370
    20
100
AcDbBlockReference
  2
_Open30
 10
518.2610474127941
 20
281.7819805096931
 30
0.0
 41
3.0
 42
3.0
 43
3.0
  0
MTEXT
  5
1C067
330
1C056
100
AcDbEntity
  8
003
 62
     7
100
AcDbMText
 10
508.2610474127941
 20
286.7819805096931
 30
0.0
 40
6.0
 41
0.0
 71
     5
 72
     1
  1
20
  7
DIM
 73
     1
 44
1.0
1001
ACAD
1000
MTEXTBEGIN
1070
    73
1070
     1
1070
    44
1040
1.0
1070
    74
1070
     0
1000
MTEXTEND
  0
POINT
  5
1C068
330
1C056
100
AcDbEntity
  8
Defpoints
 62
     0
100
AcDbPoint
 10
498.2610474127941
 20
308.6894211555724
 30
0.0
  0
POINT
  5
1C069
330
1C056
100
AcDbEntity
  8
Defpoints
 62
     0
100
AcDbPoint
 10
518.2610474127941
 20
308.6894211555724
 30
0.0
  0
POINT
  5
1C06A
330
1C056
100
AcDbEntity
  8
Defpoints
 62
     0
100
AcDbPoint
 10
518.2610474127941
 20
281.7819805096931
 30
0.0
  0
ENDBLK
  5
1C058
330
1C056
100
AcDbEntity
  8
0
100
AcDbBlockEnd
  0
ENDSEC
  0
SECTION
  2
ENTITIES
  0
LINE
  5
F4
330
1F
100
AcDbEntity
  8
001
100
AcDbLine
 10
40.00000000000009
 20
558.0
 30
0.0
 11
799.9999999999998
 21
558.0
 31
0.0
  0
LINE
  5
F5
330
1F
100
AcDbEntity
  8
001
100
AcDbLine
 10
40.0
 20
36.0
 30
0.0
 11
799.9999999999996
 21
36.0
 31
0.0
  0
LINE
  5
F6
330
1F
100
AcDbEntity
  8
001
100
AcDbLine
 10
40.00000000000009
 20
558.0
 30
0.0
 11
40.0
 21
36.0
 31
0.0
  0
LINE
  5
141
330
1F
100
AcDbEntity
  8
001
100
AcDbLine
 10
799.9999999999998
 20
558.0
 30
0.0
 11
799.9999999999996
 21
36.0
 31
0.0
  0
TEXT
  5
F7EF
330
1F
100
AcDbEntity
  8
0
100
AcDbText
 10
752.0146959686857
 20
23.25114259729506
 30
0.0
 40
10.0
  1
-Ｕ５-
  7
AT_VECTOR
 72
     1
 11
776.3956483496381
 21
28.25114259729506
 31
0.0
100
AcDbText
 73
     2
  0
POINT
  5
F7F2
330
1F
100
AcDbEntity
  8
0
100
AcDbPoint
 10
20.0000000000001
 20
558.0
 30
0.0
  0
POINT
  5
F806
330
1F
100
AcDbEntity
  8
0
100
AcDbPoint
 10
809.9999999999996
 20
21.0
 30
0.0
  0
TEXT
  5
1270A
330
1F
100
AcDbEntity
  8
0
100
AcDbText
 10
40.45819394134241
 20
30.38714182789863
 30
0.0
 40
4.0
  1
07.10.01　作成
  7
AT_VECTOR
 11
40.45819394134241
 21
30.38714182789863
 31
0.0
100
AcDbText
 73
     1
  0
LINE
  5
13DEE
330
1F
100
AcDbEntity
  8
003
100
AcDbLine
 10
134.0269563816264
 20
210.4929415200198
 30
0.0
 11
214.026956381626
 21
210.4929415200198
 31
0.0
  0
LINE
  5
13DEF
330
1F
100
AcDbEntity
  8
003
100
AcDbLine
 10
134.0269563816264
 20
223.826274853353
 30
0.0
 11
214.0269563816265
 21
223.826274853353
 31
0.0
  0
LINE
  5
13DF0
330
1F
100
AcDbEntity
  8
003
100
AcDbLine
 10
134.0269563816264
 20
210.4929415200198
 30
0.0
 11
134.0269563816264
 21
223.826274853353
 31
0.0
  0
TEXT
  5
13DF1
330
1F
100
AcDbEntity
  8
0
100
AcDbText
 10
156.1602897149598
 20
213.1596081866863
 30
0.0
 40
7.999999999999998
  1
縦断面図
  7
AT_VECTOR
 72
     1
 11
174.0269563816264
 21
217.1596081866863
 31
0.0
100
AcDbText
 73
     2
  0
LINE
  5
13DF2
330
1F
100
AcDbEntity
  8
003
100
AcDbLine
 10
214.026956381626
 20
210.4929415200198
 30
0.0
 11
214.0269563816265
 21
223.826274853353
 31
0.0
  0
TEXT
  5
13DF3
330
1F
100
AcDbEntity
  8
0
100
AcDbText
 10
61.90814839100202
 20
447.4270156682673
 30
0.0
 40
6.0
  1
外　部
  7
AT_VECTOR
 72
     1
 11
71.90814839100202
 21
450.4270156682673
 31
0.0
100
AcDbText
 73
     2
  0
LINE
  5
13DF4
330
1F
100
AcDbEntity
  8
003
100
AcDbLine
 10
56.90814839100202
 20
454.9270156682673
 30
0.0
 11
86.90814839100202
 21
454.9270156682673
 31
0.0
  0
LINE
  5
13DF5
330
1F
100
AcDbEntity
  8
003
100
AcDbLine
 10
56.90814839100202
 20
445.9270156682674
 30
0.0
 11
86.90814839100202
 21
445.9270156682674
 31
0.0
  0
LINE
  5
13DF6
330
1F
100
AcDbEntity
  8
003
100
AcDbLine
 10
56.90814839100202
 20
454.9270156682673
 30
0.0
 11
56.90814839100202
 21
445.9270156682674
 31
0.0
  0
LINE
  5
13DF7
330
1F
100
AcDbEntity
  8
003
100
AcDbLine
 10
86.90814839100202
 20
454.9270156682673
 30
0.0
 11
86.90814839100202
 21
445.9270156682674
 31
0.0
  0
LINE
  5
13DF8
330
1F
100
AcDbEntity
  8
003
100
AcDbLine
 10
216.4980067191086
 20
454.9270156682673
 30
0.0
 11
216.4980067191086
 21
445.9270156682674
 31
0.0
  0
TEXT
  5
13DF9
330
1F
100
AcDbEntity
  8
0
100
AcDbText
 10
191.2980067191086
 20
447.4270156682673
 30
0.0
 40
6.0
  1
内　部
  7
AT_VECTOR
 72
     1
 11
201.4980067191086
 21
450.4270156682673
 31
0.0
100
AcDbText
 73
     2
  0
LINE
  5
13DFA
330
1F
100
AcDbEntity
  8
003
100
AcDbLine
 10
186.4980067191086
 20
454.9270156682673
 30
0.0
 11
186.4980067191086
 21
445.9270156682674
 31
0.0
  0
LINE
  5
13DFB
330
1F
100
AcDbEntity
  8
003
100
AcDbLine
 10
186.4980067191086
 20
445.9270156682674
 30
0.0
 11
216.4980067191086
 21
445.9270156682674
 31
0.0
  0
LINE
  5
13DFC
330
1F
100
AcDbEntity
  8
003
100
AcDbLine
 10
186.4980067191086
 20
454.9270156682673
 30
0.0
 11
216.4980067191086
 21
454.9270156682673
 31
0.0
  0
LINE
  5
13EC1
330
1F
100
AcDbEntity
  8
003
100
AcDbLine
 10
550.0617668319886
 20
216.7525542682796
 30
0.0
 11
630.0617668319882
 21
216.7525542682796
 31
0.0
  0
LINE
  5
13EC2
330
1F
100
AcDbEntity
  8
003
100
AcDbLine
 10
550.0617668319886
 20
230.0858876016129
 30
0.0
 11
630.0617668319886
 21
230.0858876016129
 31
0.0
  0
LINE
  5
13EC3
330
1F
100
AcDbEntity
  8
003
100
AcDbLine
 10
550.0617668319886
 20
216.7525542682796
 30
0.0
 11
550.0617668319886
 21
230.0858876016129
 31
0.0
  0
TEXT
  5
13EC4
330
1F
100
AcDbEntity
  8
0
100
AcDbText
 10
572.1951001653219
 20
219.4192209349462
 30
0.0
 40
7.999999999999998
  1
横断面図
  7
AT_VECTOR
 72
     1
 11
590.0617668319886
 21
223.4192209349462
 31
0.0
100
AcDbText
 73
     2
  0
LINE
  5
13EC5
330
1F
100
AcDbEntity
  8
003
100
AcDbLine
 10
630.0617668319882
 20
216.7525542682796
 30
0.0
 11
630.0617668319886
 21
230.0858876016129
 31
0.0
  0
LINE
  5
13EC6
330
1F
100
AcDbEntity
  8
003
100
AcDbLine
 10
605.0617668319886
 20
253.8639709224749
 30
0.0
 11
605.0617668319886
 21
244.8639709224748
 31
0.0
  0
TEXT
  5
13EC7
330
1F
100
AcDbEntity
  8
0
100
AcDbText
 10
579.8617668319885
 20
246.3639709224748
 30
0.0
 40
6.0
  1
内　部
  7
AT_VECTOR
 72
     1
 11
590.0617668319886
 21
249.3639709224748
 31
0.0
100
AcDbText
 73
     2
  0
LINE
  5
13EC8
330
1F
100
AcDbEntity
  8
003
100
AcDbLine
 10
575.0617668319886
 20
253.8639709224749
 30
0.0
 11
575.0617668319886
 21
244.8639709224748
 31
0.0
  0
LINE
  5
13EC9
330
1F
100
AcDbEntity
  8
003
100
AcDbLine
 10
575.0617668319886
 20
244.8639709224748
 30
0.0
 11
605.0617668319886
 21
244.8639709224748
 31
0.0
  0
LINE
  5
13ECA
330
1F
100
AcDbEntity
  8
003
100
AcDbLine
 10
575.0617668319886
 20
253.8639709224749
 30
0.0
 11
605.0617668319886
 21
253.8639709224749
 31
0.0
  0
TEXT
  5
13ECB
330
1F
100
AcDbEntity
  8
0
100
AcDbText
 10
580.0617668319885
 20
462.4738480239463
 30
0.0
 40
6.0
  1
外　部
  7
AT_VECTOR
 72
     1
 11
590.0617668319885
 21
465.4738480239463
 31
0.0
100
AcDbText
 73
     2
  0
LINE
  5
13ECC
330
1F
100
AcDbEntity
  8
003
100
AcDbLine
 10
575.0617668319884
 20
469.9738480239463
 30
0.0
 11
605.0617668319885
 21
469.9738480239463
 31
0.0
  0
LINE
  5
13ECD
330
1F
100
AcDbEntity
  8
003
100
AcDbLine
 10
575.0617668319884
 20
460.9738480239463
 30
0.0
 11
605.0617668319885
 21
460.9738480239463
 31
0.0
  0
LINE
  5
13ECE
330
1F
100
AcDbEntity
  8
003
100
AcDbLine
 10
575.0617668319884
 20
469.9738480239463
 30
0.0
 11
575.0617668319884
 21
460.9738480239463
 31
0.0
  0
LINE
  5
13ECF
330
1F
100
AcDbEntity
  8
003
100
AcDbLine
 10
605.0617668319885
 20
469.9738480239463
 30
0.0
 11
605.0617668319885
 21
460.9738480239463
 31
0.0
  0
TEXT
  5
13EED
330
1F
100
AcDbEntity
  8
0
100
AcDbText
 10
329.5097560351208
 20
537.8775302423639
 30
0.0
 40
10.0
  1
【３２φ　バー手摺】
  7
AT_VECTOR
 72
     1
 11
388.1764227017874
 21
542.8775302423639
 31
0.0
100
AcDbText
 73
     2
  0
TEXT
  5
13EEE
330
1F
100
AcDbEntity
  8
0
100
AcDbText
 10
448.739693392246
 20
538.1067912703838
 30
0.0
 40
7.999999999999998
  1
（コーナー+コーナー）
 41
0.85
  7
AT_VECTOR
 72
     1
 11
492.8425505351031
 21
542.1067912703838
 31
0.0
100
AcDbText
 73
     2
  0
LINE
  5
165AF
330
1F
100
AcDbEntity
  8
0
100
AcDbLine
 10
175.1943564946622
 20
314.4028041365384
 30
0.0
 11
175.1943564946623
 21
414.4368925725212
 31
0.0
  0
LINE
  5
165B0
330
1F
100
AcDbEntity
  8
0
100
AcDbLine
 10
105.1943564946622
 20
267.3228041365387
 30
0.0
 11
105.1943564946623
 21
414.4368925725212
 31
0.0
  0
LINE
  5
165B1
330
1F
100
AcDbEntity
  8
0
100
AcDbLine
 10
133.1843564946622
 20
263.1028041365387
 30
0.0
 11
153.2043564946622
 21
263.1028041365387
 31
0.0
  0
LINE
  5
165B2
330
1F
100
AcDbEntity
  8
0
100
AcDbLine
 10
125.2043564946622
 20
265.0428041365385
 30
0.0
 11
153.2243564946622
 21
265.0428041365385
 31
0.0
  0
LINE
  5
165B3
330
1F
100
AcDbEntity
  8
007
100
AcDbLine
 10
139.5643564946622
 20
258.9028041365384
 30
0.0
 11
163.8443564946621
 21
258.9028041365384
 31
0.0
  0
LINE
  5
165B4
330
1F
100
AcDbEntity
  8
007
100
AcDbLine
 10
132.1943564946622
 20
256.9028041365384
 30
0.0
 11
164.8843564946623
 21
256.9028041365384
 31
0.0
  0
LINE
  5
165B5
330
1F
100
AcDbEntity
  8
007
100
AcDbLine
 10
136.6943564946622
 20
244.4028041365384
 30
0.0
 11
156.6943564946622
 21
244.4028041365384
 31
0.0
  0
LINE
  5
165B6
330
1F
100
AcDbEntity
  8
0
100
AcDbLine
 10
73.35696178208713
 20
235.0666629806164
 30
0.0
 11
115.2743564946623
 21
242.5928041365385
 31
0.0
  0
LINE
  5
165B7
330
1F
100
AcDbEntity
  8
0
100
AcDbLine
 10
73.35696178208713
 20
237.0286320650992
 30
0.0
 11
114.3343564946623
 21
244.4028041365384
 31
0.0
  0
LINE
  5
165BB
330
1F
100
AcDbEntity
  8
0
100
AcDbLine
 10
123.2043564946622
 20
259.1228041365387
 30
0.0
 11
123.2043564946622
 21
275.0428041365385
 31
0.0
  0
LINE
  5
165BC
330
1F
100
AcDbEntity
  8
0
100
AcDbLine
 10
107.2043564946622
 20
257.4028041365384
 30
0.0
 11
107.2043564946622
 21
267.3228041365385
 31
0.0
  0
LINE
  5
165BD
330
1F
100
AcDbEntity
  8
0
100
AcDbLine
 10
105.1943564946622
 20
257.2128041365386
 30
0.0
 11
105.1943564946622
 21
267.3228041365385
 31
0.0
  0
LINE
  5
165BE
330
1F
100
AcDbEntity
  8
0
100
AcDbLine
 10
107.2043564946622
 20
257.4128041365386
 30
0.0
 11
123.2043564946622
 21
259.1228041365387
 31
0.0
  0
LINE
  5
165BF
330
1F
100
AcDbEntity
  8
0
100
AcDbLine
 10
116.3343564946623
 20
256.3328041365387
 30
0.0
 11
123.2043564946622
 21
257.1828041365386
 31
0.0
  0
LINE
  5
165C0
330
1F
100
AcDbEntity
  8
0
100
AcDbLine
 10
114.1943564946622
 20
248.2628041365385
 30
0.0
 11
114.3343564946623
 21
248.1228041365387
 31
0.0
  0
LINE
  5
165C1
330
1F
100
AcDbEntity
  8
0
100
AcDbLine
 10
116.3343564946623
 20
244.4028041365384
 30
0.0
 11
116.3343564946623
 21
256.1628041365386
 31
0.0
  0
LINE
  5
165C2
330
1F
100
AcDbEntity
  8
0
100
AcDbLine
 10
114.3343564946623
 20
244.4028041365384
 30
0.0
 11
114.3343564946623
 21
256.1628041365386
 31
0.0
  0
LINE
  5
165C3
330
1F
100
AcDbEntity
  8
0
100
AcDbLine
 10
106.1943564946622
 20
242.9328041365386
 30
0.0
 11
106.1943564946622
 21
253.4028041365384
 31
0.0
  0
LINE
  5
165C4
330
1F
100
AcDbEntity
  8
0
100
AcDbLine
 10
106.1943564946622
 20
250.4028041365384
 30
0.0
 11
112.6643564946623
 21
243.9328041365386
 31
0.0
  0
LINE
  5
165C5
330
1F
100
AcDbEntity
  8
0
100
AcDbLine
 10
107.6043564946623
 20
243.1928041365386
 30
0.0
 11
114.1943564946622
 21
249.7828041365385
 31
0.0
  0
LINE
  5
165C6
330
1F
100
AcDbEntity
  8
0
100
AcDbLine
 10
106.1943564946622
 20
253.4028041365384
 30
0.0
 11
114.1943564946622
 21
245.4028041365384
 31
0.0
  0
LINE
  5
165C7
330
1F
100
AcDbEntity
  8
0
100
AcDbLine
 10
106.1943564946622
 20
244.6328041365384
 30
0.0
 11
114.1943564946622
 21
252.6328041365384
 31
0.0
  0
LINE
  5
165C8
330
1F
100
AcDbEntity
  8
0
100
AcDbLine
 10
106.1943564946622
 20
247.4028041365384
 30
0.0
 11
113.1943564946622
 21
254.4028041365384
 31
0.0
  0
LINE
  5
165C9
330
1F
100
AcDbEntity
  8
0
100
AcDbLine
 10
106.1943564946622
 20
247.4028041365384
 30
0.0
 11
109.9743564946622
 21
243.6228041365386
 31
0.0
  0
LINE
  5
165CA
330
1F
100
AcDbEntity
  8
0
100
AcDbLine
 10
106.1943564946622
 20
244.6328041365384
 30
0.0
 11
107.6343564946623
 21
243.1928041365386
 31
0.0
  0
LINE
  5
165CB
330
1F
100
AcDbEntity
  8
0
100
AcDbLine
 10
116.3343564946623
 20
242.8928041365387
 30
0.0
 11
116.3343564946623
 21
246.2928041365385
 31
0.0
  0
LINE
  5
165CC
330
1F
100
AcDbEntity
  8
0
100
AcDbLine
 10
114.1943564946622
 20
245.4028041365384
 30
0.0
 11
114.3343564946623
 21
245.2628041365386
 31
0.0
  0
LINE
  5
165CD
330
1F
100
AcDbEntity
  8
0
100
AcDbLine
 10
114.1943564946622
 20
246.7628041365385
 30
0.0
 11
114.3343564946623
 21
246.9028041365384
 31
0.0
  0
LINE
  5
165CE
330
1F
100
AcDbEntity
  8
0
100
AcDbLine
 10
114.4643564946622
 20
242.3628041365384
 30
0.0
 11
116.3343564946623
 21
242.8928041365387
 31
0.0
  0
LINE
  5
165CF
330
1F
100
AcDbEntity
  8
0
100
AcDbLine
 10
111.2843564946623
 20
243.8528041365387
 30
0.0
 11
114.1943564946622
 21
246.7628041365385
 31
0.0
  0
LINE
  5
165D0
330
1F
100
AcDbEntity
  8
0
100
AcDbLine
 10
107.0743564946622
 20
255.3828041365384
 30
0.0
 11
108.0543564946623
 21
254.4028041365384
 31
0.0
  0
LINE
  5
165D1
330
1F
100
AcDbEntity
  8
0
100
AcDbLine
 10
106.1943564946622
 20
250.4028041365384
 30
0.0
 11
110.1943564946622
 21
254.4028041365384
 31
0.0
  0
LINE
  5
165D2
330
1F
100
AcDbEntity
  8
0
100
AcDbLine
 10
106.1943564946622
 20
252.5428041365385
 30
0.0
 11
108.0543564946623
 21
254.4028041365384
 31
0.0
  0
LINE
  5
165D3
330
1F
100
AcDbEntity
  8
0
100
AcDbLine
 10
107.2043564946622
 20
255.4628041365386
 30
0.0
 11
114.3343564946623
 21
256.1428041365386
 31
0.0
  0
LINE
  5
165D4
330
1F
100
AcDbEntity
  8
0
100
AcDbLine
 10
105.1943564946622
 20
254.4028041365384
 30
0.0
 11
105.1943564946622
 21
257.2128041365386
 31
0.0
  0
LINE
  5
165D5
330
1F
100
AcDbEntity
  8
0
100
AcDbLine
 10
105.1943564946622
 20
254.4028041365384
 30
0.0
 11
107.2043564946622
 21
255.4628041365386
 31
0.0
  0
LINE
  5
165D6
330
1F
100
AcDbEntity
  8
0
100
AcDbLine
 10
105.1943564946622
 20
254.4028041365384
 30
0.0
 11
106.1943564946622
 21
253.4028041365384
 31
0.0
  0
LINE
  5
165D7
330
1F
100
AcDbEntity
  8
0
100
AcDbLine
 10
113.1943564946622
 20
254.4028041365384
 30
0.0
 11
114.3343564946623
 21
255.5428041365385
 31
0.0
  0
LINE
  5
165D8
330
1F
100
AcDbEntity
  8
0
100
AcDbLine
 10
116.3343564946623
 20
256.1628041365386
 30
0.0
 11
116.3343564946623
 21
256.3428041365384
 31
0.0
  0
LINE
  5
165D9
330
1F
100
AcDbEntity
  8
0
100
AcDbLine
 10
114.1943564946622
 20
249.7828041365385
 30
0.0
 11
114.3343564946623
 21
249.9228041365386
 31
0.0
  0
LINE
  5
165DA
330
1F
100
AcDbEntity
  8
0
100
AcDbLine
 10
114.1943564946622
 20
251.2828041365385
 30
0.0
 11
114.3343564946623
 21
251.1428041365387
 31
0.0
  0
LINE
  5
165DB
330
1F
100
AcDbEntity
  8
0
100
AcDbLine
 10
114.1943564946622
 20
252.6328041365384
 30
0.0
 11
114.3343564946623
 21
252.7728041365385
 31
0.0
  0
LINE
  5
165DC
330
1F
100
AcDbEntity
  8
0
100
AcDbLine
 10
108.0543564946623
 20
254.4028041365384
 30
0.0
 11
109.3243564946622
 21
255.6728041365386
 31
0.0
  0
LINE
  5
165DD
330
1F
100
AcDbEntity
  8
0
100
AcDbLine
 10
110.1943564946622
 20
254.4028041365384
 30
0.0
 11
111.6943564946622
 21
255.9028041365384
 31
0.0
  0
LINE
  5
165DE
330
1F
100
AcDbEntity
  8
0
100
AcDbLine
 10
109.7743564946623
 20
255.7028041365386
 30
0.0
 11
111.4043564946623
 21
254.0728041365385
 31
0.0
  0
LINE
  5
165DF
330
1F
100
AcDbEntity
  8
0
100
AcDbLine
 10
112.2143564946622
 20
255.9428041365386
 30
0.0
 11
114.3343564946623
 21
253.8228041365385
 31
0.0
  0
LINE
  5
165E0
330
1F
100
AcDbEntity
  8
0
100
AcDbLine
 10
108.0543564946623
 20
254.4028041365384
 30
0.0
 11
114.1943564946622
 21
248.2628041365385
 31
0.0
  0
LINE
  5
165E1
330
1F
100
AcDbEntity
  8
0
100
AcDbLine
 10
111.0743564946622
 20
254.4028041365384
 30
0.0
 11
114.1943564946622
 21
251.2828041365385
 31
0.0
  0
LINE
  5
165E2
330
1F
100
AcDbEntity
  8
007
100
AcDbLine
 10
142.1943564946622
 20
234.9028041365384
 30
0.0
 11
142.1943564946622
 21
254.4028041365384
 31
0.0
  0
LINE
  5
165E3
330
1F
100
AcDbEntity
  8
007
100
AcDbLine
 10
136.6943564946622
 20
244.4028041365384
 30
0.0
 11
136.6943564946622
 21
254.4028041365384
 31
0.0
  0
LINE
  5
165E4
330
1F
100
AcDbEntity
  8
0
100
AcDbLine
 10
130.0643564946622
 20
263.1028041365387
 30
0.0
 11
133.1843564946622
 21
263.1028041365387
 31
0.0
  0
LINE
  5
165E5
330
1F
100
AcDbEntity
  8
0
100
AcDbLine
 10
130.9243564946622
 20
260.4028041365384
 30
0.0
 11
134.3443564946623
 21
260.4028041365384
 31
0.0
  0
LINE
  5
165E6
330
1F
100
AcDbEntity
  8
0
100
AcDbLine
 10
129.7843564946623
 20
258.9028041365384
 30
0.0
 11
134.3443564946623
 21
258.9028041365384
 31
0.0
  0
LINE
  5
165E7
330
1F
100
AcDbEntity
  8
0
100
AcDbLine
 10
130.4843564946622
 20
261.7328041365386
 30
0.0
 11
130.9243564946622
 21
260.4028041365384
 31
0.0
  0
ARC
  5
165E8
330
1F
100
AcDbEntity
  8
0
100
AcDbCircle
 10
127.0143564946623
 20
261.3628041365384
 30
0.0
 40
3.49
100
AcDbArc
 50
6.086351300003014
 51
29.86691599999613
  0
ARC
  5
165E9
330
1F
100
AcDbEntity
  8
0
100
AcDbCircle
 10
126.8343564946623
 20
261.3628041365384
 30
0.0
 40
1.98
100
AcDbArc
 50
355.356719999993
 51
277.8434199999985
  0
ARC
  5
165EA
330
1F
100
AcDbEntity
  8
0
100
AcDbCircle
 10
127.0143564946623
 20
261.3628041365384
 30
0.0
 40
3.49
100
AcDbArc
 50
238.2206000000002
 51
273.7812899999978
  0
LINE
  5
165EB
330
1F
100
AcDbEntity
  8
0
100
AcDbLine
 10
125.1743564946623
 20
257.1828041365386
 30
0.0
 11
125.1743564946623
 21
258.3928041365386
 31
0.0
  0
LINE
  5
165EC
330
1F
100
AcDbEntity
  8
0
100
AcDbLine
 10
123.2043564946622
 20
257.1828041365386
 30
0.0
 11
125.1743564946623
 21
257.1828041365386
 31
0.0
  0
ARC
  5
165ED
330
1F
100
AcDbEntity
  8
0
100
AcDbCircle
 10
126.5343564946623
 20
258.5828041365387
 30
0.0
 40
1.0
100
AcDbArc
 50
315.4063399999949
 51
54.72757799999564
  0
ARC
  5
165EE
330
1F
100
AcDbEntity
  8
0
100
AcDbCircle
 10
129.6243564946623
 20
261.7828041365385
 30
0.0
 40
1.0
100
AcDbArc
 50
214.8040100000059
 51
215.2724199999993
  0
LINE
  5
165EF
330
1F
100
AcDbEntity
  8
0
100
AcDbLine
 10
128.8043564946622
 20
261.2128041365386
 30
0.0
 11
129.7843564946623
 21
258.9028041365384
 31
0.0
  0
LINE
  5
165F0
330
1F
100
AcDbEntity
  8
007
100
AcDbLine
 10
134.3443564946623
 20
260.4028041365384
 30
0.0
 11
136.3543564946623
 21
260.4028041365384
 31
0.0
  0
LINE
  5
165F1
330
1F
100
AcDbEntity
  8
007
100
AcDbLine
 10
134.3443564946623
 20
258.9028041365384
 30
0.0
 11
137.2243564946622
 21
258.9028041365384
 31
0.0
  0
LINE
  5
165F2
330
1F
100
AcDbEntity
  8
007
100
AcDbLine
 10
131.0143564946623
 20
262.4028041365384
 30
0.0
 11
137.5443564946623
 21
262.4028041365384
 31
0.0
  0
LINE
  5
165F3
330
1F
100
AcDbEntity
  8
0
100
AcDbLine
 10
134.3443564946623
 20
258.9028041365384
 30
0.0
 11
134.3443564946623
 21
260.4028041365384
 31
0.0
  0
LINE
  5
165F4
330
1F
100
AcDbEntity
  8
007
100
AcDbLine
 10
131.0143564946623
 20
260.4028041365384
 30
0.0
 11
131.0143564946623
 21
262.4028041365384
 31
0.0
  0
LINE
  5
165F5
330
1F
100
AcDbEntity
  8
007
100
AcDbLine
 10
132.1943564946622
 20
256.9028041365384
 30
0.0
 11
132.1943564946622
 21
258.9028041365384
 31
0.0
  0
LINE
  5
165F6
330
1F
100
AcDbEntity
  8
007
100
AcDbLine
 10
136.3543564946623
 20
260.4028041365384
 30
0.0
 11
137.2243564946622
 21
258.9028041365384
 31
0.0
  0
LINE
  5
165F7
330
1F
100
AcDbEntity
  8
007
100
AcDbLine
 10
137.5443564946623
 20
262.4028041365384
 30
0.0
 11
139.5643564946622
 21
258.9028041365384
 31
0.0
  0
LINE
  5
165F8
330
1F
100
AcDbEntity
  8
0
100
AcDbLine
 10
105.1943564946622
 20
267.3228041365385
 30
0.0
 11
107.2043564946622
 21
267.3228041365385
 31
0.0
  0
LINE
  5
165F9
330
1F
100
AcDbEntity
  8
0
100
AcDbLine
 10
125.2043564946622
 20
265.0428041365385
 30
0.0
 11
125.2043564946622
 21
275.0428041365385
 31
0.0
  0
LINE
  5
165FA
330
1F
100
AcDbEntity
  8
0
100
AcDbLine
 10
123.2043564946622
 20
275.0428041365385
 30
0.0
 11
125.2043564946622
 21
275.0428041365385
 31
0.0
  0
LINE
  5
165FB
330
1F
100
AcDbEntity
  8
0
100
AcDbLine
 10
173.1943564946622
 20
293.4028041365384
 30
0.0
 11
173.1943564946622
 21
314.4028041365384
 31
0.0
  0
LINE
  5
165FC
330
1F
100
AcDbEntity
  8
0
100
AcDbLine
 10
175.1943564946622
 20
293.4028041365384
 30
0.0
 11
175.1943564946622
 21
313.4028041365384
 31
0.0
  0
LINE
  5
165FD
330
1F
100
AcDbEntity
  8
0
100
AcDbLine
 10
154.7843564946623
 20
263.1028041365387
 30
0.0
 11
154.7843564946623
 21
273.5928041365385
 31
0.0
  0
LINE
  5
165FE
330
1F
100
AcDbEntity
  8
007
100
AcDbLine
 10
163.8443564946621
 20
258.9028041365384
 30
0.0
 11
168.7543564946623
 21
267.4028041365384
 31
0.0
  0
LINE
  5
165FF
330
1F
100
AcDbEntity
  8
007
100
AcDbLine
 10
164.8843564946623
 20
256.9028041365384
 30
0.0
 11
170.9443564946622
 21
267.4028041365384
 31
0.0
  0
LINE
  5
16600
330
1F
100
AcDbEntity
  8
007
100
AcDbLine
 10
156.6943564946622
 20
244.4028041365384
 30
0.0
 11
156.6943564946622
 21
254.4028041365384
 31
0.0
  0
LINE
  5
16601
330
1F
100
AcDbEntity
  8
007
100
AcDbLine
 10
151.1943564946622
 20
234.9028041365384
 30
0.0
 11
151.1943564946622
 21
254.4028041365384
 31
0.0
  0
LINE
  5
16602
330
1F
100
AcDbEntity
  8
0
100
AcDbLine
 10
150.7443564946623
 20
263.1028041365387
 30
0.0
 11
154.7843564946623
 21
263.1028041365387
 31
0.0
  0
LINE
  5
16603
330
1F
100
AcDbEntity
  8
0
100
AcDbLine
 10
159.2043564946622
 20
282.0428041365385
 30
0.0
 11
173.2043564946622
 21
282.0428041365385
 31
0.0
  0
LINE
  5
16604
330
1F
100
AcDbEntity
  8
0
100
AcDbLine
 10
162.3143564946622
 20
280.0128041365385
 30
0.0
 11
173.2043564946622
 21
280.0128041365385
 31
0.0
  0
LINE
  5
16605
330
1F
100
AcDbEntity
  8
0
100
AcDbLine
 10
155.4243564946623
 20
275.0428041365385
 30
0.0
 11
155.4243564946623
 21
282.0428041365385
 31
0.0
  0
LINE
  5
16606
330
1F
100
AcDbEntity
  8
0
100
AcDbLine
 10
149.0943564946623
 20
273.9828041365385
 30
0.0
 11
155.4243564946623
 21
275.0428041365385
 31
0.0
  0
LINE
  5
16607
330
1F
100
AcDbEntity
  8
0
100
AcDbLine
 10
153.2243564946622
 20
265.0428041365385
 30
0.0
 11
153.2243564946622
 21
273.3328041365387
 31
0.0
  0
LINE
  5
16608
330
1F
100
AcDbEntity
  8
0
100
AcDbLine
 10
150.5443564946623
 20
271.6528041365384
 30
0.0
 11
150.5443564946623
 21
272.8828041365384
 31
0.0
  0
LINE
  5
16609
330
1F
100
AcDbEntity
  8
0
100
AcDbLine
 10
149.0943564946623
 20
271.6528041365384
 30
0.0
 11
149.0943564946623
 21
273.9828041365385
 31
0.0
  0
LINE
  5
1660A
330
1F
100
AcDbEntity
  8
0
100
AcDbLine
 10
149.0943564946623
 20
271.6528041365384
 30
0.0
 11
150.6443564946623
 21
271.6528041365384
 31
0.0
  0
LINE
  5
1660B
330
1F
100
AcDbEntity
  8
0
100
AcDbLine
 10
149.0943564946623
 20
271.6528041365384
 30
0.0
 11
150.6443564946623
 21
271.6528041365384
 31
0.0
  0
LINE
  5
1660C
330
1F
100
AcDbEntity
  8
0
100
AcDbLine
 10
150.5443564946623
 20
272.8828041365384
 30
0.0
 11
153.2243564946622
 21
273.3328041365387
 31
0.0
  0
ARC
  5
1660D
330
1F
100
AcDbEntity
  8
0
100
AcDbCircle
 10
159.2043564946622
 20
278.4128041365386
 30
0.0
 40
1.98
100
AcDbArc
 50
0.0
 51
279.6051999999979
  0
ARC
  5
1660E
330
1F
100
AcDbEntity
  8
0
100
AcDbCircle
 10
158.8343564946623
 20
275.7428041365386
 30
0.0
 40
1.0
100
AcDbArc
 50
317.0309099999997
 51
46.21887499999902
  0
LINE
  5
1660F
330
1F
100
AcDbEntity
  8
0
100
AcDbLine
 10
154.7843564946623
 20
273.5928041365385
 30
0.0
 11
156.3943564946623
 21
273.8628041365384
 31
0.0
  0
LINE
  5
16610
330
1F
100
AcDbEntity
  8
0
100
AcDbLine
 10
156.3943564946623
 20
273.8628041365384
 30
0.0
 11
157.2043564946622
 21
274.0028041365385
 31
0.0
  0
LINE
  5
16611
330
1F
100
AcDbEntity
  8
0
100
AcDbLine
 10
157.2043564946622
 20
274.0028041365385
 30
0.0
 11
157.2043564946622
 21
275.6928041365386
 31
0.0
  0
ARC
  5
16612
330
1F
100
AcDbEntity
  8
0
100
AcDbCircle
 10
159.2043564946622
 20
278.5028041365385
 30
0.0
 40
3.459999999999999
100
AcDbArc
 50
234.654969999993
 51
275.9743199999976
  0
ARC
  5
16613
330
1F
100
AcDbEntity
  8
0
100
AcDbCircle
 10
161.9443564946622
 20
279.0628041365385
 30
0.0
 40
1.0
100
AcDbArc
 50
220.5391500000017
 51
316.2188700000005
  0
ARC
  5
16614
330
1F
100
AcDbEntity
  8
0
100
AcDbCircle
 10
159.2043564946622
 20
278.5028041365385
 30
0.0
 40
3.459999999999999
100
AcDbArc
 50
357.6829299999963
 51
25.89798900000237
  0
LINE
  5
16615
330
1F
100
AcDbEntity
  8
0
100
AcDbLine
 10
159.2043564946622
 20
282.0428041365385
 30
0.0
 11
159.2043564946622
 21
292.0428041365385
 31
0.0
  0
LINE
  5
16616
330
1F
100
AcDbEntity
  8
0
100
AcDbLine
 10
157.2043564946622
 20
282.0428041365385
 30
0.0
 11
157.2043564946622
 21
292.0428041365385
 31
0.0
  0
LINE
  5
16617
330
1F
100
AcDbEntity
  8
0
100
AcDbLine
 10
155.4243564946623
 20
282.0428041365385
 30
0.0
 11
157.2043564946622
 21
282.0428041365385
 31
0.0
  0
LINE
  5
16618
330
1F
100
AcDbEntity
  8
0
100
AcDbLine
 10
157.2043564946622
 20
292.0428041365385
 30
0.0
 11
159.2043564946622
 21
292.0428041365385
 31
0.0
  0
LINE
  5
16619
330
1F
100
AcDbEntity
  8
0
100
AcDbLine
 10
175.1943564946623
 20
269.4028041365384
 30
0.0
 11
175.1943564946622
 21
293.4028041365384
 31
0.0
  0
LINE
  5
1661A
330
1F
100
AcDbEntity
  8
0
100
AcDbLine
 10
173.2043564946622
 20
270.9028041365384
 30
0.0
 11
173.2043564946622
 21
280.0128041365385
 31
0.0
  0
LINE
  5
1661B
330
1F
100
AcDbEntity
  8
007
100
AcDbLine
 10
167.4943564946623
 20
269.4028041365384
 30
0.0
 11
169.2343564946622
 21
272.4228041365386
 31
0.0
  0
LINE
  5
1661C
330
1F
100
AcDbEntity
  8
007
100
AcDbLine
 10
167.4943564946623
 20
267.4028041365384
 30
0.0
 11
168.7543564946623
 21
267.4028041365384
 31
0.0
  0
LINE
  5
1661D
330
1F
100
AcDbEntity
  8
007
100
AcDbLine
 10
167.4943564946623
 20
269.4028041365384
 30
0.0
 11
170.1943564946622
 21
269.4028041365384
 31
0.0
  0
LINE
  5
1661E
330
1F
100
AcDbEntity
  8
007
100
AcDbLine
 10
167.4943564946623
 20
267.4028041365384
 30
0.0
 11
167.4943564946623
 21
269.4028041365384
 31
0.0
  0
LINE
  5
1661F
330
1F
100
AcDbEntity
  8
007
100
AcDbLine
 10
173.6343564946623
 20
267.4028041365384
 30
0.0
 11
173.6343564946623
 21
269.4028041365384
 31
0.0
  0
LINE
  5
16620
330
1F
100
AcDbEntity
  8
007
100
AcDbLine
 10
170.9443564946622
 20
267.4028041365384
 30
0.0
 11
173.6343564946623
 21
267.4028041365384
 31
0.0
  0
LINE
  5
16621
330
1F
100
AcDbEntity
  8
0
100
AcDbLine
 10
170.1943564946622
 20
269.4028041365384
 30
0.0
 11
170.1943564946622
 21
270.9028041365384
 31
0.0
  0
LINE
  5
16622
330
1F
100
AcDbEntity
  8
007
100
AcDbLine
 10
169.3243564946623
 20
269.4028041365384
 30
0.0
 11
170.1943564946622
 21
270.9028041365384
 31
0.0
  0
LINE
  5
16623
330
1F
100
AcDbEntity
  8
007
100
AcDbLine
 10
169.3243564946623
 20
269.4028041365384
 30
0.0
 11
170.1943564946622
 21
269.4028041365384
 31
0.0
  0
LINE
  5
16624
330
1F
100
AcDbEntity
  8
0
100
AcDbLine
 10
170.1943564946622
 20
270.9028041365384
 30
0.0
 11
173.2043564946622
 21
270.9028041365384
 31
0.0
  0
LINE
  5
16625
330
1F
100
AcDbEntity
  8
007
100
AcDbLine
 10
169.2343564946622
 20
272.4228041365386
 30
0.0
 11
173.2043564946622
 21
272.4228041365386
 31
0.0
  0
LINE
  5
16626
330
1F
100
AcDbEntity
  8
0
100
AcDbLine
 10
170.1943564946622
 20
269.4028041365384
 30
0.0
 11
175.1943564946623
 21
269.4028041365384
 31
0.0
  0
LINE
  5
16627
330
1F
100
AcDbEntity
  8
0
100
AcDbLine
 10
173.1943564946622
 20
282.0428041365385
 30
0.0
 11
173.1943564946622
 21
294.8028041365385
 31
0.0
  0
LINE
  5
16628
330
1F
100
AcDbEntity
  8
0
100
AcDbLine
 10
175.1943564946622
 20
313.4028041365384
 30
0.0
 11
192.2343564946622
 21
313.4028041365384
 31
0.0
  0
LINE
  5
16629
330
1F
100
AcDbEntity
  8
0
100
AcDbLine
 10
175.1943564946622
 20
314.4028041365384
 30
0.0
 11
195.1943564946622
 21
314.4028041365384
 31
0.0
  0
LINE
  5
1662A
330
1F
100
AcDbEntity
  8
0
100
AcDbLine
 10
173.1943564946622
 20
314.4028041365384
 30
0.0
 11
175.1943564946622
 21
314.4028041365384
 31
0.0
  0
LINE
  5
1662B
330
1F
100
AcDbEntity
  8
0
100
AcDbLine
 10
195.1943564946622
 20
311.1728041365386
 30
0.0
 11
195.1943564946622
 21
314.4028041365384
 31
0.0
  0
LINE
  5
1662C
330
1F
100
AcDbEntity
  8
0
100
AcDbLine
 10
192.2343564946622
 20
313.4028041365384
 30
0.0
 11
193.2943564946623
 21
313.4028041365384
 31
0.0
  0
LINE
  5
1662D
330
1F
100
AcDbEntity
  8
0
100
AcDbLine
 10
193.2943564946623
 20
311.1728041365386
 30
0.0
 11
193.2943564946623
 21
313.4028041365384
 31
0.0
  0
LINE
  5
1662E
330
1F
100
AcDbEntity
  8
0
100
AcDbLine
 10
193.2943564946623
 20
311.1728041365386
 30
0.0
 11
195.1943564946622
 21
311.1728041365386
 31
0.0
  0
LINE
  5
16631
330
1F
100
AcDbEntity
  8
0
100
AcDbLine
 10
73.35696178208718
 20
470.2537820967049
 30
0.0
 11
90.19435649466226
 21
470.2537820967048
 31
0.0
  0
LINE
  5
16638
330
1F
100
AcDbEntity
  8
0
100
AcDbLine
 10
175.1943564946622
 20
419.4368925725211
 30
0.0
 11
175.1943564946622
 21
450.2537820967048
 31
0.0
  0
LINE
  5
16639
330
1F
100
AcDbEntity
  8
0
100
AcDbLine
 10
105.1943564946622
 20
419.4368925725211
 30
0.0
 11
105.1943564946622
 21
450.2537820967048
 31
0.0
  0
LINE
  5
1663A
330
1F
100
AcDbEntity
  8
007
100
AcDbLine
 10
117.8743564946623
 20
485.2537820967048
 30
0.0
 11
162.7843564946623
 21
485.2537820967048
 31
0.0
  0
LINE
  5
1663B
330
1F
100
AcDbEntity
  8
007
100
AcDbLine
 10
110.1943564946622
 20
487.2537820967048
 30
0.0
 11
170.1943564946622
 21
487.2537820967048
 31
0.0
  0
LINE
  5
1663C
330
1F
100
AcDbEntity
  8
0
100
AcDbLine
 10
160.5043564946623
 20
472.1737820967047
 30
0.0
 11
173.1943564946622
 21
472.1737820967047
 31
0.0
  0
LINE
  5
1663D
330
1F
100
AcDbEntity
  8
0
100
AcDbLine
 10
159.1943564946622
 20
470.2537820967048
 30
0.0
 11
173.1943564946622
 21
470.2537820967048
 31
0.0
  0
LINE
  5
1663E
330
1F
100
AcDbEntity
  8
0
100
AcDbLine
 10
105.1943564946622
 20
450.2537820967048
 30
0.0
 11
105.1943564946622
 21
485.2537820967049
 31
0.0
  0
LINE
  5
1663F
330
1F
100
AcDbEntity
  8
0
100
AcDbLine
 10
90.19435649466226
 20
470.2537820967048
 30
0.0
 11
90.19435649466226
 21
502.4237820967044
 31
0.0
  0
LINE
  5
16640
330
1F
100
AcDbEntity
  8
0
100
AcDbLine
 10
90.19435649466226
 20
478.1837820967047
 30
0.0
 11
90.19435649466226
 21
491.0937820967047
 31
0.0
  0
LINE
  5
16641
330
1F
100
AcDbEntity
  8
007
100
AcDbLine
 10
115.8543564946623
 20
481.7537820967048
 30
0.0
 11
117.8743564946623
 21
485.2537820967048
 31
0.0
  0
LINE
  5
16642
330
1F
100
AcDbEntity
  8
0
100
AcDbLine
 10
107.1943564946622
 20
478.2537820967048
 30
0.0
 11
107.1943564946622
 21
483.7537820967049
 31
0.0
  0
LINE
  5
16643
330
1F
100
AcDbEntity
  8
007
100
AcDbLine
 10
110.1943564946622
 20
481.7537820967048
 30
0.0
 11
110.1943564946622
 21
483.7537820967049
 31
0.0
  0
LINE
  5
16644
330
1F
100
AcDbEntity
  8
0
100
AcDbLine
 10
107.1943564946622
 20
472.2537820967048
 30
0.0
 11
122.1743564946623
 21
472.2537820967048
 31
0.0
  0
LINE
  5
16645
330
1F
100
AcDbEntity
  8
0
100
AcDbLine
 10
107.1943564946622
 20
470.2537820967048
 30
0.0
 11
123.1943564946622
 21
470.2537820967048
 31
0.0
  0
LINE
  5
16646
330
1F
100
AcDbEntity
  8
0
100
AcDbLine
 10
91.19435649466225
 20
471.2537820967049
 30
0.0
 11
104.1943564946622
 21
471.2537820967049
 31
0.0
  0
LINE
  5
16647
330
1F
100
AcDbEntity
  8
0
100
AcDbLine
 10
100.5227836194084
 20
471.2537820967049
 30
0.0
 11
91.5227836194087
 21
480.2537820967049
 31
0.0
  0
LINE
  5
16648
330
1F
100
AcDbEntity
  8
0
100
AcDbLine
 10
97.69435649466226
 20
471.2537820967049
 30
0.0
 11
90.19435649466236
 21
478.7537820967048
 31
0.0
  0
LINE
  5
16649
330
1F
100
AcDbEntity
  8
0
100
AcDbLine
 10
94.86592936991616
 20
471.2537820967049
 30
0.0
 11
90.19435649466236
 21
475.9253549719587
 31
0.0
  0
LINE
  5
1664A
330
1F
100
AcDbEntity
  8
0
100
AcDbLine
 10
90.19435649466226
 20
475.0674905956897
 30
0.0
 11
95.3806479956774
 21
480.2537820967049
 31
0.0
  0
LINE
  5
1664B
330
1F
100
AcDbEntity
  8
0
100
AcDbLine
 10
90.19435649466226
 20
472.2390634709434
 30
0.0
 11
98.20907512042351
 21
480.2537820967049
 31
0.0
  0
LINE
  5
1664C
330
1F
100
AcDbEntity
  8
0
100
AcDbLine
 10
92.03750224516994
 20
471.2537820967049
 30
0.0
 11
101.0375022451697
 21
480.2537820967049
 31
0.0
  0
LINE
  5
1664D
330
1F
100
AcDbEntity
  8
0
100
AcDbLine
 10
92.03750224516994
 20
471.2537820967049
 30
0.0
 11
90.19435649466236
 21
473.0969278472125
 31
0.0
  0
LINE
  5
1664E
330
1F
100
AcDbEntity
  8
0
100
AcDbLine
 10
90.19435649466226
 20
477.8959177204359
 30
0.0
 11
92.5522208709312
 21
480.2537820967049
 31
0.0
  0
LINE
  5
1664F
330
1F
100
AcDbEntity
  8
0
100
AcDbLine
 10
91.19435649466225
 20
471.2537820967049
 30
0.0
 11
90.19435649466226
 21
470.2537820967048
 31
0.0
  0
LINE
  5
16650
330
1F
100
AcDbEntity
  8
0
100
AcDbLine
 10
107.1943564946622
 20
450.2537820967048
 30
0.0
 11
107.1943564946622
 21
470.2537820967048
 31
0.0
  0
LINE
  5
16651
330
1F
100
AcDbEntity
  8
0
100
AcDbLine
 10
105.1943564946622
 20
450.2537820967048
 30
0.0
 11
107.1943564946622
 21
450.2537820967048
 31
0.0
  0
LINE
  5
16652
330
1F
100
AcDbEntity
  8
0
100
AcDbLine
 10
104.1943564946622
 20
471.2537820967049
 30
0.0
 11
105.1943564946622
 21
470.2537820967048
 31
0.0
  0
LINE
  5
16653
330
1F
100
AcDbEntity
  8
0
100
AcDbLine
 10
105.1943564946622
 20
477.8959177204359
 30
0.0
 11
102.8364921183934
 21
480.2537820967049
 31
0.0
  0
LINE
  5
16654
330
1F
100
AcDbEntity
  8
0
100
AcDbLine
 10
105.1943564946622
 20
472.2390634709434
 30
0.0
 11
97.17963786890102
 21
480.2537820967049
 31
0.0
  0
LINE
  5
16655
330
1F
100
AcDbEntity
  8
0
100
AcDbLine
 10
105.1943564946622
 20
475.0674905956897
 30
0.0
 11
100.0080649936472
 21
480.2537820967049
 31
0.0
  0
LINE
  5
16656
330
1F
100
AcDbEntity
  8
0
100
AcDbLine
 10
100.5227836194084
 20
471.2537820967049
 30
0.0
 11
105.1943564946622
 21
475.9253549719587
 31
0.0
  0
LINE
  5
16657
330
1F
100
AcDbEntity
  8
0
100
AcDbLine
 10
103.3512107441546
 20
471.2537820967049
 30
0.0
 11
105.1943564946622
 21
473.0969278472125
 31
0.0
  0
LINE
  5
16658
330
1F
100
AcDbEntity
  8
0
100
AcDbLine
 10
97.69435649466226
 20
471.2537820967049
 30
0.0
 11
105.1943564946622
 21
478.7537820967048
 31
0.0
  0
LINE
  5
16659
330
1F
100
AcDbEntity
  8
0
100
AcDbLine
 10
103.3512107441546
 20
471.2537820967049
 30
0.0
 11
94.3512107441548
 21
480.2537820967049
 31
0.0
  0
LINE
  5
1665A
330
1F
100
AcDbEntity
  8
0
100
AcDbLine
 10
94.86592936991604
 20
471.2537820967049
 30
0.0
 11
103.8659293699159
 21
480.2537820967049
 31
0.0
  0
LINE
  5
1665B
330
1F
100
AcDbEntity
  8
007
100
AcDbLine
 10
110.1943564946622
 20
481.7537820967048
 30
0.0
 11
115.8543564946623
 21
481.7537820967048
 31
0.0
  0
LINE
  5
1665C
330
1F
100
AcDbEntity
  8
0
100
AcDbLine
 10
107.1943564946622
 20
472.2537820967048
 30
0.0
 11
107.1943564946622
 21
480.2537820967049
 31
0.0
  0
LINE
  5
1665D
330
1F
100
AcDbEntity
  8
0
100
AcDbLine
 10
128.3043564946622
 20
476.2737820967048
 30
0.0
 11
153.9043564946623
 21
476.2737820967048
 31
0.0
  0
LINE
  5
1665E
330
1F
100
AcDbEntity
  8
0
100
AcDbLine
 10
129.1943564946622
 20
474.2537820967048
 30
0.0
 11
153.1943564946622
 21
474.2537820967048
 31
0.0
  0
LINE
  5
1665F
330
1F
100
AcDbEntity
  8
0
100
AcDbLine
 10
123.1943564946622
 20
450.2537820967048
 30
0.0
 11
123.1943564946622
 21
470.2537820967048
 31
0.0
  0
LINE
  5
16660
330
1F
100
AcDbEntity
  8
0
100
AcDbLine
 10
125.1943564946622
 20
450.2537820967048
 30
0.0
 11
125.1943564946622
 21
470.2537820967048
 31
0.0
  0
LINE
  5
16661
330
1F
100
AcDbEntity
  8
0
100
AcDbLine
 10
123.1943564946622
 20
450.2537820967048
 30
0.0
 11
125.1943564946622
 21
450.2537820967048
 31
0.0
  0
ARC
  5
16662
330
1F
100
AcDbEntity
  8
0
100
AcDbCircle
 10
125.1943564946622
 20
474.2537820967048
 30
0.0
 40
3.709999999999999
100
AcDbArc
 50
33.00443600000326
 51
122.57766
  0
LINE
  5
16663
330
1F
100
AcDbEntity
  8
0
100
AcDbLine
 10
125.1943564946622
 20
470.2537820967048
 30
0.0
 11
131.1943564946622
 21
470.2537820967048
 31
0.0
  0
ARC
  5
16664
330
1F
100
AcDbEntity
  8
0
100
AcDbCircle
 10
124.1643564946623
 20
477.1237820967047
 30
0.0
 40
1.0
100
AcDbArc
 50
165.5475699999941
 51
270.5729300000003
  0
ARC
  5
16665
330
1F
100
AcDbEntity
  8
0
100
AcDbCircle
 10
125.1943564946622
 20
474.2537820967048
 30
0.0
 40
3.709999999999999
100
AcDbArc
 50
197.2618200000061
 51
212.660910000006
  0
ARC
  5
16666
330
1F
100
AcDbEntity
  8
0
100
AcDbCircle
 10
122.5443564946623
 20
472.7037820967049
 30
0.0
 40
1.0
100
AcDbArc
 50
47.03091400000328
 51
153.1780100000001
  0
ARC
  5
16667
330
1F
100
AcDbEntity
  8
0
100
AcDbCircle
 10
125.1943564946622
 20
474.2537820967048
 30
0.0
 40
2.129999999999999
100
AcDbArc
 50
202.599210000001
 51
118.6104599999958
  0
LINE
  5
16668
330
1F
100
AcDbEntity
  8
0
100
AcDbLine
 10
129.1943564946622
 20
472.2537820967048
 30
0.0
 11
131.1943564946622
 21
472.2537820967048
 31
0.0
  0
LINE
  5
16669
330
1F
100
AcDbEntity
  8
0
100
AcDbLine
 10
129.1943564946622
 20
472.2537820967048
 30
0.0
 11
129.1943564946622
 21
474.2537820967048
 31
0.0
  0
LINE
  5
1666A
330
1F
100
AcDbEntity
  8
0
100
AcDbLine
 10
131.1943564946622
 20
470.2537820967048
 30
0.0
 11
131.1943564946622
 21
472.2537820967048
 31
0.0
  0
LINE
  5
1666B
330
1F
100
AcDbEntity
  8
0
100
AcDbLine
 10
159.1943564946622
 20
450.2537820967048
 30
0.0
 11
159.1943564946622
 21
470.2537820967048
 31
0.0
  0
LINE
  5
1666C
330
1F
100
AcDbEntity
  8
0
100
AcDbLine
 10
157.1943564946622
 20
450.2537820967048
 30
0.0
 11
157.1943564946622
 21
470.2537820967048
 31
0.0
  0
LINE
  5
1666D
330
1F
100
AcDbEntity
  8
0
100
AcDbLine
 10
157.1943564946622
 20
450.2537820967048
 30
0.0
 11
159.1943564946622
 21
450.2537820967048
 31
0.0
  0
ARC
  5
1666E
330
1F
100
AcDbEntity
  8
0
100
AcDbCircle
 10
158.5743564946623
 20
476.8537820967047
 30
0.0
 40
1.0
100
AcDbArc
 50
272.2906099999988
 51
46.21887499999902
  0
ARC
  5
1666F
330
1F
100
AcDbEntity
  8
0
100
AcDbCircle
 10
157.1943564946622
 20
474.2537820967048
 30
0.0
 40
3.91
100
AcDbArc
 50
56.6753860000005
 51
148.910649999997
  0
ARC
  5
16670
330
1F
100
AcDbEntity
  8
0
100
AcDbCircle
 10
157.1943564946622
 20
474.2537820967048
 30
0.0
 40
3.91
100
AcDbArc
 50
327.8547900000047
 51
341.5187299999943
  0
ARC
  5
16671
330
1F
100
AcDbEntity
  8
0
100
AcDbCircle
 10
159.9343564946622
 20
472.7637820967048
 30
0.0
 40
1.0
100
AcDbArc
 50
14.4524280000011
 51
143.1301000000025
  0
LINE
  5
16672
330
1F
100
AcDbEntity
  8
0
100
AcDbLine
 10
151.1943564946622
 20
470.2537820967048
 30
0.0
 11
157.1943564946622
 21
470.2537820967048
 31
0.0
  0
LINE
  5
16673
330
1F
100
AcDbEntity
  8
0
100
AcDbLine
 10
151.1943564946622
 20
472.2537820967048
 30
0.0
 11
153.1943564946622
 21
472.2537820967048
 31
0.0
  0
LINE
  5
16674
330
1F
100
AcDbEntity
  8
0
100
AcDbLine
 10
151.1943564946622
 20
470.2537820967048
 30
0.0
 11
151.1943564946622
 21
472.2537820967048
 31
0.0
  0
LINE
  5
16675
330
1F
100
AcDbEntity
  8
0
100
AcDbLine
 10
153.1943564946622
 20
472.2537820967048
 30
0.0
 11
153.1943564946622
 21
474.2537820967048
 31
0.0
  0
ARC
  5
16676
330
1F
100
AcDbEntity
  8
0
100
AcDbCircle
 10
157.1943564946622
 20
474.2537820967048
 30
0.0
 40
2.14
100
AcDbArc
 50
48.21124800000074
 51
336.8014000000008
  0
LINE
  5
16677
330
1F
100
AcDbEntity
  8
0
100
AcDbLine
 10
105.1943564946622
 20
485.2537820967049
 30
0.0
 11
114.1943564946622
 21
485.2537820967048
 31
0.0
  0
LINE
  5
16678
330
1F
100
AcDbEntity
  8
007
100
AcDbLine
 10
114.8143564946622
 20
483.7537820967049
 30
0.0
 11
115.6843564946622
 21
485.2537820967048
 31
0.0
  0
LINE
  5
16679
330
1F
100
AcDbEntity
  8
0
100
AcDbLine
 10
114.1943564946622
 20
483.7537820967049
 30
0.0
 11
114.1943564946622
 21
485.2537820967048
 31
0.0
  0
LINE
  5
1667A
330
1F
100
AcDbEntity
  8
007
100
AcDbLine
 10
114.1943564946622
 20
483.7537820967049
 30
0.0
 11
114.8143564946622
 21
483.7537820967049
 31
0.0
  0
LINE
  5
1667B
330
1F
100
AcDbEntity
  8
007
100
AcDbLine
 10
114.1943564946622
 20
485.2537820967048
 30
0.0
 11
115.6843564946622
 21
485.2537820967048
 31
0.0
  0
LINE
  5
1667C
330
1F
100
AcDbEntity
  8
007
100
AcDbLine
 10
110.1943564946622
 20
485.2537820967048
 30
0.0
 11
110.1943564946622
 21
487.2537820967048
 31
0.0
  0
LINE
  5
1667D
330
1F
100
AcDbEntity
  8
0
100
AcDbLine
 10
107.1943564946622
 20
483.7537820967049
 30
0.0
 11
114.1943564946622
 21
483.7537820967049
 31
0.0
  0
LINE
  5
1667E
330
1F
100
AcDbEntity
  8
007
100
AcDbLine
 10
132.1943564946622
 20
496.2537820967049
 30
0.0
 11
152.1943564946622
 21
496.2537820967049
 31
0.0
  0
LINE
  5
1667F
330
1F
100
AcDbEntity
  8
007
100
AcDbLine
 10
137.6943564946622
 20
487.2537820967048
 30
0.0
 11
137.6943564946622
 21
507.4237820967044
 31
0.0
  0
LINE
  5
16680
330
1F
100
AcDbEntity
  8
007
100
AcDbLine
 10
132.1943564946622
 20
487.2537820967048
 30
0.0
 11
132.1943564946622
 21
496.2537820967049
 31
0.0
  0
LINE
  5
16681
330
1F
100
AcDbEntity
  8
007
100
AcDbLine
 10
146.6943564946622
 20
487.2537820967048
 30
0.0
 11
146.6943564946622
 21
507.4237820967044
 31
0.0
  0
LINE
  5
16682
330
1F
100
AcDbEntity
  8
007
100
AcDbLine
 10
152.1943564946622
 20
487.2537820967048
 30
0.0
 11
152.1943564946622
 21
496.2537820967049
 31
0.0
  0
LINE
  5
16683
330
1F
100
AcDbEntity
  8
0
100
AcDbLine
 10
173.2043564946622
 20
475.4337820967046
 30
0.0
 11
173.2043564946622
 21
483.7537820967049
 31
0.0
  0
LINE
  5
16684
330
1F
100
AcDbEntity
  8
007
100
AcDbLine
 10
170.1943564946622
 20
481.7537820967048
 30
0.0
 11
170.1943564946622
 21
483.7537820967049
 31
0.0
  0
LINE
  5
16685
330
1F
100
AcDbEntity
  8
007
100
AcDbLine
 10
162.7843564946623
 20
485.2537820967048
 30
0.0
 11
164.8043564946623
 21
481.7537820967048
 31
0.0
  0
LINE
  5
16686
330
1F
100
AcDbEntity
  8
0
100
AcDbLine
 10
175.1943564946622
 20
485.2537820967048
 30
0.0
 11
175.1943564946622
 21
466.2537820967048
 31
0.0
  0
LINE
  5
16687
330
1F
100
AcDbEntity
  8
0
100
AcDbLine
 10
175.1943564946622
 20
465.2537820967048
 30
0.0
 11
195.1943564946622
 21
465.2537820967048
 31
0.0
  0
LINE
  5
16688
330
1F
100
AcDbEntity
  8
0
100
AcDbLine
 10
175.1943564946622
 20
466.2537820967048
 30
0.0
 11
194.1343564946623
 21
466.2537820967048
 31
0.0
  0
LINE
  5
16689
330
1F
100
AcDbEntity
  8
0
100
AcDbLine
 10
173.1943564946622
 20
451.9737820967049
 30
0.0
 11
173.1943564946622
 21
470.2537820967048
 31
0.0
  0
LINE
  5
1668A
330
1F
100
AcDbEntity
  8
0
100
AcDbLine
 10
171.2343564946622
 20
450.2537820967048
 30
0.0
 11
175.1943564946622
 21
450.2537820967048
 31
0.0
  0
LINE
  5
1668B
330
1F
100
AcDbEntity
  8
0
100
AcDbLine
 10
171.2343564946622
 20
450.2537820967048
 30
0.0
 11
171.2343564946622
 21
451.9737820967049
 31
0.0
  0
LINE
  5
1668C
330
1F
100
AcDbEntity
  8
0
100
AcDbLine
 10
171.2343564946622
 20
451.9737820967049
 30
0.0
 11
173.1943564946622
 21
451.9737820967049
 31
0.0
  0
LINE
  5
1668D
330
1F
100
AcDbEntity
  8
0
100
AcDbLine
 10
175.1943564946622
 20
465.2537820967048
 30
0.0
 11
175.1943564946622
 21
450.2537820967048
 31
0.0
  0
LINE
  5
1668E
330
1F
100
AcDbEntity
  8
007
100
AcDbLine
 10
164.8043564946623
 20
481.7537820967048
 30
0.0
 11
170.1943564946622
 21
481.7537820967048
 31
0.0
  0
LINE
  5
1668F
330
1F
100
AcDbEntity
  8
0
100
AcDbLine
 10
173.1943564946622
 20
472.2537820967048
 30
0.0
 11
173.1943564946622
 21
476.2537820967049
 31
0.0
  0
LINE
  5
16690
330
1F
100
AcDbEntity
  8
0
100
AcDbLine
 10
195.1943564946622
 20
465.2537820967048
 30
0.0
 11
195.1943564946622
 21
468.2537820967048
 31
0.0
  0
LINE
  5
16691
330
1F
100
AcDbEntity
  8
0
100
AcDbLine
 10
194.1343564946623
 20
468.2537820967048
 30
0.0
 11
195.1943564946622
 21
468.2537820967048
 31
0.0
  0
LINE
  5
16692
330
1F
100
AcDbEntity
  8
0
100
AcDbLine
 10
194.1343564946623
 20
466.2537820967048
 30
0.0
 11
194.1343564946623
 21
468.2537820967048
 31
0.0
  0
LINE
  5
16693
330
1F
100
AcDbEntity
  8
0
100
AcDbLine
 10
166.1943564946622
 20
485.2537820967048
 30
0.0
 11
175.1943564946622
 21
485.2537820967048
 31
0.0
  0
LINE
  5
16694
330
1F
100
AcDbEntity
  8
007
100
AcDbLine
 10
170.1943564946622
 20
485.2537820967048
 30
0.0
 11
170.1943564946622
 21
487.2537820967048
 31
0.0
  0
LINE
  5
16695
330
1F
100
AcDbEntity
  8
007
100
AcDbLine
 10
165.6243564946623
 20
483.7537820967049
 30
0.0
 11
166.1943564946622
 21
483.7537820967049
 31
0.0
  0
LINE
  5
16696
330
1F
100
AcDbEntity
  8
007
100
AcDbLine
 10
164.7543564946623
 20
485.2537820967048
 30
0.0
 11
166.1943564946622
 21
485.2537820967048
 31
0.0
  0
LINE
  5
16697
330
1F
100
AcDbEntity
  8
007
100
AcDbLine
 10
164.7543564946623
 20
485.2537820967048
 30
0.0
 11
165.6243564946623
 21
483.7537820967049
 31
0.0
  0
LINE
  5
16698
330
1F
100
AcDbEntity
  8
0
100
AcDbLine
 10
166.1943564946622
 20
483.7537820967049
 30
0.0
 11
166.1943564946622
 21
485.2537820967048
 31
0.0
  0
LINE
  5
16699
330
1F
100
AcDbEntity
  8
0
100
AcDbLine
 10
166.1943564946622
 20
483.7537820967049
 30
0.0
 11
173.2043564946622
 21
483.7537820967049
 31
0.0
  0
LINE
  5
167FF
330
1F
100
AcDbEntity
  8
003
100
AcDbLine
 10
195.1943564946622
 20
465.2537820967048
 30
0.0
 11
245.1943564946622
 21
465.2537820967047
 31
0.0
  0
LINE
  5
16800
330
1F
100
AcDbEntity
  8
0
100
AcDbLine
 10
245.1943564946622
 20
465.2537820967047
 30
0.0
 11
245.1943564946622
 21
490.2537820967048
 31
0.0
  0
LINE
  5
16801
330
1F
100
AcDbEntity
  8
003
100
AcDbLine
 10
175.1943564946622
 20
490.2537820967048
 30
0.0
 11
245.1943564946622
 21
490.2537820967047
 31
0.0
  0
LINE
  5
16802
330
1F
100
AcDbEntity
  8
003
100
AcDbLine
 10
195.1943564946622
 20
468.2537820967048
 30
0.0
 11
175.1943564946622
 21
468.2537820967048
 31
0.0
  0
LINE
  5
16803
330
1F
100
AcDbEntity
  8
003
100
AcDbLine
 10
175.1943564946622
 20
468.2537820967048
 30
0.0
 11
175.1943564946622
 21
490.2537820967048
 31
0.0
  0
LINE
  5
16804
330
1F
100
AcDbEntity
  8
003
100
AcDbLine
 10
175.1943564946622
 20
475.6670350149792
 30
0.0
 11
189.7811035763879
 21
490.2537820967048
 31
0.0
  0
LINE
  5
16805
330
1F
100
AcDbEntity
  8
003
100
AcDbLine
 10
189.7811035763879
 20
468.2537820967048
 30
0.0
 11
211.781103576388
 21
490.2537820967048
 31
0.0
  0
LINE
  5
16806
330
1F
100
AcDbEntity
  8
003
100
AcDbLine
 10
208.781103576388
 20
465.2537820967048
 30
0.0
 11
233.7811035763881
 21
490.2537820967047
 31
0.0
  0
LINE
  5
16808
330
1F
100
AcDbEntity
  8
0
100
AcDbLine
 10
245.1943564946622
 20
314.4028041365385
 30
0.0
 11
245.1943564946622
 21
289.4028041365384
 31
0.0
  0
LINE
  5
16809
330
1F
100
AcDbEntity
  8
003
100
AcDbLine
 10
195.1943564946622
 20
314.4028041365384
 30
0.0
 11
245.1943564946622
 21
314.4028041365386
 31
0.0
  0
LINE
  5
1680A
330
1F
100
AcDbEntity
  8
003
100
AcDbLine
 10
175.1943564946622
 20
289.4028041365384
 30
0.0
 11
245.1943564946622
 21
289.4028041365384
 31
0.0
  0
LINE
  5
1680B
330
1F
100
AcDbEntity
  8
003
100
AcDbLine
 10
195.1943564946622
 20
311.1728041365386
 30
0.0
 11
175.1943564946622
 21
311.1728041365386
 31
0.0
  0
LINE
  5
1680C
330
1F
100
AcDbEntity
  8
003
100
AcDbLine
 10
175.1943564946622
 20
311.1728041365386
 30
0.0
 11
175.1943564946622
 21
289.4028041365384
 31
0.0
  0
LINE
  5
1680D
330
1F
100
AcDbEntity
  8
003
100
AcDbLine
 10
175.1943564946622
 20
299.816057054813
 30
0.0
 11
186.5511035763879
 21
311.1728041365386
 31
0.0
  0
LINE
  5
1680E
330
1F
100
AcDbEntity
  8
003
100
AcDbLine
 10
186.7811035763877
 20
289.4028041365384
 30
0.0
 11
211.781103576388
 21
314.4028041365386
 31
0.0
  0
LINE
  5
1680F
330
1F
100
AcDbEntity
  8
003
100
AcDbLine
 10
208.781103576388
 20
289.4028041365386
 30
0.0
 11
233.7811035763882
 21
314.4028041365387
 31
0.0
  0
LINE
  5
170EA
330
1F
100
AcDbEntity
  8
003
100
AcDbLine
 10
320.661160005572
 20
421.2428803520997
 30
0.0
 11
320.661160005572
 21
323.0214622897772
 31
0.0
  0
LINE
  5
170F3
330
1F
100
AcDbEntity
  8
003
100
AcDbLine
 10
397.949157072985
 20
421.2428803520997
 30
0.0
 11
397.949157072985
 21
323.0214622897772
 31
0.0
  0
LINE
  5
170F4
330
1F
100
AcDbEntity
  8
003
100
AcDbLine
 10
320.661160005572
 20
421.2428803520997
 30
0.0
 11
397.949157072985
 21
421.2428803520997
 31
0.0
  0
LINE
  5
170F7
330
1F
100
AcDbEntity
  8
003
100
AcDbLine
 10
320.661160005572
 20
323.0214622897772
 30
0.0
 11
397.949157072985
 21
323.0214622897772
 31
0.0
  0
LINE
  5
1719C
330
1F
100
AcDbEntity
  8
003
100
AcDbLine
 10
107.2218498058131
 20
182.6495738426534
 30
0.0
 11
107.2218498058131
 21
50.64461346611892
 31
0.0
  0
LINE
  5
1719D
330
1F
100
AcDbEntity
  8
003
100
AcDbLine
 10
588.2725235235888
 20
182.6495738426533
 30
0.0
 11
588.2725235235888
 21
50.64461346611889
 31
0.0
  0
LINE
  5
1719E
330
1F
100
AcDbEntity
  8
003
100
AcDbLine
 10
588.2725235235888
 20
50.64461346611889
 30
0.0
 11
107.2218498058131
 21
50.64461346611892
 31
0.0
  0
LINE
  5
1719F
330
1F
100
AcDbEntity
  8
003
100
AcDbLine
 10
107.2218498058131
 20
182.6495738426534
 30
0.0
 11
588.2725235235888
 21
182.6495738426533
 31
0.0
  0
DIMENSION
  5
177BE
330
1F
100
AcDbEntity
  8
003
100
AcDbDimension
  2
*D2
 10
678.9674862511837
 20
267.7819805096931
 30
0.0
 11
588.6142668319889
 21
272.7819805096931
 31
0.0
 70
    32
  1
開口W
 71
     5
 42
180.7064388383895
  3
DIM
100
AcDbAlignedDimension
 13
498.2610474127942
 23
308.6894211555724
 33
0.0
 14
678.9674862511837
 24
308.6894211555717
 34
0.0
100
AcDbRotatedDimension
  0
LINE
  5
18998
330
1F
100
AcDbEntity
  8
003
100
AcDbLine
 10
518.2610474127943
 20
311.6894211555724
 30
0.0
 11
587.5617668319888
 21
311.6894211555724
 31
0.0
  0
LINE
  5
18999
330
1F
100
AcDbEntity
  8
003
100
AcDbLine
 10
518.2610474127939
 20
343.6894211555724
 30
0.0
 11
587.5617668319888
 21
343.6894211555724
 31
0.0
  0
DIMENSION
  5
1899A
330
1F
100
AcDbEntity
  8
003
100
AcDbDimension
  2
*D3
 10
558.1948359091756
 20
311.6894211555724
 30
0.0
 11
553.1948359091755
 21
327.6894211555724
 31
0.0
 70
    32
  1
<>φ
 71
     5
 42
32.0
  3
DIM
100
AcDbAlignedDimension
 13
552.9114071223908
 23
343.6894211555724
 33
0.0
 14
552.9114071223908
 24
311.6894211555724
 34
0.0
 50
90.0
100
AcDbRotatedDimension
  0
DIMENSION
  5
1899B
330
1F
100
AcDbEntity
  8
003
100
AcDbDimension
  2
*D4
 10
531.863286266066
 20
308.6894211555724
 30
0.0
 11
526.8632862660658
 21
327.6894211555724
 31
0.0
 70
    32
  1
<>φ
 71
     5
 42
38.0
  3
DIM
100
AcDbAlignedDimension
 13
518.2610474127937
 23
346.6894211555724
 33
0.0
 14
518.2610474127943
 24
308.6894211555724
 34
0.0
 50
90.0
100
AcDbRotatedDimension
  0
LEADER
  5
18D1E
330
1F
100
AcDbEntity
  8
003
100
AcDbLeader
  3
DIM
 73
     0
 74
     0
 40
6.0
 41
28.26428571428571
 76
     3
 10
595.4089017156015
 20
339.3096050891696
 30
0.0
 10
605.8234664786438
 20
357.3481603974753
 30
0.0
 10
607.9296472121862
 20
357.3481603974753
 30
0.0
340
18D1F
1001
ACAD
1000
DSTYLE
1002
{
1070
   147
1040
1.0
1070
    77
1070
     1
1002
}
  0
MTEXT
  5
18D1F
102
{ACAD_REACTORS
330
18D1E
102
}
330
1F
100
AcDbEntity
  8
003
 62
     7
100
AcDbMText
 10
609.9296472121863
 20
359.3481603974753
 30
0.0
 40
6.0
 41
0.0
 71
     7
 72
     1
  1
32φパイプ
  7
DIM
 73
     1
 44
1.0
1001
ACAD
1000
MTEXTBEGIN
1070
    73
1070
     1
1070
    44
1040
1.0
1070
    74
1070
     0
1000
MTEXTEND
  0
LINE
  5
18F61
330
1F
100
AcDbEntity
  8
003
100
AcDbLine
 10
230.7811035763883
 20
465.2537820967051
 30
0.0
 11
245.1943564946622
 21
479.6670350149787
 31
0.0
  0
LINE
  5
18F62
330
1F
100
AcDbEntity
  8
003
100
AcDbLine
 10
230.7811035763883
 20
289.4028041365388
 30
0.0
 11
245.1943564946622
 21
303.8160570548128
 31
0.0
  0
DIMENSION
  5
18F99
330
1F
100
AcDbEntity
  8
003
100
AcDbDimension
  2
*D5
 10
658.9674862511838
 20
281.7819805096931
 30
0.0
 11
668.9674862511838
 21
286.7819805096931
 31
0.0
 70
    32
 71
     5
 42
20.0
  3
DIM
100
AcDbAlignedDimension
 13
678.9674862511837
 23
308.6894211555724
 33
0.0
 14
658.9674862511838
 24
308.6894211555724
 34
0.0
 50
180.0
100
AcDbRotatedDimension
  0
LINE
  5
19753
330
1F
100
AcDbEntity
  8
YKK_13
100
AcDbLine
 10
679.2674525991706
 20
445.6896894221271
 30
0.0
 11
682.5674403921225
 21
445.6896789448657
 31
0.0
  0
LINE
  5
19754
330
1F
100
AcDbEntity
  8
YKK_11
100
AcDbLine
 10
682.4173382721901
 20
445.6894211555725
 30
0.0
 11
678.9674862511837
 21
445.6894211555725
 31
0.0
  0
LINE
  5
19755
330
1F
100
AcDbEntity
  8
YKK_13
100
AcDbLine
 10
682.5674448375029
 20
447.0898254292337
 30
0.0
 11
681.5174570445392
 21
447.0898287628812
 31
0.0
  0
LINE
  5
19756
330
1F
100
AcDbEntity
  8
YKK_11
100
AcDbLine
 10
680.9173343910156
 20
446.6891798993757
 30
0.0
 11
682.4173343910042
 21
446.6891857225256
 31
0.0
  0
LINE
  5
19757
330
1F
100
AcDbEntity
  8
YKK_13
100
AcDbLine
 10
681.0172319468988
 20
448.2817248823218
 30
0.0
 11
682.2251520412351
 21
449.4894847191296
 31
0.0
  0
LINE
  5
19758
330
1F
100
AcDbEntity
  8
YKK_13
100
AcDbLine
 10
681.5174646640839
 20
449.4897311066192
 30
0.0
 11
684.2674646640698
 21
449.4897223755358
 31
0.0
  0
LINE
  5
19759
330
1F
100
AcDbEntity
  8
YKK_13
100
AcDbLine
 10
681.2925884383298
 20
447.142807992451
 30
0.0
 11
683.6393671291184
 21
449.4894802290825
 31
0.0
  0
LINE
  5
1975A
330
1F
100
AcDbEntity
  8
YKK_13
100
AcDbLine
 10
679.2674430735769
 20
442.6894452815171
 30
0.0
 11
689.2674430735264
 21
442.6894135321228
 31
0.0
  0
LINE
  5
1975B
330
1F
100
AcDbEntity
  8
YKK_13
100
AcDbLine
 10
679.6676811099091
 20
442.6891998701607
 30
0.0
 11
686.4677973048856
 21
449.4894712489879
 31
0.0
  0
LINE
  5
1975C
330
1F
100
AcDbEntity
  8
YKK_13
100
AcDbLine
 10
681.0817283511128
 20
442.6891953806463
 30
0.0
 11
687.5025556218097
 21
449.1100734324411
 31
0.0
  0
LINE
  5
1975D
330
1F
100
AcDbEntity
  8
YKK_11
100
AcDbLine
 10
687.9173227446626
 20
449.6892070740529
 30
0.0
 11
680.9173227447153
 21
449.689179899353
 31
0.0
  0
LINE
  5
1975E
330
1F
100
AcDbEntity
  8
YKK_11
100
AcDbLine
 10
678.9674862511837
 20
452.6894211555724
 30
0.0
 11
788.9674862511838
 21
452.6894211555724
 31
0.0
  0
LINE
  5
1975F
330
1F
100
AcDbEntity
  8
YKK_11
100
AcDbLine
 10
678.9674862511837
 20
445.6894211555725
 30
0.0
 11
678.9674862511837
 21
452.6894211555724
 31
0.0
  0
LINE
  5
19760
330
1F
100
AcDbEntity
  8
YKK_13
100
AcDbLine
 10
679.267232669652
 20
443.7033612978154
 30
0.0
 11
681.2535671011137
 21
445.6896831163339
 31
0.0
  0
LINE
  5
19761
330
1F
100
AcDbEntity
  8
YKK_13
100
AcDbLine
 10
679.2674430735769
 20
442.6894452815171
 30
0.0
 11
679.2674525991706
 21
445.6896894221271
 31
0.0
  0
LINE
  5
19762
330
1F
100
AcDbEntity
  8
YKK_13
100
AcDbLine
 10
679.2674202654588
 20
445.1176679378519
 30
0.0
 11
679.8393520132299
 21
445.6896876063813
 31
0.0
  0
ARC
  5
19763
330
1F
100
AcDbEntity
  8
YKK_13
100
AcDbCircle
 10
681.517458632009
 20
447.5898287628787
 30
0.0
 40
0.5
100
AcDbArc
 50
180.0
 51
269.9998180893611
  0
ARC
  5
19764
330
1F
100
AcDbEntity
  8
YKK_13
100
AcDbCircle
 10
681.5174630766141
 20
448.9897311066217
 30
0.0
 40
0.5
100
AcDbArc
 50
89.99981808937414
 51
180.0
  0
LINE
  5
19765
330
1F
100
AcDbEntity
  8
YKK_13
100
AcDbLine
 10
681.0174586320117
 20
447.5898303503485
 30
0.0
 11
681.0174630766169
 21
448.9897326940915
 31
0.0
  0
LINE
  5
19766
330
1F
100
AcDbEntity
  8
YKK_11
100
AcDbLine
 10
680.9173227447153
 20
449.689179899353
 30
0.0
 11
680.9173343910156
 21
446.6891798993757
 31
0.0
  0
LINE
  5
19767
330
1F
100
AcDbEntity
  8
YKK_11
100
AcDbLine
 10
786.9674862511837
 20
365.1894211555728
 30
0.0
 11
786.9674862511837
 21
450.1894211555725
 31
0.0
  0
LINE
  5
19768
330
1F
100
AcDbEntity
  8
YKK_11
100
AcDbLine
 10
788.9674862511838
 20
452.6894211555724
 30
0.0
 11
788.9674862511838
 21
342.6894211555724
 31
0.0
  0
LINE
  5
19769
330
1F
100
AcDbEntity
  8
YKK_11
100
AcDbLine
 10
786.4674862511837
 20
450.6894211555724
 30
0.0
 11
701.4674862511842
 21
450.6894211555726
 31
0.0
  0
LINE
  5
1976A
330
1F
100
AcDbEntity
  8
YKK_13
100
AcDbLine
 10
686.7386039614362
 20
442.689177420409
 30
0.0
 11
689.2673900664094
 21
445.217977985429
 31
0.0
  0
LINE
  5
1976B
330
1F
100
AcDbEntity
  8
YKK_13
100
AcDbLine
 10
689.2674430735264
 20
442.6894135321228
 30
0.0
 11
689.2674525991201
 21
445.6896576727328
 31
0.0
  0
LINE
  5
1976C
330
1F
100
AcDbEntity
  8
YKK_11
100
AcDbLine
 10
689.4173382730514
 20
445.6892128972333
 30
0.0
 11
686.4173382730736
 21
445.6892012509332
 31
0.0
  0
ARC
  5
1976D
330
1F
100
AcDbEntity
  8
YKK_13
100
AcDbCircle
 10
687.0174586319812
 20
447.5898113007119
 30
0.0
 40
0.5
100
AcDbArc
 50
269.9998180893611
 51
0.0
  0
LINE
  5
1976E
330
1F
100
AcDbEntity
  8
YKK_11
100
AcDbLine
 10
686.4173343909742
 20
446.6892012509255
 30
0.0
 11
687.9173343909628
 21
446.6892070740756
 31
0.0
  0
LINE
  5
1976F
330
1F
100
AcDbEntity
  8
YKK_11
100
AcDbLine
 10
686.4173382730736
 20
445.6892012509332
 30
0.0
 11
686.4173343909742
 21
446.6892012509255
 31
0.0
  0
LINE
  5
19770
330
1F
100
AcDbEntity
  8
YKK_13
100
AcDbLine
 10
688.1528190493195
 20
442.6891729303617
 30
0.0
 11
689.2673855768467
 21
443.8039154854361
 31
0.0
  0
LINE
  5
19771
330
1F
100
AcDbEntity
  8
YKK_11
100
AcDbLine
 10
689.9399714113344
 20
450.6894211555726
 30
0.0
 11
689.4173208936258
 21
450.1899325239619
 31
0.0
  0
ARC
  5
19772
330
1F
100
AcDbEntity
  8
YKK_13
100
AcDbCircle
 10
687.0174630765863
 20
448.9897136444549
 30
0.0
 40
0.5
100
AcDbArc
 50
0.0
 51
89.9998180893611
  0
LINE
  5
19773
330
1F
100
AcDbEntity
  8
YKK_11
100
AcDbLine
 10
689.4173208936258
 20
450.1899325239619
 30
0.0
 11
689.4173382730514
 21
445.6892128972333
 31
0.0
  0
LINE
  5
19774
330
1F
100
AcDbEntity
  8
YKK_13
100
AcDbLine
 10
686.8962717410027
 20
447.0895675448455
 30
0.0
 11
687.517230133833
 21
447.7106593233433
 31
0.0
  0
LINE
  5
19775
330
1F
100
AcDbEntity
  8
YKK_13
100
AcDbLine
 10
687.5174586319785
 20
447.5898097132423
 30
0.0
 11
687.5174630765841
 21
448.9897120569852
 31
0.0
  0
LINE
  5
19776
330
1F
100
AcDbEntity
  8
YKK_11
100
AcDbLine
 10
687.9173343909628
 20
446.6892070740756
 30
0.0
 11
687.9173227446626
 21
449.6892070740529
 31
0.0
  0
LINE
  5
19777
330
1F
100
AcDbEntity
  8
YKK_13
100
AcDbLine
 10
682.4959739565747
 20
442.6891908905024
 30
0.0
 11
685.9673289722954
 21
446.1606154160528
 31
0.0
  0
LINE
  5
19778
330
1F
100
AcDbEntity
  8
YKK_13
100
AcDbLine
 10
685.9674495473787
 20
445.6896681500427
 30
0.0
 11
685.9674539927591
 21
447.0898146344106
 31
0.0
  0
LINE
  5
19779
330
1F
100
AcDbEntity
  8
YKK_13
100
AcDbLine
 10
682.5674403921225
 20
445.6896789448657
 30
0.0
 11
682.5674448375029
 21
447.0898254292337
 31
0.0
  0
LINE
  5
1977A
330
1F
100
AcDbEntity
  8
YKK_11
100
AcDbLine
 10
682.4173343910042
 20
446.6891857225256
 30
0.0
 11
682.4173382721901
 21
445.6894211555725
 31
0.0
  0
LINE
  5
1977B
330
1F
100
AcDbEntity
  8
YKK_13
100
AcDbLine
 10
682.5673072340046
 20
447.00339964842
 30
0.0
 11
685.0535822170018
 21
449.4894757390351
 31
0.0
  0
LINE
  5
1977C
330
1F
100
AcDbEntity
  8
YKK_13
100
AcDbLine
 10
685.3244346506949
 20
442.6894260509358
 30
0.0
 11
688.3246425405309
 21
445.6896606660976
 31
0.0
  0
LINE
  5
1977D
330
1F
100
AcDbEntity
  8
YKK_13
100
AcDbLine
 10
689.2674525991201
 20
445.6896576727328
 30
0.0
 11
685.9674495473787
 21
445.6896681500427
 31
0.0
  0
LINE
  5
1977E
330
1F
100
AcDbEntity
  8
YKK_13
100
AcDbLine
 10
683.9064201119327
 20
442.685524303046
 30
0.0
 11
686.9104274526476
 21
445.6896651561448
 31
0.0
  0
LINE
  5
1977F
330
1F
100
AcDbEntity
  8
YKK_13
100
AcDbLine
 10
685.9674539927591
 20
447.0898146344106
 30
0.0
 11
687.0174570445115
 21
447.0898113007144
 31
0.0
  0
LINE
  5
19780
330
1F
100
AcDbEntity
  8
YKK_13
100
AcDbLine
 10
687.0174646640561
 20
449.4897136444524
 30
0.0
 11
684.2674646640698
 21
449.4897223755358
 31
0.0
  0
LINE
  5
19781
330
1F
100
AcDbEntity
  8
YKK_11
100
AcDbLine
 10
786.9674862511837
 20
450.1894211555725
 30
0.0
 11
786.4674862511837
 21
450.6894211555724
 31
0.0
  0
LINE
  5
19782
330
1F
100
AcDbEntity
  8
YKK_11
100
AcDbLine
 10
699.4674862511843
 20
376.860990682543
 30
0.0
 11
699.4674862511837
 21
450.6894211555726
 31
0.0
  0
LINE
  5
19783
330
1F
100
AcDbEntity
  8
YKK_11
100
AcDbLine
 10
788.9674862511838
 20
342.6894211555724
 30
0.0
 11
781.9674862511837
 21
342.6894211555724
 31
0.0
  0
LINE
  5
19784
330
1F
100
AcDbEntity
  8
YKK_13
100
AcDbLine
 10
781.9660454880745
 20
346.0145939305388
 30
0.0
 11
783.3661919724495
 21
346.0145939305388
 31
0.0
  0
LINE
  5
19785
330
1F
100
AcDbEntity
  8
YKK_11
100
AcDbLine
 10
781.9674862511837
 20
346.1394242073303
 30
0.0
 11
782.9674862511837
 21
346.1394242073303
 31
0.0
  0
LINE
  5
19786
330
1F
100
AcDbEntity
  8
YKK_13
100
AcDbLine
 10
783.3659478318245
 20
345.0857761815154
 30
0.0
 11
783.9870415818245
 21
344.464819760617
 31
0.0
  0
ARC
  5
19787
330
1F
100
AcDbEntity
  8
YKK_13
100
AcDbCircle
 10
785.2660943161995
 20
344.964590878781
 30
0.0
 40
0.5
100
AcDbArc
 50
270.0
 51
0.0
  0
ARC
  5
19788
330
1F
100
AcDbEntity
  8
YKK_13
100
AcDbCircle
 10
783.8661919724495
 20
344.964590878781
 30
0.0
 40
0.5
100
AcDbArc
 50
180.0
 51
270.0
  0
LINE
  5
19789
330
1F
100
AcDbEntity
  8
YKK_13
100
AcDbLine
 10
783.3661919724495
 20
346.0145939305388
 30
0.0
 11
783.3661919724495
 21
344.964590878781
 31
0.0
  0
LINE
  5
1978A
330
1F
100
AcDbEntity
  8
YKK_11
100
AcDbLine
 10
782.9674862511837
 20
344.6394242073303
 30
0.0
 11
785.9674862511838
 21
344.6394242073303
 31
0.0
  0
LINE
  5
1978B
330
1F
100
AcDbEntity
  8
YKK_11
100
AcDbLine
 10
782.9674862511837
 20
346.1394242073303
 30
0.0
 11
782.9674862511837
 21
344.6394242073303
 31
0.0
  0
LINE
  5
1978C
330
1F
100
AcDbEntity
  8
YKK_13
100
AcDbLine
 10
783.8661919724495
 20
344.464590878781
 30
0.0
 11
785.2660943161995
 21
344.464590878781
 31
0.0
  0
LINE
  5
1978D
330
1F
100
AcDbEntity
  8
YKK_13
100
AcDbLine
 10
785.7660943161995
 20
344.964590878781
 30
0.0
 11
785.7660943161995
 21
347.7145756199919
 31
0.0
  0
LINE
  5
1978E
330
1F
100
AcDbEntity
  8
YKK_13
100
AcDbLine
 10
781.9660454880745
 20
349.4145878270232
 30
0.0
 11
783.3661919724495
 21
349.4145878270232
 31
0.0
  0
LINE
  5
1978F
330
1F
100
AcDbEntity
  8
YKK_11
100
AcDbLine
 10
781.9674862511837
 20
353.1394242073303
 30
0.0
 11
786.4442965860139
 21
353.1394242073303
 31
0.0
  0
LINE
  5
19790
330
1F
100
AcDbEntity
  8
YKK_11
100
AcDbLine
 10
782.9674862511837
 20
350.1394242073303
 30
0.0
 11
781.9674862511837
 21
350.1394242073303
 31
0.0
  0
LINE
  5
19791
330
1F
100
AcDbEntity
  8
YKK_13
100
AcDbLine
 10
781.3940240036995
 20
352.7146061375701
 30
0.0
 11
781.9660454880745
 21
352.1426762059294
 31
0.0
  0
LINE
  5
19792
330
1F
100
AcDbEntity
  8
YKK_11
100
AcDbLine
 10
781.9674862511837
 20
350.1394242073303
 30
0.0
 11
781.9674862511837
 21
353.1394242073303
 31
0.0
  0
LINE
  5
19793
330
1F
100
AcDbEntity
  8
YKK_13
100
AcDbLine
 10
781.9660454880745
 20
352.7145756199919
 30
0.0
 11
781.9660454880745
 21
349.4145878270232
 31
0.0
  0
LINE
  5
19794
330
1F
100
AcDbEntity
  8
YKK_13
100
AcDbLine
 10
784.5580865036995
 20
350.9648045018279
 30
0.0
 11
785.7658501755745
 21
349.7568882420623
 31
0.0
  0
ARC
  5
19795
330
1F
100
AcDbEntity
  8
YKK_13
100
AcDbCircle
 10
785.2660943161995
 20
350.464575619992
 30
0.0
 40
0.5
100
AcDbArc
 50
0.0
 51
90.0
  0
LINE
  5
19796
330
1F
100
AcDbEntity
  8
YKK_13
100
AcDbLine
 10
783.8661919724495
 20
350.9645756199919
 30
0.0
 11
785.2660943161995
 21
350.9645756199919
 31
0.0
  0
ARC
  5
19797
330
1F
100
AcDbEntity
  8
YKK_13
100
AcDbCircle
 10
783.8661919724495
 20
350.464575619992
 30
0.0
 40
0.5
100
AcDbArc
 50
90.0
 51
180.0
  0
LINE
  5
19798
330
1F
100
AcDbEntity
  8
YKK_11
100
AcDbLine
 10
782.9674862511837
 20
351.6394242073303
 30
0.0
 11
782.9674862511837
 21
350.1394242073303
 31
0.0
  0
LINE
  5
19799
330
1F
100
AcDbEntity
  8
YKK_11
100
AcDbLine
 10
785.9674862511838
 20
351.6394242073303
 30
0.0
 11
782.9674862511837
 21
351.6394242073303
 31
0.0
  0
LINE
  5
1979A
330
1F
100
AcDbEntity
  8
YKK_13
100
AcDbLine
 10
783.4191704880745
 20
350.689444394406
 30
0.0
 11
785.7658501755745
 21
348.3426731541716
 31
0.0
  0
LINE
  5
1979B
330
1F
100
AcDbEntity
  8
YKK_13
100
AcDbLine
 10
783.3661919724495
 20
349.4145878270232
 30
0.0
 11
783.3661919724495
 21
350.464575619992
 31
0.0
  0
LINE
  5
1979C
330
1F
100
AcDbEntity
  8
YKK_13
100
AcDbLine
 10
783.2797661911995
 20
349.4147251561248
 30
0.0
 11
785.7658501755745
 21
346.9284733250701
 31
0.0
  0
LINE
  5
1979D
330
1F
100
AcDbEntity
  8
YKK_13
100
AcDbLine
 10
785.7660943161995
 20
350.464575619992
 30
0.0
 11
785.7660943161995
 21
347.7145756199919
 31
0.0
  0
LINE
  5
1979E
330
1F
100
AcDbEntity
  8
YKK_11
100
AcDbLine
 10
785.9674862511838
 20
344.6394242073303
 30
0.0
 11
785.9674862511838
 21
351.6394242073303
 31
0.0
  0
LINE
  5
1979F
330
1F
100
AcDbEntity
  8
YKK_13
100
AcDbLine
 10
781.9660454880745
 20
342.714590878781
 30
0.0
 11
781.9660454880745
 21
346.0145939305388
 31
0.0
  0
LINE
  5
197A0
330
1F
100
AcDbEntity
  8
YKK_11
100
AcDbLine
 10
781.9674862511837
 20
342.6894211555724
 30
0.0
 11
781.9674862511837
 21
346.1394242073303
 31
0.0
  0
LINE
  5
197A1
330
1F
100
AcDbEntity
  8
YKK_13
100
AcDbLine
 10
778.9653130661995
 20
343.8292149022185
 30
0.0
 11
780.0800591599495
 21
342.7146519139372
 31
0.0
  0
LINE
  5
197A2
330
1F
100
AcDbEntity
  8
YKK_13
100
AcDbLine
 10
778.9653130661995
 20
345.2434299901091
 30
0.0
 11
781.4941216599495
 21
342.7146519139372
 31
0.0
  0
LINE
  5
197A3
330
1F
100
AcDbEntity
  8
YKK_13
100
AcDbLine
 10
778.9655572068245
 20
346.6575993016326
 30
0.0
 11
781.9658013474495
 21
343.6574009373747
 31
0.0
  0
LINE
  5
197A4
330
1F
100
AcDbEntity
  8
YKK_13
100
AcDbLine
 10
779.9797173630745
 20
352.7147892430388
 30
0.0
 11
781.9660454880745
 21
350.7284611180388
 31
0.0
  0
LINE
  5
197A5
330
1F
100
AcDbEntity
  8
YKK_13
100
AcDbLine
 10
778.9655572068245
 20
352.7145756199919
 30
0.0
 11
781.9658013474495
 21
352.7145756199919
 31
0.0
  0
LINE
  5
197A6
330
1F
100
AcDbEntity
  8
YKK_13
100
AcDbLine
 10
778.9653130661995
 20
352.3143375828825
 30
0.0
 11
785.7656060349495
 21
345.5142582371794
 31
0.0
  0
LINE
  5
197A7
330
1F
100
AcDbEntity
  8
YKK_13
100
AcDbLine
 10
778.9653130661995
 20
350.9002903416716
 30
0.0
 11
785.3862115036995
 21
344.4794987156951
 31
0.0
  0
LINE
  5
197A8
330
1F
100
AcDbEntity
  8
YKK_13
100
AcDbLine
 10
778.9653130661995
 20
349.4860447362029
 30
0.0
 11
782.4367486130745
 21
346.0147160008513
 31
0.0
  0
LINE
  5
197A9
330
1F
100
AcDbEntity
  8
YKK_13
100
AcDbLine
 10
778.9618950974495
 20
348.0755985692107
 30
0.0
 11
781.9660454880745
 21
345.0716160252654
 31
0.0
  0
LINE
  5
197AA
330
1F
100
AcDbEntity
  8
YKK_13
100
AcDbLine
 10
778.9655572068245
 20
342.714590878781
 30
0.0
 11
781.9658013474495
 21
342.714590878781
 31
0.0
  0
LINE
  5
197AB
330
1F
100
AcDbEntity
  8
YKK_11
100
AcDbLine
 10
701.4674862511838
 20
377.6894178072896
 30
0.0
 11
701.4674862511842
 21
450.6894211555724
 31
0.0
  0
LINE
  5
197AC
330
1F
100
AcDbEntity
  8
YKK_11
100
AcDbLine
 10
699.467486251184
 20
450.6894211555726
 30
0.0
 11
689.9399714113344
 21
450.6894211555726
 31
0.0
  0
LINE
  5
197AD
330
1F
100
AcDbEntity
  8
YKK_11
100
AcDbLine
 10
713.1390557781546
 20
363.1894211555723
 30
0.0
 11
786.9674862511843
 21
363.1894211555724
 31
0.0
  0
LINE
  5
197AE
330
1F
100
AcDbEntity
  8
YKK_11
100
AcDbLine
 10
713.9674829029013
 20
365.189421155572
 30
0.0
 11
786.9674862511837
 21
365.1894211555728
 31
0.0
  0
LINE
  5
197AF
330
1F
100
AcDbEntity
  8
YKK_11
100
AcDbLine
 10
786.9674862511843
 20
353.661906315723
 30
0.0
 11
786.4679976195734
 21
353.1392557980145
 31
0.0
  0
LINE
  5
197B0
330
1F
100
AcDbEntity
  8
YKK_11
100
AcDbLine
 10
786.9674862511843
 20
363.1894211555725
 30
0.0
 11
786.9674862511843
 21
353.661906315723
 31
0.0
  0
LINE
  5
197B1
330
1F
100
AcDbEntity
  8
YKK_11
100
AcDbLine
 10
701.4674862511838
 20
377.6894178072896
 30
0.0
 11
713.9674829029013
 21
365.189421155572
 31
0.0
  0
LINE
  5
197B2
330
1F
100
AcDbEntity
  8
YKK_11
100
AcDbLine
 10
699.4674862511843
 20
376.860990682543
 30
0.0
 11
713.1390557781546
 21
363.1894211555723
 31
0.0
  0
LINE
  5
197B3
330
1F
100
AcDbEntity
  8
0
100
AcDbLine
 10
683.9674862511838
 20
390.6894211555724
 30
0.0
 11
683.9674862511838
 21
409.1894211555723
 31
0.0
  0
LINE
  5
197B4
330
1F
100
AcDbEntity
  8
0
100
AcDbLine
 10
685.4674862511838
 20
374.1894211555724
 30
0.0
 11
685.4674862511838
 21
441.1894211555725
 31
0.0
  0
LINE
  5
197B5
330
1F
100
AcDbEntity
  8
0
100
AcDbLine
 10
685.4674862511838
 20
374.1894211555724
 30
0.0
 11
692.4674862511838
 21
374.1894211555725
 31
0.0
  0
LINE
  5
197B6
330
1F
100
AcDbEntity
  8
0
100
AcDbLine
 10
668.9674862511838
 20
372.6894211555724
 30
0.0
 11
668.9674862511838
 21
374.8094211555723
 31
0.0
  0
LINE
  5
197B7
330
1F
100
AcDbEntity
  8
0
100
AcDbLine
 10
670.0874862511836
 20
374.1894211555724
 30
0.0
 11
670.0874862511836
 21
374.8094211555723
 31
0.0
  0
LINE
  5
197B8
330
1F
100
AcDbEntity
  8
0
100
AcDbLine
 10
668.9674862511838
 20
374.8094211555723
 30
0.0
 11
670.0874862511836
 21
374.8094211555723
 31
0.0
  0
LINE
  5
197B9
330
1F
100
AcDbEntity
  8
0
100
AcDbLine
 10
668.9674862511838
 20
372.6894211555724
 30
0.0
 11
693.9674862511838
 21
372.6894211555724
 31
0.0
  0
LINE
  5
197BA
330
1F
100
AcDbEntity
  8
0
100
AcDbLine
 10
670.0874862511836
 20
374.1894211555724
 30
0.0
 11
683.9674862511838
 21
374.1894211555724
 31
0.0
  0
LINE
  5
197BB
330
1F
100
AcDbEntity
  8
0
100
AcDbLine
 10
671.9674862511838
 20
392.6894211555724
 30
0.0
 11
673.377486251184
 21
392.6894211555724
 31
0.0
  0
LINE
  5
197BC
330
1F
100
AcDbEntity
  8
0
100
AcDbLine
 10
671.9674862511838
 20
389.1894211555724
 30
0.0
 11
671.9674862511838
 21
392.6894211555724
 31
0.0
  0
LINE
  5
197BD
330
1F
100
AcDbEntity
  8
0
100
AcDbLine
 10
673.377486251184
 20
390.6894211555724
 30
0.0
 11
673.377486251184
 21
392.6894211555724
 31
0.0
  0
LINE
  5
197BE
330
1F
100
AcDbEntity
  8
0
100
AcDbLine
 10
671.9674862511838
 20
389.1894211555724
 30
0.0
 11
683.9674862511838
 21
389.1894211555724
 31
0.0
  0
LINE
  5
197BF
330
1F
100
AcDbEntity
  8
0
100
AcDbLine
 10
673.377486251184
 20
390.6894211555724
 30
0.0
 11
683.9674862511838
 21
390.6894211555724
 31
0.0
  0
LINE
  5
197C0
330
1F
100
AcDbEntity
  8
0
100
AcDbLine
 10
683.9674862511838
 20
374.1894211555724
 30
0.0
 11
683.9674862511838
 21
389.1894211555724
 31
0.0
  0
LINE
  5
197C1
330
1F
100
AcDbEntity
  8
0
100
AcDbLine
 10
693.9674862511838
 20
372.6894211555724
 30
0.0
 11
693.9674862511838
 21
381.6894211555724
 31
0.0
  0
LINE
  5
197C2
330
1F
100
AcDbEntity
  8
0
100
AcDbLine
 10
692.4674862511838
 20
381.6894211555724
 30
0.0
 11
693.9674862511838
 21
381.6894211555724
 31
0.0
  0
LINE
  5
197C3
330
1F
100
AcDbEntity
  8
0
100
AcDbLine
 10
692.4674862511838
 20
374.1894211555725
 30
0.0
 11
692.4674862511838
 21
381.6894211555724
 31
0.0
  0
LINE
  5
197C4
330
1F
100
AcDbEntity
  8
0
100
AcDbLine
 10
668.9674862511838
 20
442.6894211555724
 30
0.0
 11
693.9674862511838
 21
442.6894211555724
 31
0.0
  0
LINE
  5
197C5
330
1F
100
AcDbEntity
  8
0
100
AcDbLine
 10
685.4674862511838
 20
441.1894211555725
 30
0.0
 11
691.9674862511838
 21
441.1894211555725
 31
0.0
  0
LINE
  5
197C6
330
1F
100
AcDbEntity
  8
0
100
AcDbLine
 10
683.9674862511838
 20
410.1894211555723
 30
0.0
 11
683.9674862511838
 21
441.1894211555725
 31
0.0
  0
LINE
  5
197C7
330
1F
100
AcDbEntity
  8
0
100
AcDbLine
 10
675.9674862511838
 20
410.1894211555723
 30
0.0
 11
683.9674862511838
 21
410.1894211555723
 31
0.0
  0
LINE
  5
197C8
330
1F
100
AcDbEntity
  8
0
100
AcDbLine
 10
676.9874862511837
 20
409.1894211555723
 30
0.0
 11
683.9674862511838
 21
409.1894211555723
 31
0.0
  0
LINE
  5
197C9
330
1F
100
AcDbEntity
  8
0
100
AcDbLine
 10
675.9674862511838
 20
408.4794211555723
 30
0.0
 11
675.9674862511838
 21
410.1894211555723
 31
0.0
  0
LINE
  5
197CA
330
1F
100
AcDbEntity
  8
0
100
AcDbLine
 10
675.9674862511838
 20
408.4794211555723
 30
0.0
 11
676.9874862511837
 21
408.4794211555723
 31
0.0
  0
LINE
  5
197CB
330
1F
100
AcDbEntity
  8
0
100
AcDbLine
 10
676.9874862511837
 20
408.4794211555723
 30
0.0
 11
676.9874862511837
 21
409.1894211555723
 31
0.0
  0
LINE
  5
197CC
330
1F
100
AcDbEntity
  8
0
100
AcDbLine
 10
668.9674862511838
 20
441.1894211555725
 30
0.0
 11
683.9674862511838
 21
441.1894211555725
 31
0.0
  0
LINE
  5
197CD
330
1F
100
AcDbEntity
  8
0
100
AcDbLine
 10
668.9674862511838
 20
441.1894211555725
 30
0.0
 11
668.9674862511838
 21
442.6894211555724
 31
0.0
  0
LINE
  5
197CE
330
1F
100
AcDbEntity
  8
003
100
AcDbLine
 10
668.9674862511838
 20
441.1894211555725
 30
0.0
 11
668.9674862511838
 21
442.6894211555724
 31
0.0
  0
LINE
  5
197CF
330
1F
100
AcDbEntity
  8
0
100
AcDbLine
 10
692.4674862511838
 20
434.6894211555724
 30
0.0
 11
693.9674862511838
 21
434.6894211555724
 31
0.0
  0
LINE
  5
197D0
330
1F
100
AcDbEntity
  8
0
100
AcDbLine
 10
691.9674862511838
 20
441.1894211555725
 30
0.0
 11
692.4674862511838
 21
441.1894211555725
 31
0.0
  0
LINE
  5
197D1
330
1F
100
AcDbEntity
  8
0
100
AcDbLine
 10
692.4674862511838
 20
434.6894211555724
 30
0.0
 11
692.4674862511838
 21
441.1894211555725
 31
0.0
  0
LINE
  5
197D2
330
1F
100
AcDbEntity
  8
0
100
AcDbLine
 10
693.9674862511838
 20
434.6894211555724
 30
0.0
 11
693.9674862511838
 21
442.6894211555724
 31
0.0
  0
LINE
  5
197D3
330
1F
100
AcDbEntity
  8
0
100
AcDbLine
 10
710.4674862511838
 20
349.1894211555724
 30
0.0
 11
717.9674862511838
 21
349.1894211555723
 31
0.0
  0
LINE
  5
197D4
330
1F
100
AcDbEntity
  8
0
100
AcDbLine
 10
717.9674862511838
 20
349.1894211555723
 30
0.0
 11
777.4674862511838
 21
349.1894211555724
 31
0.0
  0
LINE
  5
197D5
330
1F
100
AcDbEntity
  8
0
100
AcDbLine
 10
710.4674862511838
 20
347.6894211555724
 30
0.0
 11
717.9674862511838
 21
347.6894211555724
 31
0.0
  0
LINE
  5
197D6
330
1F
100
AcDbEntity
  8
0
100
AcDbLine
 10
717.9674862511838
 20
347.6894211555724
 30
0.0
 11
741.4674862511837
 21
347.6894211555724
 31
0.0
  0
LINE
  5
197D7
330
1F
100
AcDbEntity
  8
0
100
AcDbLine
 10
710.4674862511838
 20
356.1894211555724
 30
0.0
 11
717.9674862511838
 21
356.1894211555724
 31
0.0
  0
LINE
  5
197D8
330
1F
100
AcDbEntity
  8
0
100
AcDbLine
 10
708.9674862511838
 20
357.6894211555724
 30
0.0
 11
717.9674862511838
 21
357.6894211555724
 31
0.0
  0
LINE
  5
197D9
330
1F
100
AcDbEntity
  8
0
100
AcDbLine
 10
710.4674862511838
 20
355.6894211555724
 30
0.0
 11
710.4674862511838
 21
349.1894211555724
 31
0.0
  0
LINE
  5
197DA
330
1F
100
AcDbEntity
  8
0
100
AcDbLine
 10
710.4674862511838
 20
356.1894211555724
 30
0.0
 11
710.4674862511838
 21
355.6894211555724
 31
0.0
  0
LINE
  5
197DB
330
1F
100
AcDbEntity
  8
0
100
AcDbLine
 10
711.0874862511836
 20
333.8094211555725
 30
0.0
 11
711.0874862511836
 21
332.6894211555724
 31
0.0
  0
LINE
  5
197DC
330
1F
100
AcDbEntity
  8
0
100
AcDbLine
 10
710.4674862511838
 20
333.8094211555725
 30
0.0
 11
711.0874862511836
 21
333.8094211555725
 31
0.0
  0
LINE
  5
197DD
330
1F
100
AcDbEntity
  8
0
100
AcDbLine
 10
708.9674862511838
 20
332.6894211555724
 30
0.0
 11
711.0874862511836
 21
332.6894211555724
 31
0.0
  0
LINE
  5
197DE
330
1F
100
AcDbEntity
  8
0
100
AcDbLine
 10
708.9674862511838
 20
357.6894211555724
 30
0.0
 11
708.9674862511838
 21
332.6894211555724
 31
0.0
  0
LINE
  5
197DF
330
1F
100
AcDbEntity
  8
0
100
AcDbLine
 10
710.4674862511838
 20
347.6894211555724
 30
0.0
 11
710.4674862511838
 21
333.8094211555725
 31
0.0
  0
LINE
  5
197E0
330
1F
100
AcDbEntity
  8
0
100
AcDbLine
 10
762.4674862511838
 20
347.6894211555724
 30
0.0
 11
777.4674862511838
 21
347.6894211555724
 31
0.0
  0
LINE
  5
197E1
330
1F
100
AcDbEntity
  8
0
100
AcDbLine
 10
770.9674862511838
 20
356.1894211555724
 30
0.0
 11
777.4674862511838
 21
356.1894211555724
 31
0.0
  0
LINE
  5
197E2
330
1F
100
AcDbEntity
  8
0
100
AcDbLine
 10
770.9674862511838
 20
357.6894211555724
 30
0.0
 11
778.9674862511838
 21
357.6894211555724
 31
0.0
  0
LINE
  5
197E3
330
1F
100
AcDbEntity
  8
0
100
AcDbLine
 10
717.9674862511838
 20
357.6894211555724
 30
0.0
 11
717.9674862511838
 21
356.1894211555724
 31
0.0
  0
LINE
  5
197E4
330
1F
100
AcDbEntity
  8
0
100
AcDbLine
 10
770.9674862511838
 20
357.6894211555724
 30
0.0
 11
770.9674862511838
 21
356.1894211555724
 31
0.0
  0
LINE
  5
197E5
330
1F
100
AcDbEntity
  8
0
100
AcDbLine
 10
742.4674862511838
 20
347.6894211555724
 30
0.0
 11
760.9674862511838
 21
347.6894211555724
 31
0.0
  0
LINE
  5
197E6
330
1F
100
AcDbEntity
  8
0
100
AcDbLine
 10
741.4674862511837
 20
347.6894211555724
 30
0.0
 11
741.4674862511837
 21
339.6894211555724
 31
0.0
  0
LINE
  5
197E7
330
1F
100
AcDbEntity
  8
0
100
AcDbLine
 10
742.4674862511838
 20
347.6894211555724
 30
0.0
 11
742.4674862511838
 21
340.7094211555724
 31
0.0
  0
LINE
  5
197E8
330
1F
100
AcDbEntity
  8
0
100
AcDbLine
 10
741.4674862511837
 20
339.6894211555724
 30
0.0
 11
743.1774862511838
 21
339.6894211555724
 31
0.0
  0
LINE
  5
197E9
330
1F
100
AcDbEntity
  8
0
100
AcDbLine
 10
743.1774862511838
 20
340.7094211555724
 30
0.0
 11
743.1774862511838
 21
339.6894211555724
 31
0.0
  0
LINE
  5
197EA
330
1F
100
AcDbEntity
  8
0
100
AcDbLine
 10
742.4674862511838
 20
340.7094211555724
 30
0.0
 11
743.1774862511838
 21
340.7094211555724
 31
0.0
  0
LINE
  5
197EB
330
1F
100
AcDbEntity
  8
0
100
AcDbLine
 10
758.9674862511838
 20
337.0994211555725
 30
0.0
 11
758.9674862511838
 21
335.6894211555724
 31
0.0
  0
LINE
  5
197EC
330
1F
100
AcDbEntity
  8
0
100
AcDbLine
 10
758.9674862511838
 20
337.0994211555725
 30
0.0
 11
760.9674862511838
 21
337.0994211555725
 31
0.0
  0
LINE
  5
197ED
330
1F
100
AcDbEntity
  8
0
100
AcDbLine
 10
758.9674862511838
 20
335.6894211555724
 30
0.0
 11
762.4674862511838
 21
335.6894211555724
 31
0.0
  0
LINE
  5
197EE
330
1F
100
AcDbEntity
  8
0
100
AcDbLine
 10
762.4674862511838
 20
347.6894211555724
 30
0.0
 11
762.4674862511838
 21
335.6894211555724
 31
0.0
  0
LINE
  5
197EF
330
1F
100
AcDbEntity
  8
0
100
AcDbLine
 10
760.9674862511838
 20
347.6894211555724
 30
0.0
 11
760.9674862511838
 21
337.0994211555725
 31
0.0
  0
LINE
  5
197F0
330
1F
100
AcDbEntity
  8
0
100
AcDbLine
 10
778.9674862511838
 20
357.6894211555724
 30
0.0
 11
778.9674862511838
 21
332.6894211555724
 31
0.0
  0
LINE
  5
197F1
330
1F
100
AcDbEntity
  8
0
100
AcDbLine
 10
777.4674862511838
 20
355.6894211555724
 30
0.0
 11
777.4674862511838
 21
349.1894211555724
 31
0.0
  0
LINE
  5
197F2
330
1F
100
AcDbEntity
  8
0
100
AcDbLine
 10
777.4674862511838
 20
356.1894211555724
 30
0.0
 11
777.4674862511838
 21
355.6894211555724
 31
0.0
  0
LINE
  5
197F3
330
1F
100
AcDbEntity
  8
0
100
AcDbLine
 10
777.4674862511838
 20
332.6894211555724
 30
0.0
 11
778.9674862511838
 21
332.6894211555724
 31
0.0
  0
LINE
  5
197F4
330
1F
100
AcDbEntity
  8
0
100
AcDbLine
 10
777.4674862511838
 20
347.6894211555724
 30
0.0
 11
777.4674862511838
 21
332.6894211555724
 31
0.0
  0
LINE
  5
19A61
330
1F
100
AcDbEntity
  8
0
100
AcDbLine
 10
682.9674862511837
 20
369.1894211555724
 30
0.0
 11
687.9674862511838
 21
369.1894211555724
 31
0.0
  0
LINE
  5
19A62
330
1F
100
AcDbEntity
  8
0
100
AcDbLine
 10
682.9674862511837
 20
367.1894211555724
 30
0.0
 11
689.3274862511839
 21
367.1894211555724
 31
0.0
  0
LINE
  5
19A63
330
1F
100
AcDbEntity
  8
0
100
AcDbLine
 10
681.6774862511838
 20
356.7194211555724
 30
0.0
 11
692.2974862511837
 21
367.3394211555724
 31
0.0
  0
LINE
  5
19A64
330
1F
100
AcDbEntity
  8
0
100
AcDbLine
 10
680.4674862511838
 20
351.6894211555724
 30
0.0
 11
686.9674862511837
 21
351.6894211555724
 31
0.0
  0
LINE
  5
19A65
330
1F
100
AcDbEntity
  8
0
100
AcDbLine
 10
679.9674862511838
 20
350.6894211555724
 30
0.0
 11
686.4674862511837
 21
350.6894211555724
 31
0.0
  0
LINE
  5
19A66
330
1F
100
AcDbEntity
  8
0
100
AcDbLine
 10
679.9674862511838
 20
353.5894211555724
 30
0.0
 11
690.8874862511838
 21
364.5094211555725
 31
0.0
  0
LINE
  5
19A67
330
1F
100
AcDbEntity
  8
0
100
AcDbLine
 10
679.9674862511838
 20
357.4194211555724
 30
0.0
 11
679.9674862511838
 21
366.1894211555724
 31
0.0
  0
LINE
  5
19A68
330
1F
100
AcDbEntity
  8
0
100
AcDbLine
 10
679.9674862511838
 20
352.1894211555724
 30
0.0
 11
679.9674862511838
 21
353.5894211555724
 31
0.0
  0
ARC
  5
19A69
330
1F
100
AcDbEntity
  8
0
100
AcDbCircle
 10
679.9674862511838
 20
351.6894211555724
 30
0.0
 40
1.0
100
AcDbArc
 50
180.0
 51
270.0
  0
ARC
  5
19A6A
330
1F
100
AcDbEntity
  8
0
100
AcDbCircle
 10
680.4674862511838
 20
352.1894211555724
 30
0.0
 40
0.5
100
AcDbArc
 50
180.0
 51
270.0
  0
ARC
  5
19A6B
330
1F
100
AcDbEntity
  8
0
100
AcDbCircle
 10
680.977486251184
 20
357.4194211555724
 30
0.0
 40
1.0
100
AcDbArc
 50
180.0
 51
314.9999999999913
  0
LINE
  5
19A6C
330
1F
100
AcDbEntity
  8
0
100
AcDbLine
 10
682.9674862511837
 20
369.1894211555724
 30
0.0
 11
682.9674862511837
 21
371.6894211555724
 31
0.0
  0
LINE
  5
19A6D
330
1F
100
AcDbEntity
  8
0
100
AcDbLine
 10
679.9674862511838
 20
367.1894211555724
 30
0.0
 11
679.9674862511838
 21
372.6894211555724
 31
0.0
  0
LINE
  5
19A6E
330
1F
100
AcDbEntity
  8
0
100
AcDbLine
 10
680.9674862511838
 20
367.1894211555724
 30
0.0
 11
680.9674862511838
 21
372.6894211555724
 31
0.0
  0
LINE
  5
19A6F
330
1F
100
AcDbEntity
  8
0
100
AcDbLine
 10
682.9674862511837
 20
366.1894211555724
 30
0.0
 11
682.9674862511837
 21
367.1894211555724
 31
0.0
  0
LINE
  5
19A70
330
1F
100
AcDbEntity
  8
0
100
AcDbLine
 10
679.9674862511838
 20
367.1894211555724
 30
0.0
 11
682.9674862511837
 21
367.1894211555724
 31
0.0
  0
LINE
  5
19A71
330
1F
100
AcDbEntity
  8
0
100
AcDbLine
 10
679.9674862511838
 20
366.1894211555724
 30
0.0
 11
682.9674862511837
 21
366.1894211555724
 31
0.0
  0
LINE
  5
19A72
330
1F
100
AcDbEntity
  8
0
100
AcDbLine
 10
682.9674862511837
 20
371.6894211555724
 30
0.0
 11
683.9674862511838
 21
371.6894211555724
 31
0.0
  0
LINE
  5
19A73
330
1F
100
AcDbEntity
  8
0
100
AcDbLine
 10
683.9674862511838
 20
371.6894211555724
 30
0.0
 11
683.9674862511838
 21
372.6894211555724
 31
0.0
  0
LINE
  5
19A74
330
1F
100
AcDbEntity
  8
0
100
AcDbLine
 10
705.0174862511839
 20
361.6694211555724
 30
0.0
 11
709.0974862511838
 21
357.5894211555724
 31
0.0
  0
LINE
  5
19A75
330
1F
100
AcDbEntity
  8
0
100
AcDbLine
 10
697.9374862511838
 20
354.5994211555724
 30
0.0
 11
702.8874862511838
 21
359.5494211555724
 31
0.0
  0
ARC
  5
19A76
330
1F
100
AcDbEntity
  8
0
100
AcDbCircle
 10
702.227486251184
 20
355.2294211555724
 30
0.0
 40
1.59
100
AcDbArc
 50
29.47588900000555
 51
203.4841099999978
  0
LINE
  5
19A77
330
1F
100
AcDbEntity
  8
0
100
AcDbLine
 10
700.4074862511838
 20
355.6494211555724
 30
0.0
 11
703.5974862511839
 21
358.8394211555724
 31
0.0
  0
LINE
  5
19A78
330
1F
100
AcDbEntity
  8
0
100
AcDbLine
 10
693.6874862511838
 20
343.6894211555724
 30
0.0
 11
702.4674862511838
 21
343.6894211555724
 31
0.0
  0
LINE
  5
19A79
330
1F
100
AcDbEntity
  8
0
100
AcDbLine
 10
692.9874862511837
 20
345.3894211555724
 30
0.0
 11
703.6074862511839
 21
356.0094211555725
 31
0.0
  0
LINE
  5
19A7A
330
1F
100
AcDbEntity
  8
0
100
AcDbLine
 10
687.9674862511838
 20
342.6894211555724
 30
0.0
 11
708.9674862511838
 21
342.6894211555724
 31
0.0
  0
LINE
  5
19A7B
330
1F
100
AcDbEntity
  8
0
100
AcDbLine
 10
687.9674862511838
 20
344.1894211555724
 30
0.0
 11
687.9674862511838
 21
350.6894211555724
 31
0.0
  0
LINE
  5
19A7C
330
1F
100
AcDbEntity
  8
0
100
AcDbLine
 10
686.9674862511837
 20
343.6894211555724
 30
0.0
 11
686.9674862511837
 21
350.1894211555724
 31
0.0
  0
LINE
  5
19A7D
330
1F
100
AcDbEntity
  8
0
100
AcDbLine
 10
689.8674862511839
 20
343.6894211555724
 30
0.0
 11
700.767486251184
 21
354.5894211555724
 31
0.0
  0
ARC
  5
19A7E
330
1F
100
AcDbEntity
  8
0
100
AcDbCircle
 10
693.6874862511838
 20
344.6894211555724
 30
0.0
 40
1.0
100
AcDbArc
 50
134.9999999999913
 51
270.0
  0
ARC
  5
19A7F
330
1F
100
AcDbEntity
  8
0
100
AcDbCircle
 10
687.9674862511838
 20
343.6894211555724
 30
0.0
 40
1.0
100
AcDbArc
 50
180.0
 51
270.0
  0
LINE
  5
19A80
330
1F
100
AcDbEntity
  8
0
100
AcDbLine
 10
688.4674862511838
 20
343.6894211555724
 30
0.0
 11
689.8674862511839
 21
343.6894211555724
 31
0.0
  0
ARC
  5
19A81
330
1F
100
AcDbEntity
  8
0
100
AcDbCircle
 10
688.4674862511838
 20
344.1894211555724
 30
0.0
 40
0.5
100
AcDbArc
 50
180.0
 51
270.0
  0
ARC
  5
19A82
330
1F
100
AcDbEntity
  8
0
100
AcDbCircle
 10
686.9674862511837
 20
350.6894211555724
 30
0.0
 40
1.0
100
AcDbArc
 50
0.0
 51
90.0
  0
ARC
  5
19A83
330
1F
100
AcDbEntity
  8
0
100
AcDbCircle
 10
686.4674862511837
 20
350.1894211555724
 30
0.0
 40
0.5
100
AcDbArc
 50
0.0
 51
90.0
  0
ARC
  5
19A84
330
1F
100
AcDbEntity
  8
0
100
AcDbCircle
 10
699.2374862511837
 20
354.9794211555724
 30
0.0
 40
1.35
100
AcDbArc
 50
196.2940399999982
 51
29.95360800000774
  0
LINE
  5
19A85
330
1F
100
AcDbEntity
  8
0
100
AcDbLine
 10
705.4674862511838
 20
346.6894211555724
 30
0.0
 11
705.4674862511838
 21
351.6894211555724
 31
0.0
  0
LINE
  5
19A86
330
1F
100
AcDbEntity
  8
0
100
AcDbLine
 10
703.4674862511837
 20
346.6894211555724
 30
0.0
 11
703.4674862511837
 21
353.0494211555724
 31
0.0
  0
LINE
  5
19A87
330
1F
100
AcDbEntity
  8
0
100
AcDbLine
 10
707.9674862511837
 20
347.6894211555724
 30
0.0
 11
708.9674862511838
 21
347.6894211555724
 31
0.0
  0
LINE
  5
19A88
330
1F
100
AcDbEntity
  8
0
100
AcDbLine
 10
707.9674862511837
 20
346.6894211555724
 30
0.0
 11
707.9674862511837
 21
347.6894211555724
 31
0.0
  0
LINE
  5
19A89
330
1F
100
AcDbEntity
  8
0
100
AcDbLine
 10
705.4674862511838
 20
346.6894211555724
 30
0.0
 11
707.9674862511837
 21
346.6894211555724
 31
0.0
  0
LINE
  5
19A8A
330
1F
100
AcDbEntity
  8
0
100
AcDbLine
 10
702.4674862511838
 20
346.6894211555724
 30
0.0
 11
703.4674862511837
 21
346.6894211555724
 31
0.0
  0
LINE
  5
19A8B
330
1F
100
AcDbEntity
  8
0
100
AcDbLine
 10
702.4674862511838
 20
343.6894211555724
 30
0.0
 11
702.4674862511838
 21
346.6894211555724
 31
0.0
  0
LINE
  5
19A8C
330
1F
100
AcDbEntity
  8
0
100
AcDbLine
 10
703.4674862511837
 20
343.6894211555724
 30
0.0
 11
703.4674862511837
 21
346.6894211555724
 31
0.0
  0
LINE
  5
19A8D
330
1F
100
AcDbEntity
  8
0
100
AcDbLine
 10
703.4674862511837
 20
343.6894211555724
 30
0.0
 11
708.9674862511838
 21
343.6894211555724
 31
0.0
  0
LINE
  5
19A8E
330
1F
100
AcDbEntity
  8
0
100
AcDbLine
 10
703.4674862511837
 20
344.6894211555724
 30
0.0
 11
708.9674862511838
 21
344.6894211555724
 31
0.0
  0
LINE
  5
19A8F
330
1F
100
AcDbEntity
  8
0
100
AcDbLine
 10
705.4674862511838
 20
351.6894211555724
 30
0.0
 11
707.9674862511837
 21
351.6894211555724
 31
0.0
  0
LINE
  5
19A90
330
1F
100
AcDbEntity
  8
0
100
AcDbLine
 10
707.9674862511837
 20
350.6894211555724
 30
0.0
 11
707.9674862511837
 21
351.6894211555724
 31
0.0
  0
LINE
  5
19A91
330
1F
100
AcDbEntity
  8
0
100
AcDbLine
 10
707.9674862511837
 20
350.6894211555724
 30
0.0
 11
708.9674862511838
 21
350.6894211555724
 31
0.0
  0
LINE
  5
19A92
330
1F
100
AcDbEntity
  8
0
100
AcDbLine
 10
703.4674862511837
 20
353.0494211555724
 30
0.0
 11
706.4274862511838
 21
356.0094211555725
 31
0.0
  0
LINE
  5
19A93
330
1F
100
AcDbEntity
  8
0
100
AcDbLine
 10
703.5974862511839
 20
358.8394211555724
 30
0.0
 11
706.4274862511838
 21
356.0094211555725
 31
0.0
  0
LINE
  5
19A94
330
1F
100
AcDbEntity
  8
0
100
AcDbLine
 10
699.3574862511839
 20
367.3294211555724
 30
0.0
 11
703.5974862511839
 21
363.0894211555724
 31
0.0
  0
LINE
  5
19A95
330
1F
100
AcDbEntity
  8
0
100
AcDbLine
 10
695.8374862511838
 20
366.6194211555725
 30
0.0
 11
702.8874862511838
 21
359.5494211555724
 31
0.0
  0
LINE
  5
19A96
330
1F
100
AcDbEntity
  8
006
100
AcDbLine
 10
697.9474862511838
 20
361.6694211555724
 30
0.0
 11
710.7774862511837
 21
374.5094211555724
 31
0.0
  0
LINE
  5
19A97
330
1F
100
AcDbEntity
  8
0
100
AcDbLine
 10
693.8474862511839
 20
372.8394211555724
 30
0.0
 11
697.9474862511838
 21
368.7394211555723
 31
0.0
  0
LINE
  5
19A98
330
1F
100
AcDbEntity
  8
0
100
AcDbLine
 10
687.9674862511838
 20
369.1894211555724
 30
0.0
 11
687.9674862511838
 21
371.6894211555724
 31
0.0
  0
LINE
  5
19A99
330
1F
100
AcDbEntity
  8
0
100
AcDbLine
 10
690.8874862511838
 20
361.6694211555724
 30
0.0
 11
695.8374862511838
 21
366.6194211555725
 31
0.0
  0
LINE
  5
19A9A
330
1F
100
AcDbEntity
  8
0
100
AcDbLine
 10
691.9474862511838
 20
364.1494211555724
 30
0.0
 11
695.1274862511838
 21
367.3294211555724
 31
0.0
  0
LINE
  5
19A9B
330
1F
100
AcDbEntity
  8
0
100
AcDbLine
 10
692.2974862511837
 20
370.1594211555724
 30
0.0
 11
695.1274862511838
 21
367.3294211555724
 31
0.0
  0
ARC
  5
19A9C
330
1F
100
AcDbEntity
  8
0
100
AcDbCircle
 10
691.517486251184
 20
365.9594211555724
 30
0.0
 40
1.58
100
AcDbArc
 50
246.5158799999959
 51
60.52411099999665
  0
ARC
  5
19A9D
330
1F
100
AcDbEntity
  8
0
100
AcDbCircle
 10
691.2774862511837
 20
362.9694211555724
 30
0.0
 40
1.36
100
AcDbArc
 50
60.4122360000073
 51
253.3007499999994
  0
LINE
  5
19A9E
330
1F
100
AcDbEntity
  8
0
100
AcDbLine
 10
689.3274862511839
 20
367.1894211555724
 30
0.0
 11
692.2974862511837
 21
370.1594211555724
 31
0.0
  0
LINE
  5
19A9F
330
1F
100
AcDbEntity
  8
0
100
AcDbLine
 10
697.9374862511838
 20
368.7394211555723
 30
0.0
 11
698.6474862511839
 21
369.4394211555724
 31
0.0
  0
LINE
  5
19AA0
330
1F
100
AcDbEntity
  8
0
100
AcDbLine
 10
699.3574862511839
 20
367.3294211555724
 30
0.0
 11
700.057486251184
 21
368.0294211555724
 31
0.0
  0
LINE
  5
19AA1
330
1F
100
AcDbEntity
  8
0
100
AcDbLine
 10
698.6474862511839
 20
369.4394211555724
 30
0.0
 11
700.057486251184
 21
368.0294211555724
 31
0.0
  0
LINE
  5
19AA2
330
1F
100
AcDbEntity
  8
0
100
AcDbLine
 10
686.9674862511837
 20
371.6894211555724
 30
0.0
 11
686.9674862511837
 21
372.6894211555724
 31
0.0
  0
LINE
  5
19AA3
330
1F
100
AcDbEntity
  8
0
100
AcDbLine
 10
686.9674862511837
 20
371.6894211555724
 30
0.0
 11
687.9674862511838
 21
371.6894211555724
 31
0.0
  0
LINE
  5
19AA4
330
1F
100
AcDbEntity
  8
0
100
AcDbLine
 10
704.2974862511837
 20
363.7894211555724
 30
0.0
 11
705.7174862511837
 21
362.3694211555725
 31
0.0
  0
LINE
  5
19AA5
330
1F
100
AcDbEntity
  8
0
100
AcDbLine
 10
705.0174862511839
 20
361.6694211555724
 30
0.0
 11
705.7174862511837
 21
362.3694211555725
 31
0.0
  0
LINE
  5
19AA6
330
1F
100
AcDbEntity
  8
0
100
AcDbLine
 10
703.5974862511839
 20
363.0894211555724
 30
0.0
 11
704.2974862511837
 21
363.7894211555724
 31
0.0
  0
LINE
  5
19AA7
330
1F
100
AcDbEntity
  8
0
100
AcDbLine
 10
678.9574862511836
 20
351.6894211555724
 30
0.0
 11
678.9574862511836
 21
372.6894211555724
 31
0.0
  0
LINE
  5
19AAB
330
1F
100
AcDbEntity
  8
0
100
AcDbLine
 10
592.5617668319886
 20
372.6894211555723
 30
0.0
 11
668.9674862511838
 21
372.6894211555723
 31
0.0
  0
LINE
  5
19AAC
330
1F
100
AcDbEntity
  8
0
100
AcDbLine
 10
592.5617668319886
 20
442.6894211555723
 30
0.0
 11
668.9674862511838
 21
442.6894211555724
 31
0.0
  0
ARC
  5
1A9D2
330
1F
100
AcDbEntity
  8
003
100
AcDbCircle
 10
380.8233990715077
 20
353.9493458742601
 30
0.0
 40
5.307719999999999
100
AcDbArc
 50
279.2448300000044
 51
286.4308599999983
  0
ARC
  5
1A9D3
330
1F
100
AcDbEntity
  8
003
100
AcDbCircle
 10
369.7359990715078
 20
353.48446587426
 30
0.0
 40
4.857599999999999
100
AcDbArc
 50
253.1921499999997
 51
270.0
  0
ARC
  5
1A9D4
330
1F
100
AcDbEntity
  8
003
100
AcDbCircle
 10
369.7359990715078
 20
353.48446587426
 30
0.0
 40
4.857599999999999
100
AcDbArc
 50
270.0
 51
286.8078399999972
  0
ARC
  5
1A9D5
330
1F
100
AcDbEntity
  8
003
100
AcDbCircle
 10
369.5307990715078
 20
354.1637858742599
 30
0.0
 40
5.56728
100
AcDbArc
 50
286.8078399999972
 51
302.1251200000005
  0
ARC
  5
1A9D6
330
1F
100
AcDbEntity
  8
003
100
AcDbCircle
 10
369.9413190715078
 20
354.1637858742599
 30
0.0
 40
5.56728
100
AcDbArc
 50
237.8748700000018
 51
253.1921499999997
  0
LINE
  5
1A9D7
330
1F
100
AcDbEntity
  8
003
100
AcDbLine
 10
377.2119990715077
 20
348.71086587426
 30
0.0
 11
381.6759990715077
 21
348.71086587426
 31
0.0
  0
LINE
  5
1A9D8
330
1F
100
AcDbEntity
  8
003
100
AcDbLine
 10
369.6759990715077
 20
348.71086587426
 30
0.0
 11
377.2119990715077
 21
348.71086587426
 31
0.0
  0
ARC
  5
1A9D9
330
1F
100
AcDbEntity
  8
003
100
AcDbCircle
 10
380.9199990715077
 20
365.39314587426
 30
0.0
 40
4.857599999999999
100
AcDbArc
 50
73.19215500000011
 51
90.0
  0
LINE
  5
1A9DA
330
1F
100
AcDbEntity
  8
003
100
AcDbLine
 10
350.9439990715078
 20
378.56686587426
 30
0.0
 11
381.5919990715078
 21
370.14286587426
 31
0.0
  0
CIRCLE
  5
1A9DB
330
1F
100
AcDbEntity
  8
003
100
AcDbCircle
 10
354.4359990715078
 20
370.91086587426
 30
0.0
 40
1.5
  0
LINE
  5
1A9DC
330
1F
100
AcDbEntity
  8
003
100
AcDbLine
 10
349.0719990715078
 20
377.84686587426
 30
0.0
 11
376.8159990715078
 21
370.21486587426
 31
0.0
  0
LINE
  5
1A9DD
330
1F
100
AcDbEntity
  8
003
100
AcDbLine
 10
349.0719990715078
 20
357.6748658742602
 30
0.0
 11
349.0719990715078
 21
377.84686587426
 31
0.0
  0
LINE
  5
1A9DE
330
1F
100
AcDbEntity
  8
003
100
AcDbLine
 10
349.0719990715078
 20
357.6748658742602
 30
0.0
 11
364.0359990715077
 21
353.00686587426
 31
0.0
  0
CIRCLE
  5
1A9DF
330
1F
100
AcDbEntity
  8
003
100
AcDbCircle
 10
354.4359990715078
 20
361.91086587426
 30
0.0
 40
1.5
  0
ARC
  5
1A9E0
330
1F
100
AcDbEntity
  8
003
100
AcDbCircle
 10
380.9201190715078
 20
365.39362587426
 30
0.0
 40
4.85712
100
AcDbArc
 50
90.00084200000271
 51
90.14239600000353
  0
ARC
  5
1A9E1
330
1F
100
AcDbEntity
  8
003
100
AcDbCircle
 10
365.5503990715077
 20
360.92482587426
 30
0.0
 40
11.12388
100
AcDbArc
 50
23.87392099999769
 51
33.49390999999521
  0
LINE
  5
1A9E2
330
1F
100
AcDbEntity
  8
003
100
AcDbLine
 10
379.6959990715077
 20
370.21486587426
 30
0.0
 11
380.7639990715077
 21
370.21486587426
 31
0.0
  0
ARC
  5
1A9E3
330
1F
100
AcDbEntity
  8
003
100
AcDbCircle
 10
361.8073590715078
 20
359.5567058742599
 30
0.0
 40
15.12012
100
AcDbArc
 50
7.513403700001652
 51
15.35218900000071
  0
ARC
  5
1A9E4
330
1F
100
AcDbEntity
  8
003
100
AcDbCircle
 10
361.4892390715078
 20
359.5532258742601
 30
0.0
 40
14.23908
100
AcDbArc
 50
7.045037600003336
 51
14.42573300000343
  0
ARC
  5
1A9E5
330
1F
100
AcDbEntity
  8
003
100
AcDbCircle
 10
363.2733990715077
 20
360.0122258742601
 30
0.0
 40
12.39672
100
AcDbArc
 50
14.42573300000343
 51
22.52006600000276
  0
ARC
  5
1A9E6
330
1F
100
AcDbEntity
  8
003
100
AcDbCircle
 10
363.5245590715077
 20
360.0281858742601
 30
0.0
 40
13.33944
100
AcDbArc
 50
15.35218900000071
 51
23.87392099999769
  0
ARC
  5
1A9E7
330
1F
100
AcDbEntity
  8
003
100
AcDbCircle
 10
368.7985590715078
 20
363.52354587426
 30
0.0
 40
6.944399999999999
100
AcDbArc
 50
44.68217099999532
 51
57.87487299999632
  0
ARC
  5
1A9E8
330
1F
100
AcDbEntity
  8
003
100
AcDbCircle
 10
369.5307990715078
 20
364.68982587426
 30
0.0
 40
5.56728
100
AcDbArc
 50
57.87487299999632
 51
73.19215500000011
  0
ARC
  5
1A9E9
330
1F
100
AcDbEntity
  8
003
100
AcDbCircle
 10
369.7359990715078
 20
365.3691458742601
 30
0.0
 40
4.857599999999999
100
AcDbArc
 50
73.19215500000011
 51
90.0
  0
ARC
  5
1A9EA
330
1F
100
AcDbEntity
  8
003
100
AcDbCircle
 10
369.7359990715078
 20
365.3691458742601
 30
0.0
 40
4.857599999999999
100
AcDbArc
 50
90.0
 51
106.8078399999972
  0
ARC
  5
1A9EB
330
1F
100
AcDbEntity
  8
003
100
AcDbCircle
 10
368.7570390715078
 20
363.41650587426
 30
0.0
 40
5.876759999999999
100
AcDbArc
 50
42.79360699999639
 51
56.13109000000122
  0
ARC
  5
1A9EC
330
1F
100
AcDbEntity
  8
003
100
AcDbCircle
 10
369.5207190715077
 20
364.55422587426
 30
0.0
 40
4.506479999999999
100
AcDbArc
 50
56.13109000000122
 51
72.08923900000019
  0
ARC
  5
1A9ED
330
1F
100
AcDbEntity
  8
003
100
AcDbCircle
 10
369.7359990715078
 20
365.22058587426
 30
0.0
 40
3.80616
100
AcDbArc
 50
72.08923900000019
 51
90.0
  0
ARC
  5
1A9EE
330
1F
100
AcDbEntity
  8
003
100
AcDbCircle
 10
369.7359990715078
 20
365.22058587426
 30
0.0
 40
3.80616
100
AcDbArc
 50
90.0
 51
107.9107600000043
  0
ARC
  5
1A9EF
330
1F
100
AcDbEntity
  8
003
100
AcDbCircle
 10
369.9513990715078
 20
364.55422587426
 30
0.0
 40
4.506479999999999
100
AcDbArc
 50
107.9107600000043
 51
123.8689099999988
  0
ARC
  5
1A9F0
330
1F
100
AcDbEntity
  8
003
100
AcDbCircle
 10
367.3268790715078
 20
362.09242587426
 30
0.0
 40
7.825679999999999
100
AcDbArc
 50
31.78963000000002
 51
42.79360699999639
  0
ARC
  5
1A9F1
330
1F
100
AcDbEntity
  8
003
100
AcDbCircle
 10
372.1452390715077
 20
362.09242587426
 30
0.0
 40
7.825679999999999
100
AcDbArc
 50
137.2063899999969
 51
148.2103699999999
  0
ARC
  5
1A9F2
330
1F
100
AcDbEntity
  8
003
100
AcDbCircle
 10
369.9413190715078
 20
364.68982587426
 30
0.0
 40
5.56728
100
AcDbArc
 50
106.8078399999972
 51
122.1251200000005
  0
ARC
  5
1A9F3
330
1F
100
AcDbEntity
  8
003
100
AcDbCircle
 10
370.6735590715078
 20
363.52354587426
 30
0.0
 40
6.944399999999999
100
AcDbArc
 50
122.1251200000005
 51
135.3178200000018
  0
ARC
  5
1A9F4
330
1F
100
AcDbEntity
  8
003
100
AcDbCircle
 10
370.7150790715077
 20
363.41650587426
 30
0.0
 40
5.876759999999999
100
AcDbArc
 50
123.8689099999988
 51
137.2063899999969
  0
ARC
  5
1A9F5
330
1F
100
AcDbEntity
  8
003
100
AcDbCircle
 10
374.0935590715078
 20
360.8851058742601
 30
0.0
 40
10.1178
100
AcDbArc
 50
148.2112900000038
 51
157.4799300000012
  0
ARC
  5
1A9F6
330
1F
100
AcDbEntity
  8
003
100
AcDbCircle
 10
367.4251590715077
 20
362.16538587426
 30
0.0
 40
8.87592
100
AcDbArc
 50
33.49420300000155
 51
44.68217099999532
  0
LINE
  5
1A9F7
330
1F
100
AcDbEntity
  8
003
100
AcDbLine
 10
369.7239990715078
 20
370.21486587426
 30
0.0
 11
379.6959990715077
 21
370.21486587426
 31
0.0
  0
ARC
  5
1A9F8
330
1F
100
AcDbEntity
  8
003
100
AcDbCircle
 10
365.3785590715078
 20
360.8851058742601
 30
0.0
 40
10.1178
100
AcDbArc
 50
22.52006600000276
 51
31.78870799999883
  0
ARC
  5
1A9F9
330
1F
100
AcDbEntity
  8
003
100
AcDbCircle
 10
361.8073590715078
 20
359.29690587426
 30
0.0
 40
15.12012
100
AcDbArc
 50
344.6478100000036
 51
352.4865899999984
  0
ARC
  5
1A9FA
330
1F
100
AcDbEntity
  8
003
100
AcDbCircle
 10
360.8225190715078
 20
359.42686587426
 30
0.0
 40
16.11348
100
AcDbArc
 50
352.4865899999984
 51
0.0
  0
ARC
  5
1A9FB
330
1F
100
AcDbEntity
  8
003
100
AcDbCircle
 10
361.4892390715078
 20
359.3003858742601
 30
0.0
 40
14.23908
100
AcDbArc
 50
345.5742599999991
 51
352.9549600000039
  0
ARC
  5
1A9FC
330
1F
100
AcDbEntity
  8
003
100
AcDbCircle
 10
360.4659990715078
 20
359.42686587426
 30
0.0
 40
15.27
100
AcDbArc
 50
352.9549600000039
 51
0.0
  0
ARC
  5
1A9FD
330
1F
100
AcDbEntity
  8
003
100
AcDbCircle
 10
365.5503990715077
 20
357.92878587426
 30
0.0
 40
11.12388
100
AcDbArc
 50
326.5060900000048
 51
336.1260699999986
  0
ARC
  5
1A9FE
330
1F
100
AcDbEntity
  8
003
100
AcDbCircle
 10
363.5245590715077
 20
358.8254258742601
 30
0.0
 40
13.33944
100
AcDbArc
 50
336.1260699999986
 51
344.6478100000036
  0
ARC
  5
1A9FF
330
1F
100
AcDbEntity
  8
003
100
AcDbCircle
 10
363.2733990715077
 20
358.84138587426
 30
0.0
 40
12.39672
100
AcDbArc
 50
337.4799300000012
 51
345.5742599999991
  0
ARC
  5
1AA00
330
1F
100
AcDbEntity
  8
003
100
AcDbCircle
 10
368.7985590715078
 20
355.3300658742601
 30
0.0
 40
6.944399999999999
100
AcDbArc
 50
302.1251200000005
 51
315.3178200000018
  0
ARC
  5
1AA01
330
1F
100
AcDbEntity
  8
003
100
AcDbCircle
 10
369.9513990715078
 20
354.29938587426
 30
0.0
 40
4.506479999999999
100
AcDbArc
 50
236.1310900000012
 51
252.0892300000001
  0
ARC
  5
1AA02
330
1F
100
AcDbEntity
  8
003
100
AcDbCircle
 10
369.7359990715078
 20
353.6330258742601
 30
0.0
 40
3.80616
100
AcDbArc
 50
252.0892300000001
 51
270.0
  0
ARC
  5
1AA03
330
1F
100
AcDbEntity
  8
003
100
AcDbCircle
 10
369.7359990715078
 20
353.6330258742601
 30
0.0
 40
3.80616
100
AcDbArc
 50
270.0
 51
287.9107600000043
  0
ARC
  5
1AA04
330
1F
100
AcDbEntity
  8
003
100
AcDbCircle
 10
369.5207190715077
 20
354.29938587426
 30
0.0
 40
4.506479999999999
100
AcDbArc
 50
287.9107600000043
 51
303.8689099999988
  0
ARC
  5
1AA05
330
1F
100
AcDbEntity
  8
003
100
AcDbCircle
 10
368.7570390715078
 20
355.4371058742599
 30
0.0
 40
5.876759999999999
100
AcDbArc
 50
303.8689099999988
 51
317.2063899999968
  0
ARC
  5
1AA06
330
1F
100
AcDbEntity
  8
003
100
AcDbCircle
 10
367.3268790715078
 20
356.76118587426
 30
0.0
 40
7.825679999999999
100
AcDbArc
 50
317.2063899999968
 51
328.2103699999996
  0
ARC
  5
1AA07
330
1F
100
AcDbEntity
  8
003
100
AcDbCircle
 10
374.0935590715078
 20
357.96850587426
 30
0.0
 40
10.1178
100
AcDbArc
 50
202.5200600000008
 51
211.7886999999991
  0
ARC
  5
1AA08
330
1F
100
AcDbEntity
  8
003
100
AcDbCircle
 10
372.1452390715077
 20
356.76118587426
 30
0.0
 40
7.825679999999999
100
AcDbArc
 50
211.78963
 51
222.7935999999975
  0
ARC
  5
1AA09
330
1F
100
AcDbEntity
  8
003
100
AcDbCircle
 10
370.6735590715078
 20
355.3300658742601
 30
0.0
 40
6.944399999999999
100
AcDbArc
 50
224.6821700000002
 51
237.8748700000018
  0
ARC
  5
1AA0A
330
1F
100
AcDbEntity
  8
003
100
AcDbCircle
 10
370.7150790715077
 20
355.4371058742599
 30
0.0
 40
5.876759999999999
100
AcDbArc
 50
222.7935999999975
 51
236.1310900000012
  0
ARC
  5
1AA0B
330
1F
100
AcDbEntity
  8
003
100
AcDbCircle
 10
365.3785590715078
 20
357.96850587426
 30
0.0
 40
10.1178
100
AcDbArc
 50
328.2112900000038
 51
337.4799300000012
  0
ARC
  5
1AA0C
330
1F
100
AcDbEntity
  8
003
100
AcDbCircle
 10
367.4251590715077
 20
356.6882258742601
 30
0.0
 40
8.87592
100
AcDbArc
 50
315.3178200000018
 51
326.5057900000041
  0
ARC
  5
1AA0D
330
1F
100
AcDbEntity
  8
003
100
AcDbCircle
 10
360.8225190715078
 20
359.42686587426
 30
0.0
 40
16.11348
100
AcDbArc
 50
0.0
 51
7.513403700001652
  0
ARC
  5
1AA0E
330
1F
100
AcDbEntity
  8
003
100
AcDbCircle
 10
360.4659990715078
 20
359.42686587426
 30
0.0
 40
15.27
100
AcDbArc
 50
0.0
 51
7.045037600003336
  0
ARC
  5
1AA0F
330
1F
100
AcDbEntity
  8
003
100
AcDbCircle
 10
373.9217190715077
 20
360.92482587426
 30
0.0
 40
11.12388
100
AcDbArc
 50
146.5060900000048
 51
156.1260699999986
  0
ARC
  5
1AA10
330
1F
100
AcDbEntity
  8
003
100
AcDbCircle
 10
377.6647590715078
 20
359.5567058742599
 30
0.0
 40
15.12012
100
AcDbArc
 50
164.6478100000036
 51
172.4865899999984
  0
ARC
  5
1AA11
330
1F
100
AcDbEntity
  8
003
100
AcDbCircle
 10
377.9828790715078
 20
359.5532258742601
 30
0.0
 40
14.23908
100
AcDbArc
 50
165.5742599999991
 51
172.9549600000039
  0
ARC
  5
1AA12
330
1F
100
AcDbEntity
  8
003
100
AcDbCircle
 10
375.9475590715078
 20
360.0281858742601
 30
0.0
 40
13.33944
100
AcDbArc
 50
156.1260699999986
 51
164.6478100000036
  0
ARC
  5
1AA13
330
1F
100
AcDbEntity
  8
003
100
AcDbCircle
 10
378.6495990715077
 20
359.42686587426
 30
0.0
 40
16.11348
100
AcDbArc
 50
180.0
 51
187.5134000000016
  0
ARC
  5
1AA14
330
1F
100
AcDbEntity
  8
003
100
AcDbCircle
 10
377.6647590715078
 20
359.29690587426
 30
0.0
 40
15.12012
100
AcDbArc
 50
187.5134000000016
 51
195.3521899999963
  0
ARC
  5
1AA15
330
1F
100
AcDbEntity
  8
003
100
AcDbCircle
 10
379.0061190715077
 20
359.42686587426
 30
0.0
 40
15.27
100
AcDbArc
 50
180.0
 51
187.0450299999968
  0
ARC
  5
1AA16
330
1F
100
AcDbEntity
  8
003
100
AcDbCircle
 10
377.9828790715078
 20
359.3003858742601
 30
0.0
 40
14.23908
100
AcDbArc
 50
187.0450299999968
 51
194.4257299999997
  0
ARC
  5
1AA17
330
1F
100
AcDbEntity
  8
003
100
AcDbCircle
 10
373.9217190715077
 20
357.92878587426
 30
0.0
 40
11.12388
100
AcDbArc
 50
203.8739199999997
 51
213.4939099999952
  0
ARC
  5
1AA18
330
1F
100
AcDbEntity
  8
003
100
AcDbCircle
 10
375.9475590715078
 20
358.8254258742601
 30
0.0
 40
13.33944
100
AcDbArc
 50
195.3521899999963
 51
203.8739199999997
  0
ARC
  5
1AA19
330
1F
100
AcDbEntity
  8
003
100
AcDbCircle
 10
378.6495990715077
 20
359.42686587426
 30
0.0
 40
16.11348
100
AcDbArc
 50
172.4865899999984
 51
180.0
  0
ARC
  5
1AA1A
330
1F
100
AcDbEntity
  8
003
100
AcDbCircle
 10
379.0061190715077
 20
359.42686587426
 30
0.0
 40
15.27
100
AcDbArc
 50
172.9549600000039
 51
180.0
  0
ARC
  5
1AA1B
330
1F
100
AcDbEntity
  8
003
100
AcDbCircle
 10
372.0469590715078
 20
362.16538587426
 30
0.0
 40
8.87592
100
AcDbArc
 50
135.3178200000018
 51
146.5057900000041
  0
ARC
  5
1AA1C
330
1F
100
AcDbEntity
  8
003
100
AcDbCircle
 10
376.1987190715077
 20
360.0122258742601
 30
0.0
 40
12.39672
100
AcDbArc
 50
157.4799300000012
 51
165.5742599999991
  0
ARC
  5
1AA1D
330
1F
100
AcDbEntity
  8
003
100
AcDbCircle
 10
372.0469590715078
 20
356.6882258742601
 30
0.0
 40
8.87592
100
AcDbArc
 50
213.4942000000018
 51
224.6821700000002
  0
ARC
  5
1AA1E
330
1F
100
AcDbEntity
  8
003
100
AcDbCircle
 10
376.1987190715077
 20
358.84138587426
 30
0.0
 40
12.39672
100
AcDbArc
 50
194.4257299999997
 51
202.5200600000008
  0
LINE
  5
1AA1F
330
1F
100
AcDbEntity
  8
003
100
AcDbLine
 10
349.0719990715078
 20
377.84686587426
 30
0.0
 11
350.9439990715078
 21
378.56686587426
 31
0.0
  0
ARC
  5
1AA20
330
1F
100
AcDbEntity
  8
003
100
AcDbCircle
 10
376.7343990715077
 20
360.9488258742601
 30
0.0
 40
11.12388
100
AcDbArc
 50
23.87392099999769
 51
33.49390999999521
  0
ARC
  5
1AA21
330
1F
100
AcDbEntity
  8
003
100
AcDbCircle
 10
378.6091590715078
 20
362.1893858742601
 30
0.0
 40
8.87592
100
AcDbArc
 50
33.49420300000155
 51
44.68217099999532
  0
ARC
  5
1AA22
330
1F
100
AcDbEntity
  8
003
100
AcDbCircle
 10
372.9913590715077
 20
359.5807058742601
 30
0.0
 40
15.12012
100
AcDbArc
 50
7.513403700001652
 51
15.35218900000071
  0
ARC
  5
1AA23
330
1F
100
AcDbEntity
  8
003
100
AcDbCircle
 10
374.7085590715077
 20
360.05218587426
 30
0.0
 40
13.33944
100
AcDbArc
 50
15.35218900000071
 51
23.87392099999769
  0
ARC
  5
1AA24
330
1F
100
AcDbEntity
  8
003
100
AcDbCircle
 10
372.0065190715078
 20
359.45086587426
 30
0.0
 40
16.11348
100
AcDbArc
 50
352.4865899999984
 51
0.0
  0
ARC
  5
1AA25
330
1F
100
AcDbEntity
  8
003
100
AcDbCircle
 10
372.9913590715077
 20
359.3209058742601
 30
0.0
 40
15.12012
100
AcDbArc
 50
344.6478100000036
 51
352.4865899999984
  0
ARC
  5
1AA26
330
1F
100
AcDbEntity
  8
003
100
AcDbCircle
 10
378.6091590715078
 20
356.7122258742602
 30
0.0
 40
8.87592
100
AcDbArc
 50
315.3178200000018
 51
326.5057900000041
  0
ARC
  5
1AA27
330
1F
100
AcDbEntity
  8
003
100
AcDbCircle
 10
376.7343990715077
 20
357.95278587426
 30
0.0
 40
11.12388
100
AcDbArc
 50
326.5060900000048
 51
336.1260699999986
  0
ARC
  5
1AA28
330
1F
100
AcDbEntity
  8
003
100
AcDbCircle
 10
374.7085590715077
 20
358.8494258742601
 30
0.0
 40
13.33944
100
AcDbArc
 50
336.1260699999986
 51
344.6478100000036
  0
ARC
  5
1AA29
330
1F
100
AcDbEntity
  8
003
100
AcDbCircle
 10
372.0065190715078
 20
359.45086587426
 30
0.0
 40
16.11348
100
AcDbArc
 50
0.0
 51
7.513403700001652
  0
ARC
  5
1AA2A
330
1F
100
AcDbEntity
  8
003
100
AcDbCircle
 10
380.7147990715078
 20
364.71382587426
 30
0.0
 40
5.56728
100
AcDbArc
 50
57.87487299999632
 51
73.19215500000011
  0
ARC
  5
1AA2B
330
1F
100
AcDbEntity
  8
003
100
AcDbCircle
 10
380.7147990715078
 20
354.18778587426
 30
0.0
 40
5.56728
100
AcDbArc
 50
286.8078399999972
 51
302.1251200000005
  0
ARC
  5
1AA2C
330
1F
100
AcDbEntity
  8
003
100
AcDbCircle
 10
379.9825590715077
 20
363.54754587426
 30
0.0
 40
6.944399999999999
100
AcDbArc
 50
44.68217099999532
 51
57.87487299999632
  0
ARC
  5
1AA2D
330
1F
100
AcDbEntity
  8
003
100
AcDbCircle
 10
379.9825590715077
 20
355.3540658742599
 30
0.0
 40
6.944399999999999
100
AcDbArc
 50
302.1251200000005
 51
315.3178200000018
  0
DIMENSION
  5
1AA2E
330
1F
100
AcDbEntity
  8
003
100
AcDbDimension
  2
*D6
 10
334.9262817775142
 20
357.6748658742602
 30
0.0
 11
329.9262817775141
 21
367.7608658742601
 31
0.0
 70
    32
  1
38
 71
     5
 42
20.1719999999998
  3
DIM
100
AcDbAlignedDimension
 13
349.0719990715078
 23
377.84686587426
 33
0.0
 14
349.0719990715078
 24
357.6748658742602
 34
0.0
 50
90.0
100
AcDbRotatedDimension
  0
LINE
  5
1AA2F
330
1F
100
AcDbEntity
  8
003
 62
     4
370
    20
100
AcDbLine
 10
349.0719990715078
 20
380.8468658742599
 30
0.0
 11
349.0719990715078
 21
392.9056086339799
 31
0.0
  0
LINE
  5
1AA30
330
1F
100
AcDbEntity
  8
003
 62
     4
370
    20
100
AcDbLine
 10
388.0853754351739
 20
361.3951122349133
 30
0.0
 11
388.0853754351739
 21
382.1822765246246
 31
0.0
  0
LINE
  5
1AA31
330
1F
100
AcDbEntity
  8
003
 62
     4
370
    20
100
AcDbLine
 10
351.9647165767276
 20
390.1105077378702
 30
0.0
 11
385.1926579299426
 21
380.9870231690554
 31
0.0
  0
INSERT
  5
1AA32
330
1F
100
AcDbEntity
  8
003
 62
     4
370
    20
100
AcDbBlockReference
  2
_Open30
 10
349.0719990715077
 20
390.9056086339799
 30
0.0
 41
2.999999999999972
 42
3.0
 43
3.0
 50
164.6310487721845
  0
INSERT
  5
1AA33
330
1F
100
AcDbEntity
  8
003
 62
     4
370
    20
100
AcDbBlockReference
  2
_Open30
 10
388.0853754351742
 20
380.1919222729423
 30
0.0
 41
2.999999999999973
 42
3.0
 43
3.0
 50
344.6310487721845
  0
MTEXT
  5
1AA34
330
1F
100
AcDbEntity
  8
003
 62
     7
100
AcDbMText
 10
368.5786872533408
 20
391.6855201643077
 30
0.0
 40
6.0
 41
0.0
 71
     5
 72
     1
  1
64
  7
DIM
 73
     1
 44
1.0
1001
ACAD
1000
MTEXTBEGIN
1070
    73
1070
     1
1070
    44
1040
1.0
1070
    74
1070
     0
1000
MTEXTEND
  0
LINE
  5
1AB37
330
1F
100
AcDbEntity
  8
006
100
AcDbLine
 10
669.0581289027838
 20
363.6894211555727
 30
0.0
 11
692.0581289027841
 21
363.6894211555722
 31
0.0
  0
LINE
  5
1AB5D
330
1F
100
AcDbEntity
  8
007
100
AcDbLine
 10
686.4974862511838
 20
361.6894211555724
 30
0.0
 11
685.9474862511838
 21
365.6894211555724
 31
0.0
  0
LINE
  5
1AB5E
330
1F
100
AcDbEntity
  8
007
100
AcDbLine
 10
686.9674862511837
 20
361.6894211555724
 30
0.0
 11
686.9674862511837
 21
365.6894211555724
 31
0.0
  0
LINE
  5
1AB62
330
1F
100
AcDbEntity
  8
007
100
AcDbLine
 10
681.0974862511836
 20
361.6894211555724
 30
0.0
 11
680.5474862511839
 21
365.6894211555724
 31
0.0
  0
LINE
  5
1AB63
330
1F
100
AcDbEntity
  8
007
100
AcDbLine
 10
680.1974862511838
 20
361.6894211555724
 30
0.0
 11
679.6474862511838
 21
365.6894211555724
 31
0.0
  0
LINE
  5
1AB64
330
1F
100
AcDbEntity
  8
007
100
AcDbLine
 10
684.6974862511838
 20
361.6894211555724
 30
0.0
 11
684.1474862511838
 21
365.6894211555724
 31
0.0
  0
LINE
  5
1AB65
330
1F
100
AcDbEntity
  8
007
100
AcDbLine
 10
683.7974862511839
 20
361.6894211555724
 30
0.0
 11
683.2474862511837
 21
365.6894211555724
 31
0.0
  0
LINE
  5
1AB66
330
1F
100
AcDbEntity
  8
007
100
AcDbLine
 10
682.8974862511838
 20
361.6894211555724
 30
0.0
 11
682.3474862511837
 21
365.6894211555724
 31
0.0
  0
LINE
  5
1AB67
330
1F
100
AcDbEntity
  8
007
100
AcDbLine
 10
681.9974862511838
 20
361.6894211555724
 30
0.0
 11
681.4474862511838
 21
365.6894211555724
 31
0.0
  0
LINE
  5
1AB68
330
1F
100
AcDbEntity
  8
007
100
AcDbLine
 10
678.3974862511838
 20
361.6894211555724
 30
0.0
 11
677.8474862511837
 21
365.6894211555724
 31
0.0
  0
LINE
  5
1AB69
330
1F
100
AcDbEntity
  8
007
100
AcDbLine
 10
677.4674862511838
 20
361.6894211555724
 30
0.0
 11
677.4674862511838
 21
365.6894211555724
 31
0.0
  0
LINE
  5
1AB6A
330
1F
100
AcDbEntity
  8
007
100
AcDbLine
 10
679.2974862511839
 20
361.6894211555724
 30
0.0
 11
678.7474862511837
 21
365.6894211555724
 31
0.0
  0
LINE
  5
1AB6C
330
1F
100
AcDbEntity
  8
007
100
AcDbLine
 10
685.5974862511836
 20
361.6894211555724
 30
0.0
 11
685.0474862511839
 21
365.6894211555724
 31
0.0
  0
LINE
  5
1AB6D
330
1F
100
AcDbEntity
  8
007
100
AcDbLine
 10
686.9674862511837
 20
361.6894211555724
 30
0.0
 11
677.4674862511838
 21
361.6894211555724
 31
0.0
  0
LINE
  5
1AB6E
330
1F
100
AcDbEntity
  8
007
100
AcDbLine
 10
686.9674862511837
 20
365.6894211555724
 30
0.0
 11
677.4674862511838
 21
365.6894211555724
 31
0.0
  0
LINE
  5
1AB73
330
1F
100
AcDbEntity
  8
007
100
AcDbLine
 10
674.9674862511838
 20
360.1894211555724
 30
0.0
 11
674.9674862511838
 21
367.1894211555724
 31
0.0
  0
LINE
  5
1AB74
330
1F
100
AcDbEntity
  8
007
100
AcDbLine
 10
674.9674862511838
 20
360.1894211555724
 30
0.0
 11
677.4674862511838
 21
361.6894211555724
 31
0.0
  0
LINE
  5
1AB75
330
1F
100
AcDbEntity
  8
007
100
AcDbLine
 10
677.4674862511838
 20
365.6894211555724
 30
0.0
 11
674.9674862511838
 21
367.1894211555724
 31
0.0
  0
LINE
  5
1AB84
330
1F
100
AcDbEntity
  8
003
100
AcDbLine
 10
658.9674862511838
 20
308.6894211555724
 30
0.0
 11
678.9674862511837
 21
308.6894211555724
 31
0.0
  0
LINE
  5
1AB85
330
1F
100
AcDbEntity
  8
003
100
AcDbLine
 10
678.9674862511837
 20
351.6894211555724
 30
0.0
 11
678.9674862511837
 21
308.6894211555724
 31
0.0
  0
LINE
  5
1AB86
330
1F
100
AcDbEntity
  8
003
100
AcDbLine
 10
674.9674862511838
 20
372.6894211555724
 30
0.0
 11
674.9674862511838
 21
346.6894211555724
 31
0.0
  0
LINE
  5
1AB87
330
1F
100
AcDbEntity
  8
003
100
AcDbLine
 10
658.9674862511838
 20
346.6894211555724
 30
0.0
 11
658.9674862511838
 21
308.6894211555724
 31
0.0
  0
LINE
  5
1AB88
330
1F
100
AcDbEntity
  8
003
100
AcDbLine
 10
658.9674862511838
 20
346.6894211555724
 30
0.0
 11
674.9674862511838
 21
346.6894211555724
 31
0.0
  0
LINE
  5
1AB89
330
1F
100
AcDbEntity
  8
003
100
AcDbLine
 10
658.9674862511838
 20
343.6894211555724
 30
0.0
 11
592.5617668319886
 21
343.6894211555724
 31
0.0
  0
LINE
  5
1AB8A
330
1F
100
AcDbEntity
  8
003
100
AcDbLine
 10
658.9674862511838
 20
311.6894211555725
 30
0.0
 11
592.5617668319886
 21
311.6894211555724
 31
0.0
  0
LEADER
  5
1ABA4
330
1F
100
AcDbEntity
  8
003
100
AcDbLeader
  3
DIM
 73
     0
 74
     0
 40
6.000000000000001
 41
45.89999999999998
 76
     3
 10
678.9674862511837
 20
321.0034582171746
 30
0.0
 10
696.4407856220523
 20
290.7388159309688
 30
0.0
 10
699.8192736720325
 20
290.7388159309688
 30
0.0
340
1ABA5
1001
ACAD
1000
DSTYLE
1002
{
1070
   147
1040
1.0
1070
    77
1070
     1
1002
}
  0
MTEXT
  5
1ABA5
102
{ACAD_REACTORS
330
1ABA4
102
}
330
1F
100
AcDbEntity
  8
003
 62
     7
100
AcDbMText
 10
701.8192736720325
 20
292.7388159309688
 30
0.0
 40
6.0
 41
0.0
 71
     7
 72
     1
  1
コーナーブラケット
  7
DIM
 73
     1
 44
1.0
1001
ACAD
1000
MTEXTBEGIN
1070
    73
1070
     1
1070
    44
1040
1.0
1070
    74
1070
     0
1000
MTEXTEND
  0
DIMENSION
  5
1AFF0
330
1F
100
AcDbEntity
  8
003
100
AcDbDimension
  2
*D7
 10
726.2791606713777
 20
308.6894211555717
 30
0.0
 11
726.2791606713776
 21
332.0291671177276
 31
0.0
 70
   160
 71
     5
 42
64.00000000000068
  3
DIM
100
AcDbAlignedDimension
 13
678.9574862511836
 23
372.6894211555724
 33
0.0
 14
678.9674862511837
 24
308.6894211555717
 34
0.0
 50
90.0
100
AcDbRotatedDimension
  0
DIMENSION
  5
1B00F
330
1F
100
AcDbEntity
  8
003
100
AcDbDimension
  2
*D8
 10
654.1576677611073
 20
372.6894211555724
 30
0.0
 11
649.1576677611073
 21
368.1894211555726
 31
0.0
 70
    32
 71
     5
 42
8.999999999999715
  3
DIM
100
AcDbAlignedDimension
 13
669.0581289027838
 23
363.6894211555727
 33
0.0
 14
669.0581289027838
 24
372.6894211555724
 34
0.0
 50
90.0
100
AcDbRotatedDimension
  0
TEXT
  5
1B8A2
330
1F
100
AcDbEntity
  8
0
100
AcDbText
 10
116.5746325340782
 20
171.9823041608408
 30
0.0
 40
6.0
  1
取付手順
  7
AT_VECTOR
 11
116.5746325340782
 21
174.9823041608408
 31
0.0
100
AcDbText
 73
     2
  0
LINE
  5
1B8A3
330
1F
100
AcDbEntity
  8
003
100
AcDbLine
 10
116.5746325340782
 20
169.9823041608408
 30
0.0
 11
144.5746325340782
 21
169.9823041608408
 31
0.0
  0
TEXT
  5
1B8A4
330
1F
100
AcDbEntity
  8
0
100
AcDbText
 10
116.5746325340782
 20
156.9823041608408
 30
0.0
 40
6.0
  1
（１）切り欠いた32φのパイプを回転止めの付いたコーナーブラケットに差込み取り付ける
  7
AT_VECTOR
 11
116.5746325340782
 21
159.9823041608408
 31
0.0
100
AcDbText
 73
     2
  0
TEXT
  5
1B8A5
330
1F
100
AcDbEntity
  8
0
100
AcDbText
 10
116.5746325340782
 20
146.9823041608408
 30
0.0
 40
6.0
  1
（２）回転止めの付いたコーナーブラケットはピンが下になるように取り付ける
  7
AT_VECTOR
 11
116.5746325340782
 21
149.9823041608408
 31
0.0
100
AcDbText
 73
     2
  0
LINE
  5
1B8AB
330
1F
100
AcDbEntity
  8
0
100
AcDbLine
 10
527.5744446401748
 20
64.55790945619515
 30
0.0
 11
527.5744446401748
 21
80.7579094561952
 31
0.0
  0
LINE
  5
1B8AC
330
1F
100
AcDbEntity
  8
0
100
AcDbLine
 10
527.5744446401749
 20
64.55790945619515
 30
0.0
 11
527.5744446401748
 21
100.3909687823327
 31
0.0
  0
LINE
  5
1B8AD
330
1F
100
AcDbEntity
  8
0
100
AcDbLine
 10
439.9864446401749
 20
79.40790945619529
 30
0.0
 11
476.4364446401749
 21
79.40790945619529
 31
0.0
  0
LINE
  5
1B8AE
330
1F
100
AcDbEntity
  8
0
100
AcDbLine
 10
439.9864446401749
 20
65.90790945619528
 30
0.0
 11
478.9069446401749
 21
65.90790945619528
 31
0.0
  0
LINE
  5
1B8AF
330
1F
100
AcDbEntity
  8
0
100
AcDbLine
 10
405.4939446401751
 20
79.40790945619529
 30
0.0
 11
439.9864446401749
 21
79.40790945619529
 31
0.0
  0
LINE
  5
1B8B0
330
1F
100
AcDbEntity
  8
0
100
AcDbLine
 10
405.4939446401751
 20
65.90790945619528
 30
0.0
 11
439.9864446401749
 21
65.90790945619528
 31
0.0
  0
LINE
  5
1B8B1
330
1F
100
AcDbEntity
  8
0
100
AcDbLine
 10
476.4364446401749
 20
79.40790945619529
 30
0.0
 11
513.3994446401749
 21
79.40790945619529
 31
0.0
  0
LINE
  5
1B8B2
330
1F
100
AcDbEntity
  8
0
100
AcDbLine
 10
476.4364446401749
 20
65.90790945619528
 30
0.0
 11
513.3994446401749
 21
65.90790945619528
 31
0.0
  0
LINE
  5
1B8B3
330
1F
100
AcDbEntity
  8
0
100
AcDbLine
 10
513.3994446401749
 20
64.55790945619515
 30
0.0
 11
527.5744446401749
 21
64.55790945619515
 31
0.0
  0
LINE
  5
1B8B4
330
1F
100
AcDbEntity
  8
0
100
AcDbLine
 10
513.3994446401749
 20
80.7579094561952
 30
0.0
 11
525.591896389993
 21
80.7579094561952
 31
0.0
  0
LEADER
  5
1B8B5
330
1F
100
AcDbEntity
  8
003
100
AcDbLeader
  3
DIM
 73
     0
 40
6.000000000000003
 41
41.10000000000002
 76
     3
 10
511.2811333877318
 20
119.1235662687043
 30
0.0
 10
498.3402728111839
 20
141.5377942809502
 30
0.0
 10
497.2869710153084
 20
141.5377942809502
 30
0.0
340
1B8B6
1001
ACAD
1000
DSTYLE
1002
{
1070
   147
1040
1.0
1070
    77
1070
     1
1002
}
  0
MTEXT
  5
1B8B6
102
{ACAD_REACTORS
330
1B8B5
102
}
330
1F
100
AcDbEntity
  8
003
 62
     7
100
AcDbMText
 10
495.2869710153085
 20
143.5377942809502
 30
0.0
 40
6.0
 41
0.0
 71
     9
 72
     1
  1
回転止め切り欠き
  7
DIM
 73
     1
 44
1.0
1001
ACAD
1000
MTEXTBEGIN
1070
    73
1070
     1
1070
    44
1040
1.0
1070
    74
1070
     0
1000
MTEXTEND
  0
LEADER
  5
1B8B7
330
1F
100
AcDbEntity
  8
003
100
AcDbLeader
  3
DIM
 73
     0
 74
     0
 40
6.0
 41
28.26428571428571
 76
     3
 10
465.4763329506558
 20
67.62539622314512
 30
0.0
 10
473.3930444274267
 20
53.91324971651442
 30
0.0
 10
476.7112669674134
 20
53.91324971651442
 30
0.0
340
1B8B8
1001
ACAD
1000
DSTYLE
1002
{
1070
   147
1040
1.0
1070
    77
1070
     1
1002
}
  0
MTEXT
  5
1B8B8
102
{ACAD_REACTORS
330
1B8B7
102
}
330
1F
100
AcDbEntity
  8
003
 62
     7
100
AcDbMText
 10
478.7112669674135
 20
55.91324971651443
 30
0.0
 40
6.0
 41
0.0
 71
     7
 72
     1
  1
32φパイプ
  7
DIM
 73
     1
 44
1.0
1001
ACAD
1000
MTEXTBEGIN
1070
    73
1070
     1
1070
    44
1040
1.0
1070
    74
1070
     0
1000
MTEXTEND
  0
CIRCLE
  5
1B8B9
330
1F
100
AcDbEntity
  8
003
100
AcDbCircle
 10
220.1943564946623
 20
380.4028041365384
 30
0.0
 40
19.0
  0
LINE
  5
1B8BA
330
1F
100
AcDbEntity
  8
003
100
AcDbLine
 10
175.1943564946623
 20
361.4028041365384
 30
0.0
 11
175.1943564946623
 21
399.4028041365384
 31
0.0
  0
LINE
  5
1B8BB
330
1F
100
AcDbEntity
  8
003
100
AcDbLine
 10
175.1943564946623
 20
361.4028041365384
 30
0.0
 11
220.1943564946623
 21
361.4028041365384
 31
0.0
  0
LINE
  5
1B8BC
330
1F
100
AcDbEntity
  8
003
100
AcDbLine
 10
175.1943564946623
 20
399.4028041365384
 30
0.0
 11
220.1943564946623
 21
399.4028041365384
 31
0.0
  0
LINE
  5
1B8BD
330
1F
100
AcDbEntity
  8
006
100
AcDbLine
 10
184.1943564946623
 20
394.4028041365384
 30
0.0
 11
184.1943564946623
 21
384.4028041365384
 31
0.0
  0
LINE
  5
1B8BE
330
1F
100
AcDbEntity
  8
003
100
AcDbLine
 10
181.8610232946623
 20
389.9861374365382
 30
0.0
 11
183.0276898946623
 21
389.9861374365382
 31
0.0
  0
LINE
  5
1B8BF
330
1F
100
AcDbEntity
  8
003
100
AcDbLine
 10
181.8610232946623
 20
388.8194708365384
 30
0.0
 11
183.0393565606623
 21
388.8194708365384
 31
0.0
  0
LINE
  5
1B8C0
330
1F
100
AcDbEntity
  8
006
100
AcDbLine
 10
179.1943564946623
 20
389.4028041365384
 30
0.0
 11
189.1943564946623
 21
389.4028041365384
 31
0.0
  0
CIRCLE
  5
1B8C1
330
1F
100
AcDbEntity
  8
003
100
AcDbCircle
 10
184.1943564946623
 20
389.4028041365384
 30
0.0
 40
3.4999998
  0
LINE
  5
1B8C2
330
1F
100
AcDbEntity
  8
003
100
AcDbLine
 10
181.8610232946623
 20
388.8194708365384
 30
0.0
 11
181.8610232946623
 21
389.9861374365382
 31
0.0
  0
LINE
  5
1B8C3
330
1F
100
AcDbEntity
  8
003
100
AcDbLine
 10
184.7776897946623
 20
390.5694707365383
 30
0.0
 11
184.7776897946623
 21
391.7361373365384
 31
0.0
  0
LINE
  5
1B8C4
330
1F
100
AcDbEntity
  8
003
100
AcDbLine
 10
185.3610230946624
 20
389.9861374365382
 30
0.0
 11
186.5276896946622
 21
389.9861374365382
 31
0.0
  0
ARC
  5
1B8C5
330
1F
100
AcDbEntity
  8
003
100
AcDbCircle
 10
185.3610230946624
 20
390.5694707365383
 30
0.0
 40
0.5833333000000001
100
AcDbArc
 50
180.0
 51
270.0
  0
LINE
  5
1B8C6
330
1F
100
AcDbEntity
  8
003
100
AcDbLine
 10
183.6110231946623
 20
390.5694707365383
 30
0.0
 11
183.6110231946623
 21
391.7361373365384
 31
0.0
  0
ARC
  5
1B8C7
330
1F
100
AcDbEntity
  8
003
100
AcDbCircle
 10
183.0276898946623
 20
390.5694707365383
 30
0.0
 40
0.5833333000000001
100
AcDbArc
 50
270.0
 51
0.0
  0
LINE
  5
1B8C8
330
1F
100
AcDbEntity
  8
003
100
AcDbLine
 10
183.6110231946623
 20
391.7361373365384
 30
0.0
 11
184.7776897946623
 21
391.7361373365384
 31
0.0
  0
LINE
  5
1B8C9
330
1F
100
AcDbEntity
  8
003
100
AcDbLine
 10
185.3610230946624
 20
388.8194708365384
 30
0.0
 11
186.5276896946622
 21
388.8194708365384
 31
0.0
  0
LINE
  5
1B8CA
330
1F
100
AcDbEntity
  8
003
100
AcDbLine
 10
184.7776897946623
 20
387.0694709365384
 30
0.0
 11
184.7776897946623
 21
388.2361375365385
 31
0.0
  0
ARC
  5
1B8CB
330
1F
100
AcDbEntity
  8
003
100
AcDbCircle
 10
185.3610230946624
 20
388.2361375365385
 30
0.0
 40
0.5833333000000001
100
AcDbArc
 50
90.0
 51
180.0
  0
LINE
  5
1B8CC
330
1F
100
AcDbEntity
  8
003
100
AcDbLine
 10
183.6226898606623
 20
387.0694709365384
 30
0.0
 11
183.6226898606623
 21
388.2361375365385
 31
0.0
  0
ARC
  5
1B8CD
330
1F
100
AcDbEntity
  8
003
100
AcDbCircle
 10
183.0393565606623
 20
388.2361375365385
 30
0.0
 40
0.5833333000000001
100
AcDbArc
 50
0.0
 51
90.0
  0
LINE
  5
1B8CE
330
1F
100
AcDbEntity
  8
003
100
AcDbLine
 10
183.6226898606623
 20
387.0694709365384
 30
0.0
 11
184.7776897946623
 21
387.0694709365384
 31
0.0
  0
LINE
  5
1B8CF
330
1F
100
AcDbEntity
  8
003
100
AcDbLine
 10
186.5276896946622
 20
388.8194708365384
 30
0.0
 11
186.5276896946622
 21
389.9861374365382
 31
0.0
  0
CIRCLE
  5
1B8D0
330
1F
100
AcDbEntity
  8
003
100
AcDbCircle
 10
184.1943564946623
 20
371.4028041365384
 30
0.0
 40
3.4999998
  0
LINE
  5
1B8D1
330
1F
100
AcDbEntity
  8
006
100
AcDbLine
 10
184.1943564946623
 20
376.4028041365384
 30
0.0
 11
184.1943564946623
 21
366.4028041365384
 31
0.0
  0
LINE
  5
1B8D2
330
1F
100
AcDbEntity
  8
003
100
AcDbLine
 10
183.6226898606623
 20
369.0694709365384
 30
0.0
 11
184.7776897946623
 21
369.0694709365384
 31
0.0
  0
LINE
  5
1B8D3
330
1F
100
AcDbEntity
  8
003
100
AcDbLine
 10
183.6110231946623
 20
373.7361373365384
 30
0.0
 11
184.7776897946623
 21
373.7361373365384
 31
0.0
  0
LINE
  5
1B8D4
330
1F
100
AcDbEntity
  8
006
100
AcDbLine
 10
179.1943564946623
 20
371.4028041365384
 30
0.0
 11
189.1943564946623
 21
371.4028041365384
 31
0.0
  0
ARC
  5
1B8D5
330
1F
100
AcDbEntity
  8
003
100
AcDbCircle
 10
183.0393565606623
 20
370.2361375365385
 30
0.0
 40
0.5833333000000001
100
AcDbArc
 50
0.0
 51
90.0
  0
LINE
  5
1B8D6
330
1F
100
AcDbEntity
  8
003
100
AcDbLine
 10
183.6226898606623
 20
369.0694709365384
 30
0.0
 11
183.6226898606623
 21
370.2361375365385
 31
0.0
  0
ARC
  5
1B8D7
330
1F
100
AcDbEntity
  8
003
100
AcDbCircle
 10
183.0276898946623
 20
372.5694707365383
 30
0.0
 40
0.5833333000000001
100
AcDbArc
 50
270.0
 51
0.0
  0
LINE
  5
1B8D8
330
1F
100
AcDbEntity
  8
003
100
AcDbLine
 10
183.6110231946623
 20
372.5694707365383
 30
0.0
 11
183.6110231946623
 21
373.7361373365384
 31
0.0
  0
LINE
  5
1B8D9
330
1F
100
AcDbEntity
  8
003
100
AcDbLine
 10
181.8610232946623
 20
370.8194708365383
 30
0.0
 11
181.8610232946623
 21
371.9861374365382
 31
0.0
  0
LINE
  5
1B8DA
330
1F
100
AcDbEntity
  8
003
100
AcDbLine
 10
181.8610232946623
 20
370.8194708365383
 30
0.0
 11
183.0393565606623
 21
370.8194708365383
 31
0.0
  0
LINE
  5
1B8DB
330
1F
100
AcDbEntity
  8
003
100
AcDbLine
 10
181.8610232946623
 20
371.9861374365382
 30
0.0
 11
183.0276898946623
 21
371.9861374365382
 31
0.0
  0
LINE
  5
1B8DC
330
1F
100
AcDbEntity
  8
003
100
AcDbLine
 10
186.5276896946622
 20
370.8194708365383
 30
0.0
 11
186.5276896946622
 21
371.9861374365382
 31
0.0
  0
ARC
  5
1B8DD
330
1F
100
AcDbEntity
  8
003
100
AcDbCircle
 10
185.3610230946624
 20
370.2361375365385
 30
0.0
 40
0.5833333000000001
100
AcDbArc
 50
90.0
 51
180.0
  0
LINE
  5
1B8DE
330
1F
100
AcDbEntity
  8
003
100
AcDbLine
 10
184.7776897946623
 20
369.0694709365384
 30
0.0
 11
184.7776897946623
 21
370.2361375365385
 31
0.0
  0
LINE
  5
1B8DF
330
1F
100
AcDbEntity
  8
003
100
AcDbLine
 10
185.3610230946624
 20
370.8194708365383
 30
0.0
 11
186.5276896946622
 21
370.8194708365383
 31
0.0
  0
ARC
  5
1B8E0
330
1F
100
AcDbEntity
  8
003
100
AcDbCircle
 10
185.3610230946624
 20
372.5694707365383
 30
0.0
 40
0.5833333000000001
100
AcDbArc
 50
180.0
 51
270.0
  0
LINE
  5
1B8E1
330
1F
100
AcDbEntity
  8
003
100
AcDbLine
 10
185.3610230946624
 20
371.9861374365382
 30
0.0
 11
186.5276896946622
 21
371.9861374365382
 31
0.0
  0
LINE
  5
1B8E2
330
1F
100
AcDbEntity
  8
003
100
AcDbLine
 10
184.7776897946623
 20
372.5694707365383
 30
0.0
 11
184.7776897946623
 21
373.7361373365384
 31
0.0
  0
LINE
  5
1B8E3
330
1F
100
AcDbEntity
  8
010
100
AcDbLine
 10
226.1145049702399
 20
398.4569405608352
 30
0.0
 11
224.0931331435453
 21
396.4355687341406
 31
0.0
  0
ARC
  5
1B8E4
330
1F
100
AcDbEntity
  8
003
100
AcDbCircle
 10
220.1943564946623
 20
380.4028041365384
 30
0.0
 40
14.0
100
AcDbArc
 50
278.2004074701772
 51
261.7995925298245
  0
LINE
  5
1B8E5
330
1F
100
AcDbEntity
  8
010
100
AcDbLine
 10
216.9602935564381
 20
396.0725468565579
 30
0.0
 11
213.6855018997418
 21
392.7977551998617
 31
0.0
  0
LINE
  5
1B8E6
330
1F
100
AcDbEntity
  8
010
100
AcDbLine
 10
214.3852030145537
 20
398.4929599082432
 30
0.0
 11
202.1042007229576
 21
386.2119576166472
 31
0.0
  0
LINE
  5
1B8E7
330
1F
100
AcDbEntity
  8
010
100
AcDbLine
 10
207.3914525148653
 20
374.7383845118902
 30
0.0
 11
205.8891695390153
 21
373.2361015360402
 31
0.0
  0
LINE
  5
1B8E8
330
1F
100
AcDbEntity
  8
010
100
AcDbLine
 10
208.818033487582
 20
372.2431917169088
 30
0.0
 11
207.3871979948285
 21
370.8123562241553
 31
0.0
  0
LINE
  5
1B8E9
330
1F
100
AcDbEntity
  8
010
100
AcDbLine
 10
205.1674030742532
 20
373.5880648971502
 30
0.0
 11
203.2960688018753
 21
371.7167306247725
 31
0.0
  0
LINE
  5
1B8EA
330
1F
100
AcDbEntity
  8
010
100
AcDbLine
 10
206.5807872235133
 20
371.0796752787123
 30
0.0
 11
204.7864808123832
 21
369.2853688675821
 31
0.0
  0
LINE
  5
1B8EB
330
1F
100
AcDbEntity
  8
010
100
AcDbLine
 10
208.3442175320279
 20
368.9213318195289
 30
0.0
 11
206.5762589478471
 21
367.1533732353478
 31
0.0
  0
LINE
  5
1B8EC
330
1F
100
AcDbEntity
  8
010
100
AcDbLine
 10
210.6536721527465
 20
370.1570566143746
 30
0.0
 11
209.2386733062297
 21
368.7420577678579
 31
0.0
  0
LINE
  5
1B8ED
330
1F
100
AcDbEntity
  8
010
100
AcDbLine
 10
210.4396977410823
 20
367.0950382608848
 30
0.0
 11
208.6538586761793
 21
365.309199195982
 31
0.0
  0
LINE
  5
1B8EE
330
1F
100
AcDbEntity
  8
010
100
AcDbLine
 10
212.882386926365
 20
368.463997620295
 30
0.0
 11
211.4331149303191
 21
367.014725624249
 31
0.0
  0
LINE
  5
1B8EF
330
1F
100
AcDbEntity
  8
010
100
AcDbLine
 10
206.231503089466
 20
381.4219826218878
 30
0.0
 11
204.2248571880997
 21
379.4153367205213
 31
0.0
  0
LINE
  5
1B8F0
330
1F
100
AcDbEntity
  8
010
100
AcDbLine
 10
207.7994054313393
 20
386.9116587314597
 30
0.0
 11
204.5246137746429
 21
383.6368670747636
 31
0.0
  0
LINE
  5
1B8F1
330
1F
100
AcDbEntity
  8
010
100
AcDbLine
 10
206.4534008875126
 20
377.7221066522361
 30
0.0
 11
204.7941882963356
 21
376.0628940610591
 31
0.0
  0
LINE
  5
1B8F2
330
1F
100
AcDbEntity
  8
010
100
AcDbLine
 10
224.5342665701417
 20
395.802972334865
 30
0.0
 11
222.8750539789646
 21
394.143759743688
 31
0.0
  0
LINE
  5
1B8F3
330
1F
100
AcDbEntity
  8
010
100
AcDbLine
 10
222.9392714168632
 20
399.2034807751565
 30
0.0
 11
220.6327693312415
 21
396.896978689535
 31
0.0
  0
LINE
  5
1B8F4
330
1F
100
AcDbEntity
  8
010
100
AcDbLine
 10
219.1902712175127
 20
399.3762543435041
 30
0.0
 11
216.2346449801767
 21
396.4206281061684
 31
0.0
  0
LINE
  5
1B8F5
330
1F
100
AcDbEntity
  8
010
100
AcDbLine
 10
221.1818239106795
 20
396.3723034431009
 30
0.0
 11
219.175178009313
 21
394.3656575417347
 31
0.0
  0
LINE
  5
1B8F6
330
1F
100
AcDbEntity
  8
010
100
AcDbLine
 10
227.3610590951606
 20
394.7079910921853
 30
0.0
 11
225.8587761193106
 21
393.2057081163352
 31
0.0
  0
LINE
  5
1B8F7
330
1F
100
AcDbEntity
  8
010
100
AcDbLine
 10
238.5856834827003
 20
375.6321551640124
 30
0.0
 11
233.1915780010838
 21
370.2380496823957
 31
0.0
  0
LINE
  5
1B8F8
330
1F
100
AcDbEntity
  8
010
100
AcDbLine
 10
231.8551028633429
 20
391.3584873249708
 30
0.0
 11
230.440104016826
 21
389.9434884784541
 31
0.0
  0
LINE
  5
1B8F9
330
1F
100
AcDbEntity
  8
010
100
AcDbLine
 10
235.2879614352187
 20
391.9433019550213
 30
0.0
 11
233.5021223703158
 21
390.1574628901185
 31
0.0
  0
LINE
  5
1B8FA
330
1F
100
AcDbEntity
  8
010
100
AcDbLine
 10
233.4437873958528
 20
394.0209016833537
 30
0.0
 11
231.6758288116719
 21
392.2529430991726
 31
0.0
  0
LINE
  5
1B8FB
330
1F
100
AcDbEntity
  8
010
100
AcDbLine
 10
229.7848044070455
 20
393.2099626363722
 30
0.0
 11
228.353968914292
 21
391.7791271436186
 31
0.0
  0
LINE
  5
1B8FC
330
1F
100
AcDbEntity
  8
010
100
AcDbLine
 10
236.1894283095117
 20
380.0057177003462
 30
0.0
 11
233.9423980631578
 21
377.7586874539923
 31
0.0
  0
LINE
  5
1B8FD
330
1F
100
AcDbEntity
  8
010
100
AcDbLine
 10
235.8700136459344
 20
383.6080768044674
 30
0.0
 11
234.118656468015
 21
381.8567196265481
 31
0.0
  0
LINE
  5
1B8FE
330
1F
100
AcDbEntity
  8
010
100
AcDbLine
 10
234.943885654776
 20
386.6037225810073
 30
0.0
 11
233.3978451134604
 21
385.0576820396918
 31
0.0
  0
LINE
  5
1B8FF
330
1F
100
AcDbEntity
  8
010
100
AcDbLine
 10
233.5824350069517
 20
389.1640457008816
 30
0.0
 11
232.1331630109058
 21
387.7147737048356
 31
0.0
  0
LINE
  5
1B900
330
1F
100
AcDbEntity
  8
010
100
AcDbLine
 10
236.8365068906059
 20
389.5700736427104
 30
0.0
 11
234.984241869107
 21
387.7178086212116
 31
0.0
  0
LINE
  5
1B901
330
1F
100
AcDbEntity
  8
010
100
AcDbLine
 10
238.0594034163932
 20
386.8711964007996
 30
0.0
 11
236.0737478962038
 21
384.88554088061
 31
0.0
  0
LINE
  5
1B902
330
1F
100
AcDbEntity
  8
010
100
AcDbLine
 10
238.8915251212557
 20
383.7815443379641
 30
0.0
 11
236.6547886710142
 21
381.5448078877223
 31
0.0
  0
LINE
  5
1B903
330
1F
100
AcDbEntity
  8
010
100
AcDbLine
 10
239.1928185829962
 20
380.1610640320064
 30
0.0
 11
236.4158706893955
 21
377.3841161384055
 31
0.0
  0
LINE
  5
1B904
330
1F
100
AcDbEntity
  8
010
100
AcDbLine
 10
231.3117917636185
 20
395.8106798188176
 30
0.0
 11
229.5174853524883
 21
394.0163734076873
 31
0.0
  0
LINE
  5
1B905
330
1F
100
AcDbEntity
  8
010
100
AcDbLine
 10
228.8804300064283
 20
397.3010918293253
 30
0.0
 11
227.0090957340504
 21
395.4297575569474
 31
0.0
  0
ARC
  5
1B906
330
1F
100
AcDbEntity
  8
003
100
AcDbCircle
 10
220.1943564946623
 20
380.4028041365384
 30
0.0
 40
16.0
100
AcDbArc
 50
277.1807557814599
 51
262.8192442185417
  0
LINE
  5
1B907
330
1F
100
AcDbEntity
  8
010
100
AcDbLine
 10
218.1943564946623
 20
365.9324196531954
 30
0.0
 11
216.9890838267332
 21
364.7271469852662
 31
0.0
  0
LINE
  5
1B908
330
1F
100
AcDbEntity
  8
010
100
AcDbLine
 10
215.5394785915087
 20
367.1993155177402
 30
0.0
 11
213.9934380501932
 21
365.6532749764247
 31
0.0
  0
LINE
  5
1B909
330
1F
100
AcDbEntity
  8
010
100
AcDbLine
 10
212.8793520099892
 20
365.6129187620936
 30
0.0
 11
211.0270869884901
 21
363.7606537405948
 31
0.0
  0
LINE
  5
1B90A
330
1F
100
AcDbEntity
  8
010
100
AcDbLine
 10
223.2130444927952
 20
364.1812899418053
 30
0.0
 11
220.4360965991944
 21
361.4043420482044
 31
0.0
  0
LINE
  5
1B90B
330
1F
100
AcDbEntity
  8
010
100
AcDbLine
 10
220.2126717979727
 20
369.0244647823793
 30
0.0
 11
218.1943564946623
 21
367.0061494790687
 31
0.0
  0
LINE
  5
1B90C
330
1F
100
AcDbEntity
  8
010
100
AcDbLine
 10
222.1943564946623
 20
367.0843757113703
 30
0.0
 11
216.8156162932366
 21
361.7056355099448
 31
0.0
  0
LINE
  5
1B90D
330
1F
100
AcDbEntity
  8
010
100
AcDbLine
 10
222.8384731772083
 20
366.6547625680428
 30
0.0
 11
222.1943564946623
 21
366.0106458854968
 31
0.0
  0
LINE
  5
1B90E
330
1F
100
AcDbEntity
  8
010
100
AcDbLine
 10
203.7001819416656
 20
379.9643912999591
 30
0.0
 11
201.3936798560443
 21
377.6578892143375
 31
0.0
  0
LINE
  5
1B90F
330
1F
100
AcDbEntity
  8
010
100
AcDbLine
 10
204.1765325250322
 20
384.3625156510238
 30
0.0
 11
201.2209062876965
 21
381.4068894136878
 31
0.0
  0
LINE
  5
1B910
330
1F
100
AcDbEntity
  8
010
100
AcDbLine
 10
204.1615918970602
 20
376.5040274876553
 30
0.0
 11
202.1402200703656
 21
374.4826556609607
 31
0.0
  0
LINE
  5
1B911
330
1F
100
AcDbEntity
  8
010
100
AcDbLine
 10
235.3348996815729
 20
375.2294153047089
 30
0.0
 11
225.3677453264916
 21
365.262260949628
 31
0.0
  0
LINE
  5
1B912
330
1F
100
AcDbEntity
  8
010
100
AcDbLine
 10
230.3591109488051
 20
367.4055826301169
 30
0.0
 11
224.9650054671884
 21
362.0114771485005
 31
0.0
  0
ARC
  5
1B913
330
1F
100
AcDbEntity
  8
003
100
AcDbCircle
 10
220.1943564946623
 20
380.4028041365384
 30
0.0
 40
16.5
100
AcDbArc
 50
276.962062691083
 51
263.0379373089153
  0
LEADER
  5
1B915
330
1F
100
AcDbEntity
  8
003
100
AcDbLeader
  3
DIM
 73
     0
 74
     0
 40
6.0
 41
11.52857142857143
 76
     3
 10
239.1928185829962
 20
380.1610640320064
 30
0.0
 10
250.1135429732138
 20
399.0763135313198
 30
0.0
 10
252.8845174814439
 20
399.0763135313198
 30
0.0
340
1B916
1001
ACAD
1000
DSTYLE
1002
{
1070
   147
1040
1.0
1070
    77
1070
     1
1002
}
  0
MTEXT
  5
1B916
102
{ACAD_REACTORS
330
1B915
102
}
330
1F
100
AcDbEntity
  8
003
 62
     7
100
AcDbMText
 10
254.8845174814439
 20
401.0763135313197
 30
0.0
 40
6.0
 41
0.0
 71
     7
 72
     1
  1
38φ
  7
DIM
 73
     1
 44
1.0
1001
ACAD
1000
MTEXTBEGIN
1070
    73
1070
     1
1070
    44
1040
1.0
1070
    74
1070
     0
1000
MTEXTEND
  0
LEADER
  5
1B917
330
1F
100
AcDbEntity
  8
003
100
AcDbLeader
  3
DIM
 73
     0
 74
     0
 40
6.0
 41
28.26428571428571
 76
     3
 10
219.758191514453
 20
397.5304403464992
 30
0.0
 10
236.1888800074085
 20
425.9892276196353
 30
0.0
 10
236.6018860911731
 20
425.9892276196353
 30
0.0
340
1B918
1001
ACAD
1000
DSTYLE
1002
{
1070
   147
1040
1.0
1070
    77
1070
     1
1002
}
  0
MTEXT
  5
1B918
102
{ACAD_REACTORS
330
1B917
102
}
330
1F
100
AcDbEntity
  8
003
 62
     7
100
AcDbMText
 10
238.6018860911731
 20
427.9892276196354
 30
0.0
 40
6.0
 41
0.0
 71
     7
 72
     1
  1
32φパイプ
  7
DIM
 73
     1
 44
1.0
1001
ACAD
1000
MTEXTBEGIN
1070
    73
1070
     1
1070
    44
1040
1.0
1070
    74
1070
     0
1000
MTEXTEND
  0
DIMENSION
  5
1B919
330
1F
100
AcDbEntity
  8
003
100
AcDbDimension
  2
*D9
 10
220.1943564946623
 20
347.3847126180265
 30
0.0
 11
202.6943564946623
 21
347.3847126180265
 31
0.0
 70
   160
 71
     5
 42
45.0
  3
DIM
100
AcDbAlignedDimension
 13
175.1943564946623
 23
361.4028041365384
 33
0.0
 14
220.1943564946623
 24
388.3372901188775
 34
0.0
100
AcDbRotatedDimension
  0
DIMENSION
  5
1B91A
330
1F
100
AcDbEntity
  8
003
100
AcDbDimension
  2
*D10
 10
239.1943564946623
 20
333.3847126180265
 30
0.0
 11
207.1943564946623
 21
338.3847126180265
 31
0.0
 70
    32
 71
     5
 42
64.0
  3
DIM
100
AcDbAlignedDimension
 13
175.1943564946623
 23
361.4028041365384
 33
0.0
 14
239.1943564946623
 24
380.4028041365384
 34
0.0
100
AcDbRotatedDimension
  0
DIMENSION
  5
1B91B
330
1F
100
AcDbEntity
  8
003
100
AcDbDimension
  2
*D11
 10
168.3682800229419
 20
371.4028041365384
 30
0.0
 11
163.3682800229418
 21
380.4028041365384
 31
0.0
 70
    32
 71
     5
 42
18.0
  3
DIM
100
AcDbAlignedDimension
 13
179.1943564946623
 23
389.4028041365384
 33
0.0
 14
179.1943564946623
 24
371.4028041365384
 34
0.0
 50
90.0
100
AcDbRotatedDimension
  0
DIMENSION
  5
1B91C
330
1F
100
AcDbEntity
  8
003
100
AcDbDimension
  2
*D12
 10
152.9106887147656
 20
361.4028041365384
 30
0.0
 11
147.9106887147656
 21
380.4028041365384
 31
0.0
 70
    32
 71
     5
 42
38.0
  3
DIM
100
AcDbAlignedDimension
 13
175.1943564946623
 23
399.4028041365384
 33
0.0
 14
175.1943564946623
 24
361.4028041365384
 34
0.0
 50
90.0
100
AcDbRotatedDimension
  0
DIMENSION
  5
1B91D
330
1F
100
AcDbEntity
  8
003
100
AcDbDimension
  2
*D13
 10
184.1943564946623
 20
412.9067942997196
 30
0.0
 11
179.6943564946623
 21
417.9067942997196
 31
0.0
 70
    32
 71
     5
 42
9.0
  3
DIM
100
AcDbAlignedDimension
 13
175.1943564946623
 23
399.4028041365384
 33
0.0
 14
184.1943564946623
 24
394.4028041365384
 34
0.0
100
AcDbRotatedDimension
  0
LINE
  5
1BAE1
330
1F
100
AcDbEntity
  8
0
100
AcDbLine
 10
525.591896389993
 20
80.7579094561952
 30
0.0
 11
525.5918963899929
 21
95.90886508430163
 31
0.0
  0
LINE
  5
1BAE2
330
1F
100
AcDbEntity
  8
0
100
AcDbLine
 10
527.5744446401748
 20
89.92440945619524
 30
0.0
 11
536.8213828108992
 21
89.92440945619524
 31
0.0
  0
LINE
  5
1BAE3
330
1F
100
AcDbEntity
  8
0
100
AcDbLine
 10
525.5918963899929
 20
95.90886508430163
 30
0.0
 11
527.5744446401748
 21
95.90886508430163
 31
0.0
  0
LINE
  5
1BAE4
330
1F
100
AcDbEntity
  8
0
100
AcDbLine
 10
397.0560614222362
 20
127.290674391204
 30
0.0
 11
471.1170614222362
 21
127.290674391204
 31
0.0
  0
LINE
  5
1BAE5
330
1F
100
AcDbEntity
  8
0
100
AcDbLine
 10
425.1765614222362
 20
113.790674391204
 30
0.0
 11
494.7960614222361
 21
113.790674391204
 31
0.0
  0
LINE
  5
1BAE6
330
1F
100
AcDbEntity
  8
0
100
AcDbLine
 10
396.7185614222362
 20
113.790674391204
 30
0.0
 11
434.1810614222362
 21
113.790674391204
 31
0.0
  0
ARC
  5
1BAE7
330
1F
100
AcDbEntity
  8
0
100
AcDbCircle
 10
400.1340614222361
 20
120.4596743912041
 30
0.0
 40
7.492499999999999
100
AcDbArc
 50
114.2559800000013
 51
242.8809300000011
  0
LINE
  5
1BAE8
330
1F
100
AcDbEntity
  8
0
100
AcDbLine
 10
474.3300614222362
 20
113.790674391204
 30
0.0
 11
518.8800614222363
 21
113.790674391204
 31
0.0
  0
LINE
  5
1BAE9
330
1F
100
AcDbEntity
  8
0
100
AcDbLine
 10
474.4110614222362
 20
127.290674391204
 30
0.0
 11
518.5425614222362
 21
127.290674391204
 31
0.0
  0
LINE
  5
1BAEA
330
1F
100
AcDbEntity
  8
0
100
AcDbLine
 10
452.6220614222361
 20
127.290674391204
 30
0.0
 11
481.5390614222362
 21
127.290674391204
 31
0.0
  0
LINE
  5
1BAEB
330
1F
100
AcDbEntity
  8
0
100
AcDbLine
 10
458.3865614222362
 20
127.290674391204
 30
0.0
 11
459.9930614222362
 21
127.290674391204
 31
0.0
  0
ARC
  5
1BAEC
330
1F
100
AcDbEntity
  8
0
100
AcDbCircle
 10
520.7835614222362
 20
120.7431743912041
 30
0.0
 40
6.817499999999999
100
AcDbArc
 50
152.6744299999993
 51
162.2466799999975
  0
ARC
  5
1BAED
330
1F
100
AcDbEntity
  8
0
100
AcDbCircle
 10
516.5175614222362
 20
120.7431743912041
 30
0.0
 40
6.817499999999999
100
AcDbArc
 50
17.75331499999698
 51
27.32557000000073
  0
ARC
  5
1BAEE
330
1F
100
AcDbEntity
  8
0
100
AcDbCircle
 10
520.7430614222362
 20
120.7431743912041
 30
0.0
 40
7.451999999999999
100
AcDbArc
 50
151.9518899999987
 51
161.7617099999974
  0
ARC
  5
1BAEF
330
1F
100
AcDbEntity
  8
0
100
AcDbCircle
 10
516.5580614222362
 20
120.7431743912041
 30
0.0
 40
7.451999999999999
100
AcDbArc
 50
18.23828200000312
 51
28.04810500000307
  0
ARC
  5
1BAF0
330
1F
100
AcDbEntity
  8
0
100
AcDbCircle
 10
518.3265614222362
 20
118.853174391204
 30
0.0
 40
4.509
100
AcDbArc
 50
298.2542400000001
 51
310.8623999999953
  0
ARC
  5
1BAF1
330
1F
100
AcDbEntity
  8
0
100
AcDbCircle
 10
518.3400614222362
 20
118.8396743912039
 30
0.0
 40
5.157
100
AcDbArc
 50
297.4371600000014
 51
309.9016000000032
  0
LINE
  5
1BAF2
330
1F
100
AcDbEntity
  8
0
100
AcDbLine
 10
508.6875614222361
 20
118.5696743912041
 30
0.0
 11
514.1145614222361
 21
118.5696743912041
 31
0.0
  0
LINE
  5
1BAF3
330
1F
100
AcDbEntity
  8
0
100
AcDbLine
 10
508.1475614222362
 20
118.1376743912039
 30
0.0
 11
513.6285614222361
 21
118.1376743912039
 31
0.0
  0
LINE
  5
1BAF4
330
1F
100
AcDbEntity
  8
0
100
AcDbLine
 10
508.1475614222362
 20
121.323674391204
 30
0.0
 11
513.2775614222362
 21
121.323674391204
 31
0.0
  0
LINE
  5
1BAF5
330
1F
100
AcDbEntity
  8
0
100
AcDbLine
 10
508.1475614222362
 20
118.1376743912039
 30
0.0
 11
508.6875614222361
 21
118.5696743912041
 31
0.0
  0
LINE
  5
1BAF6
330
1F
100
AcDbEntity
  8
0
100
AcDbLine
 10
508.6875614222361
 20
118.5696743912041
 30
0.0
 11
508.6875614222361
 21
121.323674391204
 31
0.0
  0
LINE
  5
1BAF7
330
1F
100
AcDbEntity
  8
0
100
AcDbLine
 10
508.1475614222362
 20
118.1376743912039
 30
0.0
 11
508.1475614222362
 21
121.323674391204
 31
0.0
  0
LINE
  5
1BAF8
330
1F
100
AcDbEntity
  8
0
100
AcDbLine
 10
513.5880614222362
 20
118.151174391204
 30
0.0
 11
514.1550614222362
 21
118.610174391204
 31
0.0
  0
LINE
  5
1BAF9
330
1F
100
AcDbEntity
  8
0
100
AcDbLine
 10
513.2910614222362
 20
121.323674391204
 30
0.0
 11
513.9930614222362
 21
121.5666743912039
 31
0.0
  0
ARC
  5
1BAFA
330
1F
100
AcDbEntity
  8
0
100
AcDbCircle
 10
518.5830614222362
 20
118.3941743912041
 30
0.0
 40
3.969
100
AcDbArc
 50
284.3668799999965
 51
298.1296400000052
  0
ARC
  5
1BAFB
330
1F
100
AcDbEntity
  8
0
100
AcDbCircle
 10
518.6505614222362
 20
118.1241743912039
 30
0.0
 40
3.699
100
AcDbArc
 50
270.0
 51
284.3917899999983
  0
ARC
  5
1BAFC
330
1F
100
AcDbEntity
  8
0
100
AcDbCircle
 10
518.6505614222362
 20
118.1241743912039
 30
0.0
 40
3.699
100
AcDbArc
 50
255.6082000000013
 51
270.0
  0
ARC
  5
1BAFD
330
1F
100
AcDbEntity
  8
0
100
AcDbCircle
 10
518.7180614222362
 20
118.3941743912041
 30
0.0
 40
3.969
100
AcDbArc
 50
241.8703500000019
 51
255.6331100000032
  0
ARC
  5
1BAFE
330
1F
100
AcDbEntity
  8
0
100
AcDbCircle
 10
518.9745614222362
 20
118.853174391204
 30
0.0
 40
4.509
100
AcDbArc
 50
229.1375900000004
 51
241.7457500000038
  0
ARC
  5
1BAFF
330
1F
100
AcDbEntity
  8
0
100
AcDbCircle
 10
519.4335614222361
 20
119.4066743912041
 30
0.0
 40
5.224499999999999
100
AcDbArc
 50
217.8489600000013
 51
229.3022200000036
  0
ARC
  5
1BB00
330
1F
100
AcDbEntity
  8
0
100
AcDbCircle
 10
520.0815614222362
 20
119.8926743912039
 30
0.0
 40
6.0345
100
AcDbArc
 50
207.3105999999994
 51
217.7173300000013
  0
ARC
  5
1BB01
330
1F
100
AcDbEntity
  8
0
100
AcDbCircle
 10
520.7835614222362
 20
120.2571743912041
 30
0.0
 40
6.817499999999999
100
AcDbArc
 50
197.7533099999986
 51
207.3255700000007
  0
ARC
  5
1BB02
330
1F
100
AcDbEntity
  8
0
100
AcDbCircle
 10
520.9455614222362
 20
120.3246743912041
 30
0.0
 40
7.006499999999999
100
AcDbArc
 50
194.1701700000024
 51
197.8752999999973
  0
ARC
  5
1BB03
330
1F
100
AcDbEntity
  8
0
100
AcDbCircle
 10
521.4315614222361
 20
120.540674391204
 30
0.0
 40
7.506
100
AcDbArc
 50
171.1989400000039
 51
172.1466800000006
  0
ARC
  5
1BB04
330
1F
100
AcDbEntity
  8
0
100
AcDbCircle
 10
521.3640614222362
 20
120.554174391204
 30
0.0
 40
7.4385
100
AcDbArc
 50
162.2235899999972
 51
171.2221800000003
  0
ARC
  5
1BB05
330
1F
100
AcDbEntity
  8
0
100
AcDbCircle
 10
518.5830614222362
 20
118.3671743912041
 30
0.0
 40
4.616999999999999
100
AcDbArc
 50
284.0362399999996
 51
297.4625600000042
  0
ARC
  5
1BB06
330
1F
100
AcDbEntity
  8
0
100
AcDbCircle
 10
518.6505614222362
 20
118.0971743912041
 30
0.0
 40
4.347
100
AcDbArc
 50
270.0
 51
284.0362399999996
  0
ARC
  5
1BB07
330
1F
100
AcDbEntity
  8
0
100
AcDbCircle
 10
518.6505614222362
 20
118.0971743912041
 30
0.0
 40
4.347
100
AcDbArc
 50
255.9637500000041
 51
270.0
  0
ARC
  5
1BB08
330
1F
100
AcDbEntity
  8
0
100
AcDbCircle
 10
518.7180614222362
 20
118.3671743912041
 30
0.0
 40
4.616999999999999
100
AcDbArc
 50
242.5374299999966
 51
255.9637500000041
  0
ARC
  5
1BB09
330
1F
100
AcDbEntity
  8
0
100
AcDbCircle
 10
518.9610614222362
 20
118.8396743912039
 30
0.0
 40
5.157
100
AcDbArc
 50
230.098390000001
 51
242.5628300000026
  0
ARC
  5
1BB0A
330
1F
100
AcDbEntity
  8
0
100
AcDbCircle
 10
519.4200614222362
 20
119.3796743912041
 30
0.0
 40
5.872499999999999
100
AcDbArc
 50
218.5569000000013
 51
230.0424499999956
  0
ARC
  5
1BB0B
330
1F
100
AcDbEntity
  8
0
100
AcDbCircle
 10
520.0545614222362
 20
119.8926743912039
 30
0.0
 40
6.6825
100
AcDbArc
 50
208.0656799999961
 51
218.6056000000017
  0
ARC
  5
1BB0C
330
1F
100
AcDbEntity
  8
0
100
AcDbCircle
 10
520.7430614222362
 20
120.2571743912041
 30
0.0
 40
7.451999999999999
100
AcDbArc
 50
198.2382800000014
 51
208.0480999999973
  0
ARC
  5
1BB0D
330
1F
100
AcDbEntity
  8
0
100
AcDbCircle
 10
520.8645614222361
 20
120.3111743912041
 30
0.0
 40
7.6005
100
AcDbArc
 50
196.6309499999973
 51
198.3383200000003
  0
ARC
  5
1BB0E
330
1F
100
AcDbEntity
  8
0
100
AcDbCircle
 10
521.4315614222361
 20
120.5271743912039
 30
0.0
 40
8.1675
100
AcDbArc
 50
170.8798299999985
 51
174.4117300000024
  0
ARC
  5
1BB0F
330
1F
100
AcDbEntity
  8
0
100
AcDbCircle
 10
521.3235614222362
 20
120.554174391204
 30
0.0
 40
8.073
100
AcDbArc
 50
161.7771400000001
 51
170.9476000000026
  0
ARC
  5
1BB10
330
1F
100
AcDbEntity
  8
0
100
AcDbCircle
 10
515.5995614222361
 20
120.500174391204
 30
0.0
 40
7.776
100
AcDbArc
 50
351.2084400000032
 51
0.0
  0
ARC
  5
1BB11
330
1F
100
AcDbEntity
  8
0
100
AcDbCircle
 10
515.9370614222362
 20
120.446174391204
 30
0.0
 40
7.4385
100
AcDbArc
 50
342.2235899999972
 51
351.2221800000002
  0
ARC
  5
1BB12
330
1F
100
AcDbEntity
  8
0
100
AcDbCircle
 10
516.5175614222362
 20
120.2571743912041
 30
0.0
 40
6.817499999999999
100
AcDbArc
 50
332.6744299999993
 51
342.2466799999975
  0
ARC
  5
1BB13
330
1F
100
AcDbEntity
  8
0
100
AcDbCircle
 10
517.2195614222362
 20
119.8926743912039
 30
0.0
 40
6.0345
100
AcDbArc
 50
322.2826600000029
 51
332.6894000000006
  0
ARC
  5
1BB14
330
1F
100
AcDbEntity
  8
0
100
AcDbCircle
 10
517.8675614222362
 20
119.4066743912041
 30
0.0
 40
5.224499999999999
100
AcDbArc
 50
310.6977700000006
 51
322.151029999996
  0
ARC
  5
1BB15
330
1F
100
AcDbEntity
  8
0
100
AcDbCircle
 10
515.9370614222362
 20
120.554174391204
 30
0.0
 40
7.4385
100
AcDbArc
 50
8.777817300001235
 51
17.77640500000142
  0
ARC
  5
1BB16
330
1F
100
AcDbEntity
  8
0
100
AcDbCircle
 10
515.5995614222361
 20
120.500174391204
 30
0.0
 40
7.776
100
AcDbArc
 50
0.0
 51
8.791556999997849
  0
ARC
  5
1BB17
330
1F
100
AcDbEntity
  8
0
100
AcDbCircle
 10
515.6400614222362
 20
120.500174391204
 30
0.0
 40
8.4105
100
AcDbArc
 50
350.9460599999964
 51
0.0
  0
ARC
  5
1BB18
330
1F
100
AcDbEntity
  8
0
100
AcDbCircle
 10
515.9775614222362
 20
120.446174391204
 30
0.0
 40
8.073
100
AcDbArc
 50
341.7771400000002
 51
350.9476000000027
  0
ARC
  5
1BB19
330
1F
100
AcDbEntity
  8
0
100
AcDbCircle
 10
516.5580614222362
 20
120.2571743912041
 30
0.0
 40
7.451999999999999
100
AcDbArc
 50
331.9518899999985
 51
341.7617099999974
  0
ARC
  5
1BB1A
330
1F
100
AcDbEntity
  8
0
100
AcDbCircle
 10
517.2465614222361
 20
119.8926743912039
 30
0.0
 40
6.6825
100
AcDbArc
 50
321.3943899999961
 51
331.9343099999957
  0
ARC
  5
1BB1B
330
1F
100
AcDbEntity
  8
0
100
AcDbCircle
 10
517.8810614222363
 20
119.3796743912041
 30
0.0
 40
5.872499999999999
100
AcDbArc
 50
309.9575400000018
 51
321.4430900000018
  0
ARC
  5
1BB1C
330
1F
100
AcDbEntity
  8
0
100
AcDbCircle
 10
515.9775614222362
 20
120.554174391204
 30
0.0
 40
8.073
100
AcDbArc
 50
9.052397899998615
 51
18.22285499999669
  0
ARC
  5
1BB1D
330
1F
100
AcDbEntity
  8
0
100
AcDbCircle
 10
515.6400614222362
 20
120.500174391204
 30
0.0
 40
8.4105
100
AcDbArc
 50
0.0
 51
9.053937800001033
  0
ARC
  5
1BB1E
330
1F
100
AcDbEntity
  8
0
100
AcDbCircle
 10
518.3265614222362
 20
122.1471743912041
 30
0.0
 40
4.509
100
AcDbArc
 50
49.13759299999606
 51
61.7457500000038
  0
ARC
  5
1BB1F
330
1F
100
AcDbEntity
  8
0
100
AcDbCircle
 10
518.3400614222362
 20
122.1606743912041
 30
0.0
 40
5.157
100
AcDbArc
 50
50.09839099999983
 51
62.56283199999882
  0
ARC
  5
1BB20
330
1F
100
AcDbEntity
  8
0
100
AcDbCircle
 10
520.0815614222362
 20
121.107674391204
 30
0.0
 40
6.0345
100
AcDbArc
 50
142.2826600000028
 51
152.6894000000006
  0
ARC
  5
1BB21
330
1F
100
AcDbEntity
  8
0
100
AcDbCircle
 10
519.4335614222361
 20
121.5936743912038
 30
0.0
 40
5.224499999999999
100
AcDbArc
 50
130.6977700000005
 51
142.151029999996
  0
ARC
  5
1BB22
330
1F
100
AcDbEntity
  8
0
100
AcDbCircle
 10
518.9745614222362
 20
122.1471743912041
 30
0.0
 40
4.509
100
AcDbArc
 50
118.2542400000001
 51
130.8623999999952
  0
ARC
  5
1BB23
330
1F
100
AcDbEntity
  8
0
100
AcDbCircle
 10
518.7180614222362
 20
122.6061743912039
 30
0.0
 40
3.969
100
AcDbArc
 50
104.3668799999964
 51
118.1296400000052
  0
ARC
  5
1BB24
330
1F
100
AcDbEntity
  8
0
100
AcDbCircle
 10
518.6505614222362
 20
122.876174391204
 30
0.0
 40
3.699
100
AcDbArc
 50
90.0
 51
104.3917899999982
  0
ARC
  5
1BB25
330
1F
100
AcDbEntity
  8
0
100
AcDbCircle
 10
518.6505614222362
 20
122.876174391204
 30
0.0
 40
3.699
100
AcDbArc
 50
75.60820199999856
 51
90.0
  0
ARC
  5
1BB26
330
1F
100
AcDbEntity
  8
0
100
AcDbCircle
 10
518.5830614222362
 20
122.6061743912039
 30
0.0
 40
3.969
100
AcDbArc
 50
61.87035400000568
 51
75.63311600000028
  0
ARC
  5
1BB27
330
1F
100
AcDbEntity
  8
0
100
AcDbCircle
 10
520.0545614222362
 20
121.107674391204
 30
0.0
 40
6.6825
100
AcDbArc
 50
141.3943899999961
 51
151.9343099999957
  0
ARC
  5
1BB28
330
1F
100
AcDbEntity
  8
0
100
AcDbCircle
 10
519.4200614222362
 20
121.6206743912041
 30
0.0
 40
5.872499999999999
100
AcDbArc
 50
129.9575400000018
 51
141.4430900000017
  0
ARC
  5
1BB29
330
1F
100
AcDbEntity
  8
0
100
AcDbCircle
 10
518.9610614222362
 20
122.1606743912041
 30
0.0
 40
5.157
100
AcDbArc
 50
117.4371600000013
 51
129.9016000000032
  0
ARC
  5
1BB2A
330
1F
100
AcDbEntity
  8
0
100
AcDbCircle
 10
518.7180614222362
 20
122.6331743912041
 30
0.0
 40
4.616999999999999
100
AcDbArc
 50
104.03624
 51
117.4625600000041
  0
ARC
  5
1BB2B
330
1F
100
AcDbEntity
  8
0
100
AcDbCircle
 10
518.6505614222362
 20
122.9031743912039
 30
0.0
 40
4.347
100
AcDbArc
 50
90.0
 51
104.03624
  0
ARC
  5
1BB2C
330
1F
100
AcDbEntity
  8
0
100
AcDbCircle
 10
518.6505614222362
 20
122.9031743912039
 30
0.0
 40
4.347
100
AcDbArc
 50
75.96375599999513
 51
90.0
  0
ARC
  5
1BB2D
330
1F
100
AcDbEntity
  8
0
100
AcDbCircle
 10
518.5830614222362
 20
122.6331743912041
 30
0.0
 40
4.616999999999999
100
AcDbArc
 50
62.53743799999514
 51
75.96375599999513
  0
ARC
  5
1BB2E
330
1F
100
AcDbEntity
  8
0
100
AcDbCircle
 10
517.8675614222362
 20
121.5936743912038
 30
0.0
 40
5.224499999999999
100
AcDbArc
 50
37.84896299999945
 51
49.30222000000362
  0
ARC
  5
1BB2F
330
1F
100
AcDbEntity
  8
0
100
AcDbCircle
 10
517.2195614222362
 20
121.107674391204
 30
0.0
 40
6.0345
100
AcDbArc
 50
27.310599000001
 51
37.71733000000133
  0
ARC
  5
1BB30
330
1F
100
AcDbEntity
  8
0
100
AcDbCircle
 10
517.8810614222363
 20
121.6206743912041
 30
0.0
 40
5.872499999999999
100
AcDbArc
 50
38.5569060000018
 51
50.04245100000503
  0
ARC
  5
1BB31
330
1F
100
AcDbEntity
  8
0
100
AcDbCircle
 10
517.2465614222361
 20
121.107674391204
 30
0.0
 40
6.6825
100
AcDbArc
 50
28.06568100000315
 51
38.60560199999728
  0
LINE
  5
1BB32
330
1F
100
AcDbEntity
  8
003
100
AcDbLine
 10
222.1943564946623
 20
369.0244647823793
 30
0.0
 11
222.1943564946623
 21
364.0244647823792
 31
0.0
  0
LINE
  5
1BB33
330
1F
100
AcDbEntity
  8
003
100
AcDbLine
 10
218.1943564946623
 20
369.0244647823793
 30
0.0
 11
218.1943564946623
 21
364.0244647823792
 31
0.0
  0
LINE
  5
1BB34
330
1F
100
AcDbEntity
  8
003
100
AcDbLine
 10
218.1943564946623
 20
369.0244647823793
 30
0.0
 11
222.1943564946623
 21
369.0244647823793
 31
0.0
  0
LINE
  5
1BB35
330
1F
100
AcDbEntity
  8
010
100
AcDbLine
 10
215.7116197505905
 20
364.5234127349968
 30
0.0
 11
213.7259642304011
 21
362.5377572148075
 31
0.0
  0
LEADER
  5
1BB36
330
1F
100
AcDbEntity
  8
003
100
AcDbLeader
  3
DIM
 73
     0
 74
     0
 40
6.000000000000001
 41
30.30000000000001
 76
     3
 10
222.1943564946623
 20
366.0106458854968
 30
0.0
 10
230.6209412952472
 20
351.4153728765962
 30
0.0
 10
249.9260765535634
 20
351.4153728765962
 30
0.0
340
1BB37
1001
ACAD
1000
DSTYLE
1002
{
1070
   147
1040
1.0
1070
    77
1070
     1
1002
}
  0
MTEXT
  5
1BB37
102
{ACAD_REACTORS
330
1BB36
102
}
330
1F
100
AcDbEntity
  8
003
 62
     7
100
AcDbMText
 10
251.9260765535634
 20
353.4153728765962
 30
0.0
 40
6.0
 41
0.0
 71
     7
 72
     1
  1
回転止めピン
  7
DIM
 73
     1
 44
1.0
1001
ACAD
1000
MTEXTBEGIN
1070
    73
1070
     1
1070
    44
1040
1.0
1070
    74
1070
     0
1000
MTEXTEND
  0
MTEXT
  5
1BB38
330
1F
100
AcDbEntity
  8
003
 62
     7
100
AcDbMText
 10
247.6943564946623
 20
342.870814020888
 30
0.0
 40
6.0
 41
0.0
 71
     7
 72
     1
  1
（一方のブラケットのみ）
  7
DIM
 73
     1
 44
1.0
1001
ACAD
1000
MTEXTBEGIN
1070
    73
1070
     1
1070
    44
1040
1.0
1070
    74
1070
     0
1000
MTEXTEND
  0
LINE
  5
1BBB5
330
1F
100
AcDbEntity
  8
0
100
AcDbLine
 10
513.2510474127943
 20
442.6894211555726
 30
0.0
 11
587.5617668319888
 21
442.6894211555723
 31
0.0
  0
LINE
  5
1BBB6
330
1F
100
AcDbEntity
  8
0
100
AcDbLine
 10
498.5610474127944
 20
372.6894211555726
 30
0.0
 11
587.5617668319888
 21
372.6894211555724
 31
0.0
  0
LINE
  5
1BBB7
330
1F
100
AcDbEntity
  8
0
100
AcDbLine
 10
468.4610474127943
 20
390.5094211555724
 30
0.0
 11
470.5510474127944
 21
392.5994211555725
 31
0.0
  0
LINE
  5
1BBB8
330
1F
100
AcDbEntity
  8
0
100
AcDbLine
 10
498.2610474127942
 20
390.4094211555724
 30
0.0
 11
498.2610474127942
 21
394.3594211555725
 31
0.0
  0
LINE
  5
1BBB9
330
1F
100
AcDbEntity
  8
0
100
AcDbLine
 10
496.2610474127942
 20
384.4894211555724
 30
0.0
 11
496.2610474127942
 21
392.8894211555725
 31
0.0
  0
LINE
  5
1BBBA
330
1F
100
AcDbEntity
  8
0
100
AcDbLine
 10
484.3510474127944
 20
391.3994211555725
 30
0.0
 11
486.0610474127944
 21
389.6894211555726
 31
0.0
  0
LINE
  5
1BBBB
330
1F
100
AcDbEntity
  8
0
100
AcDbLine
 10
485.9710474127942
 20
392.5994211555725
 30
0.0
 11
488.0610474127944
 21
390.5094211555724
 31
0.0
  0
LINE
  5
1BBBC
330
1F
100
AcDbEntity
  8
0
100
AcDbLine
 10
470.4610474127943
 20
389.6894211555726
 30
0.0
 11
472.1710474127942
 21
391.3994211555725
 31
0.0
  0
LINE
  5
1BBBD
330
1F
100
AcDbEntity
  8
0
100
AcDbLine
 10
460.2610474127943
 20
384.4894211555724
 30
0.0
 11
460.2610474127943
 21
392.8894211555725
 31
0.0
  0
LINE
  5
1BBBE
330
1F
100
AcDbEntity
  8
0
100
AcDbLine
 10
458.2610474127942
 20
387.6894211555726
 30
0.0
 11
458.2610474127942
 21
402.1894211555726
 31
0.0
  0
LINE
  5
1BBBF
330
1F
100
AcDbEntity
  8
0
100
AcDbLine
 10
468.4610474127943
 20
374.6894211555726
 30
0.0
 11
488.0610474127944
 21
374.6894211555726
 31
0.0
  0
LINE
  5
1BBC0
330
1F
100
AcDbEntity
  8
0
100
AcDbLine
 10
458.2610474127942
 20
350.6894211555726
 30
0.0
 11
498.2610474127942
 21
350.6894211555726
 31
0.0
  0
LINE
  5
1BBC1
330
1F
100
AcDbEntity
  8
0
100
AcDbLine
 10
487.2610474127943
 20
374.3894211555724
 30
0.0
 11
488.0610474127944
 21
374.3894211555724
 31
0.0
  0
ARC
  5
1BBC2
330
1F
100
AcDbEntity
  8
0
100
AcDbCircle
 10
487.0710474127944
 20
353.9594211555726
 30
0.0
 40
0.71
100
AcDbArc
 50
201.2092200000037
 51
345.3791200000012
  0
LINE
  5
1BBC3
330
1F
100
AcDbEntity
  8
0
100
AcDbLine
 10
485.2610474127942
 20
351.8894211555724
 30
0.0
 11
497.0610474127944
 21
351.8894211555724
 31
0.0
  0
ARC
  5
1BBC4
330
1F
100
AcDbEntity
  8
0
100
AcDbCircle
 10
457.6510474127942
 20
410.6294211555725
 30
0.0
 40
22.95
100
AcDbArc
 50
254.1952199999999
 51
271.5231900000004
  0
ARC
  5
1BBC5
330
1F
100
AcDbEntity
  8
0
100
AcDbCircle
 10
457.7410474127943
 20
411.0294211555723
 30
0.0
 40
25.35
100
AcDbArc
 50
254.8122899999968
 51
271.1755900000002
  0
LINE
  5
1BBC6
330
1F
100
AcDbEntity
  8
0
100
AcDbLine
 10
453.4610474127943
 20
373.6894211555726
 30
0.0
 11
457.7610474127943
 21
373.6894211555726
 31
0.0
  0
LINE
  5
1BBC7
330
1F
100
AcDbEntity
  8
0
100
AcDbLine
 10
443.2610474127943
 20
372.6894211555726
 30
0.0
 11
457.9610474127943
 21
372.6894211555726
 31
0.0
  0
LINE
  5
1BBC8
330
1F
100
AcDbEntity
  8
0
100
AcDbLine
 10
437.1410474127943
 20
372.6894211555726
 30
0.0
 11
443.2610474127943
 21
372.6894211555726
 31
0.0
  0
LINE
  5
1BBC9
330
1F
100
AcDbEntity
  8
0
100
AcDbLine
 10
446.1610474127943
 20
375.1894211555726
 30
0.0
 11
446.9610474127943
 21
375.1894211555726
 31
0.0
  0
LINE
  5
1BBCA
330
1F
100
AcDbEntity
  8
0
100
AcDbLine
 10
446.1610474127943
 20
373.8894211555725
 30
0.0
 11
451.7610474127943
 21
373.8894211555725
 31
0.0
  0
LINE
  5
1BBCB
330
1F
100
AcDbEntity
  8
0
100
AcDbLine
 10
445.9610474127943
 20
376.1894211555727
 30
0.0
 11
446.9610474127943
 21
376.1894211555727
 31
0.0
  0
LINE
  5
1BBCC
330
1F
100
AcDbEntity
  8
0
100
AcDbLine
 10
446.1610474127943
 20
373.8894211555725
 30
0.0
 11
446.1610474127943
 21
375.1894211555726
 31
0.0
  0
ARC
  5
1BBCD
330
1F
100
AcDbEntity
  8
0
100
AcDbCircle
 10
445.9610474127943
 20
375.1894211555726
 30
0.0
 40
1.0
100
AcDbArc
 50
90.0
 51
180.0
  0
LINE
  5
1BBCE
330
1F
100
AcDbEntity
  8
0
100
AcDbLine
 10
443.4510474127943
 20
373.6894211555726
 30
0.0
 11
444.9610474127943
 21
373.6894211555726
 31
0.0
  0
LINE
  5
1BBCF
330
1F
100
AcDbEntity
  8
0
100
AcDbLine
 10
443.4510474127943
 20
372.6894211555726
 30
0.0
 11
443.4510474127943
 21
373.6894211555726
 31
0.0
  0
LINE
  5
1BBD0
330
1F
100
AcDbEntity
  8
0
100
AcDbLine
 10
444.9610474127943
 20
373.6894211555726
 30
0.0
 11
444.9610474127943
 21
375.1894211555726
 31
0.0
  0
ARC
  5
1BBD1
330
1F
100
AcDbEntity
  8
0
100
AcDbCircle
 10
451.9610474127943
 20
375.1894211555726
 30
0.0
 40
1.0
100
AcDbArc
 50
0.0
 51
90.0
  0
LINE
  5
1BBD2
330
1F
100
AcDbEntity
  8
0
100
AcDbLine
 10
452.9610474127943
 20
374.1894211555726
 30
0.0
 11
452.9610474127943
 21
375.1894211555726
 31
0.0
  0
ARC
  5
1BBD3
330
1F
100
AcDbEntity
  8
0
100
AcDbCircle
 10
453.4610474127943
 20
374.1894211555726
 30
0.0
 40
0.5
100
AcDbArc
 50
180.0
 51
270.0
  0
LINE
  5
1BBD4
330
1F
100
AcDbEntity
  8
0
100
AcDbLine
 10
450.9610474127943
 20
375.1894211555726
 30
0.0
 11
451.7610474127943
 21
375.1894211555726
 31
0.0
  0
LINE
  5
1BBD5
330
1F
100
AcDbEntity
  8
0
100
AcDbLine
 10
451.7610474127943
 20
373.8894211555725
 30
0.0
 11
451.7610474127943
 21
375.1894211555726
 31
0.0
  0
ARC
  5
1BBD6
330
1F
100
AcDbEntity
  8
0
100
AcDbCircle
 10
446.9610474127943
 20
375.6894211555726
 30
0.0
 40
0.5
100
AcDbArc
 50
0.0
 51
90.0
  0
ARC
  5
1BBD7
330
1F
100
AcDbEntity
  8
0
100
AcDbCircle
 10
446.9610474127943
 20
375.6894211555726
 30
0.0
 40
0.5
100
AcDbArc
 50
270.0
 51
0.0
  0
ARC
  5
1BBD8
330
1F
100
AcDbEntity
  8
0
100
AcDbCircle
 10
450.9610474127943
 20
375.6894211555726
 30
0.0
 40
0.5
100
AcDbArc
 50
180.0
 51
270.0
  0
ARC
  5
1BBD9
330
1F
100
AcDbEntity
  8
0
100
AcDbCircle
 10
450.9610474127943
 20
375.6894211555726
 30
0.0
 40
0.5
100
AcDbArc
 50
90.0
 51
180.0
  0
LINE
  5
1BBDA
330
1F
100
AcDbEntity
  8
0
100
AcDbLine
 10
450.9610474127943
 20
376.1894211555727
 30
0.0
 11
451.9610474127943
 21
376.1894211555727
 31
0.0
  0
ARC
  5
1BBDB
330
1F
100
AcDbEntity
  8
0
100
AcDbCircle
 10
451.2810474127944
 20
387.5494211555725
 30
0.0
 40
1.0
100
AcDbArc
 50
82.59308699999781
 51
262.947690000001
  0
LINE
  5
1BBDC
330
1F
100
AcDbEntity
  8
0
100
AcDbLine
 10
486.5610474127944
 20
357.4794211555726
 30
0.0
 11
486.5610474127944
 21
369.6894211555726
 31
0.0
  0
LINE
  5
1BBDD
330
1F
100
AcDbEntity
  8
0
100
AcDbLine
 10
469.9610474127943
 20
357.4794211555726
 30
0.0
 11
469.9610474127943
 21
369.6894211555726
 31
0.0
  0
LINE
  5
1BBDE
330
1F
100
AcDbEntity
  8
0
100
AcDbLine
 10
478.2610474127942
 20
365.7094211555726
 30
0.0
 11
478.2610474127942
 21
381.6394211555725
 31
0.0
  0
LINE
  5
1BBDF
330
1F
100
AcDbEntity
  8
0
100
AcDbLine
 10
458.2610474127942
 20
350.6894211555726
 30
0.0
 11
458.2610474127942
 21
372.6894211555726
 31
0.0
  0
LINE
  5
1BBE0
330
1F
100
AcDbEntity
  8
0
100
AcDbLine
 10
459.4610474127943
 20
351.8894211555724
 30
0.0
 11
459.4610474127943
 21
372.6894211555726
 31
0.0
  0
LINE
  5
1BBE1
330
1F
100
AcDbEntity
  8
0
100
AcDbLine
 10
468.7610474127943
 20
356.7594211555723
 30
0.0
 11
468.7610474127943
 21
369.6894211555726
 31
0.0
  0
LINE
  5
1BBE2
330
1F
100
AcDbEntity
  8
0
100
AcDbLine
 10
459.4610474127943
 20
351.8894211555724
 30
0.0
 11
471.2610474127942
 21
351.8894211555724
 31
0.0
  0
LINE
  5
1BBE3
330
1F
100
AcDbEntity
  8
0
100
AcDbLine
 10
470.4610474127943
 20
356.1794211555724
 30
0.0
 11
471.3010474127943
 21
358.7694211555726
 31
0.0
  0
LINE
  5
1BBE4
330
1F
100
AcDbEntity
  8
0
100
AcDbLine
 10
470.4610474127943
 20
356.1794211555724
 30
0.0
 11
471.2610474127942
 21
355.1894211555727
 31
0.0
  0
LINE
  5
1BBE5
330
1F
100
AcDbEntity
  8
0
100
AcDbLine
 10
470.1210474127943
 20
353.6994211555724
 30
0.0
 11
470.7610474127942
 21
355.6694211555724
 31
0.0
  0
LINE
  5
1BBE6
330
1F
100
AcDbEntity
  8
0
100
AcDbLine
 10
468.7610474127943
 20
353.7794211555726
 30
0.0
 11
468.7610474127943
 21
356.7594211555723
 31
0.0
  0
ARC
  5
1BBE7
330
1F
100
AcDbEntity
  8
0
100
AcDbCircle
 10
469.4510474127942
 20
353.9594211555726
 30
0.0
 40
0.71
100
AcDbArc
 50
194.6208699999963
 51
338.7907699999992
  0
LINE
  5
1BBE8
330
1F
100
AcDbEntity
  8
0
100
AcDbLine
 10
469.9610474127943
 20
356.6594211555724
 30
0.0
 11
469.9610474127943
 21
357.4794211555726
 31
0.0
  0
LINE
  5
1BBE9
330
1F
100
AcDbEntity
  8
0
100
AcDbLine
 10
469.9610474127943
 20
356.6594211555724
 30
0.0
 11
470.7610474127942
 21
355.6694211555724
 31
0.0
  0
LINE
  5
1BBEA
330
1F
100
AcDbEntity
  8
0
100
AcDbLine
 10
485.7610474127942
 20
355.6694211555724
 30
0.0
 11
486.4010474127943
 21
353.6994211555724
 31
0.0
  0
LINE
  5
1BBEB
330
1F
100
AcDbEntity
  8
0
100
AcDbLine
 10
485.2610474127942
 20
355.1894211555727
 30
0.0
 11
486.0610474127944
 21
356.1794211555724
 31
0.0
  0
LINE
  5
1BBEC
330
1F
100
AcDbEntity
  8
0
100
AcDbLine
 10
484.0610474127944
 20
351.8894211555724
 30
0.0
 11
484.0610474127944
 21
358.6394211555724
 31
0.0
  0
LINE
  5
1BBED
330
1F
100
AcDbEntity
  8
0
100
AcDbLine
 10
472.4610474127943
 20
351.8894211555724
 30
0.0
 11
472.4610474127943
 21
358.6394211555724
 31
0.0
  0
LINE
  5
1BBEE
330
1F
100
AcDbEntity
  8
0
100
AcDbLine
 10
472.4610474127943
 20
351.8894211555724
 30
0.0
 11
484.0610474127944
 21
351.8894211555724
 31
0.0
  0
LINE
  5
1BBEF
330
1F
100
AcDbEntity
  8
0
100
AcDbLine
 10
471.2610474127942
 20
351.8894211555724
 30
0.0
 11
471.2610474127942
 21
355.1894211555727
 31
0.0
  0
LINE
  5
1BBF0
330
1F
100
AcDbEntity
  8
0
100
AcDbLine
 10
485.2610474127942
 20
351.8894211555724
 30
0.0
 11
485.2610474127942
 21
355.1894211555727
 31
0.0
  0
ARC
  5
1BBF1
330
1F
100
AcDbEntity
  8
0
100
AcDbCircle
 10
471.8610474127943
 20
358.5894211555725
 30
0.0
 40
0.6
100
AcDbArc
 50
4.763641599998967
 51
19.33480799999882
  0
ARC
  5
1BBF2
330
1F
100
AcDbEntity
  8
0
100
AcDbCircle
 10
471.8610474127943
 20
358.5894211555725
 30
0.0
 40
0.6
100
AcDbArc
 50
19.33480799999882
 51
170.3802699999969
  0
LINE
  5
1BBF3
330
1F
100
AcDbEntity
  8
0
100
AcDbLine
 10
485.2210474127942
 20
358.7694211555726
 30
0.0
 11
486.0610474127944
 21
356.1794211555724
 31
0.0
  0
ARC
  5
1BBF4
330
1F
100
AcDbEntity
  8
0
100
AcDbCircle
 10
484.6610474127943
 20
358.5894211555725
 30
0.0
 40
0.6
100
AcDbArc
 50
160.6651899999972
 51
175.2363500000015
  0
ARC
  5
1BBF5
330
1F
100
AcDbEntity
  8
0
100
AcDbCircle
 10
484.6610474127943
 20
358.5894211555725
 30
0.0
 40
0.6
100
AcDbArc
 50
9.619727799999905
 51
160.6651899999972
  0
LINE
  5
1BBF6
330
1F
100
AcDbEntity
  8
0
100
AcDbLine
 10
486.5610474127944
 20
356.6594211555724
 30
0.0
 11
486.5610474127944
 21
357.4794211555726
 31
0.0
  0
LINE
  5
1BBF7
330
1F
100
AcDbEntity
  8
0
100
AcDbLine
 10
485.7610474127942
 20
355.6694211555724
 30
0.0
 11
486.5610474127944
 21
356.6594211555724
 31
0.0
  0
LINE
  5
1BBF8
330
1F
100
AcDbEntity
  8
0
100
AcDbLine
 10
469.2610474127943
 20
372.6894211555726
 30
0.0
 11
473.2610474127943
 21
372.6894211555726
 31
0.0
  0
LINE
  5
1BBF9
330
1F
100
AcDbEntity
  8
0
100
AcDbLine
 10
470.4610474127943
 20
376.6894211555726
 30
0.0
 11
475.2610474127942
 21
376.6894211555726
 31
0.0
  0
LINE
  5
1BBFA
330
1F
100
AcDbEntity
  8
0
100
AcDbLine
 10
469.9610474127943
 20
369.6894211555726
 30
0.0
 11
486.5610474127944
 21
369.6894211555726
 31
0.0
  0
LINE
  5
1BBFB
330
1F
100
AcDbEntity
  8
0
100
AcDbLine
 10
470.4610474127943
 20
378.4894211555724
 30
0.0
 11
470.4610474127943
 21
389.6894211555726
 31
0.0
  0
LINE
  5
1BBFC
330
1F
100
AcDbEntity
  8
0
100
AcDbLine
 10
465.9610474127943
 20
373.6894211555726
 30
0.0
 11
465.9610474127943
 21
379.6894211555726
 31
0.0
  0
LINE
  5
1BBFD
330
1F
100
AcDbEntity
  8
0
100
AcDbLine
 10
468.4610474127943
 20
374.6894211555726
 30
0.0
 11
468.4610474127943
 21
379.6894211555726
 31
0.0
  0
LINE
  5
1BBFE
330
1F
100
AcDbEntity
  8
0
100
AcDbLine
 10
459.4610474127943
 20
378.6894211555726
 30
0.0
 11
459.4610474127943
 21
383.6894211555726
 31
0.0
  0
LINE
  5
1BBFF
330
1F
100
AcDbEntity
  8
0
100
AcDbLine
 10
458.2610474127942
 20
374.1894211555726
 30
0.0
 11
458.2610474127942
 21
385.6894211555726
 31
0.0
  0
LINE
  5
1BC00
330
1F
100
AcDbEntity
  8
0
100
AcDbLine
 10
463.9610474127943
 20
373.6894211555726
 30
0.0
 11
463.9610474127943
 21
380.6894211555727
 31
0.0
  0
LINE
  5
1BC01
330
1F
100
AcDbEntity
  8
0
100
AcDbLine
 10
459.7610474127943
 20
372.6894211555726
 30
0.0
 11
467.7610474127943
 21
372.6894211555726
 31
0.0
  0
LINE
  5
1BC02
330
1F
100
AcDbEntity
  8
0
100
AcDbLine
 10
459.7610474127943
 20
373.6894211555726
 30
0.0
 11
466.9610474127943
 21
373.6894211555726
 31
0.0
  0
LINE
  5
1BC03
330
1F
100
AcDbEntity
  8
0
100
AcDbLine
 10
459.7610474127943
 20
369.6894211555726
 30
0.0
 11
468.7610474127943
 21
369.6894211555726
 31
0.0
  0
LINE
  5
1BC04
330
1F
100
AcDbEntity
  8
0
100
AcDbLine
 10
457.9610474127943
 20
372.6894211555726
 30
0.0
 11
459.7610474127943
 21
372.6894211555726
 31
0.0
  0
ARC
  5
1BC05
330
1F
100
AcDbEntity
  8
0
100
AcDbCircle
 10
457.7610474127943
 20
374.1894211555726
 30
0.0
 40
0.5
100
AcDbArc
 50
270.0
 51
0.0
  0
ARC
  5
1BC06
330
1F
100
AcDbEntity
  8
0
100
AcDbCircle
 10
459.2310474127943
 20
377.7194211555724
 30
0.0
 40
1.0
100
AcDbArc
 50
283.3392400000025
 51
76.66075100000255
  0
LINE
  5
1BC07
330
1F
100
AcDbEntity
  8
0
100
AcDbLine
 10
459.4610474127943
 20
373.9894211555724
 30
0.0
 11
459.4610474127943
 21
376.7494211555726
 31
0.0
  0
ARC
  5
1BC08
330
1F
100
AcDbEntity
  8
0
100
AcDbCircle
 10
459.7610474127943
 20
373.9894211555724
 30
0.0
 40
0.3
100
AcDbArc
 50
180.0
 51
270.0
  0
LINE
  5
1BC09
330
1F
100
AcDbEntity
  8
0
100
AcDbLine
 10
459.7610474127943
 20
369.6894211555726
 30
0.0
 11
459.7610474127943
 21
372.6894211555726
 31
0.0
  0
LINE
  5
1BC0A
330
1F
100
AcDbEntity
  8
0
100
AcDbLine
 10
470.4610474127943
 20
376.6894211555726
 30
0.0
 11
470.4610474127943
 21
378.4894211555724
 31
0.0
  0
LINE
  5
1BC0B
330
1F
100
AcDbEntity
  8
0
100
AcDbLine
 10
468.2610474127943
 20
373.1894211555726
 30
0.0
 11
468.2610474127943
 21
378.1994211555724
 31
0.0
  0
LINE
  5
1BC0C
330
1F
100
AcDbEntity
  8
0
100
AcDbLine
 10
467.2610474127942
 20
373.9894211555724
 30
0.0
 11
467.2610474127942
 21
376.6794211555724
 31
0.0
  0
ARC
  5
1BC0D
330
1F
100
AcDbEntity
  8
0
100
AcDbCircle
 10
467.4110474127942
 20
377.6694211555724
 30
0.0
 40
1.0
100
AcDbArc
 50
31.94475199999732
 51
261.3843499999971
  0
ARC
  5
1BC0E
330
1F
100
AcDbEntity
  8
0
100
AcDbCircle
 10
466.9610474127943
 20
373.9894211555724
 30
0.0
 40
0.3
100
AcDbArc
 50
270.0
 51
0.0
  0
ARC
  5
1BC0F
330
1F
100
AcDbEntity
  8
0
100
AcDbCircle
 10
467.7610474127943
 20
373.1894211555726
 30
0.0
 40
0.5
100
AcDbArc
 50
270.0
 51
0.0
  0
LINE
  5
1BC10
330
1F
100
AcDbEntity
  8
0
100
AcDbLine
 10
468.2610474127943
 20
372.6894211555726
 30
0.0
 11
468.2610474127943
 21
373.1894211555726
 31
0.0
  0
LINE
  5
1BC11
330
1F
100
AcDbEntity
  8
0
100
AcDbLine
 10
468.2610474127943
 20
374.3894211555724
 30
0.0
 11
469.2610474127943
 21
374.3894211555724
 31
0.0
  0
LINE
  5
1BC12
330
1F
100
AcDbEntity
  8
0
100
AcDbLine
 10
469.2610474127943
 20
372.6894211555726
 30
0.0
 11
469.2610474127943
 21
374.3894211555724
 31
0.0
  0
LINE
  5
1BC13
330
1F
100
AcDbEntity
  8
0
100
AcDbLine
 10
467.0810474127943
 20
372.6894211555726
 30
0.0
 11
468.2610474127943
 21
372.6894211555726
 31
0.0
  0
LINE
  5
1BC14
330
1F
100
AcDbEntity
  8
0
100
AcDbLine
 10
459.4610474127943
 20
383.6894211555726
 30
0.0
 11
460.2610474127943
 21
384.4894211555724
 31
0.0
  0
LINE
  5
1BC15
330
1F
100
AcDbEntity
  8
0
100
AcDbLine
 10
464.9610474127944
 20
381.6894211555726
 30
0.0
 11
468.4610474127943
 21
381.6894211555726
 31
0.0
  0
ARC
  5
1BC16
330
1F
100
AcDbEntity
  8
0
100
AcDbCircle
 10
464.9610474127944
 20
380.6894211555727
 30
0.0
 40
1.0
100
AcDbArc
 50
90.0
 51
180.0
  0
LINE
  5
1BC17
330
1F
100
AcDbEntity
  8
0
100
AcDbLine
 10
468.4610474127943
 20
381.6894211555726
 30
0.0
 11
468.4610474127943
 21
390.5094211555724
 31
0.0
  0
LINE
  5
1BC18
330
1F
100
AcDbEntity
  8
0
100
AcDbLine
 10
465.9610474127943
 20
379.6894211555726
 30
0.0
 11
468.4610474127943
 21
379.6894211555726
 31
0.0
  0
LINE
  5
1BC19
330
1F
100
AcDbEntity
  8
0
100
AcDbLine
 10
486.0610474127944
 20
378.4894211555724
 30
0.0
 11
486.0610474127944
 21
389.6894211555726
 31
0.0
  0
LINE
  5
1BC1A
330
1F
100
AcDbEntity
  8
0
100
AcDbLine
 10
475.2610474127942
 20
378.1894211555727
 30
0.0
 11
481.2610474127942
 21
378.1894211555727
 31
0.0
  0
LINE
  5
1BC1B
330
1F
100
AcDbEntity
  8
0
100
AcDbLine
 10
475.2610474127942
 20
373.8594211555725
 30
0.0
 11
481.2610474127942
 21
373.8594211555725
 31
0.0
  0
LINE
  5
1BC1C
330
1F
100
AcDbEntity
  8
0
100
AcDbLine
 10
475.2610474127942
 20
376.6894211555726
 30
0.0
 11
475.2610474127942
 21
378.1894211555727
 31
0.0
  0
LINE
  5
1BC1D
330
1F
100
AcDbEntity
  8
0
100
AcDbLine
 10
475.2610474127942
 20
373.8594211555725
 30
0.0
 11
475.2610474127942
 21
374.3894211555724
 31
0.0
  0
LINE
  5
1BC1E
330
1F
100
AcDbEntity
  8
0
100
AcDbLine
 10
473.2610474127943
 20
372.6894211555726
 30
0.0
 11
473.2610474127943
 21
374.3894211555724
 31
0.0
  0
LINE
  5
1BC1F
330
1F
100
AcDbEntity
  8
0
100
AcDbLine
 10
473.2610474127943
 20
374.3894211555724
 30
0.0
 11
475.2610474127942
 21
374.3894211555724
 31
0.0
  0
LINE
  5
1BC20
330
1F
100
AcDbEntity
  8
0
100
AcDbLine
 10
487.2610474127943
 20
372.6894211555726
 30
0.0
 11
487.2610474127943
 21
374.3894211555724
 31
0.0
  0
LINE
  5
1BC21
330
1F
100
AcDbEntity
  8
0
100
AcDbLine
 10
481.2610474127942
 20
376.6894211555726
 30
0.0
 11
481.2610474127942
 21
378.1894211555727
 31
0.0
  0
LINE
  5
1BC22
330
1F
100
AcDbEntity
  8
0
100
AcDbLine
 10
486.0610474127944
 20
376.6894211555726
 30
0.0
 11
486.0610474127944
 21
378.4894211555724
 31
0.0
  0
LINE
  5
1BC23
330
1F
100
AcDbEntity
  8
0
100
AcDbLine
 10
481.2610474127942
 20
376.6894211555726
 30
0.0
 11
486.0610474127944
 21
376.6894211555726
 31
0.0
  0
LINE
  5
1BC24
330
1F
100
AcDbEntity
  8
0
100
AcDbLine
 10
481.2610474127942
 20
373.8594211555725
 30
0.0
 11
481.2610474127942
 21
374.3894211555724
 31
0.0
  0
LINE
  5
1BC25
330
1F
100
AcDbEntity
  8
0
100
AcDbLine
 10
481.2610474127942
 20
374.3894211555724
 30
0.0
 11
483.2610474127942
 21
374.3894211555724
 31
0.0
  0
LINE
  5
1BC26
330
1F
100
AcDbEntity
  8
0
100
AcDbLine
 10
483.2610474127942
 20
372.6894211555726
 30
0.0
 11
483.2610474127942
 21
374.3894211555724
 31
0.0
  0
LINE
  5
1BC27
330
1F
100
AcDbEntity
  8
0
100
AcDbLine
 10
483.2610474127942
 20
372.6894211555726
 30
0.0
 11
487.2610474127943
 21
372.6894211555726
 31
0.0
  0
LINE
  5
1BC28
330
1F
100
AcDbEntity
  8
0
100
AcDbLine
 10
498.2610474127942
 20
350.6894211555726
 30
0.0
 11
498.2610474127942
 21
372.6894211555726
 31
0.0
  0
LINE
  5
1BC29
330
1F
100
AcDbEntity
  8
0
100
AcDbLine
 10
497.0610474127944
 20
351.8894211555724
 30
0.0
 11
497.0610474127944
 21
372.6894211555726
 31
0.0
  0
LINE
  5
1BC2A
330
1F
100
AcDbEntity
  8
0
100
AcDbLine
 10
487.7610474127942
 20
356.7594211555723
 30
0.0
 11
487.7610474127942
 21
369.6894211555726
 31
0.0
  0
LINE
  5
1BC2B
330
1F
100
AcDbEntity
  8
0
100
AcDbLine
 10
487.7610474127942
 20
353.7794211555726
 30
0.0
 11
487.7610474127942
 21
356.7594211555723
 31
0.0
  0
LINE
  5
1BC2C
330
1F
100
AcDbEntity
  8
0
100
AcDbLine
 10
498.2610474127942
 20
351.3994211555724
 30
0.0
 11
498.2610474127942
 21
352.4694211555724
 31
0.0
  0
LINE
  5
1BC2D
330
1F
100
AcDbEntity
  8
0
100
AcDbLine
 10
498.2610474127942
 20
351.6894211555726
 30
0.0
 11
498.2610474127942
 21
352.6894211555726
 31
0.0
  0
LINE
  5
1BC2E
330
1F
100
AcDbEntity
  8
0
100
AcDbLine
 10
498.2610474127942
 20
373.6894211555726
 30
0.0
 11
511.2610474127944
 21
373.6894211555726
 31
0.0
  0
LINE
  5
1BC2F
330
1F
100
AcDbEntity
  8
0
100
AcDbLine
 10
490.5610474127944
 20
373.6894211555726
 30
0.0
 11
490.5610474127944
 21
379.6894211555726
 31
0.0
  0
LINE
  5
1BC30
330
1F
100
AcDbEntity
  8
0
100
AcDbLine
 10
488.0610474127944
 20
374.1294211555725
 30
0.0
 11
488.0610474127944
 21
379.6894211555726
 31
0.0
  0
LINE
  5
1BC31
330
1F
100
AcDbEntity
  8
0
100
AcDbLine
 10
497.0610474127944
 20
378.6894211555726
 30
0.0
 11
497.0610474127944
 21
383.6894211555726
 31
0.0
  0
LINE
  5
1BC32
330
1F
100
AcDbEntity
  8
0
100
AcDbLine
 10
498.2610474127942
 20
373.6894211555726
 30
0.0
 11
498.2610474127942
 21
385.6894211555726
 31
0.0
  0
LINE
  5
1BC33
330
1F
100
AcDbEntity
  8
0
100
AcDbLine
 10
492.5610474127944
 20
373.6894211555726
 30
0.0
 11
492.5610474127944
 21
380.6894211555727
 31
0.0
  0
LINE
  5
1BC34
330
1F
100
AcDbEntity
  8
0
100
AcDbLine
 10
488.7610474127942
 20
372.6894211555726
 30
0.0
 11
496.7610474127942
 21
372.6894211555726
 31
0.0
  0
LINE
  5
1BC35
330
1F
100
AcDbEntity
  8
0
100
AcDbLine
 10
489.5610474127944
 20
373.6894211555726
 30
0.0
 11
496.7610474127942
 21
373.6894211555726
 31
0.0
  0
LINE
  5
1BC36
330
1F
100
AcDbEntity
  8
0
100
AcDbLine
 10
487.7610474127942
 20
369.6894211555726
 30
0.0
 11
496.7110474127943
 21
369.6894211555726
 31
0.0
  0
LINE
  5
1BC37
330
1F
100
AcDbEntity
  8
0
100
AcDbLine
 10
488.0610474127944
 20
373.1794211555724
 30
0.0
 11
488.0610474127944
 21
378.1894211555727
 31
0.0
  0
LINE
  5
1BC38
330
1F
100
AcDbEntity
  8
0
100
AcDbLine
 10
489.0610474127944
 20
373.9794211555726
 30
0.0
 11
489.0610474127944
 21
376.6694211555724
 31
0.0
  0
ARC
  5
1BC39
330
1F
100
AcDbEntity
  8
0
100
AcDbCircle
 10
488.9110474127943
 20
377.6594211555724
 30
0.0
 40
1.0
100
AcDbArc
 50
278.6156400000007
 51
148.0552399999958
  0
ARC
  5
1BC3A
330
1F
100
AcDbEntity
  8
0
100
AcDbCircle
 10
489.3610474127943
 20
373.9794211555726
 30
0.0
 40
0.3
100
AcDbArc
 50
180.0
 51
270.0
  0
ARC
  5
1BC3B
330
1F
100
AcDbEntity
  8
0
100
AcDbCircle
 10
488.5610474127944
 20
373.1794211555724
 30
0.0
 40
0.5
100
AcDbArc
 50
180.0
 51
270.0
  0
LINE
  5
1BC3C
330
1F
100
AcDbEntity
  8
0
100
AcDbLine
 10
489.3610474127943
 20
373.6894211555726
 30
0.0
 11
489.5610474127944
 21
373.6894211555726
 31
0.0
  0
LINE
  5
1BC3D
330
1F
100
AcDbEntity
  8
0
100
AcDbLine
 10
488.5610474127944
 20
372.6894211555726
 30
0.0
 11
488.7610474127942
 21
372.6894211555726
 31
0.0
  0
LINE
  5
1BC3E
330
1F
100
AcDbEntity
  8
0
100
AcDbLine
 10
488.0610474127944
 20
372.6894211555726
 30
0.0
 11
488.0610474127944
 21
373.1794211555724
 31
0.0
  0
LINE
  5
1BC3F
330
1F
100
AcDbEntity
  8
0
100
AcDbLine
 10
488.0610474127944
 20
372.6894211555726
 30
0.0
 11
489.7210474127943
 21
372.6894211555726
 31
0.0
  0
ARC
  5
1BC40
330
1F
100
AcDbEntity
  8
0
100
AcDbCircle
 10
497.2910474127944
 20
377.7194211555724
 30
0.0
 40
1.0
100
AcDbArc
 50
103.3392400000024
 51
256.6607500000019
  0
LINE
  5
1BC41
330
1F
100
AcDbEntity
  8
0
100
AcDbLine
 10
497.0610474127944
 20
373.9894211555724
 30
0.0
 11
497.0610474127944
 21
376.7494211555726
 31
0.0
  0
ARC
  5
1BC42
330
1F
100
AcDbEntity
  8
0
100
AcDbCircle
 10
496.7610474127942
 20
373.9894211555724
 30
0.0
 40
0.3
100
AcDbArc
 50
270.0
 51
0.0
  0
LINE
  5
1BC43
330
1F
100
AcDbEntity
  8
0
100
AcDbLine
 10
496.7610474127942
 20
372.6894211555726
 30
0.0
 11
498.7610474127942
 21
372.6894211555726
 31
0.0
  0
LINE
  5
1BC44
330
1F
100
AcDbEntity
  8
0
100
AcDbLine
 10
496.7110474127943
 20
369.6894211555726
 30
0.0
 11
496.7110474127943
 21
372.6894211555726
 31
0.0
  0
LINE
  5
1BC45
330
1F
100
AcDbEntity
  8
0
100
AcDbLine
 10
488.0610474127944
 20
381.6894211555726
 30
0.0
 11
491.5610474127944
 21
381.6894211555726
 31
0.0
  0
LINE
  5
1BC46
330
1F
100
AcDbEntity
  8
0
100
AcDbLine
 10
488.0610474127944
 20
381.6894211555726
 30
0.0
 11
488.0610474127944
 21
390.5094211555724
 31
0.0
  0
ARC
  5
1BC47
330
1F
100
AcDbEntity
  8
0
100
AcDbCircle
 10
491.5610474127944
 20
380.6894211555727
 30
0.0
 40
1.0
100
AcDbArc
 50
0.0
 51
90.0
  0
LINE
  5
1BC48
330
1F
100
AcDbEntity
  8
0
100
AcDbLine
 10
488.0610474127944
 20
379.6894211555726
 30
0.0
 11
490.5610474127944
 21
379.6894211555726
 31
0.0
  0
LINE
  5
1BC49
330
1F
100
AcDbEntity
  8
0
100
AcDbLine
 10
496.2610474127942
 20
384.4894211555724
 30
0.0
 11
497.0610474127944
 21
383.6894211555726
 31
0.0
  0
LINE
  5
1BC4A
330
1F
100
AcDbEntity
  8
0
100
AcDbLine
 10
498.2610474127942
 20
385.6894211555726
 30
0.0
 11
498.2610474127942
 21
387.1194211555725
 31
0.0
  0
LINE
  5
1BC4B
330
1F
100
AcDbEntity
  8
0
100
AcDbLine
 10
498.2610474127942
 20
387.0794211555725
 30
0.0
 11
498.2610474127942
 21
390.4094211555724
 31
0.0
  0
LINE
  5
1BC4C
330
1F
100
AcDbEntity
  8
0
100
AcDbLine
 10
511.9610474127944
 20
374.6894211555726
 30
0.0
 11
513.2610474127943
 21
374.6894211555726
 31
0.0
  0
LINE
  5
1BC4D
330
1F
100
AcDbEntity
  8
0
100
AcDbLine
 10
511.2610474127944
 20
373.6894211555726
 30
0.0
 11
511.9610474127944
 21
374.6894211555726
 31
0.0
  0
LINE
  5
1BC4E
330
1F
100
AcDbEntity
  8
0
100
AcDbLine
 10
513.2610474127943
 20
372.6894211555726
 30
0.0
 11
513.2610474127943
 21
374.6894211555726
 31
0.0
  0
LINE
  5
1BC4F
330
1F
100
AcDbEntity
  8
0
100
AcDbLine
 10
481.8610474127943
 20
451.1894211555726
 30
0.0
 11
497.7610474127942
 21
451.1894211555726
 31
0.0
  0
LINE
  5
1BC50
330
1F
100
AcDbEntity
  8
0
100
AcDbLine
 10
484.5610474127944
 20
428.1894211555726
 30
0.0
 11
488.5610474127944
 21
428.1894211555726
 31
0.0
  0
LINE
  5
1BC51
330
1F
100
AcDbEntity
  8
0
100
AcDbLine
 10
470.4610474127943
 20
430.1894211555726
 30
0.0
 11
470.4610474127943
 21
449.1894211555726
 31
0.0
  0
LINE
  5
1BC52
330
1F
100
AcDbEntity
  8
0
100
AcDbLine
 10
486.0610474127944
 20
430.1894211555726
 30
0.0
 11
486.0610474127944
 21
449.1894211555726
 31
0.0
  0
LINE
  5
1BC53
330
1F
100
AcDbEntity
  8
0
100
AcDbLine
 10
468.4610474127943
 20
436.6194211555725
 30
0.0
 11
468.4610474127943
 21
441.4894211555723
 31
0.0
  0
ARC
  5
1BC54
330
1F
100
AcDbEntity
  8
0
100
AcDbCircle
 10
467.6110474127943
 20
437.1494211555724
 30
0.0
 40
1.0
100
AcDbArc
 50
98.61564800000085
 51
328.0552399999958
  0
ARC
  5
1BC55
330
1F
100
AcDbEntity
  8
0
100
AcDbCircle
 10
459.2310474127943
 20
437.1294211555724
 30
0.0
 40
1.0
100
AcDbArc
 50
283.3392400000025
 51
76.66075100000255
  0
LINE
  5
1BC56
330
1F
100
AcDbEntity
  8
0
100
AcDbLine
 10
458.2610474127942
 20
417.6894211555726
 30
0.0
 11
458.2610474127942
 21
441.4894211555723
 31
0.0
  0
LINE
  5
1BC57
330
1F
100
AcDbEntity
  8
0
100
AcDbLine
 10
473.9610474127943
 20
393.1894211555727
 30
0.0
 11
473.9610474127943
 21
429.1894211555726
 31
0.0
  0
LINE
  5
1BC58
330
1F
100
AcDbEntity
  8
0
100
AcDbLine
 10
471.9610474127943
 20
394.0194211555726
 30
0.0
 11
471.9610474127943
 21
428.1894211555726
 31
0.0
  0
LINE
  5
1BC59
330
1F
100
AcDbEntity
  8
0
100
AcDbLine
 10
482.5610474127944
 20
393.1894211555727
 30
0.0
 11
482.5610474127944
 21
429.1894211555726
 31
0.0
  0
LINE
  5
1BC5A
330
1F
100
AcDbEntity
  8
0
100
AcDbLine
 10
484.5610474127944
 20
394.0194211555726
 30
0.0
 11
484.5610474127944
 21
428.1894211555726
 31
0.0
  0
LINE
  5
1BC5B
330
1F
100
AcDbEntity
  8
0
100
AcDbLine
 10
458.2610474127942
 20
404.1894211555726
 30
0.0
 11
458.2610474127942
 21
415.6894211555726
 31
0.0
  0
LINE
  5
1BC5C
330
1F
100
AcDbEntity
  8
0
100
AcDbLine
 10
459.4610474127943
 20
395.6894211555726
 30
0.0
 11
459.4610474127943
 21
415.6894211555726
 31
0.0
  0
LINE
  5
1BC5D
330
1F
100
AcDbEntity
  8
0
100
AcDbLine
 10
470.5510474127944
 20
392.5994211555725
 30
0.0
 11
471.9610474127943
 21
394.0194211555726
 31
0.0
  0
LINE
  5
1BC5E
330
1F
100
AcDbEntity
  8
0
100
AcDbLine
 10
458.2610474127942
 20
402.1894211555726
 30
0.0
 11
458.2610474127942
 21
404.1894211555726
 31
0.0
  0
LINE
  5
1BC5F
330
1F
100
AcDbEntity
  8
0
100
AcDbLine
 10
459.4610474127943
 20
395.6894211555726
 30
0.0
 11
460.2610474127943
 21
394.8894211555725
 31
0.0
  0
LINE
  5
1BC60
330
1F
100
AcDbEntity
  8
0
100
AcDbLine
 10
460.2610474127943
 20
392.8894211555725
 30
0.0
 11
460.2610474127943
 21
394.8894211555725
 31
0.0
  0
LINE
  5
1BC61
330
1F
100
AcDbEntity
  8
0
100
AcDbLine
 10
471.9610474127943
 20
391.1894211555726
 30
0.0
 11
473.9610474127943
 21
393.1894211555727
 31
0.0
  0
LINE
  5
1BC62
330
1F
100
AcDbEntity
  8
0
100
AcDbLine
 10
482.5610474127944
 20
393.1894211555727
 30
0.0
 11
484.5610474127944
 21
391.1894211555726
 31
0.0
  0
LINE
  5
1BC63
330
1F
100
AcDbEntity
  8
0
100
AcDbLine
 10
484.5610474127944
 20
394.0194211555726
 30
0.0
 11
485.9710474127942
 21
392.5994211555725
 31
0.0
  0
LINE
  5
1BC64
330
1F
100
AcDbEntity
  8
0
100
AcDbLine
 10
467.9610474127943
 20
428.1894211555726
 30
0.0
 11
471.9610474127943
 21
428.1894211555726
 31
0.0
  0
LINE
  5
1BC65
330
1F
100
AcDbEntity
  8
0
100
AcDbLine
 10
470.4610474127943
 20
430.1894211555726
 30
0.0
 11
472.9610474127944
 21
430.1894211555726
 31
0.0
  0
LINE
  5
1BC66
330
1F
100
AcDbEntity
  8
0
100
AcDbLine
 10
465.9610474127943
 20
423.1894211555726
 30
0.0
 11
465.9610474127943
 21
429.1894211555726
 31
0.0
  0
LINE
  5
1BC67
330
1F
100
AcDbEntity
  8
0
100
AcDbLine
 10
467.9610474127943
 20
423.1894211555726
 30
0.0
 11
467.9610474127943
 21
428.1894211555726
 31
0.0
  0
LINE
  5
1BC68
330
1F
100
AcDbEntity
  8
0
100
AcDbLine
 10
459.4610474127943
 20
425.6894211555726
 30
0.0
 11
460.2610474127943
 21
424.8894211555724
 31
0.0
  0
LINE
  5
1BC69
330
1F
100
AcDbEntity
  8
0
100
AcDbLine
 10
459.4610474127943
 20
415.6894211555726
 30
0.0
 11
460.2610474127943
 21
416.4894211555723
 31
0.0
  0
LINE
  5
1BC6A
330
1F
100
AcDbEntity
  8
0
100
AcDbLine
 10
458.2610474127942
 20
415.6894211555726
 30
0.0
 11
458.2610474127942
 21
417.6894211555726
 31
0.0
  0
LINE
  5
1BC6B
330
1F
100
AcDbEntity
  8
0
100
AcDbLine
 10
460.2610474127943
 20
416.4894211555723
 30
0.0
 11
460.2610474127943
 21
424.8894211555724
 31
0.0
  0
LINE
  5
1BC6C
330
1F
100
AcDbEntity
  8
0
100
AcDbLine
 10
465.9610474127943
 20
423.1894211555726
 30
0.0
 11
467.9610474127943
 21
423.1894211555726
 31
0.0
  0
LINE
  5
1BC6D
330
1F
100
AcDbEntity
  8
0
100
AcDbLine
 10
459.4610474127943
 20
425.6894211555726
 30
0.0
 11
459.4610474127943
 21
436.1594211555724
 31
0.0
  0
LINE
  5
1BC6E
330
1F
100
AcDbEntity
  8
0
100
AcDbLine
 10
468.4610474127943
 20
430.1894211555726
 30
0.0
 11
468.4610474127943
 21
436.6194211555725
 31
0.0
  0
LINE
  5
1BC6F
330
1F
100
AcDbEntity
  8
0
100
AcDbLine
 10
466.9610474127943
 20
430.1894211555726
 30
0.0
 11
468.4610474127943
 21
430.1894211555726
 31
0.0
  0
ARC
  5
1BC70
330
1F
100
AcDbEntity
  8
0
100
AcDbCircle
 10
466.9610474127943
 20
429.1894211555726
 30
0.0
 40
1.0
100
AcDbArc
 50
90.0
 51
180.0
  0
ARC
  5
1BC71
330
1F
100
AcDbEntity
  8
0
100
AcDbCircle
 10
472.9610474127944
 20
429.1894211555726
 30
0.0
 40
1.0
100
AcDbArc
 50
0.0
 51
90.0
  0
LINE
  5
1BC72
330
1F
100
AcDbEntity
  8
0
100
AcDbLine
 10
483.5610474127944
 20
430.1894211555726
 30
0.0
 11
486.0610474127944
 21
430.1894211555726
 31
0.0
  0
ARC
  5
1BC73
330
1F
100
AcDbEntity
  8
0
100
AcDbCircle
 10
483.5610474127944
 20
429.1894211555726
 30
0.0
 40
1.0
100
AcDbArc
 50
90.0
 51
180.0
  0
LINE
  5
1BC74
330
1F
100
AcDbEntity
  8
0
100
AcDbLine
 10
448.2910474127944
 20
442.6894211555726
 30
0.0
 11
468.4610474127943
 21
442.6894211555726
 31
0.0
  0
LINE
  5
1BC75
330
1F
100
AcDbEntity
  8
0
100
AcDbLine
 10
444.6610474127942
 20
441.4894211555723
 30
0.0
 11
458.2610474127942
 21
441.4894211555723
 31
0.0
  0
LINE
  5
1BC76
330
1F
100
AcDbEntity
  8
0
100
AcDbLine
 10
437.1410474127943
 20
442.6894211555726
 30
0.0
 11
442.6610474127943
 21
442.6894211555726
 31
0.0
  0
LINE
  5
1BC77
330
1F
100
AcDbEntity
  8
0
100
AcDbLine
 10
443.4610474127943
 20
442.6894211555726
 30
0.0
 11
448.5510474127943
 21
442.6894211555726
 31
0.0
  0
LINE
  5
1BC78
330
1F
100
AcDbEntity
  8
0
100
AcDbLine
 10
443.4610474127943
 20
442.6894211555726
 30
0.0
 11
445.3810474127942
 21
442.6894211555726
 31
0.0
  0
LINE
  5
1BC79
330
1F
100
AcDbEntity
  8
0
100
AcDbLine
 10
442.6610474127943
 20
442.6894211555726
 30
0.0
 11
443.4610474127943
 21
442.6894211555726
 31
0.0
  0
LINE
  5
1BC7A
330
1F
100
AcDbEntity
  8
0
100
AcDbLine
 10
443.4510474127943
 20
440.6894211555726
 30
0.0
 11
443.4510474127943
 21
442.1894211555726
 31
0.0
  0
LINE
  5
1BC7B
330
1F
100
AcDbEntity
  8
0
100
AcDbLine
 10
443.4510474127943
 20
442.1894211555726
 30
0.0
 11
443.4510474127943
 21
442.6894211555726
 31
0.0
  0
LINE
  5
1BC7C
330
1F
100
AcDbEntity
  8
0
100
AcDbLine
 10
444.6610474127942
 20
440.6894211555726
 30
0.0
 11
444.6610474127942
 21
441.4894211555723
 31
0.0
  0
LINE
  5
1BC7D
330
1F
100
AcDbEntity
  8
0
100
AcDbLine
 10
443.4510474127943
 20
440.6894211555726
 30
0.0
 11
444.6610474127942
 21
440.6894211555726
 31
0.0
  0
LINE
  5
1BC7E
330
1F
100
AcDbEntity
  8
0
100
AcDbLine
 10
470.4610474127943
 20
449.1894211555726
 30
0.0
 11
474.3010474127943
 21
449.1894211555726
 31
0.0
  0
LINE
  5
1BC7F
330
1F
100
AcDbEntity
  8
0
100
AcDbLine
 10
458.7610474127942
 20
451.1894211555726
 30
0.0
 11
474.3010474127943
 21
451.1894211555726
 31
0.0
  0
LINE
  5
1BC80
330
1F
100
AcDbEntity
  8
0
100
AcDbLine
 10
458.2610474127942
 20
445.6894211555726
 30
0.0
 11
458.2610474127942
 21
450.6894211555726
 31
0.0
  0
LINE
  5
1BC81
330
1F
100
AcDbEntity
  8
0
100
AcDbLine
 10
465.5610474127944
 20
446.6894211555726
 30
0.0
 11
465.5610474127944
 21
449.1894211555726
 31
0.0
  0
ARC
  5
1BC82
330
1F
100
AcDbEntity
  8
0
100
AcDbCircle
 10
467.6110474127943
 20
448.8094211555725
 30
0.0
 40
0.85
100
AcDbArc
 50
355.9622799999961
 51
185.3767000000022
  0
LINE
  5
1BC83
330
1F
100
AcDbEntity
  8
0
100
AcDbLine
 10
460.2610474127943
 20
446.6894211555726
 30
0.0
 11
460.2610474127943
 21
449.1894211555726
 31
0.0
  0
LINE
  5
1BC84
330
1F
100
AcDbEntity
  8
0
100
AcDbLine
 10
459.4610474127943
 20
441.4894211555723
 30
0.0
 11
467.4610474127943
 21
441.4894211555723
 31
0.0
  0
LINE
  5
1BC85
330
1F
100
AcDbEntity
  8
0
100
AcDbLine
 10
461.2610474127943
 20
445.6894211555726
 30
0.0
 11
461.2610474127943
 21
446.6894211555726
 31
0.0
  0
LINE
  5
1BC86
330
1F
100
AcDbEntity
  8
0
100
AcDbLine
 10
460.2610474127943
 20
446.6894211555726
 30
0.0
 11
461.2610474127943
 21
446.6894211555726
 31
0.0
  0
LINE
  5
1BC87
330
1F
100
AcDbEntity
  8
0
100
AcDbLine
 10
459.4610474127943
 20
438.0994211555725
 30
0.0
 11
459.4610474127943
 21
441.4894211555723
 31
0.0
  0
LINE
  5
1BC88
330
1F
100
AcDbEntity
  8
0
100
AcDbLine
 10
458.2610474127942
 20
445.6894211555726
 30
0.0
 11
461.2610474127943
 21
445.6894211555726
 31
0.0
  0
LINE
  5
1BC89
330
1F
100
AcDbEntity
  8
0
100
AcDbLine
 10
458.2610474127942
 20
442.6894211555726
 30
0.0
 11
458.2610474127942
 21
445.6894211555726
 31
0.0
  0
LINE
  5
1BC8A
330
1F
100
AcDbEntity
  8
0
100
AcDbLine
 10
463.7610474127943
 20
445.6894211555726
 30
0.0
 11
463.7610474127943
 21
446.6894211555726
 31
0.0
  0
LINE
  5
1BC8B
330
1F
100
AcDbEntity
  8
0
100
AcDbLine
 10
466.7610474127942
 20
445.6894211555726
 30
0.0
 11
466.7610474127942
 21
448.8094211555725
 31
0.0
  0
LINE
  5
1BC8C
330
1F
100
AcDbEntity
  8
0
100
AcDbLine
 10
468.4610474127943
 20
442.6894211555726
 30
0.0
 11
468.4610474127943
 21
448.7494211555725
 31
0.0
  0
LINE
  5
1BC8D
330
1F
100
AcDbEntity
  8
0
100
AcDbLine
 10
463.7610474127943
 20
446.6894211555726
 30
0.0
 11
465.5610474127944
 21
446.6894211555726
 31
0.0
  0
LINE
  5
1BC8E
330
1F
100
AcDbEntity
  8
0
100
AcDbLine
 10
467.4610474127943
 20
438.1394211555724
 30
0.0
 11
467.4610474127943
 21
441.4894211555723
 31
0.0
  0
LINE
  5
1BC8F
330
1F
100
AcDbEntity
  8
0
100
AcDbLine
 10
468.4610474127943
 20
441.4894211555723
 30
0.0
 11
468.4610474127943
 21
442.6894211555726
 31
0.0
  0
LINE
  5
1BC90
330
1F
100
AcDbEntity
  8
0
100
AcDbLine
 10
464.7010474127942
 20
445.6894211555726
 30
0.0
 11
466.7610474127942
 21
445.6894211555726
 31
0.0
  0
LINE
  5
1BC91
330
1F
100
AcDbEntity
  8
0
100
AcDbLine
 10
463.7610474127943
 20
445.6894211555726
 30
0.0
 11
464.7010474127942
 21
445.6894211555726
 31
0.0
  0
LINE
  5
1BC92
330
1F
100
AcDbEntity
  8
0
100
AcDbLine
 10
467.4610474127943
 20
442.6894211555726
 30
0.0
 11
468.4610474127943
 21
442.6894211555726
 31
0.0
  0
LINE
  5
1BC93
330
1F
100
AcDbEntity
  8
0
100
AcDbLine
 10
460.2610474127943
 20
449.1894211555726
 30
0.0
 11
465.5610474127944
 21
449.1894211555726
 31
0.0
  0
ARC
  5
1BC94
330
1F
100
AcDbEntity
  8
0
100
AcDbCircle
 10
458.7610474127942
 20
450.6894211555726
 30
0.0
 40
0.5
100
AcDbArc
 50
90.0
 51
180.0
  0
LINE
  5
1BC95
330
1F
100
AcDbEntity
  8
0
100
AcDbLine
 10
474.3010474127943
 20
451.1894211555726
 30
0.0
 11
481.8610474127943
 21
451.1894211555726
 31
0.0
  0
LINE
  5
1BC96
330
1F
100
AcDbEntity
  8
0
100
AcDbLine
 10
474.3010474127943
 20
449.1894211555726
 30
0.0
 11
481.8610474127943
 21
449.1894211555726
 31
0.0
  0
LINE
  5
1BC97
330
1F
100
AcDbEntity
  8
0
100
AcDbLine
 10
481.8610474127943
 20
449.1894211555726
 30
0.0
 11
486.0610474127944
 21
449.1894211555726
 31
0.0
  0
ARC
  5
1BC98
330
1F
100
AcDbEntity
  8
0
100
AcDbCircle
 10
497.2910474127944
 20
437.1294211555724
 30
0.0
 40
1.0
100
AcDbArc
 50
103.3392400000024
 51
256.6607500000019
  0
LINE
  5
1BC99
330
1F
100
AcDbEntity
  8
0
100
AcDbLine
 10
498.2610474127942
 20
417.6894211555726
 30
0.0
 11
498.2610474127942
 21
441.4894211555723
 31
0.0
  0
LINE
  5
1BC9A
330
1F
100
AcDbEntity
  8
0
100
AcDbLine
 10
488.0610474127944
 20
436.6194211555725
 30
0.0
 11
488.0610474127944
 21
441.4894211555723
 31
0.0
  0
ARC
  5
1BC9B
330
1F
100
AcDbEntity
  8
0
100
AcDbCircle
 10
488.9110474127943
 20
437.1494211555724
 30
0.0
 40
1.0
100
AcDbArc
 50
211.9447500000033
 51
81.38435100000215
  0
LINE
  5
1BC9C
330
1F
100
AcDbEntity
  8
0
100
AcDbLine
 10
498.2610474127942
 20
408.1894211555725
 30
0.0
 11
498.2610474127942
 21
415.6894211555726
 31
0.0
  0
LINE
  5
1BC9D
330
1F
100
AcDbEntity
  8
0
100
AcDbLine
 10
497.0610474127944
 20
398.0894211555725
 30
0.0
 11
497.0610474127944
 21
415.6894211555726
 31
0.0
  0
ARC
  5
1BC9E
330
1F
100
AcDbEntity
  8
0
100
AcDbCircle
 10
504.5610474127944
 20
405.1894211555726
 30
0.0
 40
1.0
100
AcDbArc
 50
90.0
 51
180.0
  0
LINE
  5
1BC9F
330
1F
100
AcDbEntity
  8
0
100
AcDbLine
 10
498.7610474127942
 20
402.6894211555726
 30
0.0
 11
504.3010474127944
 21
402.6894211555726
 31
0.0
  0
ARC
  5
1BCA0
330
1F
100
AcDbEntity
  8
0
100
AcDbCircle
 10
498.7610474127942
 20
402.1894211555726
 30
0.0
 40
0.5
100
AcDbArc
 50
90.0
 51
180.0
  0
LINE
  5
1BCA1
330
1F
100
AcDbEntity
  8
0
100
AcDbLine
 10
498.2610474127942
 20
398.0894211555725
 30
0.0
 11
498.2610474127942
 21
402.1894211555726
 31
0.0
  0
LINE
  5
1BCA2
330
1F
100
AcDbEntity
  8
0
100
AcDbLine
 10
496.2610474127942
 20
394.8894211555725
 30
0.0
 11
497.0610474127944
 21
395.6894211555726
 31
0.0
  0
LINE
  5
1BCA3
330
1F
100
AcDbEntity
  8
0
100
AcDbLine
 10
496.2610474127942
 20
392.8894211555725
 30
0.0
 11
496.2610474127942
 21
394.8894211555725
 31
0.0
  0
LINE
  5
1BCA4
330
1F
100
AcDbEntity
  8
0
100
AcDbLine
 10
498.2610474127942
 20
394.3594211555725
 30
0.0
 11
498.2610474127942
 21
398.0894211555725
 31
0.0
  0
LINE
  5
1BCA5
330
1F
100
AcDbEntity
  8
0
100
AcDbLine
 10
497.0610474127944
 20
395.6894211555726
 30
0.0
 11
497.0610474127944
 21
398.0894211555725
 31
0.0
  0
LINE
  5
1BCA6
330
1F
100
AcDbEntity
  8
0
100
AcDbLine
 10
498.7610474127942
 20
403.6894211555726
 30
0.0
 11
503.0610474127944
 21
403.6894211555726
 31
0.0
  0
ARC
  5
1BCA7
330
1F
100
AcDbEntity
  8
0
100
AcDbCircle
 10
503.0610474127944
 20
404.1894211555726
 30
0.0
 40
0.5
100
AcDbArc
 50
270.0
 51
0.0
  0
ARC
  5
1BCA8
330
1F
100
AcDbEntity
  8
0
100
AcDbCircle
 10
498.7610474127942
 20
404.1894211555726
 30
0.0
 40
0.5
100
AcDbArc
 50
180.0
 51
270.0
  0
LINE
  5
1BCA9
330
1F
100
AcDbEntity
  8
0
100
AcDbLine
 10
503.5610474127944
 20
404.1894211555726
 30
0.0
 11
503.5610474127944
 21
405.1894211555726
 31
0.0
  0
LINE
  5
1BCAA
330
1F
100
AcDbEntity
  8
0
100
AcDbLine
 10
498.2610474127942
 20
404.1894211555726
 30
0.0
 11
498.2610474127942
 21
408.1894211555725
 31
0.0
  0
ARC
  5
1BCAB
330
1F
100
AcDbEntity
  8
0
100
AcDbCircle
 10
510.5610474127943
 20
405.1894211555726
 30
0.0
 40
1.0
100
AcDbArc
 50
0.0
 51
90.0
  0
LINE
  5
1BCAC
330
1F
100
AcDbEntity
  8
0
100
AcDbLine
 10
504.7610474127942
 20
405.1894211555726
 30
0.0
 11
505.5610474127943
 21
405.1894211555726
 31
0.0
  0
LINE
  5
1BCAD
330
1F
100
AcDbEntity
  8
0
100
AcDbLine
 10
504.5610474127944
 20
406.1894211555726
 30
0.0
 11
505.5610474127943
 21
406.1894211555726
 31
0.0
  0
ARC
  5
1BCAE
330
1F
100
AcDbEntity
  8
0
100
AcDbCircle
 10
509.5610474127943
 20
405.6894211555726
 30
0.0
 40
0.5
100
AcDbArc
 50
90.0
 51
180.0
  0
ARC
  5
1BCAF
330
1F
100
AcDbEntity
  8
0
100
AcDbCircle
 10
509.5610474127943
 20
405.6894211555726
 30
0.0
 40
0.5
100
AcDbArc
 50
180.0
 51
270.0
  0
ARC
  5
1BCB0
330
1F
100
AcDbEntity
  8
0
100
AcDbCircle
 10
505.5610474127943
 20
405.6894211555726
 30
0.0
 40
0.5
100
AcDbArc
 50
270.0
 51
0.0
  0
ARC
  5
1BCB1
330
1F
100
AcDbEntity
  8
0
100
AcDbCircle
 10
505.5610474127943
 20
405.6894211555726
 30
0.0
 40
0.5
100
AcDbArc
 50
0.0
 51
90.0
  0
LINE
  5
1BCB2
330
1F
100
AcDbEntity
  8
0
100
AcDbLine
 10
509.5610474127943
 20
406.1894211555726
 30
0.0
 11
510.5610474127943
 21
406.1894211555726
 31
0.0
  0
LINE
  5
1BCB3
330
1F
100
AcDbEntity
  8
0
100
AcDbLine
 10
509.5610474127943
 20
405.1894211555726
 30
0.0
 11
510.3610474127942
 21
405.1894211555726
 31
0.0
  0
ARC
  5
1BCB4
330
1F
100
AcDbEntity
  8
0
100
AcDbCircle
 10
511.0610474127943
 20
403.1894211555726
 30
0.0
 40
0.5
100
AcDbArc
 50
270.0
 51
0.0
  0
LINE
  5
1BCB5
330
1F
100
AcDbEntity
  8
0
100
AcDbLine
 10
504.7610474127942
 20
403.8894211555724
 30
0.0
 11
510.3610474127942
 21
403.8894211555724
 31
0.0
  0
LINE
  5
1BCB6
330
1F
100
AcDbEntity
  8
0
100
AcDbLine
 10
509.8610474127942
 20
402.6894211555726
 30
0.0
 11
511.0610474127943
 21
402.6894211555726
 31
0.0
  0
LINE
  5
1BCB7
330
1F
100
AcDbEntity
  8
0
100
AcDbLine
 10
504.7610474127942
 20
403.8894211555724
 30
0.0
 11
504.7610474127942
 21
405.1894211555726
 31
0.0
  0
LINE
  5
1BCB8
330
1F
100
AcDbEntity
  8
0
100
AcDbLine
 10
510.3610474127942
 20
403.8894211555724
 30
0.0
 11
510.3610474127942
 21
405.1894211555726
 31
0.0
  0
LINE
  5
1BCB9
330
1F
100
AcDbEntity
  8
0
100
AcDbLine
 10
511.5610474127943
 20
403.1894211555726
 30
0.0
 11
511.5610474127943
 21
405.1894211555726
 31
0.0
  0
LINE
  5
1BCBA
330
1F
100
AcDbEntity
  8
0
100
AcDbLine
 10
504.0610474127944
 20
402.6894211555726
 30
0.0
 11
509.8610474127942
 21
402.6894211555726
 31
0.0
  0
ARC
  5
1BCBB
330
1F
100
AcDbEntity
  8
0
100
AcDbCircle
 10
498.8710474127944
 20
440.6294211555724
 30
0.0
 40
22.95
100
AcDbArc
 50
268.476800000002
 51
285.8047800000001
  0
ARC
  5
1BCBC
330
1F
100
AcDbEntity
  8
0
100
AcDbCircle
 10
498.7810474127944
 20
441.0294211555723
 30
0.0
 40
25.35
100
AcDbArc
 50
268.8244000000043
 51
285.1877000000047
  0
LINE
  5
1BCBD
330
1F
100
AcDbEntity
  8
0
100
AcDbLine
 10
496.2610474127942
 20
424.8894211555724
 30
0.0
 11
497.0610474127944
 21
425.6894211555726
 31
0.0
  0
LINE
  5
1BCBE
330
1F
100
AcDbEntity
  8
0
100
AcDbLine
 10
490.5610474127944
 20
423.1894211555726
 30
0.0
 11
490.5610474127944
 21
429.1894211555726
 31
0.0
  0
LINE
  5
1BCBF
330
1F
100
AcDbEntity
  8
0
100
AcDbLine
 10
488.5610474127944
 20
423.1894211555726
 30
0.0
 11
488.5610474127944
 21
428.1894211555726
 31
0.0
  0
LINE
  5
1BCC0
330
1F
100
AcDbEntity
  8
0
100
AcDbLine
 10
488.5610474127944
 20
423.1894211555726
 30
0.0
 11
490.5610474127944
 21
423.1894211555726
 31
0.0
  0
LINE
  5
1BCC1
330
1F
100
AcDbEntity
  8
0
100
AcDbLine
 10
496.2610474127942
 20
416.4894211555723
 30
0.0
 11
497.0610474127944
 21
415.6894211555726
 31
0.0
  0
LINE
  5
1BCC2
330
1F
100
AcDbEntity
  8
0
100
AcDbLine
 10
496.2610474127942
 20
416.4894211555723
 30
0.0
 11
496.2610474127942
 21
424.8894211555724
 31
0.0
  0
LINE
  5
1BCC3
330
1F
100
AcDbEntity
  8
0
100
AcDbLine
 10
488.0610474127944
 20
430.1894211555726
 30
0.0
 11
488.0610474127944
 21
436.6194211555725
 31
0.0
  0
LINE
  5
1BCC4
330
1F
100
AcDbEntity
  8
0
100
AcDbLine
 10
488.0610474127944
 20
430.1894211555726
 30
0.0
 11
489.5610474127944
 21
430.1894211555726
 31
0.0
  0
ARC
  5
1BCC5
330
1F
100
AcDbEntity
  8
0
100
AcDbCircle
 10
489.5610474127944
 20
429.1894211555726
 30
0.0
 40
1.0
100
AcDbArc
 50
0.0
 51
90.0
  0
LINE
  5
1BCC6
330
1F
100
AcDbEntity
  8
0
100
AcDbLine
 10
497.0610474127944
 20
425.6894211555726
 30
0.0
 11
497.0610474127944
 21
436.1594211555724
 31
0.0
  0
ARC
  5
1BCC7
330
1F
100
AcDbEntity
  8
0
100
AcDbCircle
 10
505.2410474127944
 20
417.5494211555725
 30
0.0
 40
1.0
100
AcDbArc
 50
276.9112200000012
 51
97.48088600000171
  0
LINE
  5
1BCC8
330
1F
100
AcDbEntity
  8
0
100
AcDbLine
 10
498.2610474127942
 20
441.4894211555723
 30
0.0
 11
511.8610474127942
 21
441.4894211555723
 31
0.0
  0
LINE
  5
1BCC9
330
1F
100
AcDbEntity
  8
0
100
AcDbLine
 10
488.0610474127944
 20
442.6894211555726
 30
0.0
 11
508.2310474127943
 21
442.6894211555726
 31
0.0
  0
LINE
  5
1BCCA
330
1F
100
AcDbEntity
  8
0
100
AcDbLine
 10
496.2610474127942
 20
446.6894211555726
 30
0.0
 11
496.2610474127942
 21
449.1894211555726
 31
0.0
  0
LINE
  5
1BCCB
330
1F
100
AcDbEntity
  8
0
100
AcDbLine
 10
490.9610474127942
 20
446.6894211555726
 30
0.0
 11
490.9610474127942
 21
449.1894211555726
 31
0.0
  0
ARC
  5
1BCCC
330
1F
100
AcDbEntity
  8
0
100
AcDbCircle
 10
488.9110474127943
 20
448.8094211555725
 30
0.0
 40
0.85
100
AcDbArc
 50
354.6232899999988
 51
184.0377099999994
  0
LINE
  5
1BCCD
330
1F
100
AcDbEntity
  8
0
100
AcDbLine
 10
498.2610474127942
 20
445.6894211555726
 30
0.0
 11
498.2610474127942
 21
450.6894211555726
 31
0.0
  0
LINE
  5
1BCCE
330
1F
100
AcDbEntity
  8
0
100
AcDbLine
 10
495.2610474127943
 20
446.6894211555726
 30
0.0
 11
496.2610474127942
 21
446.6894211555726
 31
0.0
  0
LINE
  5
1BCCF
330
1F
100
AcDbEntity
  8
0
100
AcDbLine
 10
495.2610474127943
 20
445.6894211555726
 30
0.0
 11
498.2610474127942
 21
445.6894211555726
 31
0.0
  0
LINE
  5
1BCD0
330
1F
100
AcDbEntity
  8
0
100
AcDbLine
 10
489.0610474127944
 20
441.4894211555723
 30
0.0
 11
497.0610474127944
 21
441.4894211555723
 31
0.0
  0
LINE
  5
1BCD1
330
1F
100
AcDbEntity
  8
0
100
AcDbLine
 10
490.9610474127942
 20
446.6894211555726
 30
0.0
 11
492.7610474127942
 21
446.6894211555726
 31
0.0
  0
LINE
  5
1BCD2
330
1F
100
AcDbEntity
  8
0
100
AcDbLine
 10
489.0610474127944
 20
438.1394211555724
 30
0.0
 11
489.0610474127944
 21
441.4894211555723
 31
0.0
  0
LINE
  5
1BCD3
330
1F
100
AcDbEntity
  8
0
100
AcDbLine
 10
488.0610474127944
 20
441.4894211555723
 30
0.0
 11
488.0610474127944
 21
442.6894211555726
 31
0.0
  0
LINE
  5
1BCD4
330
1F
100
AcDbEntity
  8
0
100
AcDbLine
 10
489.7610474127942
 20
445.6894211555726
 30
0.0
 11
491.8210474127944
 21
445.6894211555726
 31
0.0
  0
LINE
  5
1BCD5
330
1F
100
AcDbEntity
  8
0
100
AcDbLine
 10
491.8210474127944
 20
445.6894211555726
 30
0.0
 11
492.7610474127942
 21
445.6894211555726
 31
0.0
  0
LINE
  5
1BCD6
330
1F
100
AcDbEntity
  8
0
100
AcDbLine
 10
495.2610474127943
 20
445.6894211555726
 30
0.0
 11
495.2610474127943
 21
446.6894211555726
 31
0.0
  0
LINE
  5
1BCD7
330
1F
100
AcDbEntity
  8
0
100
AcDbLine
 10
492.7610474127942
 20
445.6894211555726
 30
0.0
 11
492.7610474127942
 21
446.6894211555726
 31
0.0
  0
LINE
  5
1BCD8
330
1F
100
AcDbEntity
  8
0
100
AcDbLine
 10
489.7610474127942
 20
445.6894211555726
 30
0.0
 11
489.7610474127942
 21
448.8094211555725
 31
0.0
  0
LINE
  5
1BCD9
330
1F
100
AcDbEntity
  8
0
100
AcDbLine
 10
488.0610474127944
 20
442.6894211555726
 30
0.0
 11
488.0610474127944
 21
448.7494211555725
 31
0.0
  0
LINE
  5
1BCDA
330
1F
100
AcDbEntity
  8
0
100
AcDbLine
 10
497.0610474127944
 20
438.0994211555725
 30
0.0
 11
497.0610474127944
 21
441.4894211555723
 31
0.0
  0
LINE
  5
1BCDB
330
1F
100
AcDbEntity
  8
0
100
AcDbLine
 10
498.2610474127942
 20
442.6894211555726
 30
0.0
 11
498.2610474127942
 21
445.6894211555726
 31
0.0
  0
LINE
  5
1BCDC
330
1F
100
AcDbEntity
  8
0
100
AcDbLine
 10
490.9610474127942
 20
449.1894211555726
 30
0.0
 11
496.2610474127942
 21
449.1894211555726
 31
0.0
  0
ARC
  5
1BCDD
330
1F
100
AcDbEntity
  8
0
100
AcDbCircle
 10
497.7610474127942
 20
450.6894211555726
 30
0.0
 40
0.5
100
AcDbArc
 50
0.0
 51
90.0
  0
LINE
  5
1BCDE
330
1F
100
AcDbEntity
  8
0
100
AcDbLine
 10
511.8610474127942
 20
440.6894211555726
 30
0.0
 11
513.0610474127943
 21
440.6894211555726
 31
0.0
  0
LINE
  5
1BCDF
330
1F
100
AcDbEntity
  8
0
100
AcDbLine
 10
507.9710474127944
 20
442.6894211555726
 30
0.0
 11
513.2610474127943
 21
442.6894211555726
 31
0.0
  0
LINE
  5
1BCE0
330
1F
100
AcDbEntity
  8
0
100
AcDbLine
 10
511.8610474127942
 20
440.6894211555726
 30
0.0
 11
511.8610474127942
 21
441.4894211555723
 31
0.0
  0
LINE
  5
1BCE1
330
1F
100
AcDbEntity
  8
0
100
AcDbLine
 10
513.0610474127943
 20
440.6894211555726
 30
0.0
 11
513.0610474127943
 21
442.1894211555726
 31
0.0
  0
LINE
  5
1BCE2
330
1F
100
AcDbEntity
  8
0
100
AcDbLine
 10
513.0610474127943
 20
442.1894211555726
 30
0.0
 11
513.0610474127943
 21
442.6894211555726
 31
0.0
  0
LINE
  5
1BCE7
330
1F
100
AcDbEntity
  8
007
100
AcDbLine
 10
503.2610474127942
 20
343.6894211555724
 30
0.0
 11
503.2610474127942
 21
311.6894211555724
 31
0.0
  0
LINE
  5
1BCE8
330
1F
100
AcDbEntity
  8
007
100
AcDbLine
 10
500.2610474127942
 20
343.6894211555724
 30
0.0
 11
500.2610474127944
 21
311.6894211555724
 31
0.0
  0
LINE
  5
1BCE9
330
1F
100
AcDbEntity
  8
003
100
AcDbLine
 10
518.2610474127943
 20
346.6894211555724
 30
0.0
 11
518.2610474127943
 21
308.6894211555724
 31
0.0
  0
LINE
  5
1BCEA
330
1F
100
AcDbEntity
  8
003
100
AcDbLine
 10
498.2610474127942
 20
350.6894211555726
 30
0.0
 11
498.2610474127942
 21
308.6894211555724
 31
0.0
  0
LINE
  5
1BCEB
330
1F
100
AcDbEntity
  8
003
100
AcDbLine
 10
502.2610474127942
 20
372.6894211555724
 30
0.0
 11
502.2610474127942
 21
346.6894211555724
 31
0.0
  0
LINE
  5
1BCEC
330
1F
100
AcDbEntity
  8
007
100
AcDbLine
 10
518.2610474127943
 20
343.6894211555724
 30
0.0
 11
500.2610474127942
 21
343.6894211555724
 31
0.0
  0
LINE
  5
1BCED
330
1F
100
AcDbEntity
  8
003
100
AcDbLine
 10
518.2610474127943
 20
346.6894211555724
 30
0.0
 11
502.2610474127942
 21
346.6894211555724
 31
0.0
  0
LINE
  5
1BCEE
330
1F
100
AcDbEntity
  8
007
100
AcDbLine
 10
490.2610474127942
 20
365.6894211555724
 30
0.0
 11
499.7610474127943
 21
365.6894211555724
 31
0.0
  0
LINE
  5
1BCEF
330
1F
100
AcDbEntity
  8
007
100
AcDbLine
 10
490.2610474127942
 20
361.6894211555724
 30
0.0
 11
499.7610474127943
 21
361.6894211555724
 31
0.0
  0
LINE
  5
1BCF0
330
1F
100
AcDbEntity
  8
006
100
AcDbLine
 10
508.1704047611943
 20
363.6894211555727
 30
0.0
 11
485.1704047611939
 21
363.6894211555722
 31
0.0
  0
LINE
  5
1BCF1
330
1F
100
AcDbEntity
  8
007
100
AcDbLine
 10
502.2610474127942
 20
360.1894211555724
 30
0.0
 11
502.2610474127942
 21
367.1894211555724
 31
0.0
  0
LINE
  5
1BCF2
330
1F
100
AcDbEntity
  8
007
100
AcDbLine
 10
499.7610474127943
 20
361.6894211555724
 30
0.0
 11
499.7610474127943
 21
365.6894211555724
 31
0.0
  0
LINE
  5
1BCF3
330
1F
100
AcDbEntity
  8
007
100
AcDbLine
 10
498.8310474127941
 20
361.6894211555724
 30
0.0
 11
499.3810474127943
 21
365.6894211555724
 31
0.0
  0
LINE
  5
1BCF4
330
1F
100
AcDbEntity
  8
007
100
AcDbLine
 10
502.2610474127942
 20
360.1894211555724
 30
0.0
 11
499.7610474127943
 21
361.6894211555724
 31
0.0
  0
LINE
  5
1BCF5
330
1F
100
AcDbEntity
  8
007
100
AcDbLine
 10
499.7610474127943
 20
365.6894211555724
 30
0.0
 11
502.2610474127942
 21
367.1894211555724
 31
0.0
  0
LINE
  5
1BCF6
330
1F
100
AcDbEntity
  8
007
100
AcDbLine
 10
494.3310474127941
 20
361.6894211555724
 30
0.0
 11
494.8810474127943
 21
365.6894211555724
 31
0.0
  0
LINE
  5
1BCF7
330
1F
100
AcDbEntity
  8
007
100
AcDbLine
 10
497.9310474127941
 20
361.6894211555724
 30
0.0
 11
498.4810474127942
 21
365.6894211555724
 31
0.0
  0
LINE
  5
1BCF8
330
1F
100
AcDbEntity
  8
007
100
AcDbLine
 10
495.2310474127942
 20
361.6894211555724
 30
0.0
 11
495.7810474127942
 21
365.6894211555724
 31
0.0
  0
LINE
  5
1BCF9
330
1F
100
AcDbEntity
  8
007
100
AcDbLine
 10
497.0310474127942
 20
361.6894211555724
 30
0.0
 11
497.5810474127942
 21
365.6894211555724
 31
0.0
  0
LINE
  5
1BCFA
330
1F
100
AcDbEntity
  8
007
100
AcDbLine
 10
496.1310474127944
 20
361.6894211555724
 30
0.0
 11
496.6810474127941
 21
365.6894211555724
 31
0.0
  0
LINE
  5
1BCFB
330
1F
100
AcDbEntity
  8
007
100
AcDbLine
 10
491.6310474127944
 20
361.6894211555724
 30
0.0
 11
492.1810474127941
 21
365.6894211555724
 31
0.0
  0
LINE
  5
1BCFC
330
1F
100
AcDbEntity
  8
007
100
AcDbLine
 10
493.4310474127941
 20
361.6894211555724
 30
0.0
 11
493.9810474127942
 21
365.6894211555724
 31
0.0
  0
LINE
  5
1BCFD
330
1F
100
AcDbEntity
  8
007
100
AcDbLine
 10
492.5310474127942
 20
361.6894211555724
 30
0.0
 11
493.0810474127942
 21
365.6894211555724
 31
0.0
  0
LINE
  5
1BCFE
330
1F
100
AcDbEntity
  8
007
100
AcDbLine
 10
490.2610474127942
 20
361.6894211555724
 30
0.0
 11
490.2610474127942
 21
365.6894211555724
 31
0.0
  0
LINE
  5
1BCFF
330
1F
100
AcDbEntity
  8
007
100
AcDbLine
 10
490.7310474127942
 20
361.6894211555724
 30
0.0
 11
491.2810474127942
 21
365.6894211555724
 31
0.0
  0
LINE
  5
1BD00
330
1F
100
AcDbEntity
  8
007
100
AcDbLine
 10
518.2610474127943
 20
311.6894211555724
 30
0.0
 11
500.2610474127944
 21
311.6894211555724
 31
0.0
  0
LINE
  5
1BD01
330
1F
100
AcDbEntity
  8
003
100
AcDbLine
 10
518.2610474127943
 20
308.6894211555724
 30
0.0
 11
498.2610474127942
 21
308.6894211555724
 31
0.0
  0
CIRCLE
  5
1BD10
330
1F
100
AcDbEntity
  8
007
100
AcDbCircle
 10
521.1819607663438
 20
72.65790945619528
 30
0.0
 40
1.722893115094009
  0
LINE
  5
1BD11
330
1F
100
AcDbEntity
  8
0
100
AcDbLine
 10
513.3994446401749
 20
80.7579094561952
 30
0.0
 11
513.3994446401749
 21
64.55790945619515
 31
0.0
  0
LINE
  5
1BD12
330
1F
100
AcDbEntity
  8
0
100
AcDbLine
 10
391.318944640175
 20
64.55790945619515
 30
0.0
 11
391.3189446401751
 21
100.3909687823327
 31
0.0
  0
LINE
  5
1BD13
330
1F
100
AcDbEntity
  8
0
100
AcDbLine
 10
391.3189446401751
 20
89.92440945619524
 30
0.0
 11
382.0720064694507
 21
89.92440945619524
 31
0.0
  0
LINE
  5
1BD14
330
1F
100
AcDbEntity
  8
0
100
AcDbLine
 10
405.4939446401751
 20
80.7579094561952
 30
0.0
 11
405.4939446401751
 21
64.55790945619515
 31
0.0
  0
LINE
  5
1BD15
330
1F
100
AcDbEntity
  8
0
100
AcDbLine
 10
391.3189446401751
 20
64.55790945619515
 30
0.0
 11
391.3189446401751
 21
80.7579094561952
 31
0.0
  0
LINE
  5
1BD16
330
1F
100
AcDbEntity
  8
0
100
AcDbLine
 10
405.4939446401751
 20
64.55790945619515
 30
0.0
 11
391.318944640175
 21
64.55790945619515
 31
0.0
  0
LINE
  5
1BD17
330
1F
100
AcDbEntity
  8
0
100
AcDbLine
 10
405.4939446401751
 20
80.7579094561952
 30
0.0
 11
393.301492890357
 21
80.7579094561952
 31
0.0
  0
LINE
  5
1BD18
330
1F
100
AcDbEntity
  8
0
100
AcDbLine
 10
393.301492890357
 20
80.7579094561952
 30
0.0
 11
393.301492890357
 21
95.90886508430163
 31
0.0
  0
LINE
  5
1BD19
330
1F
100
AcDbEntity
  8
0
100
AcDbLine
 10
393.301492890357
 20
95.90886508430163
 30
0.0
 11
391.3189446401751
 21
95.90886508430163
 31
0.0
  0
LEADER
  5
1BD1A
330
1F
100
AcDbEntity
  8
003
100
AcDbLeader
  3
DIM
 73
     0
 40
6.000000000000001
 41
30.30000000000001
 76
     3
 10
521.1819607663438
 20
74.38080257128922
 30
0.0
 10
513.576088491872
 20
87.5545597865538
 30
0.0
 10
511.0920888717955
 20
87.5545597865538
 30
0.0
340
1BD1B
1001
ACAD
1000
DSTYLE
1002
{
1070
   147
1040
1.0
1070
    77
1070
     1
1002
}
  0
MTEXT
  5
1BD1B
102
{ACAD_REACTORS
330
1BD1A
102
}
330
1F
100
AcDbEntity
  8
003
 62
     7
100
AcDbMText
 10
509.0920888717955
 20
89.55455978655379
 30
0.0
 40
6.0
 41
0.0
 71
     9
 72
     1
  1
回転止めピン
  7
DIM
 73
     1
 44
1.0
1001
ACAD
1000
MTEXTBEGIN
1070
    73
1070
     1
1070
    44
1040
1.0
1070
    74
1070
     0
1000
MTEXTEND
  0
LEADER
  5
1BD1C
330
1F
100
AcDbEntity
  8
003
100
AcDbLeader
  3
DIM
 73
     0
 40
6.0
 41
28.26428571428571
 76
     3
 10
443.930745727961
 20
122.4182901873537
 30
0.0
 10
435.6254089135202
 20
136.8035555239374
 30
0.0
 10
431.3589068211695
 20
136.8035555239374
 30
0.0
340
1BD1D
1001
ACAD
1000
DSTYLE
1002
{
1070
   147
1040
1.0
1070
    77
1070
     1
1002
}
  0
MTEXT
  5
1BD1D
102
{ACAD_REACTORS
330
1BD1C
102
}
330
1F
100
AcDbEntity
  8
003
 62
     7
100
AcDbMText
 10
429.3589068211694
 20
138.8035555239374
 30
0.0
 40
6.0
 41
0.0
 71
     9
 72
     1
  1
32φパイプ
  7
DIM
 73
     1
 44
1.0
1001
ACAD
1000
MTEXTBEGIN
1070
    73
1070
     1
1070
    44
1040
1.0
1070
    74
1070
     0
1000
MTEXTEND
  0
LINE
  5
1BF71
330
1F
100
AcDbEntity
  8
007
100
AcDbLine
 10
676.9674862511838
 20
343.6894211555724
 30
0.0
 11
676.9674862511837
 21
311.6894211555724
 31
0.0
  0
LINE
  5
1BF72
330
1F
100
AcDbEntity
  8
007
100
AcDbLine
 10
673.9674862511837
 20
343.6894211555724
 30
0.0
 11
673.9674862511837
 21
311.6894211555724
 31
0.0
  0
LINE
  5
1BF73
330
1F
100
AcDbEntity
  8
007
100
AcDbLine
 10
658.9674862511838
 20
343.6894211555724
 30
0.0
 11
676.9674862511838
 21
343.6894211555724
 31
0.0
  0
LINE
  5
1BF74
330
1F
100
AcDbEntity
  8
007
100
AcDbLine
 10
658.9674862511838
 20
311.6894211555724
 30
0.0
 11
676.9674862511837
 21
311.6894211555724
 31
0.0
  0
LINE
  5
1BF78
330
1F
100
AcDbEntity
  8
007
100
AcDbLine
 10
662.9674862511838
 20
332.6894211555724
 30
0.0
 11
673.9674862511837
 21
332.6894211555724
 31
0.0
  0
LINE
  5
1BF79
330
1F
100
AcDbEntity
  8
007
100
AcDbLine
 10
662.9674862511838
 20
322.6894211555724
 30
0.0
 11
662.9674862511838
 21
332.6894211555724
 31
0.0
  0
LINE
  5
1BF7A
330
1F
100
AcDbEntity
  8
007
100
AcDbLine
 10
662.9674862511838
 20
322.6894211555724
 30
0.0
 11
673.9674862511837
 21
322.6894211555724
 31
0.0
  0
CIRCLE
  5
1BF7B
330
1F
100
AcDbEntity
  8
007
100
AcDbCircle
 10
666.9674862511838
 20
327.6894211555724
 30
0.0
 40
2.5
  0
LINE
  5
1BF7C
330
1F
100
AcDbEntity
  8
007
100
AcDbLine
 10
663.3674293422502
 20
327.6894211555724
 30
0.0
 11
670.5675431601173
 21
327.6894211555724
 31
0.0
  0
LINE
  5
1BF7D
330
1F
100
AcDbEntity
  8
007
100
AcDbLine
 10
666.9674862511838
 20
324.0893642466389
 30
0.0
 11
666.9674862511838
 21
331.289478064506
 31
0.0
  0
LEADER
  5
1BF7E
330
1F
100
AcDbEntity
  8
003
100
AcDbLeader
  3
DIM
 73
     0
 40
6.000000000000001
 41
30.30000000000001
 76
     3
 10
665.9428440470281
 20
326.5008027593761
 30
0.0
 10
661.0354095810279
 20
318.000876929449
 30
0.0
 10
638.3935268515259
 20
318.000876929449
 30
0.0
340
1BF7F
1001
ACAD
1000
DSTYLE
1002
{
1070
   147
1040
1.0
1070
    77
1070
     1
1002
}
  0
MTEXT
  5
1BF7F
102
{ACAD_REACTORS
330
1BF7E
102
}
330
1F
100
AcDbEntity
  8
003
 62
     7
100
AcDbMText
 10
636.3935268515259
 20
320.000876929449
 30
0.0
 40
6.0
 41
0.0
 71
     9
 72
     1
  1
回転止めピン
  7
DIM
 73
     1
 44
1.0
1001
ACAD
1000
MTEXTBEGIN
1070
    73
1070
     1
1070
    44
1040
1.0
1070
    74
1070
     0
1000
MTEXTEND
  0
DIMENSION
  5
1C055
330
1F
100
AcDbEntity
  8
003
100
AcDbDimension
  2
*D14
 10
518.2610474127941
 20
281.7819805096931
 30
0.0
 11
508.2610474127941
 21
286.7819805096931
 31
0.0
 70
    32
 71
     5
 42
20.0
  3
DIM
100
AcDbAlignedDimension
 13
498.2610474127941
 23
308.6894211555724
 33
0.0
 14
518.2610474127941
 24
308.6894211555724
 34
0.0
 50
0.000000000000007
100
AcDbRotatedDimension
  0
MTEXT
  5
1C0CE
330
1F
100
AcDbEntity
  8
003
 62
     7
100
AcDbMText
 10
610.2763319265638
 20
349.1543944620478
 30
0.0
 40
6.0
 41
0.0
 71
     7
 72
     1
  1
（SUS.HL）
  7
DIM
 73
     1
 44
1.0
1001
ACAD
1000
MTEXTBEGIN
1070
    73
1070
     1
1070
    44
1040
1.0
1070
    74
1070
     0
1000
MTEXTEND
  0
MTEXT
  5
1C0D6
330
1F
100
AcDbEntity
  8
003
 62
     7
100
AcDbMText
 10
241.0547515390931
 20
417.7954616842078
 30
0.0
 40
6.0
 41
0.0
 71
     7
 72
     1
  1
（SUS.HL）
  7
DIM
 73
     1
 44
1.0
1001
ACAD
1000
MTEXTBEGIN
1070
    73
1070
     1
1070
    44
1040
1.0
1070
    74
1070
     0
1000
MTEXTEND
  0
LEADER
  5
1C16F
330
1F
100
AcDbEntity
  8
003
100
AcDbLeader
  3
DIM
 73
     0
 40
6.0
 41
23.48571428571429
 76
     3
 10
674.9674862511838
 20
363.6894211555725
 30
0.0
 10
661.2094593419333
 20
387.5190227742942
 30
0.0
 10
659.0871284817439
 20
387.5190227742942
 30
0.0
340
1C170
1001
ACAD
1000
DSTYLE
1002
{
1070
   147
1040
1.0
1070
    77
1070
     1
1002
}
  0
MTEXT
  5
1C170
102
{ACAD_REACTORS
330
1C16F
102
}
330
1F
100
AcDbEntity
  8
003
 62
     7
100
AcDbMText
 10
657.087128481744
 20
389.5190227742942
 30
0.0
 40
6.0
 41
0.0
 71
     9
 72
     1
  1
Ｍ4皿ビス
  7
DIM
 73
     1
 44
1.0
1001
ACAD
1000
MTEXTBEGIN
1070
    73
1070
     1
1070
    44
1040
1.0
1070
    74
1070
     0
1000
MTEXTEND
  0
ENDSEC
  0
SECTION
  2
OBJECTS
  0
DICTIONARY
  5
C
330
0
100
AcDbDictionary
281
     1
  3
ACAD_COLOR
350
E400
  3
ACAD_GROUP
350
D
  3
ACAD_LAYOUT
350
1A
  3
ACAD_MATERIAL
350
E3D6
  3
ACAD_MLEADERSTYLE
350
E425
  3
ACAD_MLINESTYLE
350
17
  3
ACAD_PLOTSETTINGS
350
19
  3
ACAD_PLOTSTYLENAME
350
E
  3
ACAD_SCALELIST
350
E403
  3
ACAD_TABLESTYLE
350
E401
  3
ACAD_VISUALSTYLE
350
E3EF
  3
AcadDim
350
2AE
  3
ACDB_RECOMPOSE_DATA
350
103AB
  3
AcDbVariableDictionary
350
103AC
  3
DWGPROPS
350
1C1B6
  0
DICTIONARY
  5
1C0A6
330
8
100
AcDbDictionary
280
     1
281
     1
  0
DICTIONARY
  5
2859
330
2
100
AcDbDictionary
280
     1
281
     1
  3
ACAD_LAYERFILTERS
360
16274
  3
ACAD_LAYERSTATES
360
285A
  3
ACLYDICTIONARY
360
16273
  0
DICTIONARY
  5
F074
330
10
100
AcDbDictionary
280
     1
281
     1
  3
ADSK_XREC_LAYER_RECONCILED
360
F075
  0
DICTIONARY
  5
F076
330
31
100
AcDbDictionary
280
     1
281
     1
  3
ADSK_XREC_LAYER_RECONCILED
360
F077
  0
DICTIONARY
  5
F07A
330
33
100
AcDbDictionary
280
     1
281
     1
  3
ADSK_XREC_LAYER_RECONCILED
360
F07B
  0
DICTIONARY
  5
F080
330
1A4
100
AcDbDictionary
280
     1
281
     1
  3
ADSK_XREC_LAYER_RECONCILED
360
F081
  0
DICTIONARY
  5
F082
330
1A5
100
AcDbDictionary
280
     1
281
     1
  3
ADSK_XREC_LAYER_RECONCILED
360
F083
  0
DICTIONARY
  5
F088
330
2B1
100
AcDbDictionary
280
     1
281
     1
  3
ADSK_XREC_LAYER_RECONCILED
360
F089
  0
DICTIONARY
  5
F144
330
1F
100
AcDbDictionary
280
     1
281
     1
  3
ACAD_SORTENTS
360
F145
  0
DICTIONARY
  5
E400
102
{ACAD_REACTORS
330
C
102
}
330
C
100
AcDbDictionary
281
     1
  0
DICTIONARY
  5
D
102
{ACAD_REACTORS
330
C
102
}
330
C
100
AcDbDictionary
281
     1
  0
DICTIONARY
  5
1A
102
{ACAD_REACTORS
330
C
102
}
330
C
100
AcDbDictionary
281
     1
  3
Model
350
22
  3
ﾚｲｱｳﾄ1
350
1E
  3
ﾚｲｱｳﾄ2
350
26
  0
DICTIONARY
  5
E3D6
102
{ACAD_REACTORS
330
C
102
}
330
C
100
AcDbDictionary
281
     1
  3
ByBlock
350
E3DF
  3
ByLayer
350
E3D7
  3
Global
350
E3E7
  0
DICTIONARY
  5
E425
102
{ACAD_REACTORS
330
C
102
}
330
C
100
AcDbDictionary
281
     1
  3
Standard
350
E426
  0
DICTIONARY
  5
17
102
{ACAD_REACTORS
330
C
102
}
330
C
100
AcDbDictionary
281
     1
  3
Standard
350
18
  0
DICTIONARY
  5
19
102
{ACAD_REACTORS
330
C
102
}
330
C
100
AcDbDictionary
281
     1
  0
ACDBDICTIONARYWDFLT
  5
E
102
{ACAD_REACTORS
330
C
102
}
330
C
100
AcDbDictionary
281
     1
  3
Normal
350
F
100
AcDbDictionaryWithDefault
340
F
  0
DICTIONARY
  5
E403
102
{ACAD_REACTORS
330
C
102
}
330
C
100
AcDbDictionary
281
     1
  3
A0
350
E404
  3
A1
350
E405
  3
A2
350
E406
  3
A3
350
E407
  3
A4
350
E408
  3
A5
350
E409
  3
A6
350
E40A
  3
A7
350
E40B
  3
A8
350
E40C
  3
A9
350
E40D
  3
B0
350
E40E
  3
B1
350
E40F
  3
B2
350
E410
  3
B3
350
E411
  3
B4
350
E412
  3
B5
350
E413
  3
B6
350
E414
  3
B7
350
E415
  3
B8
350
E416
  3
B9
350
E417
  3
C0
350
E418
  3
C1
350
E419
  3
C2
350
E41A
  3
C3
350
E41B
  3
C4
350
E41C
  3
C5
350
E41D
  3
C6
350
E41E
  3
C7
350
E41F
  3
C8
350
E420
  3
C9
350
E421
  3
D0
350
E422
  3
D1
350
E423
  3
D2
350
E424
  0
DICTIONARY
  5
E401
102
{ACAD_REACTORS
330
C
102
}
330
C
100
AcDbDictionary
281
     1
  3
Standard
350
E402
  0
DICTIONARY
  5
E3EF
102
{ACAD_REACTORS
330
C
102
}
330
C
100
AcDbDictionary
281
     1
  3
2dWireframe
350
E3F5
  3
3D Hidden
350
E3F7
  3
3dWireframe
350
E3F6
  3
Basic
350
E3F4
  3
Brighten
350
E3FB
  3
ColorChange
350
E3FF
  3
Conceptual
350
E3F8
  3
Dim
350
E3FA
  3
Facepattern
350
E3FE
  3
Flat
350
E3F0
  3
FlatWithEdges
350
E3F1
  3
Gouraud
350
E3F2
  3
GouraudWithEdges
350
E3F3
  3
Linepattern
350
E3FD
  3
Realistic
350
E3F9
  3
Thicken
350
E3FC
  0
XRECORD
  5
2AE
102
{ACAD_REACTORS
330
C
102
}
330
C
100
AcDbXrecord
280
     1
 90
   990106
  3

 60
     0
 61
     0
 62
     4
 63
     4
 64
     1
 65
     0
 66
     0
 67
     3
 68
     1
 69
     0
 70
     0
 71
     0
 72
     0
 40
0.0
170
     2
340
1C170
  0
XRECORD
  5
103AB
102
{ACAD_REACTORS
330
C
102
}
330
C
100
AcDbXrecord
280
     1
 90
        1
330
E402
  0
DICTIONARY
  5
103AC
102
{ACAD_REACTORS
330
C
102
}
330
C
100
AcDbDictionary
281
     1
  3
CANNOSCALE
350
103B0
  3
CMLEADERSTYLE
350
103AE
  3
CTABLESTYLE
350
103AD
  3
DIMASSOC
350
1C0C1
  3
INDEXCTL
350
1C0C0
  3
LIGHTINGUNITS
350
103B1
  3
MSLTSCALE
350
103AF
  3
SORTENTS
350
1C0BF
  0
XRECORD
  5
1C1B6
102
{ACAD_REACTORS
330
C
102
}
330
C
100
AcDbXrecord
280
     1
  1
DWGPROPS COOKIE
  2

  3

  4

  6

  7

  8
koba
  9

300
=
301
=
302
=
303
=
304
=
305
=
306
=
307
=
308
=
309
=
 40
0.5044507407407407
 41
2452888.42884919
 42
2455959.451806632
  1

 90
        0
  0
DICTIONARY
  5
16274
102
{ACAD_REACTORS
330
2859
102
}
330
2859
100
AcDbDictionary
281
     1
  0
DICTIONARY
  5
285A
102
{ACAD_REACTORS
330
2859
102
}
330
2859
100
AcDbDictionary
281
     1
  0
DICTIONARY
  5
16273
102
{ACAD_REACTORS
330
2859
102
}
330
2859
100
AcDbDictionary
281
     1
1001
ACAD
1000
<All
  0
XRECORD
  5
F075
102
{ACAD_REACTORS
330
F074
102
}
330
F074
100
AcDbXrecord
280
     1
290
     1
  0
XRECORD
  5
F077
102
{ACAD_REACTORS
330
F076
102
}
330
F076
100
AcDbXrecord
280
     1
290
     1
  0
XRECORD
  5
F07B
102
{ACAD_REACTORS
330
F07A
102
}
330
F07A
100
AcDbXrecord
280
     1
290
     1
  0
XRECORD
  5
F081
102
{ACAD_REACTORS
330
F080
102
}
330
F080
100
AcDbXrecord
280
     1
290
     1
  0
XRECORD
  5
F083
102
{ACAD_REACTORS
330
F082
102
}
330
F082
100
AcDbXrecord
280
     1
290
     1
  0
XRECORD
  5
F089
102
{ACAD_REACTORS
330
F088
102
}
330
F088
100
AcDbXrecord
280
     1
290
     1
  0
SORTENTSTABLE
  5
F145
102
{ACAD_REACTORS
330
F144
102
}
330
F144
100
AcDbSortentsTable
330
1F
331
1AA0B
  5
1AA0B
331
19A75
  5
19A75
331
1A9D4
  5
1A9D4
331
1AB62
  5
1AB62
331
1AA13
  5
1AA13
331
19A7D
  5
19A7D
331
1A9DC
  5
1A9DC
331
1AB6A
  5
1AB6A
331
16669
  5
16671
331
16800
  5
1663F
331
1AA1B
  5
1AA1B
331
19A85
  5
19A85
331
1A9E4
  5
1A9E4
331
165F3
  5
165F9
331
13EC9
  5
13ECB
331
197D4
  5
197D4
331
19795
  5
19795
331
16808
  5
16811
331
1975E
  5
1975E
331
16671
  5
16679
331
1AA23
  5
1AA23
331
19A8D
  5
19A8D
331
1A9EC
  5
1A9EC
331
165FB
  5
16601
331
1663A
  5
16642
331
165C0
  5
165C6
331
197DC
  5
197DC
331
1979D
  5
1979D
331
18D1F
  5
18F0A
331
19766
  5
19766
331
16679
  5
16681
331
16603
  5
16609
331
16642
  5
1664A
331
165C8
  5
165CE
331
197E4
  5
197E4
331
197A5
  5
197A5
331
1976E
  5
1976E
331
16681
  5
16689
331
1660B
  5
16611
331
1664A
  5
16652
331
165D0
  5
165D6
331
197AD
  5
197AD
331
19776
  5
19776
331
197EC
  5
197EC
331
1AA2B
  5
1AA2B
331
19A95
  5
19A95
331
1A9F4
  5
1A9F4
331
1AB8A
  5
1AB8A
331
1AA33
  5
1AA33
331
19A9D
  5
19A9D
331
1A9FC
  5
1A9FC
331
16689
  5
16691
331
16613
  5
16619
331
16652
  5
1665A
331
165D8
  5
165DE
331
19AA5
  5
19AA5
331
1AA04
  5
1AA04
331
13DF4
  5
13DF6
331
197F4
  5
197F4
331
197B5
  5
197B5
331
1977E
  5
1977E
331
16691
  5
16699
331
1661B
  5
16621
331
1665A
  5
16662
331
165E0
  5
165E6
331
13DFC
  5
13DFE
331
19A64
  5
19A64
331
197BD
  5
197BD
331
19786
  5
19786
331
16699
  5
166A7
331
16623
  5
16629
331
16662
  5
1666A
331
165E8
  5
165EE
331
13EC4
  5
13EC6
331
19A6C
  5
19A6C
331
197C5
  5
197C5
331
1978E
  5
1978E
331
1662B
  5
16633
331
165B1
  5
165B7
331
197CD
  5
197CD
331
19757
  5
19757
331
1AA0C
  5
1AA0C
331
19A76
  5
19A76
331
1A9D5
  5
1A9D5
331
1AB63
  5
1AB63
331
1AA14
  5
1AA14
331
19A7E
  5
19A7E
331
1A9DD
  5
1A9DD
331
18998
  5
1899E
331
1666A
  5
16672
331
16801
  5
16809
331
1AA1C
  5
1AA1C
331
19A86
  5
19A86
331
1A9E5
  5
1A9E5
331
1AB73
  5
1AB73
331
165F4
  5
165FA
331
13ECA
  5
13ECC
331
197D5
  5
197D5
331
19796
  5
19796
331
1975F
  5
1975F
331
16809
  5
1682A
331
16672
  5
1667A
331
1AA24
  5
1AA24
331
19A8E
  5
19A8E
331
1A9ED
  5
1A9ED
331
165FC
  5
16602
331
1663B
  5
16643
331
165C1
  5
165C7
331
197DD
  5
197DD
331
1979E
  5
1979E
331
19767
  5
19767
331
1667A
  5
16682
331
16604
  5
1660A
331
16643
  5
1664B
331
165C9
  5
165CF
331
197E5
  5
197E5
331
197A6
  5
197A6
331
1976F
  5
1976F
331
16682
  5
1668A
331
1660C
  5
16612
331
1664B
  5
16653
331
165D1
  5
165D7
331
197AE
  5
197AE
331
19777
  5
19777
331
197ED
  5
197ED
331
1AA2C
  5
1AA2C
331
19A96
  5
19A96
331
1A9F5
  5
1A9F5
331
1AA34
  5
1AA34
331
19A9E
  5
19A9E
331
1A9FD
  5
1A9FD
331
1668A
  5
16692
331
16614
  5
1661A
331
16653
  5
1665B
331
19AA6
  5
19AA6
331
1AA05
  5
1AA05
331
13DF5
  5
13DF7
331
165D9
  5
165DF
331
197B6
  5
197B6
331
1977F
  5
1977F
331
16692
  5
1669A
331
1661C
  5
16622
331
1665B
  5
16663
331
165E1
  5
165E7
331
19A65
  5
19A65
331
197BE
  5
197BE
331
19787
  5
19787
331
16624
  5
1662A
331
16663
  5
1666B
331
13EC5
  5
13EC7
331
165E9
  5
165EF
331
19A6D
  5
19A6D
331
197C6
  5
197C6
331
1978F
  5
1978F
331
1662C
  5
1663A
331
F806
  5
F85B
331
165B2
  5
165B8
331
197CE
  5
197CE
331
1AA0D
  5
1AA0D
331
19A77
  5
19A77
331
1A9D6
  5
1A9D6
331
1AB64
  5
1AB64
331
1AA15
  5
1AA15
331
19A7F
  5
19A7F
331
1A9DE
  5
1A9DE
331
1AB6C
  5
1AB6C
331
18999
  5
189A1
331
1666B
  5
16673
331
16802
  5
1680A
331
19758
  5
19758
331
1AA1D
  5
1AA1D
331
19A87
  5
19A87
331
1A9E6
  5
1A9E6
331
1AB74
  5
1AB74
331
165F5
  5
165FB
331
13ECB
  5
13ECD
331
197D6
  5
197D6
331
19797
  5
19797
331
19760
  5
19760
331
1680A
  5
1682B
331
16673
  5
1667B
331
1AA25
  5
1AA25
331
19A8F
  5
19A8F
331
1A9EE
  5
1A9EE
331
1AB84
  5
1AB84
331
165FD
  5
16603
331
1663C
  5
16644
331
165C2
  5
165C8
331
197DE
  5
197DE
331
1979F
  5
1979F
331
19768
  5
19768
331
170EA
  5
171A0
331
1667B
  5
16683
331
16605
  5
1660B
331
16644
  5
1664C
331
165CA
  5
165D0
331
197E6
  5
197E6
331
197A7
  5
197A7
331
19770
  5
19770
331
16683
  5
1668B
331
1660D
  5
16613
331
1664C
  5
16654
331
165D2
  5
165D8
331
13DEE
  5
13DF0
331
197AF
  5
197AF
331
197EE
  5
197EE
331
F4
  5
F4
331
1AA2D
  5
1AA2D
331
19A97
  5
19A97
331
1A9F6
  5
1A9F6
331
19A9F
  5
19A9F
331
1A9FE
  5
1A9FE
331
1ABA4
  5
1ABA4
331
19778
  5
19778
331
1668B
  5
16693
331
16615
  5
1661B
331
16654
  5
1665C
331
165DA
  5
165E0
331
19AA7
  5
19AA7
331
1AA06
  5
1AA06
331
F7EF
  5
F7FD
331
13DF6
  5
13DF8
331
197B7
  5
197B7
331
18F61
  5
18F61
331
19780
  5
19780
331
16693
  5
1669B
331
1AB5D
  5
1AB5D
331
1661D
  5
16623
331
1665C
  5
16664
331
165E2
  5
165E8
331
19A66
  5
19A66
331
197BF
  5
197BF
331
18F99
  5
18F99
331
19788
  5
19788
331
16625
  5
1662B
331
16664
  5
1666C
331
165EA
  5
165F0
331
13EC6
  5
13EC8
331
19A6E
  5
19A6E
331
197C7
  5
197C7
331
1662D
  5
1663B
331
165B3
  5
165B9
331
197CF
  5
197CF
331
19A70
  5
19A70
331
1AA0E
  5
1AA0E
331
19A78
  5
19A78
331
1A9D7
  5
1A9D7
331
1AB65
  5
1AB65
331
1AA16
  5
1AA16
331
19A80
  5
19A80
331
1A9DF
  5
1A9DF
331
1AB6D
  5
1AB6D
331
19790
  5
19790
331
1899A
  5
189A2
331
16803
  5
1680B
331
19759
  5
19759
331
1666C
  5
16674
331
1AA1E
  5
1AA1E
331
19A88
  5
19A88
331
1A9E7
  5
1A9E7
331
1AB75
  5
1AB75
331
165F6
  5
165FC
331
13ECC
  5
13ECE
331
165BB
  5
165C1
331
197D7
  5
197D7
331
19798
  5
19798
331
19761
  5
19761
331
1680B
  5
1682C
331
16674
  5
1667C
331
1AA26
  5
1AA26
331
1A9EF
  5
1A9EF
331
1AB85
  5
1AB85
331
165FE
  5
16604
331
1663D
  5
16645
331
165C3
  5
165C9
331
197DF
  5
197DF
331
197A0
  5
197A0
331
19769
  5
19769
331
1667C
  5
16684
331
16606
  5
1660C
331
16645
  5
1664D
331
165CB
  5
165D1
331
197E7
  5
197E7
331
197A8
  5
197A8
331
19771
  5
19771
331
170F3
  5
171A1
331
16684
  5
1668C
331
1660E
  5
16614
331
1664D
  5
16655
331
165D3
  5
165D9
331
13DEF
  5
13DF1
331
197EF
  5
197EF
331
F5
  5
F5
331
19A90
  5
19A90
331
1AA2E
  5
1AA2E
331
19A98
  5
19A98
331
1A9F7
  5
1A9F7
331
19AA0
  5
19AA0
331
1A9FF
  5
1A9FF
331
1ABA5
  5
1ABA5
331
197B0
  5
197B0
331
19779
  5
19779
331
1668C
  5
16694
331
16616
  5
1661C
331
16655
  5
1665D
331
165DB
  5
165E1
331
1AA07
  5
1AA07
331
13DF7
  5
13DF9
331
197B8
  5
197B8
331
18F62
  5
18F62
331
19781
  5
19781
331
16694
  5
1669C
331
1AB5E
  5
1AB5E
331
1661E
  5
16624
331
1665D
  5
16665
331
165E3
  5
165E9
331
19A67
  5
19A67
331
197C0
  5
197C0
331
19789
  5
19789
331
16626
  5
1662C
331
16665
  5
1666D
331
165EB
  5
165F1
331
13EC7
  5
13EC9
331
19A6F
  5
19A6F
331
197C8
  5
197C8
331
1662E
  5
1663C
331
165B4
  5
165BD
331
19A71
  5
19A71
331
1AA0F
  5
1AA0F
331
19A79
  5
19A79
331
1A9D8
  5
1A9D8
331
1AB66
  5
1AB66
331
1AA17
  5
1AA17
331
19A81
  5
19A81
331
1A9E0
  5
1A9E0
331
1AB6E
  5
1AB6E
331
197D0
  5
197D0
331
19791
  5
19791
331
1899B
  5
189A3
331
16804
  5
1680C
331
1975A
  5
1975A
331
1666D
  5
16675
331
1AA1F
  5
1AA1F
331
19A89
  5
19A89
331
1A9E8
  5
1A9E8
331
165F7
  5
165FD
331
13ECD
  5
13ECF
331
165BC
  5
165C2
331
197D8
  5
197D8
331
19799
  5
19799
331
19762
  5
19762
331
1680C
  5
1682D
331
16675
  5
1667D
331
1AA27
  5
1AA27
331
1AB86
  5
1AB86
331
165FF
  5
16605
331
1663E
  5
16646
331
13EED
  5
13EEF
331
165C4
  5
165CA
331
197E0
  5
197E0
331
197A1
  5
197A1
331
1976A
  5
1976A
331
1667D
  5
16685
331
16607
  5
1660D
331
16646
  5
1664E
331
165CC
  5
165D2
331
197A9
  5
197A9
331
19772
  5
19772
331
170F4
  5
17217
331
197E8
  5
197E8
331
16685
  5
1668D
331
1660F
  5
16615
331
1664E
  5
16656
331
165D4
  5
165DA
331
F6
  5
1505
331
19A91
  5
19A91
331
1A9F0
  5
1A9F0
331
1A9F8
  5
1A9F8
331
19A99
  5
19A99
331
1AA2F
  5
1AA2F
331
19AA1
  5
19AA1
331
1AA00
  5
1AA00
331
13DF0
  5
13DF2
331
197F0
  5
197F0
331
197B1
  5
197B1
331
1719C
  5
17816
331
1977A
  5
1977A
331
1668D
  5
16695
331
16617
  5
1661D
331
16656
  5
1665E
331
165DC
  5
165E2
331
1AB37
  5
1AB37
331
13DF8
  5
13DFA
331
197B9
  5
197B9
331
19782
  5
19782
331
16695
  5
1669D
331
1661F
  5
16625
331
1665E
  5
16666
331
165E4
  5
165EA
331
19A68
  5
19A68
331
197C1
  5
197C1
331
1978A
  5
1978A
331
16627
  5
1662D
331
16666
  5
1666E
331
165EC
  5
165F2
331
197C9
  5
197C9
331
19753
  5
19753
331
165B5
  5
165BE
331
19A72
  5
19A72
331
1AA08
  5
1AA08
331
1AA10
  5
1AA10
331
19A7A
  5
19A7A
331
1A9D9
  5
1A9D9
331
1AB67
  5
1AB67
331
1AA18
  5
1AA18
331
19A82
  5
19A82
331
1A9E1
  5
1A9E1
331
165F0
  5
165F6
331
197D1
  5
197D1
331
19792
  5
19792
331
16805
  5
1680E
331
1975B
  5
1975B
331
1666E
  5
16676
331
1AA20
  5
1AA20
331
19A8A
  5
19A8A
331
1A9E9
  5
1A9E9
331
165F8
  5
165FE
331
13ECE
  5
13ED0
331
165BD
  5
165C3
331
197D9
  5
197D9
331
1979A
  5
1979A
331
19763
  5
19763
331
1680D
  5
1682E
331
16676
  5
1667E
331
1AB87
  5
1AB87
331
16600
  5
16606
331
1663F
  5
16647
331
13EEE
  5
13EF0
331
165C5
  5
165CB
331
197E1
  5
197E1
331
197A2
  5
197A2
331
1976B
  5
1976B
331
1667E
  5
16686
331
16608
  5
1660E
331
16647
  5
1664F
331
165CD
  5
165D3
331
197AA
  5
197AA
331
19773
  5
19773
331
197E9
  5
197E9
331
16686
  5
1668E
331
1664F
  5
16657
331
165D5
  5
165DB
331
1AA28
  5
1AA28
331
19A92
  5
19A92
331
1A9F1
  5
1A9F1
331
1AA30
  5
1AA30
331
19A9A
  5
19A9A
331
1A9F9
  5
1A9F9
331
16610
  5
16616
331
19AA2
  5
19AA2
331
1AA01
  5
1AA01
331
13DF1
  5
13DF3
331
197F1
  5
197F1
331
197B2
  5
197B2
331
1719D
  5
18458
331
1977B
  5
1977B
331
1668E
  5
16696
331
16618
  5
1661E
331
16657
  5
1665F
331
165DD
  5
165E3
331
F7F2
  5
F806
331
13DF9
  5
13DFB
331
19A61
  5
19A61
331
197BA
  5
197BA
331
19783
  5
19783
331
16696
  5
166A4
331
16620
  5
16626
331
1665F
  5
16667
331
165E5
  5
165EB
331
13EC1
  5
13EC3
331
19A69
  5
19A69
331
197C2
  5
197C2
331
1978B
  5
1978B
331
16667
  5
1666F
331
16628
  5
1662E
331
165ED
  5
165F3
331
197CA
  5
197CA
331
19754
  5
19754
331
165B6
  5
165BF
331
1AA09
  5
1AA09
331
19A73
  5
19A73
331
1A9D2
  5
1A9D2
331
1AA11
  5
1AA11
331
19A7B
  5
19A7B
331
1A9DA
  5
1A9DA
331
1AB68
  5
1AB68
331
165F1
  5
165F7
331
1AA19
  5
1AA19
331
19A83
  5
19A83
331
1A9E2
  5
1A9E2
331
197D2
  5
197D2
331
19793
  5
19793
331
16806
  5
1680F
331
1975C
  5
1975C
331
1666F
  5
16677
331
165F9
  5
165FF
331
16638
  5
1663E
331
13ECF
  5
13ED1
331
165BE
  5
165C4
331
1AA21
  5
1AA21
331
19A8B
  5
19A8B
331
1A9EA
  5
1A9EA
331
197DA
  5
197DA
331
1979B
  5
1979B
331
19764
  5
19764
331
1680E
  5
1682F
331
16677
  5
1667F
331
16601
  5
16607
331
16640
  5
16648
331
165C6
  5
165CC
331
1270A
  5
1270A
331
197E2
  5
197E2
331
197A3
  5
197A3
331
1976C
  5
1976C
331
16648
  5
16650
331
16609
  5
1660F
331
1667F
  5
16687
331
165CE
  5
165D4
331
19774
  5
19774
331
197AB
  5
197AB
331
197EA
  5
197EA
331
16687
  5
1668F
331
165D6
  5
165DC
331
1AA29
  5
1AA29
331
19A93
  5
19A93
331
1A9F2
  5
1A9F2
331
1AB88
  5
1AB88
331
1AA31
  5
1AA31
331
19A9B
  5
19A9B
331
1A9FA
  5
1A9FA
331
16611
  5
16617
331
16650
  5
16658
331
13DF2
  5
13DF4
331
19AA3
  5
19AA3
331
1AA02
  5
1AA02
331
197B3
  5
197B3
331
1719E
  5
18459
331
1977C
  5
1977C
331
197F2
  5
197F2
331
1668F
  5
16697
331
16619
  5
1661F
331
16658
  5
16660
331
165DE
  5
165E4
331
13DFA
  5
13DFC
331
19AAB
  5
19AAB
331
19A62
  5
19A62
331
197BB
  5
197BB
331
19784
  5
19784
331
177BE
  5
1845B
331
16697
  5
166A5
331
16621
  5
16627
331
16660
  5
16668
331
165E6
  5
165EC
331
13EC2
  5
13EC4
331
19A6A
  5
19A6A
331
197C3
  5
197C3
331
1978C
  5
1978C
331
16629
  5
1662F
331
165AF
  5
165B5
331
165EE
  5
165F4
331
197CB
  5
197CB
331
19755
  5
19755
331
167FF
  5
16808
331
165B7
  5
165C0
331
1AA0A
  5
1AA0A
331
19A74
  5
19A74
331
1A9D3
  5
1A9D3
331
1AA12
  5
1AA12
331
19A7C
  5
19A7C
331
1A9DB
  5
1A9DB
331
1AB69
  5
1AB69
331
16668
  5
16670
331
165F2
  5
165F8
331
16631
  5
1663D
331
13EC8
  5
13ECA
331
1AA1A
  5
1AA1A
331
19A84
  5
19A84
331
1A9E3
  5
1A9E3
331
197D3
  5
197D3
331
19794
  5
19794
331
1975D
  5
1975D
331
16670
  5
16678
331
165FA
  5
16600
331
16639
  5
16641
331
165BF
  5
165C5
331
1AA22
  5
1AA22
331
19A8C
  5
19A8C
331
1A9EB
  5
1A9EB
331
197DB
  5
197DB
331
1979C
  5
1979C
331
18D1E
  5
18F09
331
1680F
  5
16830
331
19765
  5
19765
331
16678
  5
16680
331
16602
  5
16608
331
16641
  5
16649
331
165C7
  5
165CD
331
197E3
  5
197E3
331
197A4
  5
197A4
331
1976D
  5
1976D
331
16680
  5
16688
331
1660A
  5
16610
331
16649
  5
16651
331
165CF
  5
165D5
331
197AC
  5
197AC
331
19775
  5
19775
331
170F7
  5
17218
331
197EB
  5
197EB
331
165D7
  5
165DD
331
141
  5
16E7
331
1AA2A
  5
1AA2A
331
19A94
  5
19A94
331
1A9F3
  5
1A9F3
331
1AB89
  5
1AB89
331
1AA32
  5
1AA32
331
19A9C
  5
19A9C
331
1A9FB
  5
1A9FB
331
16688
  5
16690
331
16612
  5
16618
331
16651
  5
16659
331
13DF3
  5
13DF5
331
19AA4
  5
19AA4
331
1AA03
  5
1AA03
331
197F3
  5
197F3
331
197B4
  5
197B4
331
1719F
  5
1845A
331
1977D
  5
1977D
331
16690
  5
16698
331
1661A
  5
16620
331
16659
  5
16661
331
165DF
  5
165E5
331
13DFB
  5
13DFD
331
19AAC
  5
19AAC
331
19A63
  5
19A63
331
197BC
  5
197BC
331
19785
  5
19785
331
16698
  5
166A6
331
16622
  5
16628
331
16661
  5
16669
331
165E7
  5
165ED
331
13EC3
  5
13EC5
331
19A6B
  5
19A6B
331
197C4
  5
197C4
331
1978D
  5
1978D
331
165EF
  5
165F5
331
1662A
  5
16630
331
165B0
  5
165B6
331
197CC
  5
197CC
331
19756
  5
19756
  0
LAYOUT
  5
22
102
{ACAD_XDICTIONARY
360
1C1B9
102
}
102
{ACAD_REACTORS
330
1A
102
}
330
1A
100
AcDbPlotSettings
  1

  2
Brother HL-2170W series
  4
A4
  6

 40
5.027082920074462
 41
5.027085781097412
 42
5.027069091796875
 43
5.027069091796875
 44
209.9733276367187
 45
296.9259948730469
 46
2.459475103511039
 47
0.0
 48
20.0000000000001
 49
21.0
140
809.9999999999996
141
558.0
142
1.0
143
2.753842970434391
 70
 11956
 72
     1
 73
     1
 74
     4
  7
EPSON.ctb
 75
     0
147
0.3631289113925984
148
-20.0000000000001
149
-21.0
100
AcDbLayout
  1
Model
 70
     1
 71
     0
 10
0.0
 20
0.0
 11
12.0
 21
9.0
 12
0.0
 22
0.0
 32
0.0
 14
0.0
 24
0.0
 34
0.0
 15
0.0
 25
0.0
 35
0.0
146
0.0
 13
0.0
 23
0.0
 33
0.0
 16
1.0
 26
0.0
 36
0.0
 17
0.0
 27
1.0
 37
0.0
 76
     0
330
1F
331
E3D4
1001
ACAD_PSEXT
1000
Brother HL-2170W series
1000
Brother HL-2170W series
1000
USB002
1000

1070
     0
  0
LAYOUT
  5
1E
102
{ACAD_XDICTIONARY
360
1C1B7
102
}
102
{ACAD_REACTORS
330
1A
102
}
330
1A
100
AcDbPlotSettings
  1

  2
C:\PROGRAM FILES\AUTOCAD LT 2000I\plotters\HP DesignJet 430 A3.pc3
  4

  6

 40
0.0
 41
0.0
 42
0.0
 43
0.0
 44
0.0
 45
0.0
 46
0.0
 47
0.0
 48
0.0
 49
0.0
140
0.0
141
0.0
142
1.0
143
1.0
 70
   688
 72
     0
 73
     0
 74
     5
  7
EPSON.ctb
 75
    16
147
1.0
148
0.0
149
0.0
100
AcDbLayout
  1
ﾚｲｱｳﾄ1
 70
     1
 71
     1
 10
0.0
 20
0.0
 11
420.0
 21
297.0
 12
0.0
 22
0.0
 32
0.0
 14
1.000000000000000E+20
 24
1.000000000000000E+20
 34
1.000000000000000E+20
 15
-1.000000000000000E+20
 25
-1.000000000000000E+20
 35
-1.000000000000000E+20
146
0.0
 13
0.0
 23
0.0
 33
0.0
 16
1.0
 26
0.0
 36
0.0
 17
0.0
 27
1.0
 37
0.0
 76
     0
330
1B
  0
LAYOUT
  5
26
102
{ACAD_XDICTIONARY
360
1C1BB
102
}
102
{ACAD_REACTORS
330
1A
102
}
330
1A
100
AcDbPlotSettings
  1

  2
C:\PROGRAM FILES\AUTOCAD LT 2000I\plotters\HP DesignJet 430 A3.pc3
  4

  6

 40
0.0
 41
0.0
 42
0.0
 43
0.0
 44
0.0
 45
0.0
 46
0.0
 47
0.0
 48
0.0
 49
0.0
140
0.0
141
0.0
142
1.0
143
1.0
 70
   688
 72
     0
 73
     0
 74
     5
  7
EPSON.ctb
 75
    16
147
1.0
148
0.0
149
0.0
100
AcDbLayout
  1
ﾚｲｱｳﾄ2
 70
     1
 71
     2
 10
0.0
 20
0.0
 11
12.0
 21
9.0
 12
0.0
 22
0.0
 32
0.0
 14
0.0
 24
0.0
 34
0.0
 15
0.0
 25
0.0
 35
0.0
146
0.0
 13
0.0
 23
0.0
 33
0.0
 16
1.0
 26
0.0
 36
0.0
 17
0.0
 27
1.0
 37
0.0
 76
     0
330
23
  0
MATERIAL
  5
E3DF
102
{ACAD_XDICTIONARY
360
E3E0
102
}
102
{ACAD_REACTORS
330
E3D6
102
}
330
E3D6
100
AcDbMaterial
  1
ByBlock
 72
     0
 43
0.0008202099737533
 43
0.0
 43
0.0
 43
0.0
 43
0.0
 43
0.0008202099737533
 43
0.0
 43
0.0
 43
0.0
 43
0.0
 43
1.0
 43
0.0
 43
0.0
 43
0.0
 43
0.0
 43
1.0
 77
     0
 47
0.0008202099737533
 47
0.0
 47
0.0
 47
0.0
 47
0.0
 47
0.0008202099737533
 47
0.0
 47
0.0
 47
0.0
 47
0.0
 47
1.0
 47
0.0
 47
0.0
 47
0.0
 47
0.0
 47
1.0
171
     0
 49
0.0008202099737533
 49
0.0
 49
0.0
 49
0.0
 49
0.0
 49
0.0008202099737533
 49
0.0
 49
0.0
 49
0.0
 49
0.0
 49
1.0
 49
0.0
 49
0.0
 49
0.0
 49
0.0
 49
1.0
175
     0
142
0.0008202099737533
142
0.0
142
0.0
142
0.0
142
0.0
142
0.0008202099737533
142
0.0
142
0.0
142
0.0
142
0.0
142
1.0
142
0.0
142
0.0
142
0.0
142
0.0
142
1.0
179
     0
144
0.0008202099737533
144
0.0
144
0.0
144
0.0
144
0.0
144
0.0008202099737533
144
0.0
144
0.0
144
0.0
144
0.0
144
1.0
144
0.0
144
0.0
144
0.0
144
0.0
144
1.0
147
0.0008202099737533
147
0.0
147
0.0
147
0.0
147
0.0
147
0.0008202099737533
147
0.0
147
0.0
147
0.0
147
0.0
147
1.0
147
0.0
147
0.0
147
0.0
147
0.0
147
1.0
  0
MATERIAL
  5
E3D7
102
{ACAD_XDICTIONARY
360
E3D8
102
}
102
{ACAD_REACTORS
330
E3D6
102
}
330
E3D6
100
AcDbMaterial
  1
ByLayer
 72
     0
 43
0.0008202099737533
 43
0.0
 43
0.0
 43
0.0
 43
0.0
 43
0.0008202099737533
 43
0.0
 43
0.0
 43
0.0
 43
0.0
 43
1.0
 43
0.0
 43
0.0
 43
0.0
 43
0.0
 43
1.0
 77
     0
 47
0.0008202099737533
 47
0.0
 47
0.0
 47
0.0
 47
0.0
 47
0.0008202099737533
 47
0.0
 47
0.0
 47
0.0
 47
0.0
 47
1.0
 47
0.0
 47
0.0
 47
0.0
 47
0.0
 47
1.0
171
     0
 49
0.0008202099737533
 49
0.0
 49
0.0
 49
0.0
 49
0.0
 49
0.0008202099737533
 49
0.0
 49
0.0
 49
0.0
 49
0.0
 49
1.0
 49
0.0
 49
0.0
 49
0.0
 49
0.0
 49
1.0
175
     0
142
0.0008202099737533
142
0.0
142
0.0
142
0.0
142
0.0
142
0.0008202099737533
142
0.0
142
0.0
142
0.0
142
0.0
142
1.0
142
0.0
142
0.0
142
0.0
142
0.0
142
1.0
179
     0
144
0.0008202099737533
144
0.0
144
0.0
144
0.0
144
0.0
144
0.0008202099737533
144
0.0
144
0.0
144
0.0
144
0.0
144
1.0
144
0.0
144
0.0
144
0.0
144
0.0
144
1.0
147
0.0008202099737533
147
0.0
147
0.0
147
0.0
147
0.0
147
0.0008202099737533
147
0.0
147
0.0
147
0.0
147
0.0
147
1.0
147
0.0
147
0.0
147
0.0
147
0.0
147
1.0
  0
MATERIAL
  5
E3E7
102
{ACAD_XDICTIONARY
360
E3E8
102
}
102
{ACAD_REACTORS
330
E3D6
102
}
330
E3D6
100
AcDbMaterial
  1
Global
 72
     0
 43
0.0008202099737533
 43
0.0
 43
0.0
 43
0.0
 43
0.0
 43
0.0008202099737533
 43
0.0
 43
0.0
 43
0.0
 43
0.0
 43
1.0
 43
0.0
 43
0.0
 43
0.0
 43
0.0
 43
1.0
 77
     0
 47
0.0008202099737533
 47
0.0
 47
0.0
 47
0.0
 47
0.0
 47
0.0008202099737533
 47
0.0
 47
0.0
 47
0.0
 47
0.0
 47
1.0
 47
0.0
 47
0.0
 47
0.0
 47
0.0
 47
1.0
171
     0
 49
0.0008202099737533
 49
0.0
 49
0.0
 49
0.0
 49
0.0
 49
0.0008202099737533
 49
0.0
 49
0.0
 49
0.0
 49
0.0
 49
1.0
 49
0.0
 49
0.0
 49
0.0
 49
0.0
 49
1.0
175
     0
142
0.0008202099737533
142
0.0
142
0.0
142
0.0
142
0.0
142
0.0008202099737533
142
0.0
142
0.0
142
0.0
142
0.0
142
1.0
142
0.0
142
0.0
142
0.0
142
0.0
142
1.0
179
     0
144
0.0008202099737533
144
0.0
144
0.0
144
0.0
144
0.0
144
0.0008202099737533
144
0.0
144
0.0
144
0.0
144
0.0
144
1.0
144
0.0
144
0.0
144
0.0
144
0.0
144
1.0
147
0.0008202099737533
147
0.0
147
0.0
147
0.0
147
0.0
147
0.0008202099737533
147
0.0
147
0.0
147
0.0
147
0.0
147
1.0
147
0.0
147
0.0
147
0.0
147
0.0
147
1.0
  0
MLEADERSTYLE
  5
E426
102
{ACAD_REACTORS
330
E425
102
}
330
E425
100
AcDbMLeaderStyle
170
     2
171
     1
172
     0
 90
        2
 40
0.0
 41
0.0
173
     1
 91
-1023410172
340
15
 92
       20
290
     1
 42
0.09
291
     1
 43
-0.36
  3
Standard
341
2B
 44
3.0
300

342
34
174
     6
178
     6
175
     1
176
     0
 93
-1023410169
 45
6.0
292
     0
297
     0
 46
0.18
 94
-1056964608
 47
1.0
 49
1.0
140
1.0
293
     1
141
0.0
294
     1
177
     0
142
1.0
295
     0
296
     0
143
0.125
1001
ACAD_MLEADERVER
1070
     2
  0
MLINESTYLE
  5
18
102
{ACAD_REACTORS
330
17
102
}
330
17
100
AcDbMlineStyle
  2
STANDARD
 70
     0
  3

 62
   256
 51
90.0
 52
90.0
 71
     2
 49
0.5
 62
   256
  6
BYLAYER
 49
-0.5
 62
   256
  6
BYLAYER
  0
ACDBPLACEHOLDER
  5
F
102
{ACAD_REACTORS
330
E
102
}
330
E
  0
SCALE
  5
E404
102
{ACAD_REACTORS
330
E403
102
}
330
E403
100
AcDbScale
 70
     0
300
1:1
140
1.0
141
1.0
290
     1
  0
SCALE
  5
E405
102
{ACAD_REACTORS
330
E403
102
}
330
E403
100
AcDbScale
 70
     0
300
1:2
140
1.0
141
2.0
290
     0
  0
SCALE
  5
E406
102
{ACAD_REACTORS
330
E403
102
}
330
E403
100
AcDbScale
 70
     0
300
1:4
140
1.0
141
4.0
290
     0
  0
SCALE
  5
E407
102
{ACAD_REACTORS
330
E403
102
}
330
E403
100
AcDbScale
 70
     0
300
1:5
140
1.0
141
5.0
290
     0
  0
SCALE
  5
E408
102
{ACAD_REACTORS
330
E403
102
}
330
E403
100
AcDbScale
 70
     0
300
1:8
140
1.0
141
8.0
290
     0
  0
SCALE
  5
E409
102
{ACAD_REACTORS
330
E403
102
}
330
E403
100
AcDbScale
 70
     0
300
1:10
140
1.0
141
10.0
290
     0
  0
SCALE
  5
E40A
102
{ACAD_REACTORS
330
E403
102
}
330
E403
100
AcDbScale
 70
     0
300
1:16
140
1.0
141
16.0
290
     0
  0
SCALE
  5
E40B
102
{ACAD_REACTORS
330
E403
102
}
330
E403
100
AcDbScale
 70
     0
300
1:20
140
1.0
141
20.0
290
     0
  0
SCALE
  5
E40C
102
{ACAD_REACTORS
330
E403
102
}
330
E403
100
AcDbScale
 70
     0
300
1:30
140
1.0
141
30.0
290
     0
  0
SCALE
  5
E40D
102
{ACAD_REACTORS
330
E403
102
}
330
E403
100
AcDbScale
 70
     0
300
1:40
140
1.0
141
40.0
290
     0
  0
SCALE
  5
E40E
102
{ACAD_REACTORS
330
E403
102
}
330
E403
100
AcDbScale
 70
     0
300
1:50
140
1.0
141
50.0
290
     0
  0
SCALE
  5
E40F
102
{ACAD_REACTORS
330
E403
102
}
330
E403
100
AcDbScale
 70
     0
300
1:100
140
1.0
141
100.0
290
     0
  0
SCALE
  5
E410
102
{ACAD_REACTORS
330
E403
102
}
330
E403
100
AcDbScale
 70
     0
300
2:1
140
2.0
141
1.0
290
     0
  0
SCALE
  5
E411
102
{ACAD_REACTORS
330
E403
102
}
330
E403
100
AcDbScale
 70
     0
300
4:1
140
4.0
141
1.0
290
     0
  0
SCALE
  5
E412
102
{ACAD_REACTORS
330
E403
102
}
330
E403
100
AcDbScale
 70
     0
300
8:1
140
8.0
141
1.0
290
     0
  0
SCALE
  5
E413
102
{ACAD_REACTORS
330
E403
102
}
330
E403
100
AcDbScale
 70
     0
300
10:1
140
10.0
141
1.0
290
     0
  0
SCALE
  5
E414
102
{ACAD_REACTORS
330
E403
102
}
330
E403
100
AcDbScale
 70
     0
300
100:1
140
100.0
141
1.0
290
     0
  0
SCALE
  5
E415
102
{ACAD_REACTORS
330
E403
102
}
330
E403
100
AcDbScale
 70
     0
300
1/128" = 1'-0"
140
0.0078125
141
12.0
290
     0
  0
SCALE
  5
E416
102
{ACAD_REACTORS
330
E403
102
}
330
E403
100
AcDbScale
 70
     0
300
1/64" = 1'-0"
140
0.015625
141
12.0
290
     0
  0
SCALE
  5
E417
102
{ACAD_REACTORS
330
E403
102
}
330
E403
100
AcDbScale
 70
     0
300
1/32" = 1'-0"
140
0.03125
141
12.0
290
     0
  0
SCALE
  5
E418
102
{ACAD_REACTORS
330
E403
102
}
330
E403
100
AcDbScale
 70
     0
300
1/16" = 1'-0"
140
0.0625
141
12.0
290
     0
  0
SCALE
  5
E419
102
{ACAD_REACTORS
330
E403
102
}
330
E403
100
AcDbScale
 70
     0
300
3/32" = 1'-0"
140
0.09375
141
12.0
290
     0
  0
SCALE
  5
E41A
102
{ACAD_REACTORS
330
E403
102
}
330
E403
100
AcDbScale
 70
     0
300
1/8" = 1'-0"
140
0.125
141
12.0
290
     0
  0
SCALE
  5
E41B
102
{ACAD_REACTORS
330
E403
102
}
330
E403
100
AcDbScale
 70
     0
300
3/16" = 1'-0"
140
0.1875
141
12.0
290
     0
  0
SCALE
  5
E41C
102
{ACAD_REACTORS
330
E403
102
}
330
E403
100
AcDbScale
 70
     0
300
1/4" = 1'-0"
140
0.25
141
12.0
290
     0
  0
SCALE
  5
E41D
102
{ACAD_REACTORS
330
E403
102
}
330
E403
100
AcDbScale
 70
     0
300
3/8" = 1'-0"
140
0.375
141
12.0
290
     0
  0
SCALE
  5
E41E
102
{ACAD_REACTORS
330
E403
102
}
330
E403
100
AcDbScale
 70
     0
300
1/2" = 1'-0"
140
0.5
141
12.0
290
     0
  0
SCALE
  5
E41F
102
{ACAD_REACTORS
330
E403
102
}
330
E403
100
AcDbScale
 70
     0
300
3/4" = 1'-0"
140
0.75
141
12.0
290
     0
  0
SCALE
  5
E420
102
{ACAD_REACTORS
330
E403
102
}
330
E403
100
AcDbScale
 70
     0
300
1" = 1'-0"
140
1.0
141
12.0
290
     0
  0
SCALE
  5
E421
102
{ACAD_REACTORS
330
E403
102
}
330
E403
100
AcDbScale
 70
     0
300
1-1/2" = 1'-0"
140
1.5
141
12.0
290
     0
  0
SCALE
  5
E422
102
{ACAD_REACTORS
330
E403
102
}
330
E403
100
AcDbScale
 70
     0
300
3" = 1'-0"
140
3.0
141
12.0
290
     0
  0
SCALE
  5
E423
102
{ACAD_REACTORS
330
E403
102
}
330
E403
100
AcDbScale
 70
     0
300
6" = 1'-0"
140
6.0
141
12.0
290
     0
  0
SCALE
  5
E424
102
{ACAD_REACTORS
330
E403
102
}
330
E403
100
AcDbScale
 70
     0
300
1'-0" = 1'-0"
140
12.0
141
12.0
290
     0
  0
TABLESTYLE
  5
E402
102
{ACAD_XDICTIONARY
360
103A9
102
}
102
{ACAD_REACTORS
330
E401
102
}
330
E401
100
AcDbTableStyle
  3
Standard
 70
     0
 71
     0
 40
0.06
 41
0.06
280
     0
281
     0
  7
Standard
140
0.18
170
     2
 62
     0
 63
     7
283
     0
274
    -2
284
     1
 64
     0
275
    -2
285
     1
 65
     0
276
    -2
286
     1
 66
     0
277
    -2
287
     1
 67
     0
278
    -2
288
     1
 68
     0
279
    -2
289
     1
 69
     0
  7
Standard
140
0.25
170
     5
 62
     0
 63
     7
283
     0
274
    -2
284
     1
 64
     0
275
    -2
285
     1
 65
     0
276
    -2
286
     1
 66
     0
277
    -2
287
     1
 67
     0
278
    -2
288
     1
 68
     0
279
    -2
289
     1
 69
     0
  7
Standard
140
0.18
170
     5
 62
     0
 63
     7
283
     0
274
    -2
284
     1
 64
     0
275
    -2
285
     1
 65
     0
276
    -2
286
     1
 66
     0
277
    -2
287
     1
 67
     0
278
    -2
288
     1
 68
     0
279
    -2
289
     1
 69
     0
  0
VISUALSTYLE
  5
E3F5
102
{ACAD_REACTORS
330
E3EF
102
}
330
E3EF
100
AcDbVisualStyle
  2
2dWireframe
 70
     4
 71
     0
 72
     2
 73
     0
 90
        0
 40
-0.6
 41
-30.0
 62
     5
 63
     7
 74
     1
 91
        4
 64
     7
 65
   257
 75
     1
175
     1
 42
1.0
 92
        0
 66
   257
 43
1.0
 76
     1
 77
     6
 78
     2
 67
     7
 79
     5
170
     0
171
     0
290
     0
174
     0
 93
        1
 44
0.0
173
     0
291
     0
 45
0.0
1001
ACAD
1000
AcDbSavedByObjectVersion
1070
     0
  0
VISUALSTYLE
  5
E3F7
102
{ACAD_REACTORS
330
E3EF
102
}
330
E3EF
100
AcDbVisualStyle
  2
3D Hidden
 70
     6
 71
     1
 72
     2
 73
     2
 90
        0
 40
-0.6
 41
-30.0
 62
     5
 63
     7
 74
     2
 91
        2
 64
     7
 65
   257
 75
     2
175
     1
 42
40.0
 92
        0
 66
   257
 43
1.0
 76
     1
 77
     6
 78
     2
 67
     7
 79
     3
170
     0
171
     0
290
     0
174
     0
 93
        1
 44
0.0
173
     0
291
     0
 45
0.0
1001
ACAD
1000
AcDbSavedByObjectVersion
1070
     0
  0
VISUALSTYLE
  5
E3F6
102
{ACAD_REACTORS
330
E3EF
102
}
330
E3EF
100
AcDbVisualStyle
  2
3dWireframe
 70
     5
 71
     0
 72
     2
 73
     0
 90
        0
 40
-0.6
 41
-30.0
 62
     5
 63
     7
 74
     1
 91
        4
 64
     7
 65
   257
 75
     1
175
     1
 42
1.0
 92
        0
 66
   257
 43
1.0
 76
     1
 77
     6
 78
     2
 67
     7
 79
     5
170
     0
171
     0
290
     0
174
     0
 93
        1
 44
0.0
173
     0
291
     0
 45
0.0
1001
ACAD
1000
AcDbSavedByObjectVersion
1070
     0
  0
VISUALSTYLE
  5
E3F4
102
{ACAD_REACTORS
330
E3EF
102
}
330
E3EF
100
AcDbVisualStyle
  2
Basic
 70
     7
 71
     1
 72
     0
 73
     1
 90
        0
 40
-0.6
 41
-30.0
 62
     5
 63
     7
 74
     0
 91
        4
 64
     7
 65
   257
 75
     1
175
     1
 42
1.0
 92
        8
 66
     7
 43
1.0
 76
     1
 77
     6
 78
     2
 67
     7
 79
     5
170
     0
171
     0
290
     0
174
     0
 93
        1
 44
0.0
173
     0
291
     1
 45
0.0
1001
ACAD
1000
AcDbSavedByObjectVersion
1070
     0
  0
VISUALSTYLE
  5
E3FB
102
{ACAD_REACTORS
330
E3EF
102
}
330
E3EF
100
AcDbVisualStyle
  2
Brighten
 70
    12
 71
     2
 72
     2
 73
     0
 90
        0
 40
-0.6
 41
-30.0
 62
     5
 63
     7
 74
     1
 91
        4
 64
     7
 65
   257
 75
     1
175
     1
 42
1.0
 92
        8
 66
     7
 43
1.0
 76
     1
 77
     6
 78
     2
 67
     7
 79
     5
170
     0
171
     0
290
     0
174
     0
 93
        1
 44
50.0
173
     0
291
     1
 45
0.0
1001
ACAD
1000
AcDbSavedByObjectVersion
1070
     0
  0
VISUALSTYLE
  5
E3FF
102
{ACAD_REACTORS
330
E3EF
102
}
330
E3EF
100
AcDbVisualStyle
  2
ColorChange
 70
    16
 71
     2
 72
     2
 73
     3
 90
        0
 40
-0.6
 41
-30.0
 62
     5
 63
     8
 74
     1
 91
        4
 64
     7
 65
   257
 75
     1
175
     1
 42
1.0
 92
        8
 66
     8
 43
1.0
 76
     1
 77
     6
 78
     2
 67
     7
 79
     5
170
     0
171
     0
290
     0
174
     0
 93
        1
 44
0.0
173
     0
291
     1
 45
0.0
1001
ACAD
1000
AcDbSavedByObjectVersion
1070
     0
  0
VISUALSTYLE
  5
E3F8
102
{ACAD_REACTORS
330
E3EF
102
}
330
E3EF
100
AcDbVisualStyle
  2
Conceptual
 70
     9
 71
     3
 72
     2
 73
     0
 90
        0
 40
-0.6
 41
-30.0
 62
     5
 63
     7
 74
     2
 91
        2
 64
     7
 65
   257
 75
     1
175
     1
 42
40.0
 92
        8
 66
     7
 43
1.0
 76
     1
 77
     6
 78
     2
 67
     7
 79
     3
170
     0
171
     0
290
     0
174
     0
 93
        1
 44
0.0
173
     0
291
     0
 45
0.0
1001
ACAD
1000
AcDbSavedByObjectVersion
1070
     0
  0
VISUALSTYLE
  5
E3FA
102
{ACAD_REACTORS
330
E3EF
102
}
330
E3EF
100
AcDbVisualStyle
  2
Dim
 70
    11
 71
     2
 72
     2
 73
     0
 90
        0
 40
-0.6
 41
-30.0
 62
     5
 63
     7
 74
     1
 91
        4
 64
     7
 65
   257
 75
     1
175
     1
 42
1.0
 92
        8
 66
     7
 43
1.0
 76
     1
 77
     6
 78
     2
 67
     7
 79
     5
170
     0
171
     0
290
     0
174
     0
 93
        1
 44
-50.0
173
     0
291
     1
 45
0.0
1001
ACAD
1000
AcDbSavedByObjectVersion
1070
     0
  0
VISUALSTYLE
  5
E3FE
102
{ACAD_REACTORS
330
E3EF
102
}
330
E3EF
100
AcDbVisualStyle
  2
Facepattern
 70
    15
 71
     2
 72
     2
 73
     0
 90
        0
 40
-0.6
 41
-30.0
 62
     5
 63
     7
 74
     1
 91
        4
 64
     7
 65
   257
 75
     1
175
     1
 42
1.0
 92
        8
 66
     7
 43
1.0
 76
     1
 77
     6
 78
     2
 67
     7
 79
     5
170
     0
171
     0
290
     0
174
     0
 93
        1
 44
0.0
173
     0
291
     1
 45
0.0
1001
ACAD
1000
AcDbSavedByObjectVersion
1070
     0
  0
VISUALSTYLE
  5
E3F0
102
{ACAD_REACTORS
330
E3EF
102
}
330
E3EF
100
AcDbVisualStyle
  2
Flat
 70
     0
 71
     2
 72
     1
 73
     1
 90
        2
 40
-0.6
 41
30.0
 62
     5
 63
     7
 74
     0
 91
        4
 64
     7
 65
   257
 75
     1
175
     1
 42
1.0
 92
        8
 66
     7
 43
1.0
 76
     1
 77
     6
 78
     2
 67
     7
 79
     5
170
     0
171
     0
290
     0
174
     0
 93
       13
 44
0.0
173
     0
291
     1
 45
0.0
1001
ACAD
1000
AcDbSavedByObjectVersion
1070
     0
  0
VISUALSTYLE
  5
E3F1
102
{ACAD_REACTORS
330
E3EF
102
}
330
E3EF
100
AcDbVisualStyle
  2
FlatWithEdges
 70
     1
 71
     2
 72
     1
 73
     1
 90
        2
 40
-0.6
 41
30.0
 62
     5
 63
     7
 74
     1
 91
        4
 64
     7
 65
   257
 75
     1
175
     1
 42
1.0
 92
        0
 66
   257
 43
1.0
 76
     1
 77
     6
 78
     2
 67
     7
 79
     5
170
     0
171
     0
290
     0
174
     0
 93
       13
 44
0.0
173
     0
291
     1
 45
0.0
1001
ACAD
1000
AcDbSavedByObjectVersion
1070
     0
  0
VISUALSTYLE
  5
E3F2
102
{ACAD_REACTORS
330
E3EF
102
}
330
E3EF
100
AcDbVisualStyle
  2
Gouraud
 70
     2
 71
     2
 72
     2
 73
     1
 90
        2
 40
-0.6
 41
30.0
 62
     5
 63
     7
 74
     0
 91
        4
 64
     7
 65
   257
 75
     1
175
     1
 42
1.0
 92
        0
 66
     7
 43
1.0
 76
     1
 77
     6
 78
     2
 67
     7
 79
     5
170
     0
171
     0
290
     0
174
     0
 93
       13
 44
0.0
173
     0
291
     1
 45
0.0
1001
ACAD
1000
AcDbSavedByObjectVersion
1070
     0
  0
VISUALSTYLE
  5
E3F3
102
{ACAD_REACTORS
330
E3EF
102
}
330
E3EF
100
AcDbVisualStyle
  2
GouraudWithEdges
 70
     3
 71
     2
 72
     2
 73
     1
 90
        2
 40
-0.6
 41
30.0
 62
     5
 63
     7
 74
     1
 91
        4
 64
     7
 65
   257
 75
     1
175
     1
 42
1.0
 92
        0
 66
   257
 43
1.0
 76
     1
 77
     6
 78
     2
 67
     7
 79
     5
170
     0
171
     0
290
     0
174
     0
 93
       13
 44
0.0
173
     0
291
     1
 45
0.0
1001
ACAD
1000
AcDbSavedByObjectVersion
1070
     0
  0
VISUALSTYLE
  5
E3FD
102
{ACAD_REACTORS
330
E3EF
102
}
330
E3EF
100
AcDbVisualStyle
  2
Linepattern
 70
    14
 71
     2
 72
     2
 73
     0
 90
        0
 40
-0.6
 41
-30.0
 62
     5
 63
     7
 74
     1
 91
        4
 64
     7
 65
   257
 75
     7
175
     7
 42
1.0
 92
        8
 66
     7
 43
1.0
 76
     1
 77
     6
 78
     2
 67
     7
 79
     5
170
     0
171
     0
290
     0
174
     0
 93
        1
 44
0.0
173
     0
291
     1
 45
0.0
1001
ACAD
1000
AcDbSavedByObjectVersion
1070
     0
  0
VISUALSTYLE
  5
E3F9
102
{ACAD_REACTORS
330
E3EF
102
}
330
E3EF
100
AcDbVisualStyle
  2
Realistic
 70
     8
 71
     2
 72
     2
 73
     0
 90
        0
 40
-0.6
 41
-30.0
 62
     5
 63
     7
 74
     1
 91
        0
 64
     7
 65
   257
 75
     1
175
     1
 42
1.0
 92
        8
 66
     8
 43
1.0
 76
     1
 77
     6
 78
     2
 67
     7
 79
     5
170
     0
171
     0
290
     0
174
     0
 93
       13
 44
0.0
173
     0
291
     0
 45
0.0
1001
ACAD
1000
AcDbSavedByObjectVersion
1070
     0
  0
VISUALSTYLE
  5
E3FC
102
{ACAD_REACTORS
330
E3EF
102
}
330
E3EF
100
AcDbVisualStyle
  2
Thicken
 70
    13
 71
     2
 72
     2
 73
     0
 90
        0
 40
-0.6
 41
-30.0
 62
     5
 63
     7
 74
     1
 91
        4
 64
     7
 65
   257
 75
     1
175
     1
 42
1.0
 92
       12
 66
     7
 43
1.0
 76
     1
 77
     6
 78
     2
 67
     7
 79
     5
170
     0
171
     0
290
     0
174
     0
 93
        1
 44
0.0
173
     0
291
     1
 45
0.0
1001
ACAD
1000
AcDbSavedByObjectVersion
1070
     0
  0
DICTIONARYVAR
  5
103B0
102
{ACAD_REACTORS
330
103AC
102
}
330
103AC
100
DictionaryVariables
280
     0
  1
1:1
  0
DICTIONARYVAR
  5
103AE
102
{ACAD_REACTORS
330
103AC
102
}
330
103AC
100
DictionaryVariables
280
     0
  1
STANDARD
  0
DICTIONARYVAR
  5
103AD
102
{ACAD_REACTORS
330
103AC
102
}
330
103AC
100
DictionaryVariables
280
     0
  1
STANDARD
  0
DICTIONARYVAR
  5
1C0C1
102
{ACAD_REACTORS
330
103AC
102
}
330
103AC
100
DictionaryVariables
280
     0
  1
1
  0
DICTIONARYVAR
  5
1C0C0
102
{ACAD_REACTORS
330
103AC
102
}
330
103AC
100
DictionaryVariables
280
     0
  1
0
  0
DICTIONARYVAR
  5
103B1
102
{ACAD_REACTORS
330
103AC
102
}
330
103AC
100
DictionaryVariables
280
     0
  1
0
  0
DICTIONARYVAR
  5
103AF
102
{ACAD_REACTORS
330
103AC
102
}
330
103AC
100
DictionaryVariables
280
     0
  1
0
  0
DICTIONARYVAR
  5
1C0BF
102
{ACAD_REACTORS
330
103AC
102
}
330
103AC
100
DictionaryVariables
280
     0
  1
127
  0
DICTIONARY
  5
1C1B9
330
22
100
AcDbDictionary
280
     1
281
     1
  3
ACAD_XREC_ROUNDTRIP
360
1C1BA
  0
DICTIONARY
  5
1C1B7
330
1E
100
AcDbDictionary
280
     1
281
     1
  3
ACAD_XREC_ROUNDTRIP
360
1C1B8
  0
DICTIONARY
  5
1C1BB
330
26
100
AcDbDictionary
280
     1
281
     1
  3
ACAD_XREC_ROUNDTRIP
360
1C1BC
  0
DICTIONARY
  5
E3E0
330
E3DF
100
AcDbDictionary
280
     1
281
     1
  3
ACAD_XREC_ROUNDTRIP
360
1C1BE
  3
BUMPTILE
360
E3E2
  3
DIFFUSETILE
360
E3E1
  3
OPACITYTILE
360
E3E5
  3
REFLECTIONTILE
360
E3E4
  3
REFRACTIONTILE
360
E3E6
  3
SPECULARTILE
360
E3E3
  0
DICTIONARY
  5
E3D8
330
E3D7
100
AcDbDictionary
280
     1
281
     1
  3
ACAD_XREC_ROUNDTRIP
360
1C1BD
  3
BUMPTILE
360
E3DA
  3
DIFFUSETILE
360
E3D9
  3
OPACITYTILE
360
E3DD
  3
REFLECTIONTILE
360
E3DC
  3
REFRACTIONTILE
360
E3DE
  3
SPECULARTILE
360
E3DB
  0
DICTIONARY
  5
E3E8
330
E3E7
100
AcDbDictionary
280
     1
281
     1
  3
ACAD_XREC_ROUNDTRIP
360
1C1BF
  3
BUMPTILE
360
E3EA
  3
DIFFUSETILE
360
E3E9
  3
OPACITYTILE
360
E3ED
  3
REFLECTIONTILE
360
E3EC
  3
REFRACTIONTILE
360
E3EE
  3
SPECULARTILE
360
E3EB
  0
DICTIONARY
  5
103A9
330
E402
100
AcDbDictionary
280
     1
281
     1
  3
ACAD_ROUNDTRIP_2008_TABLESTYLE_CELLSTYLEMAP
360
1C1B5
  3
ACAD_XREC_ROUNDTRIP
360
1C1C0
  0
XRECORD
  5
1C1BA
102
{ACAD_REACTORS
330
1C1B9
102
}
330
1C1B9
100
AcDbXrecord
280
     1
102
SHADEPLOT
 70
     0
102
SHADEPLOTRESLEVEL
 70
     2
102
SHADEPLOTCUSTOMDPI
 70
   300
  0
XRECORD
  5
1C1B8
102
{ACAD_REACTORS
330
1C1B7
102
}
330
1C1B7
100
AcDbXrecord
280
     1
102
SHADEPLOT
 70
     0
102
SHADEPLOTRESLEVEL
 70
     2
102
SHADEPLOTCUSTOMDPI
 70
   300
  0
XRECORD
  5
1C1BC
102
{ACAD_REACTORS
330
1C1BB
102
}
330
1C1BB
100
AcDbXrecord
280
     1
102
SHADEPLOT
 70
     0
102
SHADEPLOTRESLEVEL
 70
     2
102
SHADEPLOTCUSTOMDPI
 70
   300
  0
XRECORD
  5
1C1BE
102
{ACAD_REACTORS
330
E3E0
102
}
330
E3E0
100
AcDbXrecord
280
     1
102
MATERIAL
148
0.0
149
0.0
149
0.0
 93
        0
 94
      127
282
     0
 72
     0
 77
     0
171
     0
175
     0
179
     0
273
     0
  0
XRECORD
  5
E3E2
102
{ACAD_REACTORS
330
E3E0
102
}
330
E3E0
100
AcDbXrecord
280
     1
270
     1
271
     1
  0
XRECORD
  5
E3E1
102
{ACAD_REACTORS
330
E3E0
102
}
330
E3E0
100
AcDbXrecord
280
     1
270
     1
271
     1
  0
XRECORD
  5
E3E5
102
{ACAD_REACTORS
330
E3E0
102
}
330
E3E0
100
AcDbXrecord
280
     1
270
     1
271
     1
  0
XRECORD
  5
E3E4
102
{ACAD_REACTORS
330
E3E0
102
}
330
E3E0
100
AcDbXrecord
280
     1
270
     1
271
     1
  0
XRECORD
  5
E3E6
102
{ACAD_REACTORS
330
E3E0
102
}
330
E3E0
100
AcDbXrecord
280
     1
270
     1
271
     1
  0
XRECORD
  5
E3E3
102
{ACAD_REACTORS
330
E3E0
102
}
330
E3E0
100
AcDbXrecord
280
     1
270
     1
271
     1
  0
XRECORD
  5
1C1BD
102
{ACAD_REACTORS
330
E3D8
102
}
330
E3D8
100
AcDbXrecord
280
     1
102
MATERIAL
148
0.0
149
0.0
149
0.0
 93
        0
 94
      127
282
     0
 72
     0
 77
     0
171
     0
175
     0
179
     0
273
     0
  0
XRECORD
  5
E3DA
102
{ACAD_REACTORS
330
E3D8
102
}
330
E3D8
100
AcDbXrecord
280
     1
270
     1
271
     1
  0
XRECORD
  5
E3D9
102
{ACAD_REACTORS
330
E3D8
102
}
330
E3D8
100
AcDbXrecord
280
     1
270
     1
271
     1
  0
XRECORD
  5
E3DD
102
{ACAD_REACTORS
330
E3D8
102
}
330
E3D8
100
AcDbXrecord
280
     1
270
     1
271
     1
  0
XRECORD
  5
E3DC
102
{ACAD_REACTORS
330
E3D8
102
}
330
E3D8
100
AcDbXrecord
280
     1
270
     1
271
     1
  0
XRECORD
  5
E3DE
102
{ACAD_REACTORS
330
E3D8
102
}
330
E3D8
100
AcDbXrecord
280
     1
270
     1
271
     1
  0
XRECORD
  5
E3DB
102
{ACAD_REACTORS
330
E3D8
102
}
330
E3D8
100
AcDbXrecord
280
     1
270
     1
271
     1
  0
XRECORD
  5
1C1BF
102
{ACAD_REACTORS
330
E3E8
102
}
330
E3E8
100
AcDbXrecord
280
     1
102
MATERIAL
148
0.0
149
0.0
149
0.0
 93
        0
 94
      127
282
     0
 72
     0
 77
     0
171
     0
175
     0
179
     0
273
     0
  0
XRECORD
  5
E3EA
102
{ACAD_REACTORS
330
E3E8
102
}
330
E3E8
100
AcDbXrecord
280
     1
270
     1
271
     1
  0
XRECORD
  5
E3E9
102
{ACAD_REACTORS
330
E3E8
102
}
330
E3E8
100
AcDbXrecord
280
     1
270
     1
271
     1
  0
XRECORD
  5
E3ED
102
{ACAD_REACTORS
330
E3E8
102
}
330
E3E8
100
AcDbXrecord
280
     1
270
     1
271
     1
  0
XRECORD
  5
E3EC
102
{ACAD_REACTORS
330
E3E8
102
}
330
E3E8
100
AcDbXrecord
280
     1
270
     1
271
     1
  0
XRECORD
  5
E3EE
102
{ACAD_REACTORS
330
E3E8
102
}
330
E3E8
100
AcDbXrecord
280
     1
270
     1
271
     1
  0
XRECORD
  5
E3EB
102
{ACAD_REACTORS
330
E3E8
102
}
330
E3E8
100
AcDbXrecord
280
     1
270
     1
271
     1
  0
CELLSTYLEMAP
  5
1C1B5
102
{ACAD_REACTORS
330
103A9
102
}
330
103A9
100
AcDbCellStyleMap
 90
        3
300
CELLSTYLE
  1
TABLEFORMAT_BEGIN
 90
        5
170
     1
 91
        0
 92
    32768
 62
   257
 93
        1
300
CONTENTFORMAT
  1
CONTENTFORMAT_BEGIN
 90
        0
 91
        0
 92
      512
 93
        0
300

 40
0.0
140
1.0
 94
        5
 62
     0
340
11
144
0.25
309
CONTENTFORMAT_END
171
     0
 94
        0
309
TABLEFORMAT_END
  1
CELLSTYLE_BEGIN
 90
        1
 91
        1
300
_TITLE
309
CELLSTYLE_END
300
CELLSTYLE
  1
TABLEFORMAT_BEGIN
 90
        5
170
     1
 91
        0
 92
        0
 62
   257
 93
        1
300
CONTENTFORMAT
  1
CONTENTFORMAT_BEGIN
 90
        0
 91
        0
 92
      512
 93
        0
300

 40
0.0
140
1.0
 94
        5
 62
     0
340
11
144
0.18
309
CONTENTFORMAT_END
171
     0
 94
        0
309
TABLEFORMAT_END
  1
CELLSTYLE_BEGIN
 90
        2
 91
        1
300
_HEADER
309
CELLSTYLE_END
300
CELLSTYLE
  1
TABLEFORMAT_BEGIN
 90
        5
170
     1
 91
        0
 92
        0
 62
   257
 93
        1
300
CONTENTFORMAT
  1
CONTENTFORMAT_BEGIN
 90
        0
 91
        0
 92
      512
 93
        0
300

 40
0.0
140
1.0
 94
        2
 62
     0
340
11
144
0.18
309
CONTENTFORMAT_END
171
     0
 94
        0
309
TABLEFORMAT_END
  1
CELLSTYLE_BEGIN
 90
        3
 91
        2
300
_DATA
309
CELLSTYLE_END
  0
XRECORD
  5
1C1C0
102
{ACAD_REACTORS
330
103A9
102
}
330
103A9
100
AcDbXrecord
280
     1
102
ACAD_ROUNDTRIP_PRE2007_TABLESTYLE
 90
      512
 91
        0
  1

 92
      512
 93
        0
  2

 94
      512
 95
        0
  3

  0
ENDSEC
  0
EOF
