  0
SECTION
  2
HEADER
  9
$ACADVER
  1
AC1015
  9
$ACADMAINTVER
 70
    20
  9
$DWGCODEPAGE
  3
ANSI_932
  9
$INSBASE
 10
0.0
 20
0.0
 30
0.0
  9
$EXTMIN
 10
20.0000000000001
 20
21.0
 30
-0.0000000000498029
  9
$EXTMAX
 10
808.0000000000037
 20
558.0
 30
0.0000000000387151
  9
$LIMMIN
 10
0.0
 20
0.0
  9
$LIMMAX
 10
840.0
 20
594.0
  9
$ORTHOMODE
 70
     0
  9
$REGENMODE
 70
     1
  9
$FILLMODE
 70
     1
  9
$QTEXTMODE
 70
     0
  9
$MIRRTEXT
 70
     0
  9
$LTSCALE
 40
1.0
  9
$ATTMODE
 70
     1
  9
$TEXTSIZE
 40
3.0
  9
$TRACEWID
 40
1.0
  9
$TEXTSTYLE
  7
AT_VECTOR
  9
$CLAYER
  8
003
  9
$CELTYPE
  6
ByLayer
  9
$CECOLOR
 62
   256
  9
$CELTSCALE
 40
1.0
  9
$DISPSILH
 70
     0
  9
$DIMSCALE
 40
2.0
  9
$DIMASZ
 40
1.5
  9
$DIMEXO
 40
1.5
  9
$DIMDLI
 40
7.0
  9
$DIMRND
 40
0.0
  9
$DIMDLE
 40
0.0
  9
$DIMEXE
 40
1.0
  9
$DIMTP
 40
0.0
  9
$DIMTM
 40
0.0
  9
$DIMTXT
 40
3.0
  9
$DIMCEN
 40
0.0
  9
$DIMTSZ
 40
0.0
  9
$DIMTOL
 70
     0
  9
$DIMLIM
 70
     0
  9
$DIMTIH
 70
     0
  9
$DIMTOH
 70
     0
  9
$DIMSE1
 70
     0
  9
$DIMSE2
 70
     0
  9
$DIMTAD
 70
     1
  9
$DIMZIN
 70
     8
  9
$DIMBLK
  1
Open30
  9
$DIMASO
 70
     1
  9
$DIMSHO
 70
     1
  9
$DIMPOST
  1

  9
$DIMAPOST
  1

  9
$DIMALT
 70
     0
  9
$DIMALTD
 70
     3
  9
$DIMALTF
 40
0.03937007874016
  9
$DIMLFAC
 40
1.0
  9
$DIMTOFL
 70
     1
  9
$DIMTVP
 40
0.0
  9
$DIMTIX
 70
     0
  9
$DIMSOXD
 70
     0
  9
$DIMSAH
 70
     0
  9
$DIMBLK1
  1

  9
$DIMBLK2
  1

  9
$DIMSTYLE
  2
DIM
  9
$DIMCLRD
 70
     4
  9
$DIMCLRE
 70
     4
  9
$DIMCLRT
 70
     7
  9
$DIMTFAC
 40
1.0
  9
$DIMGAP
 40
1.0
  9
$DIMJUST
 70
     0
  9
$DIMSD1
 70
     0
  9
$DIMSD2
 70
     0
  9
$DIMTOLJ
 70
     0
  9
$DIMTZIN
 70
     8
  9
$DIMALTZ
 70
     0
  9
$DIMALTTZ
 70
     0
  9
$DIMUPT
 70
     0
  9
$DIMDEC
 70
     2
  9
$DIMTDEC
 70
     2
  9
$DIMALTU
 70
     2
  9
$DIMALTTD
 70
     3
  9
$DIMTXSTY
  7
DIM
  9
$DIMAUNIT
 70
     0
  9
$DIMADEC
 70
     0
  9
$DIMALTRND
 40
0.0
  9
$DIMAZIN
 70
     0
  9
$DIMDSEP
 70
    46
  9
$DIMATFIT
 70
     3
  9
$DIMFRAC
 70
     0
  9
$DIMLDRBLK
  1
Open30
  9
$DIMLUNIT
 70
     2
  9
$DIMLWD
 70
    20
  9
$DIMLWE
 70
    20
  9
$DIMTMOVE
 70
     0
  9
$LUNITS
 70
     2
  9
$LUPREC
 70
     4
  9
$SKETCHINC
 40
1.0
  9
$FILLETRAD
 40
0.0
  9
$AUNITS
 70
     0
  9
$AUPREC
 70
     0
  9
$MENU
  1
.
  9
$ELEVATION
 40
0.0
  9
$PELEVATION
 40
0.0
  9
$THICKNESS
 40
0.0
  9
$LIMCHECK
 70
     0
  9
$CHAMFERA
 40
10.0
  9
$CHAMFERB
 40
10.0
  9
$CHAMFERC
 40
20.0
  9
$CHAMFERD
 40
0.0
  9
$SKPOLY
 70
     0
  9
$TDCREATE
 40
2452888.428849190
  9
$TDUCREATE
 40
2452888.053849190
  9
$TDUPDATE
 40
2455959.425391528
  9
$TDUUPDATE
 40
2455959.050391528
  9
$TDINDWG
 40
0.4628978935
  9
$TDUSRTIMER
 40
0.4628978935
  9
$USRTIMER
 70
     1
  9
$ANGBASE
 50
0.0
  9
$ANGDIR
 70
     0
  9
$PDMODE
 70
     0
  9
$PDSIZE
 40
0.0
  9
$PLINEWID
 40
0.0
  9
$SPLFRAME
 70
     0
  9
$SPLINETYPE
 70
     6
  9
$SPLINESEGS
 70
     8
  9
$HANDSEED
  5
1C927
  9
$SURFTAB1
 70
     6
  9
$SURFTAB2
 70
     6
  9
$SURFTYPE
 70
     6
  9
$SURFU
 70
     6
  9
$SURFV
 70
     6
  9
$UCSBASE
  2

  9
$UCSNAME
  2

  9
$UCSORG
 10
0.0
 20
0.0
 30
0.0
  9
$UCSXDIR
 10
1.0
 20
0.0
 30
0.0
  9
$UCSYDIR
 10
0.0
 20
1.0
 30
0.0
  9
$UCSORTHOREF
  2

  9
$UCSORTHOVIEW
 70
     0
  9
$UCSORGTOP
 10
0.0
 20
0.0
 30
0.0
  9
$UCSORGBOTTOM
 10
0.0
 20
0.0
 30
0.0
  9
$UCSORGLEFT
 10
0.0
 20
0.0
 30
0.0
  9
$UCSORGRIGHT
 10
0.0
 20
0.0
 30
0.0
  9
$UCSORGFRONT
 10
0.0
 20
0.0
 30
0.0
  9
$UCSORGBACK
 10
0.0
 20
0.0
 30
0.0
  9
$PUCSBASE
  2

  9
$PUCSNAME
  2

  9
$PUCSORG
 10
0.0
 20
0.0
 30
0.0
  9
$PUCSXDIR
 10
1.0
 20
0.0
 30
0.0
  9
$PUCSYDIR
 10
0.0
 20
1.0
 30
0.0
  9
$PUCSORTHOREF
  2

  9
$PUCSORTHOVIEW
 70
     0
  9
$PUCSORGTOP
 10
0.0
 20
0.0
 30
0.0
  9
$PUCSORGBOTTOM
 10
0.0
 20
0.0
 30
0.0
  9
$PUCSORGLEFT
 10
0.0
 20
0.0
 30
0.0
  9
$PUCSORGRIGHT
 10
0.0
 20
0.0
 30
0.0
  9
$PUCSORGFRONT
 10
0.0
 20
0.0
 30
0.0
  9
$PUCSORGBACK
 10
0.0
 20
0.0
 30
0.0
  9
$USERI1
 70
     0
  9
$USERI2
 70
     0
  9
$USERI3
 70
     0
  9
$USERI4
 70
     0
  9
$USERI5
 70
     0
  9
$USERR1
 40
0.0
  9
$USERR2
 40
0.0
  9
$USERR3
 40
0.0
  9
$USERR4
 40
0.0
  9
$USERR5
 40
0.0
  9
$WORLDVIEW
 70
     1
  9
$SHADEDGE
 70
     3
  9
$SHADEDIF
 70
    70
  9
$TILEMODE
 70
     1
  9
$MAXACTVP
 70
    64
  9
$PINSBASE
 10
0.0
 20
0.0
 30
0.0
  9
$PLIMCHECK
 70
     0
  9
$PEXTMIN
 10
1.000000000000000E+20
 20
1.000000000000000E+20
 30
1.000000000000000E+20
  9
$PEXTMAX
 10
-1.000000000000000E+20
 20
-1.000000000000000E+20
 30
-1.000000000000000E+20
  9
$PLIMMIN
 10
0.0
 20
0.0
  9
$PLIMMAX
 10
420.0
 20
297.0
  9
$UNITMODE
 70
     0
  9
$VISRETAIN
 70
     1
  9
$PLINEGEN
 70
     0
  9
$PSLTSCALE
 70
     1
  9
$TREEDEPTH
 70
  3020
  9
$CMLSTYLE
  2
Standard
  9
$CMLJUST
 70
     0
  9
$CMLSCALE
 40
20.0
  9
$PROXYGRAPHICS
 70
     1
  9
$MEASUREMENT
 70
     0
  9
$CELWEIGHT
370
    -1
  9
$ENDCAPS
280
     0
  9
$JOINSTYLE
280
     0
  9
$LWDISPLAY
290
     0
  9
$INSUNITS
 70
     4
  9
$HYPERLINKBASE
  1

  9
$STYLESHEET
  1
EPSON.ctb
  9
$XEDIT
290
     1
  9
$CEPSNTYPE
380
     0
  9
$PSTYLEMODE
290
     1
  9
$FINGERPRINTGUID
  2
{9AEAB59C-DF80-11D7-8237-004026CDA8AB}
  9
$VERSIONGUID
  2
{4B91DBD3-2406-45E1-98B2-93F98DE34F58}
  9
$EXTNAMES
290
     1
  9
$PSVPSCALE
 40
0.0
  9
$OLESTARTUP
290
     0
  0
ENDSEC
  0
SECTION
  2
CLASSES
  0
CLASS
  1
ACDBDICTIONARYWDFLT
  2
AcDbDictionaryWithDefault
  3
ObjectDBX Classes
 90
        0
280
     0
281
     0
  0
CLASS
  1
ACDBPLACEHOLDER
  2
AcDbPlaceHolder
  3
ObjectDBX Classes
 90
        0
280
     0
281
     0
  0
CLASS
  1
LAYOUT
  2
AcDbLayout
  3
ObjectDBX Classes
 90
        0
280
     0
281
     0
  0
CLASS
  1
MATERIAL
  2
AcDbMaterial
  3
ObjectDBX Classes
 90
     1153
280
     0
281
     0
  0
CLASS
  1
VISUALSTYLE
  2
AcDbVisualStyle
  3
ObjectDBX Classes
 90
     4095
280
     0
281
     0
  0
CLASS
  1
TABLESTYLE
  2
AcDbTableStyle
  3
ObjectDBX Classes
 90
     4095
280
     0
281
     0
  0
CLASS
  1
SCALE
  2
AcDbScale
  3
ObjectDBX Classes
 90
     1153
280
     0
281
     0
  0
CLASS
  1
MLEADERSTYLE
  2
AcDbMLeaderStyle
  3
ACDB_MLEADERSTYLE_CLASS
 90
     4095
280
     0
281
     0
  0
CLASS
  1
SORTENTSTABLE
  2
AcDbSortentsTable
  3
ObjectDBX Classes
 90
        0
280
     0
281
     0
  0
CLASS
  1
CELLSTYLEMAP
  2
AcDbCellStyleMap
  3
ObjectDBX Classes
 90
     1152
280
     0
281
     0
  0
CLASS
  1
DICTIONARYVAR
  2
AcDbDictionaryVar
  3
ObjectDBX Classes
 90
        0
280
     0
281
     0
  0
CLASS
  1
MULTILEADER
  2
AcDbMLeader
  3
ACDB_MLEADER_CLASS
 90
    33793
280
     0
281
     1
  0
ENDSEC
  0
SECTION
  2
TABLES
  0
TABLE
  2
VPORT
  5
8
102
{ACAD_XDICTIONARY
360
18A0D
102
}
330
0
100
AcDbSymbolTable
 70
     1
  0
VPORT
  5
E3D4
330
8
100
AcDbSymbolTableRecord
100
AcDbViewportTableRecord
  2
*Active
 70
     0
 10
0.0
 20
0.0
 11
1.0
 21
1.0
 12
420.0
 22
297.0
 13
0.0
 23
0.0
 14
10.0
 24
10.0
 15
10.0
 25
10.0
 16
0.0
 26
0.0
 36
1.0
 17
0.0
 27
0.0
 37
0.0
 40
598.847017151471
 41
1.590250329380764
 42
50.0
 43
0.0
 44
0.0
 50
0.0
 51
0.0
 71
     0
 72
   100
 73
     1
 74
     3
 75
     0
 76
     0
 77
     0
 78
     0
281
     0
 65
     1
110
0.0
120
0.0
130
0.0
111
1.0
121
0.0
131
0.0
112
0.0
122
1.0
132
0.0
 79
     0
146
0.0
  0
ENDTAB
  0
TABLE
  2
LTYPE
  5
5
330
0
100
AcDbSymbolTable
 70
    10
  0
LTYPE
  5
14
330
5
100
AcDbSymbolTableRecord
100
AcDbLinetypeTableRecord
  2
ByBlock
 70
     0
  3

 72
    65
 73
     0
 40
0.0
  0
LTYPE
  5
15
330
5
100
AcDbSymbolTableRecord
100
AcDbLinetypeTableRecord
  2
ByLayer
 70
     0
  3

 72
    65
 73
     0
 40
0.0
  0
LTYPE
  5
16
330
5
100
AcDbSymbolTableRecord
100
AcDbLinetypeTableRecord
  2
Continuous
 70
     0
  3
Solid line
 72
    65
 73
     0
 40
0.0
  0
LTYPE
  5
19D
330
5
100
AcDbSymbolTableRecord
100
AcDbLinetypeTableRecord
  2
ACAD_ISO04W100
 70
     0
  3
ISO long-dash dot ____ . ____ . ____ . ____ . _
 72
    65
 73
     4
 40
30.0
 49
24.0
 74
     0
 49
-3.0
 74
     0
 49
0.0
 74
     0
 49
-3.0
 74
     0
  0
LTYPE
  5
19E
330
5
100
AcDbSymbolTableRecord
100
AcDbLinetypeTableRecord
  2
ACAD_ISO02W100
 70
     0
  3
ISO dash __ __ __ __ __ __ __ __ __ __ __ __ __
 72
    65
 73
     2
 40
15.0
 49
12.0
 74
     0
 49
-3.0
 74
     0
  0
LTYPE
  5
1B184
330
5
100
AcDbSymbolTableRecord
100
AcDbLinetypeTableRecord
  2
HIDDEN
 70
     0
  3
__ __ __ __ __ __ __ __ __ __ __ __ __ __ __ __
 72
    65
 73
     2
 40
0.375
 49
0.25
 74
     0
 49
-0.125
 74
     0
  0
LTYPE
  5
1B185
330
5
100
AcDbSymbolTableRecord
100
AcDbLinetypeTableRecord
  2
HIDDEN2
 70
     0
  3
_ _ _ _ _ _ _ _ _ _ _ _ _ _ _ _ _ _ _ _ _ _ _ _
 72
    65
 73
     2
 40
0.1875
 49
0.125
 74
     0
 49
-0.0625
 74
     0
  0
LTYPE
  5
1B186
330
5
100
AcDbSymbolTableRecord
100
AcDbLinetypeTableRecord
  2
CENTER2
 70
     0
  3
Center (.5x) ___ _ ___ _ ___ _ ___ _ ___ _ ___
 72
    65
 73
     4
 40
28.575
 49
19.05
 74
     0
 49
-3.174999999999999
 74
     0
 49
3.174999999999999
 74
     0
 49
-3.174999999999999
 74
     0
  0
LTYPE
  5
1B187
330
5
100
AcDbSymbolTableRecord
100
AcDbLinetypeTableRecord
  2
PHANTOM2
 70
     0
  3
Phantom (.5x) ___ _ _ ___ _ _ ___ _ _ ___ _ _
 72
    65
 73
     6
 40
31.75
 49
15.875
 74
     0
 49
-3.174999999999999
 74
     0
 49
3.174999999999999
 74
     0
 49
-3.174999999999999
 74
     0
 49
3.174999999999999
 74
     0
 49
-3.174999999999999
 74
     0
  0
LTYPE
  5
1B188
330
5
100
AcDbSymbolTableRecord
100
AcDbLinetypeTableRecord
  2
CENTER1
 70
     0
  3
____ _ ____ _ ____ _ ____ _ ____ _ ____ _ ____
 72
    65
 73
     4
 40
9.9
 49
8.3
 74
     0
 49
-0.6
 74
     0
 49
0.4
 74
     0
 49
-0.6
 74
     0
  0
ENDTAB
  0
TABLE
  2
LAYER
  5
2
102
{ACAD_XDICTIONARY
360
2859
102
}
330
0
100
AcDbSymbolTable
 70
    25
  0
LAYER
  5
10
102
{ACAD_XDICTIONARY
360
F074
102
}
330
2
100
AcDbSymbolTableRecord
100
AcDbLayerTableRecord
  2
0
 70
     0
 62
     7
  6
Continuous
370
    25
390
F
  0
LAYER
  5
33
102
{ACAD_XDICTIONARY
360
F07A
102
}
330
2
100
AcDbSymbolTableRecord
100
AcDbLayerTableRecord
  2
003
 70
     0
 62
     2
  6
Continuous
370
    25
390
F
  0
LAYER
  5
1A4
102
{ACAD_XDICTIONARY
360
F080
102
}
330
2
100
AcDbSymbolTableRecord
100
AcDbLayerTableRecord
  2
006
 70
     0
 62
     4
  6
ACAD_ISO04W100
370
    20
390
F
  0
LAYER
  5
1A5
102
{ACAD_XDICTIONARY
360
F082
102
}
330
2
100
AcDbSymbolTableRecord
100
AcDbLayerTableRecord
  2
007
 70
     0
 62
     4
  6
ACAD_ISO02W100
370
    20
390
F
  0
LAYER
  5
1A8
330
2
100
AcDbSymbolTableRecord
100
AcDbLayerTableRecord
  2
Defpoints
 70
     0
 62
     7
  6
Continuous
290
     0
370
    25
390
F
  0
LAYER
  5
2B1
102
{ACAD_XDICTIONARY
360
F088
102
}
330
2
100
AcDbSymbolTableRecord
100
AcDbLayerTableRecord
  2
010
 70
     0
 62
     4
  6
Continuous
370
    20
390
F
  0
LAYER
  5
16250
330
2
100
AcDbSymbolTableRecord
100
AcDbLayerTableRecord
  2
_13極細線
 70
     0
 62
   181
  6
Continuous
370
     5
390
F
  0
LAYER
  5
1B18A
330
2
100
AcDbSymbolTableRecord
100
AcDbLayerTableRecord
  2
納まり
 70
     0
 62
    50
  6
Continuous
370
    -3
390
F
  0
LAYER
  5
1B18B
330
2
100
AcDbSymbolTableRecord
100
AcDbLayerTableRecord
  2
AM_0
 70
     0
 62
     7
  6
Continuous
370
    35
390
F
  0
LAYER
  5
1B18C
330
2
100
AcDbSymbolTableRecord
100
AcDbLayerTableRecord
  2
AM_7
 70
     0
 62
     4
  6
CENTER2
370
     9
390
F
  0
LAYER
  5
1B18D
330
2
100
AcDbSymbolTableRecord
100
AcDbLayerTableRecord
  2
AM_2
 70
     0
 62
   121
  6
Continuous
370
    20
390
F
  0
LAYER
  5
1B18E
330
2
100
AcDbSymbolTableRecord
100
AcDbLayerTableRecord
  2
AM_8
 70
     0
 62
     1
  6
Continuous
370
    -3
390
F
  0
LAYER
  5
1B18F
330
2
100
AcDbSymbolTableRecord
100
AcDbLayerTableRecord
  2
AM_11
 70
     0
 62
     3
  6
PHANTOM2
370
    25
390
F
  0
LAYER
  5
1B190
330
2
100
AcDbSymbolTableRecord
100
AcDbLayerTableRecord
  2
BLOCK
 70
     0
 62
     7
  6
Continuous
370
    -3
390
F
  0
LAYER
  5
1B191
330
2
100
AcDbSymbolTableRecord
100
AcDbLayerTableRecord
  2
AM_3
 70
     0
 62
     6
  6
HIDDEN
370
    25
390
F
  0
LAYER
  5
1B193
330
2
100
AcDbSymbolTableRecord
100
AcDbLayerTableRecord
  2
AM_7N
 70
     0
 62
     6
  6
CENTER2
370
    25
390
F
  0
ENDTAB
  0
TABLE
  2
STYLE
  5
3
330
0
100
AcDbSymbolTable
 70
     4
  0
STYLE
  5
11
330
3
100
AcDbSymbolTableRecord
100
AcDbTextStyleTableRecord
  2
Standard
 70
     0
 40
0.0
 41
1.0
 50
0.0
 71
     0
 42
2.5
  3
txt
  4

  0
STYLE
  5
34
330
3
100
AcDbSymbolTableRecord
100
AcDbTextStyleTableRecord
  2
DIM
 70
     0
 40
0.0
 41
0.75
 50
0.0
 71
     0
 42
60.0
  3
romans.shx
  4
extfont.shx
  0
STYLE
  5
35
330
3
100
AcDbSymbolTableRecord
100
AcDbTextStyleTableRecord
  2
AT_VECTOR
 70
     0
 40
0.0
 41
1.0
 50
0.0
 71
     0
 42
3.0
  3
romans.shx
  4
extfont.shx
  0
STYLE
  5
16252
330
3
100
AcDbSymbolTableRecord
100
AcDbTextStyleTableRecord
  2
ST_Design
 70
     0
 40
4.0
 41
0.8
 50
0.0
 71
     0
 42
4.0
  3
romans.shx
  4
extfont2.shx
  0
ENDTAB
  0
TABLE
  2
VIEW
  5
6
330
0
100
AcDbSymbolTable
 70
     0
  0
ENDTAB
  0
TABLE
  2
UCS
  5
7
330
0
100
AcDbSymbolTable
 70
     0
  0
ENDTAB
  0
TABLE
  2
APPID
  5
9
330
0
100
AcDbSymbolTable
 70
    18
  0
APPID
  5
12
330
9
100
AcDbSymbolTableRecord
100
AcDbRegAppTableRecord
  2
ACAD
 70
     0
  0
APPID
  5
3DA
330
9
100
AcDbSymbolTableRecord
100
AcDbRegAppTableRecord
  2
BS2_OSAMARI_KUTAI
 70
     0
  0
APPID
  5
3DB
330
9
100
AcDbSymbolTableRecord
100
AcDbRegAppTableRecord
  2
BS2_OSAMARI_ISIAGE
 70
     0
  0
APPID
  5
3DC
330
9
100
AcDbSymbolTableRecord
100
AcDbRegAppTableRecord
  2
BS2_OSAMARI_IMOKU
 70
     0
  0
APPID
  5
3DD
330
9
100
AcDbSymbolTableRecord
100
AcDbRegAppTableRecord
  2
BS2_OSAMARI_OSIAGE
 70
     0
  0
APPID
  5
3DE
330
9
100
AcDbSymbolTableRecord
100
AcDbRegAppTableRecord
  2
BS2_OSAMARI_OFZK
 70
     0
  0
APPID
  5
E427
330
9
100
AcDbSymbolTableRecord
100
AcDbRegAppTableRecord
  2
ACAD_MLEADERVER
 70
     0
  0
APPID
  5
F13C
330
9
100
AcDbSymbolTableRecord
100
AcDbRegAppTableRecord
  2
ACAD_EXEMPT_FROM_CAD_STANDARDS
 70
     0
  0
APPID
  5
F7FB
330
9
100
AcDbSymbolTableRecord
100
AcDbRegAppTableRecord
  2
ACAD_PSEXT
 70
     0
  0
APPID
  5
12721
330
9
100
AcDbSymbolTableRecord
100
AcDbRegAppTableRecord
  2
ACAD_DSTYLE_DIMJAG
 70
     0
  0
APPID
  5
12722
330
9
100
AcDbSymbolTableRecord
100
AcDbRegAppTableRecord
  2
ACAD_DSTYLE_DIMTALN
 70
     0
  0
APPID
  5
1393B
330
9
100
AcDbSymbolTableRecord
100
AcDbRegAppTableRecord
  2
YALIB
 70
     0
  0
APPID
  5
168AF
330
9
100
AcDbSymbolTableRecord
100
AcDbRegAppTableRecord
  2
GENIUS_GENODEF_13
 70
     0
  0
APPID
  5
168B0
330
9
100
AcDbSymbolTableRecord
100
AcDbRegAppTableRecord
  2
GENIUS_GENOBJ-N-FIL_13
 70
     0
  0
APPID
  5
1B194
330
9
100
AcDbSymbolTableRecord
100
AcDbRegAppTableRecord
  2
ACAECLAYERSTANDARD
 70
     0
  0
APPID
  5
1B195
330
9
100
AcDbSymbolTableRecord
100
AcDbRegAppTableRecord
  2
GENIUS_GENFIL_13
 70
     0
  0
APPID
  5
1B196
330
9
100
AcDbSymbolTableRecord
100
AcDbRegAppTableRecord
  2
GENIUS_GENOBJ-N-CHA_13
 70
     0
  0
APPID
  5
1B197
330
9
100
AcDbSymbolTableRecord
100
AcDbRegAppTableRecord
  2
GENIUS_GENOREF_13
 70
     0
  0
ENDTAB
  0
TABLE
  2
DIMSTYLE
  5
A
330
0
100
AcDbSymbolTable
 70
     2
100
AcDbDimStyleTable
 71
     2
340
38
340
1A9
  0
DIMSTYLE
105
38
102
{ACAD_REACTORS
330
1C61E
330
1C61F
330
1C774
330
1C775
330
1C776
330
1C777
330
1C778
330
1C5DE
330
1C5DF
330
1C5E0
330
1C5E1
330
1C5E2
330
1C5E7
102
}
330
A
100
AcDbSymbolTableRecord
100
AcDbDimStyleTableRecord
  2
DIM
 70
     0
 40
2.0
 41
1.5
 42
1.5
 43
7.0
 44
1.0
 73
     0
 74
     0
 77
     1
 78
     8
140
3.0
141
0.0
143
0.03937007874016
147
1.0
171
     3
172
     1
176
     4
177
     4
178
     7
271
     2
272
     2
274
     3
283
     0
284
     8
340
34
341
2B
342
2B
371
    20
372
    20
  0
DIMSTYLE
105
1A9
330
A
100
AcDbSymbolTableRecord
100
AcDbDimStyleTableRecord
  2
Standard
 70
     0
340
11
  0
ENDTAB
  0
TABLE
  2
BLOCK_RECORD
  5
1
330
0
100
AcDbSymbolTable
 70
    48
  0
BLOCK_RECORD
  5
1F
102
{ACAD_XDICTIONARY
360
F144
102
}
330
1
100
AcDbSymbolTableRecord
100
AcDbBlockTableRecord
  2
*Model_Space
340
22
  0
BLOCK_RECORD
  5
1B
330
1
100
AcDbSymbolTableRecord
100
AcDbBlockTableRecord
  2
*Paper_Space
340
1E
  0
BLOCK_RECORD
  5
23
330
1
100
AcDbSymbolTableRecord
100
AcDbBlockTableRecord
  2
*Paper_Space0
340
26
  0
BLOCK_RECORD
  5
2B
330
1
100
AcDbSymbolTableRecord
100
AcDbBlockTableRecord
  2
_Open30
340
0
102
{BLKREFS
331
1C829
331
1C82A
331
1C832
331
1C833
331
1C83D
331
1C83E
331
1C846
331
1C847
331
1C84F
331
1C850
331
1C85A
331
1C85B
331
1C863
331
1C864
331
1C86C
331
1C86D
331
1C875
331
1C876
331
1C87E
331
1C87F
331
1C887
331
1C888
331
1C890
331
1C891
331
1C899
331
1C89A
102
}
  0
BLOCK_RECORD
  5
1AC6F
330
1
100
AcDbSymbolTableRecord
100
AcDbBlockTableRecord
  2
B3A777潰れ
340
0
102
{BLKREFS
331
1C65C
331
1C715
102
}
  0
BLOCK_RECORD
  5
1AC85
330
1
100
AcDbSymbolTableRecord
100
AcDbBlockTableRecord
  2
*X9
340
0
102
{BLKREFS
331
1AC72
102
}
  0
BLOCK_RECORD
  5
1AD2F
330
1
100
AcDbSymbolTableRecord
100
AcDbBlockTableRecord
  2
D008M_______________01
340
0
102
{BLKREFS
331
1C657
331
1C710
102
}
  0
BLOCK_RECORD
  5
1AD57
330
1
100
AcDbSymbolTableRecord
100
AcDbBlockTableRecord
  2
D008M_______________01A
340
0
102
{BLKREFS
331
1C65B
331
1C714
102
}
  0
BLOCK_RECORD
  5
1AF22
330
1
100
AcDbSymbolTableRecord
100
AcDbBlockTableRecord
  2
BP3094
340
0
102
{BLKREFS
331
1C659
331
1C65A
331
1C712
331
1C713
102
}
  0
BLOCK_RECORD
  5
1AF2D
330
1
100
AcDbSymbolTableRecord
100
AcDbBlockTableRecord
  2
ラッチネジ
340
0
102
{BLKREFS
331
1C656
331
1C70F
102
}
  0
BLOCK_RECORD
  5
1AF41
330
1
100
AcDbSymbolTableRecord
100
AcDbBlockTableRecord
  2
AJ1430
340
0
102
{BLKREFS
331
1C64E
331
1C707
102
}
  0
BLOCK_RECORD
  5
1AF76
330
1
100
AcDbSymbolTableRecord
100
AcDbBlockTableRecord
  2
AJ1412
340
0
102
{BLKREFS
331
1C654
331
1C70D
102
}
  0
BLOCK_RECORD
  5
1AF9A
330
1
100
AcDbSymbolTableRecord
100
AcDbBlockTableRecord
  2
A$C0AB071A4
340
0
102
{BLKREFS
331
1C64D
331
1C706
102
}
  0
BLOCK_RECORD
  5
1AFAF
330
1
100
AcDbSymbolTableRecord
100
AcDbBlockTableRecord
  2
B3A782
340
0
102
{BLKREFS
331
1C658
331
1C711
102
}
  0
BLOCK_RECORD
  5
1AFBA
330
1
100
AcDbSymbolTableRecord
100
AcDbBlockTableRecord
  2
A$C2DAD0FDB
340
0
102
{BLKREFS
331
1C64A
331
1C703
102
}
  0
BLOCK_RECORD
  5
1AFD1
330
1
100
AcDbSymbolTableRecord
100
AcDbBlockTableRecord
  2
B3A780B
340
0
102
{BLKREFS
331
1C637
331
1C6F0
102
}
  0
BLOCK_RECORD
  5
1B00A
330
1
100
AcDbSymbolTableRecord
100
AcDbBlockTableRecord
  2
B3A735
340
0
102
{BLKREFS
331
1C64F
331
1C708
102
}
  0
BLOCK_RECORD
  5
1B01C
330
1
100
AcDbSymbolTableRecord
100
AcDbBlockTableRecord
  2
*X33
340
0
102
{BLKREFS
331
1B01A
102
}
  0
BLOCK_RECORD
  5
1B028
330
1
100
AcDbSymbolTableRecord
100
AcDbBlockTableRecord
  2
A$C7F303707
340
0
102
{BLKREFS
331
1C65E
331
1C717
102
}
  0
BLOCK_RECORD
  5
1C786
330
1
100
AcDbSymbolTableRecord
100
AcDbBlockTableRecord
  2
*D35
340
0
  0
BLOCK_RECORD
  5
1C792
330
1
100
AcDbSymbolTableRecord
100
AcDbBlockTableRecord
  2
*D36
340
0
  0
BLOCK_RECORD
  5
1C79E
330
1
100
AcDbSymbolTableRecord
100
AcDbBlockTableRecord
  2
*D37
340
0
  0
BLOCK_RECORD
  5
1C7AC
330
1
100
AcDbSymbolTableRecord
100
AcDbBlockTableRecord
  2
*D38
340
0
  0
BLOCK_RECORD
  5
1C7B8
330
1
100
AcDbSymbolTableRecord
100
AcDbBlockTableRecord
  2
*D39
340
0
  0
BLOCK_RECORD
  5
1C7C4
330
1
100
AcDbSymbolTableRecord
100
AcDbBlockTableRecord
  2
*D40
340
0
  0
BLOCK_RECORD
  5
1C7D2
330
1
100
AcDbSymbolTableRecord
100
AcDbBlockTableRecord
  2
*D41
340
0
  0
BLOCK_RECORD
  5
1C7DE
330
1
100
AcDbSymbolTableRecord
100
AcDbBlockTableRecord
  2
*D42
340
0
  0
BLOCK_RECORD
  5
1C7EA
330
1
100
AcDbSymbolTableRecord
100
AcDbBlockTableRecord
  2
*D43
340
0
  0
BLOCK_RECORD
  5
1C7F6
330
1
100
AcDbSymbolTableRecord
100
AcDbBlockTableRecord
  2
*D44
340
0
  0
BLOCK_RECORD
  5
1C802
330
1
100
AcDbSymbolTableRecord
100
AcDbBlockTableRecord
  2
*D45
340
0
  0
BLOCK_RECORD
  5
1C80E
330
1
100
AcDbSymbolTableRecord
100
AcDbBlockTableRecord
  2
*D46
340
0
  0
BLOCK_RECORD
  5
1C81A
330
1
100
AcDbSymbolTableRecord
100
AcDbBlockTableRecord
  2
*D47
340
0
  0
ENDTAB
  0
ENDSEC
  0
SECTION
  2
BLOCKS
  0
BLOCK
  5
20
330
1F
100
AcDbEntity
  8
0
100
AcDbBlockBegin
  2
*Model_Space
 70
     0
 10
0.0
 20
0.0
 30
0.0
  3
*Model_Space
  1

  0
ENDBLK
  5
21
330
1F
100
AcDbEntity
  8
0
100
AcDbBlockEnd
  0
BLOCK
  5
1C
330
1B
100
AcDbEntity
 67
     1
  8
0
100
AcDbBlockBegin
  2
*Paper_Space
 70
     0
 10
0.0
 20
0.0
 30
0.0
  3
*Paper_Space
  1

  0
ENDBLK
  5
1D
330
1B
100
AcDbEntity
 67
     1
  8
0
100
AcDbBlockEnd
  0
BLOCK
  5
24
330
23
100
AcDbEntity
 67
     1
  8
0
100
AcDbBlockBegin
  2
*Paper_Space0
 70
     0
 10
0.0
 20
0.0
 30
0.0
  3
*Paper_Space0
  1

  0
ENDBLK
  5
25
330
23
100
AcDbEntity
 67
     1
  8
0
100
AcDbBlockEnd
  0
BLOCK
  5
2F
330
2B
100
AcDbEntity
  8
0
100
AcDbBlockBegin
  2
_Open30
 70
     0
 10
0.0
 20
0.0
 30
0.0
  3
_Open30
  1

  0
LINE
  5
2C
330
2B
100
AcDbEntity
  8
0
  6
ByBlock
 62
     0
370
    -2
100
AcDbLine
 10
-1.0
 20
0.26794919
 30
0.0
 11
0.0
 21
0.0
 31
0.0
  0
LINE
  5
2D
330
2B
100
AcDbEntity
  8
0
  6
ByBlock
 62
     0
370
    -2
100
AcDbLine
 10
0.0
 20
0.0
 30
0.0
 11
-1.0
 21
-0.26794919
 31
0.0
  0
LINE
  5
2E
330
2B
100
AcDbEntity
  8
0
  6
ByBlock
 62
     0
370
    -2
100
AcDbLine
 10
0.0
 20
0.0
 30
0.0
 11
-1.0
 21
0.0
 31
0.0
  0
ENDBLK
  5
30
330
2B
100
AcDbEntity
  8
0
100
AcDbBlockEnd
  0
BLOCK
  5
1AC70
330
1AC6F
100
AcDbEntity
  8
0
100
AcDbBlockBegin
  2
B3A777潰れ
 70
     0
 10
0.0
 20
0.0
 30
0.0
  3
B3A777潰れ
  1

  0
LINE
  5
1AC71
330
1AC6F
100
AcDbEntity
  8
AM_11
100
AcDbLine
 10
-2.800000000035311
 20
-4.699999999999818
 30
0.0
 11
-2.450000000035203
 21
-4.699999999999818
 31
0.0
  0
INSERT
  5
1AC72
330
1AC6F
100
AcDbEntity
  8
AM_8
  6
Continuous
100
AcDbBlockReference
  2
*X9
 10
0.0
 20
0.0
 30
0.0
  0
LINE
  5
1AC73
330
1AC6F
100
AcDbEntity
  8
AM_11
100
AcDbLine
 10
-3.300000000035281
 20
-3.643280549826727
 30
0.0
 11
-3.300000000035281
 21
1.00000000000017
 31
0.0
  0
LINE
  5
1AC74
330
1AC6F
100
AcDbEntity
  8
AM_11
100
AcDbLine
 10
-3.300000000035281
 20
-4.199999999999788
 30
0.0
 11
-3.300000000035281
 21
-3.543280549826731
 31
0.0
  0
ARC
  5
1AC75
330
1AC6F
100
AcDbEntity
  8
AM_11
100
AcDbCircle
 10
-2.800000000035311
 20
-4.199999999999818
 30
0.0
 40
0.5
100
AcDbArc
 50
180.0
 51
270.0
1001
GENIUS_GENOBJ-N-FIL_13
1002
{
1000
OWNER
1000
GEN
1002
}
1001
GENIUS_GENODEF_13
1002
{
1000
HIER
1070
     0
1002
}
1002
{
1000
MANEDIT
1070
     0
1002
}
1002
{
1000
NOSEL
1070
     0
1002
}
1002
{
1000
BEHIND
1070
     0
1002
}
1002
{
1000
OTHER
1070
     0
1002
}
1002
{
1000
REACTOR
1002
}
  0
ARC
  5
1AC76
330
1AC6F
100
AcDbEntity
  8
AM_11
100
AcDbCircle
 10
-2.450000000035203
 20
-4.549999999999783
 30
0.0
 40
0.15
100
AcDbArc
 50
270.0000000000016
 51
0.0
  0
LINE
  5
1AC77
330
1AC6F
100
AcDbEntity
  8
AM_11
100
AcDbLine
 10
-3.300000000035281
 20
-4.199999999999788
 30
0.0
 11
-3.300000000035281
 21
-4.199999999999788
 31
0.0
  0
LINE
  5
1AC78
330
1AC6F
100
AcDbEntity
  8
AM_11
100
AcDbLine
 10
-3.300000000035281
 20
-4.199999999999818
 30
0.0
 11
-3.300000000035281
 21
-4.199999999999818
 31
0.0
  0
LINE
  5
1AC79
330
1AC6F
100
AcDbEntity
  8
AM_11
100
AcDbLine
 10
-3.300000000035281
 20
-4.199999999999818
 30
0.0
 11
-3.300000000035281
 21
-3.543280549826731
 31
0.0
  0
LINE
  5
1AC7A
330
1AC6F
100
AcDbEntity
  8
AM_11
100
AcDbLine
 10
-3.300000000035281
 20
-3.643280549826727
 30
0.0
 11
-3.300000000035281
 21
-2.45092820883812
 31
0.0
  0
LINE
  5
1AC7B
330
1AC6F
100
AcDbEntity
  8
AM_11
100
AcDbLine
 10
-2.300000000035281
 20
-1.199999999999818
 30
0.0
 11
-2.300000000035281
 21
0.8500000000001648
 31
0.0
  0
LINE
  5
1AC7C
330
1AC6F
100
AcDbEntity
  8
AM_11
100
AcDbLine
 10
-2.450000000035315
 20
1.00000000000017
 30
0.0
 11
-3.300000000035281
 21
1.00000000000017
 31
0.0
  0
ARC
  5
1AC7D
330
1AC6F
100
AcDbEntity
  8
AM_11
100
AcDbCircle
 10
-2.450000000035315
 20
0.8500000000001648
 30
0.0
 40
0.15
100
AcDbArc
 50
0.0
 51
90.0
  0
LINE
  5
1AC7E
330
1AC6F
100
AcDbEntity
  8
AM_11
100
AcDbLine
 10
-5.300000000034002
 20
1.000000000000311
 30
0.0
 11
-3.300000000035281
 21
1.00000000000017
 31
0.0
  0
LINE
  5
1AC7F
330
1AC6F
100
AcDbEntity
  8
AM_11
100
AcDbLine
 10
-2.300000000035197
 20
-4.549999999999783
 30
0.0
 11
-2.300000000035197
 21
-4.299999999999839
 31
0.0
  0
LINE
  5
1AC80
330
1AC6F
100
AcDbEntity
  8
AM_11
100
AcDbLine
 10
-3.300000000035395
 20
-0.2999999999998124
 30
0.0
 11
-4.777835110792493
 21
0.0166789523053979
 31
0.0
  0
ARC
  5
1AC81
330
1AC6F
100
AcDbEntity
  8
AM_11
100
AcDbCircle
 10
-4.500000000000142
 20
-3.673328578217392
 30
0.0
 40
0.8000000000000001
100
AcDbArc
 50
180.0000000004282
 51
107.6535365763062
  0
ARC
  5
1AC82
330
1AC6F
100
AcDbEntity
  8
AM_11
100
AcDbCircle
 10
4.423168207927658
 20
-1.336664289041094
 30
0.0
 40
9.999999999999898
100
AcDbArc
 50
166.4869736405982
 51
193.5130263602308
  0
ARC
  5
1AC83
330
1AC6F
100
AcDbEntity
  8
AM_11
100
AcDbCircle
 10
4.423168207928084
 20
-1.336664289041151
 30
0.0
 40
9.300000000000316
100
AcDbArc
 50
171.6325625174914
 51
189.7461726254624
  0
ENDBLK
  5
1AC84
330
1AC6F
100
AcDbEntity
  8
0
100
AcDbBlockEnd
  0
BLOCK
  5
1AC86
330
1AC85
100
AcDbEntity
  8
0
100
AcDbBlockBegin
  2
*X9
 70
     1
 10
0.0
 20
0.0
 30
0.0
  3
*X9
  1

  0
LINE
  5
1AC87
330
1AC85
100
AcDbEntity
  8
0
 62
     0
100
AcDbLine
 10
-0.6147343657396789
 20
-4.649999999999805
 30
0.0
 11
-0.2500000000352713
 21
-4.285265634295399
 31
0.0
  0
LINE
  5
1AC88
330
1AC85
100
AcDbEntity
  8
0
 62
     0
100
AcDbLine
 10
-1.247931177814336
 20
-4.385171199967571
 30
0.0
 11
-0.4205963515687188
 21
-3.557836373721953
 31
0.0
  0
LINE
  5
1AC89
330
1AC85
100
AcDbEntity
  8
0
 62
     0
100
AcDbLine
 10
-1.41078558995349
 20
-3.649999999999835
 30
0.0
 11
-0.8500000000352372
 21
-3.08921441008158
 31
0.0
  0
LINE
  5
1AC8A
330
1AC85
100
AcDbEntity
  8
0
 62
     0
100
AcDbLine
 10
-2.460785589953474
 20
-4.699999999999818
 30
0.0
 11
-2.30000000003514
 21
-4.539214410081483
 31
0.0
  0
LINE
  5
1AC8B
330
1AC85
100
AcDbEntity
  8
0
 62
     0
100
AcDbLine
 10
-2.308811202060411
 20
-3.649999999999805
 30
0.0
 11
-0.2500000000352713
 21
-1.591188797974665
 31
0.0
  0
LINE
  5
1AC8C
330
1AC85
100
AcDbEntity
  8
0
 62
     0
100
AcDbLine
 10
-3.18173401407904
 20
-4.522922812018435
 30
0.0
 11
-2.50000000003527
 21
-3.841188797974666
 31
0.0
  0
LINE
  5
1AC8D
330
1AC85
100
AcDbEntity
  8
0
 62
     0
100
AcDbLine
 10
-3.300000000035281
 20
-3.743163185867756
 30
0.0
 11
-0.433257485726415
 21
-0.8764206715588898
 31
0.0
  0
LINE
  5
1AC8E
330
1AC85
100
AcDbEntity
  8
0
 62
     0
100
AcDbLine
 10
-1.250000000035242
 20
-0.7951375737608261
 30
0.0
 11
-0.8299358784381354
 21
-0.3750734521637185
 31
0.0
  0
LINE
  5
1AC8F
330
1AC85
100
AcDbEntity
  8
0
 62
     0
100
AcDbLine
 10
-3.300000000035281
 20
-2.845137573760864
 30
0.0
 11
-1.804862426274269
 21
-1.349999999999851
 31
0.0
  0
LINE
  5
1AC90
330
1AC85
100
AcDbEntity
  8
0
 62
     0
100
AcDbLine
 10
-3.300000000035281
 20
-1.947111961653945
 30
0.0
 11
-2.300000000035281
 21
-0.9471119616539168
 31
0.0
  0
LINE
  5
1AC91
330
1AC85
100
AcDbEntity
  8
0
 62
     0
100
AcDbLine
 10
-3.300000000035281
 20
-1.049086349546995
 30
0.0
 11
-2.300000000035281
 21
-0.0490863495469967
 31
0.0
  0
LINE
  5
1AC92
330
1AC85
100
AcDbEntity
  8
0
 62
     0
100
AcDbLine
 10
-3.300000000035281
 20
-0.1510607374401047
 30
0.0
 11
-2.300000000035253
 21
0.8489392625599235
 31
0.0
  0
LINE
  5
1AC93
330
1AC85
100
AcDbEntity
  8
0
 62
     0
100
AcDbLine
 10
-3.300000000035253
 20
0.7469648746668156
 30
0.0
 11
-3.046964874701898
 21
1.00000000000017
 31
0.0
  0
ENDBLK
  5
1AC94
330
1AC85
100
AcDbEntity
  8
0
100
AcDbBlockEnd
  0
BLOCK
  5
1AD30
330
1AD2F
100
AcDbEntity
  8
0
100
AcDbBlockBegin
  2
D008M_______________01
 70
     0
 10
0.0
 20
0.0
 30
0.0
  3
D008M_______________01
  1

  0
LINE
  5
1AD31
330
1AD2F
100
AcDbEntity
  8
AM_7
100
AcDbLine
 10
-2.738250732421902
 20
0.0
 30
0.0
 11
10.91424560546799
 21
0.0
 31
0.0
  0
LINE
  5
1AD32
330
1AD2F
100
AcDbEntity
  8
AM_2
100
AcDbLine
 10
0.0
 20
4.0
 30
0.0
 11
0.0
 21
-4.0
 31
0.0
  0
LINE
  5
1AD33
330
1AD2F
100
AcDbEntity
  8
AM_2
100
AcDbLine
 10
0.0
 20
2.0
 30
0.0
 11
10.0
 21
2.0
 31
0.0
  0
LINE
  5
1AD34
330
1AD2F
100
AcDbEntity
  8
AM_2
100
AcDbLine
 10
0.0
 20
-2.0
 30
0.0
 11
10.0
 21
-2.0
 31
0.0
  0
LINE
  5
1AD35
330
1AD2F
100
AcDbEntity
  8
AM_2
100
AcDbLine
 10
-0.4276710152626039
 20
4.0
 30
0.0
 11
0.0
 21
4.0
 31
0.0
  0
LINE
  5
1AD36
330
1AD2F
100
AcDbEntity
  8
AM_2
100
AcDbLine
 10
-0.4276710152626039
 20
-4.0
 30
0.0
 11
0.0
 21
-4.0
 31
0.0
  0
LINE
  5
1AD37
330
1AD2F
100
AcDbEntity
  8
AM_3
100
AcDbLine
 10
0.0
 20
1.582999229431209
 30
0.0
 11
10.0
 21
1.582999229431209
 31
0.0
  0
LINE
  5
1AD38
330
1AD2F
100
AcDbEntity
  8
AM_3
100
AcDbLine
 10
0.0
 20
-1.582999229431209
 30
0.0
 11
10.0
 21
-1.582999229431209
 31
0.0
  0
LINE
  5
1AD39
330
1AD2F
100
AcDbEntity
  8
AM_2
100
AcDbLine
 10
10.0
 20
2.0
 30
0.0
 11
10.0
 21
-2.0
 31
0.0
  0
LINE
  5
1AD3A
330
1AD2F
100
AcDbEntity
  8
AM_2
100
AcDbLine
 10
-0.4276710152626039
 20
-4.0
 30
0.0
 11
-0.4276710152626039
 21
4.0
 31
0.0
  0
ARC
  5
1AD3B
330
1AD2F
100
AcDbEntity
  8
AM_2
100
AcDbCircle
 10
3.199999809265107
 20
0.0
 30
0.0
 40
5.3999996185303
100
AcDbArc
 50
132.2054694238464
 51
227.7945679148223
  0
ENDBLK
  5
1AD3C
330
1AD2F
100
AcDbEntity
  8
0
100
AcDbBlockEnd
  0
BLOCK
  5
1AD58
330
1AD57
100
AcDbEntity
  8
0
100
AcDbBlockBegin
  2
D008M_______________01A
 70
     0
 10
0.0
 20
0.0
 30
0.0
  3
D008M_______________01A
  1

  0
LINE
  5
1AD59
330
1AD57
100
AcDbEntity
  8
AM_7
100
AcDbLine
 10
-2.738250732421902
 20
0.0
 30
0.0
 11
7.914245605468011
 21
0.0
 31
0.0
  0
LINE
  5
1AD5A
330
1AD57
100
AcDbEntity
  8
AM_2
100
AcDbLine
 10
0.0
 20
4.0
 30
0.0
 11
0.0
 21
-4.0
 31
0.0
  0
LINE
  5
1AD5B
330
1AD57
100
AcDbEntity
  8
AM_2
100
AcDbLine
 10
0.0
 20
2.0
 30
0.0
 11
7.0
 21
2.0
 31
0.0
  0
LINE
  5
1AD5C
330
1AD57
100
AcDbEntity
  8
AM_2
100
AcDbLine
 10
0.0
 20
-2.0
 30
0.0
 11
7.0
 21
-2.0
 31
0.0
  0
LINE
  5
1AD5D
330
1AD57
100
AcDbEntity
  8
AM_2
100
AcDbLine
 10
-0.4276710152626039
 20
4.0
 30
0.0
 11
0.0
 21
4.0
 31
0.0
  0
LINE
  5
1AD5E
330
1AD57
100
AcDbEntity
  8
AM_2
100
AcDbLine
 10
-0.4276710152626039
 20
-4.0
 30
0.0
 11
0.0
 21
-4.0
 31
0.0
  0
LINE
  5
1AD5F
330
1AD57
100
AcDbEntity
  8
AM_3
100
AcDbLine
 10
0.0
 20
1.582999229431209
 30
0.0
 11
7.0
 21
1.582999229431209
 31
0.0
  0
LINE
  5
1AD60
330
1AD57
100
AcDbEntity
  8
AM_3
100
AcDbLine
 10
0.0
 20
-1.582999229431209
 30
0.0
 11
7.0
 21
-1.582999229431209
 31
0.0
  0
LINE
  5
1AD61
330
1AD57
100
AcDbEntity
  8
AM_2
100
AcDbLine
 10
7.0
 20
2.0
 30
0.0
 11
7.0
 21
-2.0
 31
0.0
  0
LINE
  5
1AD62
330
1AD57
100
AcDbEntity
  8
AM_2
100
AcDbLine
 10
-0.4276710152626039
 20
-4.0
 30
0.0
 11
-0.4276710152626039
 21
4.0
 31
0.0
  0
ARC
  5
1AD63
330
1AD57
100
AcDbEntity
  8
AM_2
100
AcDbCircle
 10
3.199999809265107
 20
0.0
 30
0.0
 40
5.3999996185303
100
AcDbArc
 50
132.2054694238455
 51
227.7945679148229
  0
ENDBLK
  5
1AD64
330
1AD57
100
AcDbEntity
  8
0
100
AcDbBlockEnd
  0
BLOCK
  5
1AF23
330
1AF22
100
AcDbEntity
  8
0
100
AcDbBlockBegin
  2
BP3094
 70
     0
 10
0.0
 20
0.0
 30
0.0
  3
BP3094
  1

  0
LINE
  5
1AF24
330
1AF22
100
AcDbEntity
  8
AM_2
  6
HIDDEN2
100
AcDbLine
 10
0.0
 20
-1.5
 30
0.0
 11
-2.0
 21
-1.5
 31
0.0
  0
LINE
  5
1AF25
330
1AF22
100
AcDbEntity
  8
AM_2
  6
HIDDEN2
100
AcDbLine
 10
0.0
 20
1.5
 30
0.0
 11
-2.0
 21
1.5
 31
0.0
  0
LINE
  5
1AF26
330
1AF22
100
AcDbEntity
  8
AM_2
  6
HIDDEN2
100
AcDbLine
 10
0.0
 20
-2.0
 30
0.0
 11
-2.0
 21
-2.0
 31
0.0
  0
LINE
  5
1AF27
330
1AF22
100
AcDbEntity
  8
AM_2
  6
HIDDEN2
100
AcDbLine
 10
0.0
 20
2.0
 30
0.0
 11
-2.0
 21
2.0
 31
0.0
  0
LINE
  5
1AF28
330
1AF22
100
AcDbEntity
  8
AM_2
100
AcDbLine
 10
-2.0
 20
4.0
 30
0.0
 11
-2.0
 21
-4.0
 31
0.0
  0
LINE
  5
1AF29
330
1AF22
100
AcDbEntity
  8
AM_2
100
AcDbLine
 10
0.0
 20
4.0
 30
0.0
 11
0.0
 21
-4.0
 31
0.0
  0
LINE
  5
1AF2A
330
1AF22
100
AcDbEntity
  8
AM_2
100
AcDbLine
 10
-2.0
 20
-4.0
 30
0.0
 11
0.0
 21
-4.0
 31
0.0
  0
LINE
  5
1AF2B
330
1AF22
100
AcDbEntity
  8
AM_2
100
AcDbLine
 10
-2.0
 20
4.0
 30
0.0
 11
0.0
 21
4.0
 31
0.0
  0
ENDBLK
  5
1AF2C
330
1AF22
100
AcDbEntity
  8
0
100
AcDbBlockEnd
  0
BLOCK
  5
1AF2E
330
1AF2D
100
AcDbEntity
  8
0
100
AcDbBlockBegin
  2
ラッチネジ
 70
     0
 10
0.0
 20
0.0
 30
0.0
  3
ラッチネジ
  1

  0
POLYLINE
  5
1AF2F
330
1AF2D
100
AcDbEntity
  8
AM_2
100
AcDb2dPolyline
 66
     1
 10
0.0
 20
0.0
 30
0.0
  0
VERTEX
  5
1AF30
330
1AF2F
100
AcDbEntity
  8
AM_2
100
AcDbVertex
100
AcDb2dVertex
 10
-2.0
 20
0.0
 30
0.0
  0
VERTEX
  5
1AF31
330
1AF2F
100
AcDbEntity
  8
AM_2
100
AcDbVertex
100
AcDb2dVertex
 10
-2.0
 20
7.000000000000071
 30
0.0
  0
VERTEX
  5
1AF32
330
1AF2F
100
AcDbEntity
  8
AM_2
100
AcDbVertex
100
AcDb2dVertex
 10
2.0
 20
7.000000000000071
 30
0.0
  0
VERTEX
  5
1AF33
330
1AF2F
100
AcDbEntity
  8
AM_2
100
AcDbVertex
100
AcDb2dVertex
 10
2.0
 20
0.0
 30
0.0
  0
SEQEND
  5
1AF34
330
1AF2F
100
AcDbEntity
  8
AM_2
  0
LINE
  5
1AF35
330
1AF2D
100
AcDbEntity
  8
AM_3
  6
HIDDEN
100
AcDbLine
 10
1.62099999999998
 20
0.0
 30
0.0
 11
1.62099999999998
 21
7.000000000000071
 31
0.0
  0
LINE
  5
1AF36
330
1AF2D
100
AcDbEntity
  8
AM_3
  6
HIDDEN
100
AcDbLine
 10
-1.62099999999998
 20
0.0
 30
0.0
 11
-1.62099999999998
 21
7.000000000000071
 31
0.0
  0
LINE
  5
1AF37
330
1AF2D
100
AcDbEntity
  8
AM_7N
  6
CENTER1
100
AcDbLine
 10
0.0
 20
-3.199999999999988
 30
0.0
 11
0.0
 21
8.000000000000071
 31
0.0
  0
POLYLINE
  5
1AF38
330
1AF2D
100
AcDbEntity
  8
AM_2
  6
Continuous
100
AcDb2dPolyline
 66
     1
 10
0.0
 20
0.0
 30
0.0
 70
     1
  0
VERTEX
  5
1AF39
330
1AF38
100
AcDbEntity
  8
AM_2
  6
Continuous
100
AcDbVertex
100
AcDb2dVertex
 10
0.4000000000000341
 20
-1.736669234722626
 30
0.0
  0
VERTEX
  5
1AF3A
330
1AF38
100
AcDbEntity
  8
AM_2
  6
Continuous
100
AcDbVertex
100
AcDb2dVertex
 10
-0.4000000000002615
 20
-1.736669234721262
 30
0.0
  0
VERTEX
  5
1AF3B
330
1AF38
100
AcDbEntity
  8
AM_2
  6
Continuous
100
AcDbVertex
100
AcDb2dVertex
 10
-0.3999999999999773
 20
-2.183400910180523
 30
0.0
 42
-0.2321090994561137
  0
VERTEX
  5
1AF3C
330
1AF38
100
AcDbEntity
  8
AM_2
  6
Continuous
100
AcDbVertex
100
AcDb2dVertex
 10
-4.050000000000011
 20
0.0
 30
0.0
  0
VERTEX
  5
1AF3D
330
1AF38
100
AcDbEntity
  8
AM_2
  6
Continuous
100
AcDbVertex
100
AcDb2dVertex
 10
4.050000000000011
 20
0.0
 30
0.0
 42
-0.2321090994561043
  0
VERTEX
  5
1AF3E
330
1AF38
100
AcDbEntity
  8
AM_2
  6
Continuous
100
AcDbVertex
100
AcDb2dVertex
 10
0.4000000000001478
 20
-2.183400910180523
 30
0.0
  0
SEQEND
  5
1AF3F
330
1AF38
100
AcDbEntity
  8
AM_2
  6
Continuous
  0
ENDBLK
  5
1AF40
330
1AF2D
100
AcDbEntity
  8
0
100
AcDbBlockEnd
  0
BLOCK
  5
1AF42
330
1AF41
100
AcDbEntity
  8
0
100
AcDbBlockBegin
  2
AJ1430
 70
     0
 10
0.0
 20
0.0
 30
0.0
  3
AJ1430
  1

  0
LINE
  5
1AF43
330
1AF41
100
AcDbEntity
  8
AM_0
100
AcDbLine
 10
23.50000000000002
 20
42.50000000000002
 30
0.0
 11
-0.5
 21
42.50000000000002
 31
0.0
  0
LINE
  5
1AF44
330
1AF41
100
AcDbEntity
  8
AM_0
100
AcDbLine
 10
18.79999999999935
 20
39.00000000000004
 30
0.0
 11
23.69999999999933
 21
39.00000000000455
 31
0.0
  0
LINE
  5
1AF45
330
1AF41
100
AcDbEntity
  8
AM_0
100
AcDbLine
 10
-1.000000000000027
 20
33.80000000000001
 30
0.0
 11
-1.0
 21
3.0
 31
0.0
  0
LINE
  5
1AF46
330
1AF41
100
AcDbEntity
  8
AM_0
100
AcDbLine
 10
2.0
 20
40.54999999999451
 30
0.0
 11
2.0
 21
9.299999999999954
 31
0.0
  0
LINE
  5
1AF47
330
1AF41
100
AcDbEntity
  8
AM_0
100
AcDbLine
 10
4.265974368213804
 20
-2.0
 30
0.0
 11
-22.0
 21
-2.0
 31
0.0
  0
LINE
  5
1AF48
330
1AF41
100
AcDbEntity
  8
AM_0
100
AcDbLine
 10
0.0
 20
0.0
 30
0.0
 11
-22.0
 21
0.0000000000002274
 31
0.0
  0
ARC
  5
1AF49
330
1AF41
100
AcDbEntity
  8
AM_0
100
AcDbCircle
 10
-22.0
 20
-0.9999999999997726
 30
0.0
 40
0.9999999999999856
100
AcDbArc
 50
90.0
 51
270.0
  0
LINE
  5
1AF4A
330
1AF41
100
AcDbEntity
  8
AM_0
100
AcDbLine
 10
2.0
 20
8.299999999999954
 30
0.0
 11
2.0
 21
0.0000000000047748
 31
0.0
  0
LINE
  5
1AF4B
330
1AF41
100
AcDbEntity
  8
AM_0
100
AcDbLine
 10
6.699999999999363
 20
0.0000000000043201
 30
0.0
 11
2.0
 21
0.0000000000047748
 31
0.0
  0
LINE
  5
1AF4C
330
1AF41
100
AcDbEntity
  8
AM_0
100
AcDbLine
 10
-1.0
 20
3.0
 30
0.0
 11
0.0
 21
1.999999999976352
 31
0.0
  0
LINE
  5
1AF4D
330
1AF41
100
AcDbEntity
  8
AM_0
100
AcDbLine
 10
0.0
 20
0.0
 30
0.0
 11
0.0
 21
1.999999999976352
 31
0.0
  0
LINE
  5
1AF4E
330
1AF41
100
AcDbEntity
  8
AM_0
100
AcDbLine
 10
5.905213112971296
 20
-1.387563598315523
 30
0.0
 11
6.896708649370339
 21
-0.5265076317934927
 31
0.0
  0
ARC
  5
1AF4F
330
1AF41
100
AcDbEntity
  8
AM_0
100
AcDbCircle
 10
4.265974368213804
 20
0.5
 30
0.0
 40
2.5
100
AcDbArc
 50
270.0
 51
310.9724073478266
1001
GENIUS_GENODEF_13
1002
{
1000
HIER
1070
     0
1002
}
1002
{
1000
MANEDIT
1070
     0
1002
}
1002
{
1000
NOSEL
1070
     0
1002
}
1002
{
1000
BEHIND
1070
     0
1002
}
1002
{
1000
OTHER
1070
     0
1002
}
1002
{
1000
REACTOR
1002
}
1001
GENIUS_GENOBJ-N-FIL_13
1002
{
1000
OWNER
1000
GEN
1002
}
  0
ARC
  5
1AF50
330
1AF41
100
AcDbEntity
  8
AM_0
100
AcDbCircle
 10
6.699999999999363
 20
-0.2999999999956344
 30
0.0
 40
0.3
100
AcDbArc
 50
310.9724073478393
 51
90.0
1001
GENIUS_GENODEF_13
1002
{
1000
HIER
1070
     0
1002
}
1002
{
1000
MANEDIT
1070
     0
1002
}
1002
{
1000
NOSEL
1070
     0
1002
}
1002
{
1000
BEHIND
1070
     0
1002
}
1002
{
1000
OTHER
1070
     0
1002
}
1002
{
1000
REACTOR
1002
}
1001
GENIUS_GENOBJ-N-FIL_13
1002
{
1000
OWNER
1000
GEN
1002
}
  0
LINE
  5
1AF51
330
1AF41
100
AcDbEntity
  8
AM_0
100
AcDbLine
 10
3.799999999999727
 20
9.299999999999954
 30
0.0
 11
1.999999999999545
 21
9.299999999999954
 31
0.0
  0
LINE
  5
1AF52
330
1AF41
100
AcDbEntity
  8
AM_0
100
AcDbLine
 10
3.799999999999499
 20
8.299999999999954
 30
0.0
 11
1.999999999999545
 21
8.299999999999954
 31
0.0
  0
LINE
  5
1AF53
330
1AF41
100
AcDbEntity
  8
AM_0
100
AcDbLine
 10
3.799999999999499
 20
7.299999999999953
 30
0.0
 11
3.799999999999499
 21
8.299999999999954
 31
0.0
  0
LINE
  5
1AF54
330
1AF41
100
AcDbEntity
  8
AM_0
100
AcDbLine
 10
4.799999999999498
 20
7.49999999999977
 30
0.0
 11
4.799999999999498
 21
9.799999999999954
 31
0.0
  0
ARC
  5
1AF55
330
1AF41
100
AcDbEntity
  8
AM_0
100
AcDbCircle
 10
4.299999999999498
 20
7.49999999999977
 30
0.0
 40
0.5
100
AcDbArc
 50
270.0
 51
0.0
1001
GENIUS_GENOBJ-N-FIL_13
1002
{
1000
OWNER
1000
GEN
1002
}
1001
GENIUS_GENODEF_13
1002
{
1000
HIER
1070
     0
1002
}
1002
{
1000
MANEDIT
1070
     0
1002
}
1002
{
1000
NOSEL
1070
     0
1002
}
1002
{
1000
BEHIND
1070
     0
1002
}
1002
{
1000
OTHER
1070
     0
1002
}
1002
{
1000
REACTOR
1002
}
  0
LINE
  5
1AF56
330
1AF41
100
AcDbEntity
  8
AM_0
100
AcDbLine
 10
4.299999999999498
 20
6.999999999999771
 30
0.0
 11
4.099999999999454
 21
6.999999999999771
 31
0.0
  0
ARC
  5
1AF57
330
1AF41
100
AcDbEntity
  8
AM_0
100
AcDbCircle
 10
4.099999999999454
 20
7.299999999999953
 30
0.0
 40
0.3
100
AcDbArc
 50
180.0
 51
270.0
1001
GENIUS_GENOBJ-N-FIL_13
1002
{
1000
OWNER
1000
GEN
1002
}
1001
GENIUS_GENODEF_13
1002
{
1000
HIER
1070
     0
1002
}
1002
{
1000
MANEDIT
1070
     0
1002
}
1002
{
1000
NOSEL
1070
     0
1002
}
1002
{
1000
BEHIND
1070
     0
1002
}
1002
{
1000
OTHER
1070
     0
1002
}
1002
{
1000
REACTOR
1002
}
  0
ARC
  5
1AF58
330
1AF41
100
AcDbEntity
  8
AM_0
100
AcDbCircle
 10
4.299999999999498
 20
9.799999999999954
 30
0.0
 40
0.5
100
AcDbArc
 50
0.0
 51
90.0
1001
GENIUS_GENOBJ-N-FIL_13
1002
{
1000
OWNER
1000
GEN
1002
}
1001
GENIUS_GENODEF_13
1002
{
1000
HIER
1070
     0
1002
}
1002
{
1000
MANEDIT
1070
     0
1002
}
1002
{
1000
NOSEL
1070
     0
1002
}
1002
{
1000
BEHIND
1070
     0
1002
}
1002
{
1000
OTHER
1070
     0
1002
}
1002
{
1000
REACTOR
1002
}
  0
LINE
  5
1AF59
330
1AF41
100
AcDbEntity
  8
AM_0
100
AcDbLine
 10
4.299999999999498
 20
10.29999999999994
 30
0.0
 11
4.099999999999454
 21
10.29999999999994
 31
0.0
  0
ARC
  5
1AF5A
330
1AF41
100
AcDbEntity
  8
AM_0
100
AcDbCircle
 10
4.099999999999454
 20
10.00000000000022
 30
0.0
 40
0.3
100
AcDbArc
 50
90.0
 51
180.0
1001
GENIUS_GENOBJ-N-FIL_13
1002
{
1000
OWNER
1000
GEN
1002
}
1001
GENIUS_GENODEF_13
1002
{
1000
HIER
1070
     0
1002
}
1002
{
1000
MANEDIT
1070
     0
1002
}
1002
{
1000
NOSEL
1070
     0
1002
}
1002
{
1000
BEHIND
1070
     0
1002
}
1002
{
1000
OTHER
1070
     0
1002
}
1002
{
1000
REACTOR
1002
}
  0
LINE
  5
1AF5B
330
1AF41
100
AcDbEntity
  8
AM_0
100
AcDbLine
 10
3.799999999999499
 20
10.00000000000022
 30
0.0
 11
3.799999999999499
 21
9.299999999999954
 31
0.0
  0
ARC
  5
1AF5C
330
1AF41
100
AcDbEntity
  8
AM_0
100
AcDbCircle
 10
-1.750000000000027
 20
34.55000000000001
 30
0.0
 40
0.7500000000000111
100
AcDbArc
 50
90.0
 51
270.0
  0
LINE
  5
1AF5D
330
1AF41
100
AcDbEntity
  8
AM_0
100
AcDbLine
 10
10.99999999999931
 20
40.54999999999907
 30
0.0
 11
6.499999999999545
 21
40.54999999999907
 31
0.0
  0
LINE
  5
1AF5E
330
1AF41
100
AcDbEntity
  8
AM_0
100
AcDbLine
 10
-1.0
 20
42.00000000000001
 30
0.0
 11
-1.0
 21
35.30000000000004
 31
0.0
  0
LINE
  5
1AF5F
330
1AF41
100
AcDbEntity
  8
AM_0
100
AcDbLine
 10
-1.0
 20
35.30000000000004
 30
0.0
 11
-1.750000000000027
 21
35.30000000000004
 31
0.0
  0
LINE
  5
1AF60
330
1AF41
100
AcDbEntity
  8
AM_0
100
AcDbLine
 10
-1.000000000000027
 20
33.80000000000001
 30
0.0
 11
-1.750000000000027
 21
33.80000000000001
 31
0.0
  0
LINE
  5
1AF61
330
1AF41
100
AcDbEntity
  8
AM_0
100
AcDbLine
 10
4.499999999999545
 20
40.54999999999907
 30
0.0
 11
2.0
 21
40.54999999999907
 31
0.0
  0
ARC
  5
1AF62
330
1AF41
100
AcDbEntity
  8
AM_0
100
AcDbCircle
 10
-0.5
 20
42.00000000000001
 30
0.0
 40
0.5
100
AcDbArc
 50
90.0
 51
180.0
1001
GENIUS_GENODEF_13
1002
{
1000
HIER
1070
     0
1002
}
1002
{
1000
MANEDIT
1070
     0
1002
}
1002
{
1000
NOSEL
1070
     0
1002
}
1002
{
1000
BEHIND
1070
     0
1002
}
1002
{
1000
OTHER
1070
     0
1002
}
1002
{
1000
REACTOR
1002
}
1001
GENIUS_GENOBJ-N-FIL_13
1002
{
1000
OWNER
1000
GEN
1002
}
  0
LINE
  5
1AF63
330
1AF41
100
AcDbEntity
  8
AM_0
100
AcDbLine
 10
6.499999999999545
 20
40.54999999999907
 30
0.0
 11
4.921111678989291
 21
39.06773427828673
 31
0.0
  0
LINE
  5
1AF64
330
1AF41
100
AcDbEntity
  8
AM_0
100
AcDbLine
 10
4.499999999999545
 20
39.25000000000457
 30
0.0
 11
4.499999999999545
 21
40.54999999999907
 31
0.0
  0
ARC
  5
1AF65
330
1AF41
100
AcDbEntity
  8
AM_0
100
AcDbCircle
 10
4.749999999999545
 20
39.25000000000457
 30
0.0
 40
0.25
100
AcDbArc
 50
180.0
 51
313.1921100174895
  0
LINE
  5
1AF66
330
1AF41
100
AcDbEntity
  8
AM_0
100
AcDbLine
 10
12.79999999999932
 20
40.55000000000407
 30
0.0
 11
19.19999999999933
 21
40.55000000000435
 31
0.0
  0
LINE
  5
1AF67
330
1AF41
100
AcDbEntity
  8
AM_0
100
AcDbLine
 10
10.99999999999931
 20
40.54999999999907
 30
0.0
 11
10.99999999999931
 21
39.85619666847674
 31
0.0
  0
ARC
  5
1AF68
330
1AF41
100
AcDbEntity
  8
AM_0
100
AcDbCircle
 10
12.79999999999932
 20
40.25000000000409
 30
0.0
 40
0.3
100
AcDbArc
 50
90.0
 51
238.4310138635079
  0
LINE
  5
1AF69
330
1AF41
100
AcDbEntity
  8
AM_0
100
AcDbLine
 10
12.09456666924569
 20
39.0000000000042
 30
0.0
 11
13.19999999999936
 21
39.00000000000004
 31
0.0
  0
LINE
  5
1AF6A
330
1AF41
100
AcDbEntity
  8
AM_0
100
AcDbLine
 10
11.12796129669047
 20
39.61042709232092
 30
0.0
 11
11.92252796593797
 21
39.05423042384838
 31
0.0
  0
ARC
  5
1AF6B
330
1AF41
100
AcDbEntity
  8
AM_0
100
AcDbCircle
 10
11.29999999999933
 20
39.85619666847674
 30
0.0
 40
0.3
100
AcDbArc
 50
180.0
 51
235.0079798014752
  0
ARC
  5
1AF6C
330
1AF41
100
AcDbEntity
  8
AM_0
100
AcDbCircle
 10
12.09456666924683
 20
39.30000000000422
 30
0.0
 40
0.3
100
AcDbArc
 50
235.0079798014752
 51
269.9999999997834
  0
ARC
  5
1AF6D
330
1AF41
100
AcDbEntity
  8
AM_0
100
AcDbCircle
 10
13.19999999999936
 20
39.30000000000001
 30
0.0
 40
0.3
100
AcDbArc
 50
270.0
 51
58.43101386350793
  0
LINE
  5
1AF6E
330
1AF41
100
AcDbEntity
  8
AM_0
100
AcDbLine
 10
12.64294256164257
 20
39.9943968680655
 30
0.0
 11
13.35705743835612
 21
39.55560313193859
 31
0.0
  0
ARC
  5
1AF6F
330
1AF41
100
AcDbEntity
  8
AM_0
100
AcDbCircle
 10
19.19999999999933
 20
40.25000000000434
 30
0.0
 40
0.3
100
AcDbArc
 50
301.5689861365038
 51
90.0
  0
ARC
  5
1AF70
330
1AF41
100
AcDbEntity
  8
AM_0
100
AcDbCircle
 10
18.79999999999935
 20
39.30000000000001
 30
0.0
 40
0.3
100
AcDbArc
 50
121.5689861365117
 51
270.0
  0
LINE
  5
1AF71
330
1AF41
100
AcDbEntity
  8
AM_0
100
AcDbLine
 10
18.64294256164253
 20
39.55560313193856
 30
0.0
 11
19.35705743835615
 21
39.99439686806582
 31
0.0
  0
LINE
  5
1AF72
330
1AF41
100
AcDbEntity
  8
AM_0
100
AcDbLine
 10
23.99999999999934
 20
42.00000000000435
 30
0.0
 11
23.99999999999934
 21
39.30000000000456
 31
0.0
  0
ARC
  5
1AF73
330
1AF41
100
AcDbEntity
  8
AM_0
100
AcDbCircle
 10
23.69999999999933
 20
39.30000000000456
 30
0.0
 40
0.3
100
AcDbArc
 50
270.0000000000032
 51
0.0
  0
ARC
  5
1AF74
330
1AF41
100
AcDbEntity
  8
AM_0
100
AcDbCircle
 10
23.49999999999934
 20
42.00000000000456
 30
0.0
 40
0.5
100
AcDbArc
 50
0.0
 51
90.0
1001
GENIUS_GENOBJ-N-FIL_13
1002
{
1000
OWNER
1000
GEN
1002
}
1001
GENIUS_GENODEF_13
1002
{
1000
HIER
1070
     0
1002
}
1002
{
1000
MANEDIT
1070
     0
1002
}
1002
{
1000
NOSEL
1070
     0
1002
}
1002
{
1000
BEHIND
1070
     0
1002
}
1002
{
1000
OTHER
1070
     0
1002
}
1002
{
1000
REACTOR
1002
}
  0
ENDBLK
  5
1AF75
330
1AF41
100
AcDbEntity
  8
0
100
AcDbBlockEnd
  0
BLOCK
  5
1AF77
330
1AF76
100
AcDbEntity
  8
0
100
AcDbBlockBegin
  2
AJ1412
 70
     0
 10
0.0
 20
0.0
 30
0.0
  3
AJ1412
  1

  0
LINE
  5
1AF78
330
1AF76
100
AcDbEntity
  8
AM_0
100
AcDbLine
 10
-14.8000000000452
 20
5.500000000001477
 30
0.0
 11
-14.80000000004702
 21
1.662496737963806
 31
0.0
  0
LINE
  5
1AF79
330
1AF76
100
AcDbEntity
  8
AM_0
100
AcDbLine
 10
-11.50000000001796
 20
-1.949999999999477
 30
0.0
 11
4.999999999981895
 21
-1.95000000000425
 31
0.0
  0
LINE
  5
1AF7A
330
1AF76
100
AcDbEntity
  8
AM_0
100
AcDbLine
 10
0.0
 20
0.0
 30
0.0
 11
-5.000000000017961
 21
0.0000000000005684
 31
0.0
  0
LINE
  5
1AF7B
330
1AF76
100
AcDbEntity
  8
AM_0
100
AcDbLine
 10
-5.800000000017917
 20
0.0000000000005684
 30
0.0
 11
-13.84817653144841
 21
0.0000000000012506
 31
0.0
  0
LINE
  5
1AF7C
330
1AF76
100
AcDbEntity
  8
AM_0
100
AcDbLine
 10
-13.71011514138072
 20
-2.150000000040677
 30
0.0
 11
-11.78284271249259
 21
-2.149999999999351
 31
0.0
  0
ARC
  5
1AF7D
330
1AF76
100
AcDbEntity
  8
AM_0
100
AcDbCircle
 10
-16.20000000001798
 20
-0.8499999999991132
 30
0.0
 40
0.3
100
AcDbArc
 50
179.9999999999967
 51
270.0000000000016
1001
GENIUS_GENOBJ-N-FIL_13
1002
{
1000
OWNER
1000
GEN
1002
}
1001
GENIUS_GENODEF_13
1002
{
1000
HIER
1070
     0
1002
}
1002
{
1000
MANEDIT
1070
     0
1002
}
1002
{
1000
NOSEL
1070
     0
1002
}
1002
{
1000
BEHIND
1070
     0
1002
}
1002
{
1000
OTHER
1070
     0
1002
}
1002
{
1000
REACTOR
1002
}
  0
ARC
  5
1AF7E
330
1AF76
100
AcDbEntity
  8
AM_0
100
AcDbCircle
 10
-16.20000000001798
 20
0.050000000000864
 30
0.0
 40
0.3
100
AcDbArc
 50
90.0
 51
180.0
1001
GENIUS_GENOBJ-N-FIL_13
1002
{
1000
OWNER
1000
GEN
1002
}
1001
GENIUS_GENODEF_13
1002
{
1000
HIER
1070
     0
1002
}
1002
{
1000
MANEDIT
1070
     0
1002
}
1002
{
1000
NOSEL
1070
     0
1002
}
1002
{
1000
BEHIND
1070
     0
1002
}
1002
{
1000
OTHER
1070
     0
1002
}
1002
{
1000
REACTOR
1002
}
  0
ARC
  5
1AF7F
330
1AF76
100
AcDbEntity
  8
AM_0
100
AcDbCircle
 10
-15.94876312107291
 20
0.6500000000008868
 30
0.0
 40
0.3
100
AcDbArc
 50
270.0000000000016
 51
29.79228159950621
1001
GENIUS_GENOBJ-N-FIL_13
1002
{
1000
OWNER
1000
GEN
1002
}
1001
GENIUS_GENODEF_13
1002
{
1000
HIER
1070
     0
1002
}
1002
{
1000
MANEDIT
1070
     0
1002
}
1002
{
1000
NOSEL
1070
     0
1002
}
1002
{
1000
BEHIND
1070
     0
1002
}
1002
{
1000
OTHER
1070
     0
1002
}
1002
{
1000
REACTOR
1002
}
  0
LINE
  5
1AF80
330
1AF76
100
AcDbEntity
  8
AM_0
100
AcDbLine
 10
-15.68841340299184
 20
0.79905711756021
 30
0.0
 11
-16.46034971809899
 21
2.147355040566877
 31
0.0
  0
LINE
  5
1AF81
330
1AF76
100
AcDbEntity
  8
AM_0
100
AcDbLine
 10
-15.94876312107288
 20
0.3500000000008185
 30
0.0
 11
-16.20000000001795
 21
0.3500000000008185
 31
0.0
  0
LINE
  5
1AF82
330
1AF76
100
AcDbEntity
  8
AM_0
100
AcDbLine
 10
-16.20000000001795
 20
-1.149999999999181
 30
0.0
 11
-14.57252651806129
 21
-1.149999999999181
 31
0.0
  0
LINE
  5
1AF83
330
1AF76
100
AcDbEntity
  8
AM_0
100
AcDbLine
 10
-16.50000000001796
 20
0.050000000000864
 30
0.0
 11
-16.50000000001796
 21
-0.8499999999991132
 31
0.0
  0
LINE
  5
1AF84
330
1AF76
100
AcDbEntity
  8
AM_0
100
AcDbLine
 10
-13.84817653144841
 20
0.0000000000012506
 30
0.0
 11
-14.80000000004702
 21
1.662496737963806
 31
0.0
  0
LINE
  5
1AF85
330
1AF76
100
AcDbEntity
  8
AM_0
100
AcDbLine
 10
-14.1440313381932
 20
-1.898428529306329
 30
0.0
 11
-14.57252651806129
 21
-1.149999999999181
 31
0.0
  0
LINE
  5
1AF86
330
1AF76
100
AcDbEntity
  8
AM_0
100
AcDbLine
 10
-5.800000000017917
 20
0.9499999999981127
 30
0.0
 11
-5.800000000017917
 21
0.0000000000005684
 31
0.0
  0
ARC
  5
1AF87
330
1AF76
100
AcDbEntity
  8
AM_0
100
AcDbCircle
 10
-5.400000000017826
 20
0.9499999999981127
 30
0.0
 40
0.3999999999999849
100
AcDbArc
 50
0.0
 51
180.0
  0
LINE
  5
1AF88
330
1AF76
100
AcDbEntity
  8
AM_0
100
AcDbLine
 10
-5.000000000017961
 20
0.9499999999981127
 30
0.0
 11
-5.000000000017961
 21
0.0000000000005684
 31
0.0
  0
LINE
  5
1AF89
330
1AF76
100
AcDbEntity
  8
AM_0
100
AcDbLine
 10
5.199999999982053
 20
0.8499999999982037
 30
0.0
 11
0.2999999999999829
 21
0.8499999999982037
 31
0.0
  0
ARC
  5
1AF8A
330
1AF76
100
AcDbEntity
  8
AM_0
100
AcDbCircle
 10
0.2999999999999829
 20
0.5499999999981924
 30
0.0
 40
0.3
100
AcDbArc
 50
90.0
 51
180.0
  0
LINE
  5
1AF8B
330
1AF76
100
AcDbEntity
  8
AM_0
100
AcDbLine
 10
0.0
 20
0.5499999999981924
 30
0.0
 11
0.0
 21
0.0
 31
0.0
  0
ARC
  5
1AF8C
330
1AF76
100
AcDbEntity
  8
AM_0
100
AcDbCircle
 10
4.999999999982036
 20
-1.45000000000425
 30
0.0
 40
0.5
100
AcDbArc
 50
269.9999999999838
 51
359.9999999999967
  0
ARC
  5
1AF8D
330
1AF76
100
AcDbEntity
  8
AM_0
100
AcDbCircle
 10
5.199999999982053
 20
0.5499999999981924
 30
0.0
 40
0.3
100
AcDbArc
 50
0.0
 51
90.0
1001
GENIUS_GENODEF_13
1002
{
1000
HIER
1070
     0
1002
}
1002
{
1000
MANEDIT
1070
     0
1002
}
1002
{
1000
NOSEL
1070
     0
1002
}
1002
{
1000
BEHIND
1070
     0
1002
}
1002
{
1000
OTHER
1070
     0
1002
}
1002
{
1000
REACTOR
1002
}
1001
GENIUS_GENOBJ-N-FIL_13
1002
{
1000
OWNER
1000
GEN
1002
}
  0
LINE
  5
1AF8E
330
1AF76
100
AcDbEntity
  8
AM_0
100
AcDbLine
 10
5.499999999982036
 20
0.5499999999981924
 30
0.0
 11
5.499999999982036
 21
-1.45000000000425
 31
0.0
  0
LINE
  5
1AF8F
330
1AF76
100
AcDbEntity
  8
AM_0
100
AcDbLine
 10
-15.80000000004656
 20
2.850000000001671
 30
0.0
 11
-16.00000000001796
 21
2.850000000001671
 31
0.0
  0
LINE
  5
1AF90
330
1AF76
100
AcDbEntity
  8
AM_0
100
AcDbLine
 10
-15.30000000004497
 20
5.800000000001658
 30
0.0
 11
-15.10000000004493
 21
5.800000000001658
 31
0.0
  0
ARC
  5
1AF91
330
1AF76
100
AcDbEntity
  8
AM_0
100
AcDbCircle
 10
-15.3000000000452
 20
5.300000000001658
 30
0.0
 40
0.5
100
AcDbArc
 50
89.99999999997395
 51
179.9999999999739
1001
GENIUS_GENODEF_13
1002
{
1000
HIER
1070
     0
1002
}
1002
{
1000
MANEDIT
1070
     0
1002
}
1002
{
1000
NOSEL
1070
     0
1002
}
1002
{
1000
BEHIND
1070
     0
1002
}
1002
{
1000
OTHER
1070
     0
1002
}
1002
{
1000
REACTOR
1002
}
1001
GENIUS_GENOBJ-N-FIL_13
1002
{
1000
OWNER
1000
GEN
1002
}
  0
ARC
  5
1AF92
330
1AF76
100
AcDbEntity
  8
AM_0
100
AcDbCircle
 10
-15.10000000004515
 20
5.500000000001477
 30
0.0
 40
0.3
100
AcDbArc
 50
359.9999999999739
 51
89.99999999997395
1001
GENIUS_GENODEF_13
1002
{
1000
HIER
1070
     0
1002
}
1002
{
1000
MANEDIT
1070
     0
1002
}
1002
{
1000
NOSEL
1070
     0
1002
}
1002
{
1000
BEHIND
1070
     0
1002
}
1002
{
1000
OTHER
1070
     0
1002
}
1002
{
1000
REACTOR
1002
}
1001
GENIUS_GENOBJ-N-FIL_13
1002
{
1000
OWNER
1000
GEN
1002
}
  0
LINE
  5
1AF93
330
1AF76
100
AcDbEntity
  8
AM_0
100
AcDbLine
 10
-15.8000000000452
 20
5.300000000002341
 30
0.0
 11
-15.80000000004656
 21
2.850000000001671
 31
0.0
  0
ARC
  5
1AF94
330
1AF76
100
AcDbEntity
  8
AM_0
100
AcDbCircle
 10
-11.78284271249252
 20
-1.849999999999339
 30
0.0
 40
0.3
100
AcDbArc
 50
269.999999999987
 51
340.5287793654797
  0
ARC
  5
1AF95
330
1AF76
100
AcDbEntity
  8
AM_0
100
AcDbCircle
 10
-13.71011514139144
 20
-1.650000000040676
 30
0.0
 40
0.5
100
AcDbArc
 50
209.7922815995061
 51
270.0000000012294
1001
GENIUS_GENODEF_13
1002
{
1000
HIER
1070
     0
1002
}
1002
{
1000
MANEDIT
1070
     0
1002
}
1002
{
1000
NOSEL
1070
     0
1002
}
1002
{
1000
BEHIND
1070
     0
1002
}
1002
{
1000
OTHER
1070
     0
1002
}
1002
{
1000
REACTOR
1002
}
1001
GENIUS_GENOBJ-N-FIL_13
1002
{
1000
OWNER
1000
GEN
1002
}
  0
ARC
  5
1AF96
330
1AF76
100
AcDbEntity
  8
AM_0
100
AcDbCircle
 10
-16.00000000001796
 20
2.350000000001671
 30
0.0
 40
0.5
100
AcDbArc
 50
90.0
 51
180.0
  0
LINE
  5
1AF97
330
1AF76
100
AcDbEntity
  8
AM_0
100
AcDbLine
 10
-16.50000000001796
 20
2.350000000001671
 30
0.0
 11
-16.50000000001796
 21
2.296412158126257
 31
0.0
  0
ARC
  5
1AF98
330
1AF76
100
AcDbEntity
  8
AM_0
100
AcDbCircle
 10
-16.20000000001795
 20
2.296412158126257
 30
0.0
 40
0.3
100
AcDbArc
 50
180.0
 51
209.7922815995061
1001
GENIUS_GENOBJ-N-FIL_13
1002
{
1000
OWNER
1000
GEN
1002
}
1001
GENIUS_GENODEF_13
1002
{
1000
HIER
1070
     0
1002
}
1002
{
1000
MANEDIT
1070
     0
1002
}
1002
{
1000
NOSEL
1070
     0
1002
}
1002
{
1000
BEHIND
1070
     0
1002
}
1002
{
1000
OTHER
1070
     0
1002
}
1002
{
1000
REACTOR
1002
}
  0
ENDBLK
  5
1AF99
330
1AF76
100
AcDbEntity
  8
0
100
AcDbBlockEnd
  0
BLOCK
  5
1AF9B
330
1AF9A
100
AcDbEntity
  8
0
100
AcDbBlockBegin
  2
A$C0AB071A4
 70
     0
 10
0.0
 20
0.0
 30
0.0
  3
A$C0AB071A4
  1

  0
LINE
  5
1AF9C
330
1AF9A
100
AcDbEntity
  8
AM_2
100
AcDbLine
 10
-24.80000000000007
 20
1.400000000000007
 30
0.0
 11
0.9999999999999952
 21
1.400000000000003
 31
0.0
  0
LINE
  5
1AF9D
330
1AF9A
100
AcDbEntity
  8
AM_2
100
AcDbLine
 10
-24.80000000000007
 20
-3.40000000000001
 30
0.0
 11
0.9999999999999392
 21
-3.399999999999978
 31
0.0
  0
LINE
  5
1AF9E
330
1AF9A
100
AcDbEntity
  8
AM_3
100
AcDbLine
 10
-25.30000000000004
 20
0.0
 30
0.0
 11
0.0
 21
0.0
 31
0.0
  0
LINE
  5
1AF9F
330
1AF9A
100
AcDbEntity
  8
AM_3
100
AcDbLine
 10
-25.30000000000004
 20
-2.199999999999988
 30
0.0
 11
0.0
 21
-2.199999999999988
 31
0.0
  0
LINE
  5
1AFA0
330
1AF9A
100
AcDbEntity
  8
AM_2
100
AcDbLine
 10
-25.30000000000007
 20
-0.0000000000000046
 30
0.0
 11
-25.30000000000007
 21
-2.199999999999993
 31
0.0
  0
ARC
  5
1AFA1
330
1AF9A
100
AcDbEntity
  8
AM_2
100
AcDbCircle
 10
-24.80000000000007
 20
-2.90000000000001
 30
0.0
 40
0.5
100
AcDbArc
 50
180.0
 51
270.0
1001
GENIUS_GENODEF_13
1002
{
1000
HIER
1070
     0
1002
}
1002
{
1000
MANEDIT
1070
     0
1002
}
1002
{
1000
NOSEL
1070
     0
1002
}
1002
{
1000
BEHIND
1070
     0
1002
}
1002
{
1000
OTHER
1070
     0
1002
}
1002
{
1000
REACTOR
1002
}
1001
GENIUS_GENOBJ-N-FIL_13
1002
{
1000
OWNER
1000
GEN
1002
}
  0
LINE
  5
1AFA2
330
1AF9A
100
AcDbEntity
  8
AM_2
100
AcDbLine
 10
-25.30000000000007
 20
-2.199999999999993
 30
0.0
 11
-25.30000000000007
 21
-2.90000000000001
 31
0.0
  0
LINE
  5
1AFA3
330
1AF9A
100
AcDbEntity
  8
AM_3
100
AcDbLine
 10
-18.99999996114307
 20
0.0000000000000071
 30
0.0
 11
-17.49999996114308
 21
-1.0
 31
0.0
  0
LINE
  5
1AFA4
330
1AF9A
100
AcDbEntity
  8
AM_2
100
AcDbLine
 10
-25.30000000000007
 20
0.9000000000000081
 30
0.0
 11
-25.30000000000007
 21
-0.0000000000000046
 31
0.0
  0
ARC
  5
1AFA5
330
1AF9A
100
AcDbEntity
  8
AM_2
100
AcDbCircle
 10
-24.80000000000007
 20
0.9000000000000081
 30
0.0
 40
0.5
100
AcDbArc
 50
90.0
 51
180.0
1001
GENIUS_GENODEF_13
1002
{
1000
HIER
1070
     0
1002
}
1002
{
1000
MANEDIT
1070
     0
1002
}
1002
{
1000
NOSEL
1070
     0
1002
}
1002
{
1000
BEHIND
1070
     0
1002
}
1002
{
1000
OTHER
1070
     0
1002
}
1002
{
1000
REACTOR
1002
}
1001
GENIUS_GENOBJ-N-FIL_13
1002
{
1000
OWNER
1000
GEN
1002
}
  0
LINE
  5
1AFA6
330
1AF9A
100
AcDbEntity
  8
AM_3
100
AcDbLine
 10
-17.49999996114308
 20
-1.0
 30
0.0
 11
-15.99999996114307
 21
-1.0
 31
0.0
  0
LINE
  5
1AFA7
330
1AF9A
100
AcDbEntity
  8
AM_3
100
AcDbLine
 10
-15.99999996114307
 20
-1.0
 30
0.0
 11
-15.99999996114307
 21
0.0
 31
0.0
  0
LINE
  5
1AFA8
330
1AF9A
100
AcDbEntity
  8
AM_2
100
AcDbLine
 10
1.499999999999938
 20
-2.899999999999978
 30
0.0
 11
1.499999999999994
 21
0.9000000000000042
 31
0.0
  0
LINE
  5
1AFA9
330
1AF9A
100
AcDbEntity
  8
AM_3
100
AcDbLine
 10
0.0
 20
0.0
 30
0.0
 11
0.0
 21
-2.199999999999988
 31
0.0
  0
ARC
  5
1AFAA
330
1AF9A
100
AcDbEntity
  8
AM_2
100
AcDbCircle
 10
0.9999999999999955
 20
-2.899999999999978
 30
0.0
 40
0.5
100
AcDbArc
 50
270.0
 51
0.0
1001
GENIUS_GENODEF_13
1002
{
1000
HIER
1070
     0
1002
}
1002
{
1000
MANEDIT
1070
     0
1002
}
1002
{
1000
NOSEL
1070
     0
1002
}
1002
{
1000
BEHIND
1070
     0
1002
}
1002
{
1000
OTHER
1070
     0
1002
}
1002
{
1000
REACTOR
1002
}
1001
GENIUS_GENOBJ-N-FIL_13
1002
{
1000
OWNER
1000
GEN
1002
}
  0
LINE
  5
1AFAB
330
1AF9A
100
AcDbEntity
  8
AM_3
100
AcDbLine
 10
-1.30000000000001
 20
-2.199999999999988
 30
0.0
 11
-1.30000000000001
 21
-3.400000000000004
 31
0.0
  0
LINE
  5
1AFAC
330
1AF9A
100
AcDbEntity
  8
AM_3
100
AcDbLine
 10
0.0
 20
-2.199999999999988
 30
0.0
 11
1.49999999999995
 21
-2.199999999999988
 31
0.0
  0
ARC
  5
1AFAD
330
1AF9A
100
AcDbEntity
  8
AM_2
100
AcDbCircle
 10
0.9999999999999952
 20
0.9000000000000042
 30
0.0
 40
0.5
100
AcDbArc
 50
0.0
 51
90.0
1001
GENIUS_GENOBJ-N-FIL_13
1002
{
1000
OWNER
1000
GEN
1002
}
1001
GENIUS_GENODEF_13
1002
{
1000
HIER
1070
     0
1002
}
1002
{
1000
MANEDIT
1070
     0
1002
}
1002
{
1000
NOSEL
1070
     0
1002
}
1002
{
1000
BEHIND
1070
     0
1002
}
1002
{
1000
OTHER
1070
     0
1002
}
1002
{
1000
REACTOR
1002
}
  0
ENDBLK
  5
1AFAE
330
1AF9A
100
AcDbEntity
  8
0
100
AcDbBlockEnd
  0
BLOCK
  5
1AFB0
330
1AFAF
100
AcDbEntity
  8
0
100
AcDbBlockBegin
  2
B3A782
 70
     0
 10
0.0
 20
0.0
 30
0.0
  3
B3A782
  1

  0
LINE
  5
1AFB1
330
1AFAF
100
AcDbEntity
  8
AM_3
100
AcDbLine
 10
0.0
 20
-1.5
 30
0.0
 11
-2.0
 21
-1.5
 31
0.0
  0
LINE
  5
1AFB2
330
1AFAF
100
AcDbEntity
  8
AM_3
100
AcDbLine
 10
0.0
 20
1.5
 30
0.0
 11
-2.0
 21
1.5
 31
0.0
  0
LINE
  5
1AFB3
330
1AFAF
100
AcDbEntity
  8
AM_3
100
AcDbLine
 10
0.0
 20
-2.0
 30
0.0
 11
-2.0
 21
-2.0
 31
0.0
  0
LINE
  5
1AFB4
330
1AFAF
100
AcDbEntity
  8
AM_3
100
AcDbLine
 10
0.0
 20
2.0
 30
0.0
 11
-2.0
 21
2.0
 31
0.0
  0
LINE
  5
1AFB5
330
1AFAF
100
AcDbEntity
  8
AM_2
100
AcDbLine
 10
-2.0
 20
4.0
 30
0.0
 11
-2.0
 21
-4.0
 31
0.0
  0
LINE
  5
1AFB6
330
1AFAF
100
AcDbEntity
  8
AM_2
100
AcDbLine
 10
0.0
 20
4.0
 30
0.0
 11
0.0
 21
-4.0
 31
0.0
  0
LINE
  5
1AFB7
330
1AFAF
100
AcDbEntity
  8
AM_2
100
AcDbLine
 10
-2.0
 20
-4.0
 30
0.0
 11
0.0
 21
-4.0
 31
0.0
  0
LINE
  5
1AFB8
330
1AFAF
100
AcDbEntity
  8
AM_2
100
AcDbLine
 10
-2.0
 20
4.0
 30
0.0
 11
0.0
 21
4.0
 31
0.0
  0
ENDBLK
  5
1AFB9
330
1AFAF
100
AcDbEntity
  8
0
100
AcDbBlockEnd
  0
BLOCK
  5
1AFBB
330
1AFBA
100
AcDbEntity
  8
0
100
AcDbBlockBegin
  2
A$C2DAD0FDB
 70
     0
 10
0.0
 20
0.0
 30
0.0
  3
A$C2DAD0FDB
  1

  0
LINE
  5
1AFBC
330
1AFBA
100
AcDbEntity
  8
AM_2
100
AcDbLine
 10
25.5
 20
2.081667390673544
 30
0.0
 11
0.0
 21
2.081667390673544
 31
0.0
  0
LINE
  5
1AFBD
330
1AFBA
100
AcDbEntity
  8
AM_2
100
AcDbLine
 10
25.5
 20
5.04252948155097
 30
0.0
 11
0.0
 21
5.042529481550957
 31
0.0
  0
LINE
  5
1AFBE
330
1AFBA
100
AcDbEntity
  8
AM_2
100
AcDbLine
 10
-28.99999999999997
 20
-8.900000000000005
 30
0.0
 11
28.50000000000003
 21
-8.900000000000005
 31
0.0
  0
LINE
  5
1AFBF
330
1AFBA
100
AcDbEntity
  8
AM_2
100
AcDbLine
 10
0.5
 20
8.600000000000051
 30
0.0
 11
25.5
 21
8.600000000000051
 31
0.0
  0
LINE
  5
1AFC0
330
1AFBA
100
AcDbEntity
  8
AM_2
100
AcDbLine
 10
-29.99999999999997
 20
0.0
 30
0.0
 11
0.0
 21
0.0
 31
0.0
  0
LINE
  5
1AFC1
330
1AFBA
100
AcDbEntity
  8
AM_2
100
AcDbLine
 10
-30.49999999999997
 20
-0.5
 30
0.0
 11
-30.49999999999997
 21
-7.400000000000004
 31
0.0
  0
ARC
  5
1AFC2
330
1AFBA
100
AcDbEntity
  8
AM_2
100
AcDbCircle
 10
-28.99999999999997
 20
-7.400000000000004
 30
0.0
 40
1.5
100
AcDbArc
 50
180.0
 51
270.0
1001
GENIUS_GENOBJ-N-FIL_13
1002
{
1000
OWNER
1000
GEN
1002
}
1001
GENIUS_GENODEF_13
1002
{
1000
HIER
1070
     0
1002
}
1002
{
1000
MANEDIT
1070
     0
1002
}
1002
{
1000
NOSEL
1070
     0
1002
}
1002
{
1000
BEHIND
1070
     0
1002
}
1002
{
1000
OTHER
1070
     0
1002
}
1002
{
1000
REACTOR
1002
}
  0
ARC
  5
1AFC3
330
1AFBA
100
AcDbEntity
  8
AM_2
100
AcDbCircle
 10
-29.99999999999997
 20
-0.5
 30
0.0
 40
0.5
100
AcDbArc
 50
90.0
 51
180.0
  0
LINE
  5
1AFC4
330
1AFBA
100
AcDbEntity
  8
AM_2
100
AcDbLine
 10
0.0
 20
0.0
 30
0.0
 11
0.0
 21
8.100000000000051
 31
0.0
  0
ARC
  5
1AFC5
330
1AFBA
100
AcDbEntity
  8
AM_2
100
AcDbCircle
 10
0.5
 20
8.100000000000051
 30
0.0
 40
0.5
100
AcDbArc
 50
90.0
 51
180.0
1001
GENIUS_GENODEF_13
1002
{
1000
HIER
1070
     0
1002
}
1002
{
1000
MANEDIT
1070
     0
1002
}
1002
{
1000
NOSEL
1070
     0
1002
}
1002
{
1000
BEHIND
1070
     0
1002
}
1002
{
1000
OTHER
1070
     0
1002
}
1002
{
1000
REACTOR
1002
}
1001
GENIUS_GENOBJ-N-FIL_13
1002
{
1000
OWNER
1000
GEN
1002
}
  0
LINE
  5
1AFC6
330
1AFBA
100
AcDbEntity
  8
AM_2
100
AcDbLine
 10
25.5
 20
-4.199999999999987
 30
0.0
 11
25.5
 21
11.8857864376269
 31
0.0
  0
LINE
  5
1AFC7
330
1AFBA
100
AcDbEntity
  8
AM_2
100
AcDbLine
 10
29.00000000000003
 20
12.80000000000001
 30
0.0
 11
29.00000000000003
 21
-8.400000000000005
 31
0.0
  0
LINE
  5
1AFC8
330
1AFBA
100
AcDbEntity
  8
AM_2
100
AcDbLine
 10
29.00000000000003
 20
-4.199999999999987
 30
0.0
 11
25.5
 21
-4.199999999999987
 31
0.0
  0
ARC
  5
1AFC9
330
1AFBA
100
AcDbEntity
  8
AM_2
100
AcDbCircle
 10
28.50000000000003
 20
-8.400000000000005
 30
0.0
 40
0.5
100
AcDbArc
 50
270.0
 51
0.0
1001
GENIUS_GENODEF_13
1002
{
1000
HIER
1070
     0
1002
}
1002
{
1000
MANEDIT
1070
     0
1002
}
1002
{
1000
NOSEL
1070
     0
1002
}
1002
{
1000
BEHIND
1070
     0
1002
}
1002
{
1000
OTHER
1070
     0
1002
}
1002
{
1000
REACTOR
1002
}
1001
GENIUS_GENOBJ-N-FIL_13
1002
{
1000
OWNER
1000
GEN
1002
}
  0
LINE
  5
1AFCA
330
1AFBA
100
AcDbEntity
  8
AM_2
100
AcDbLine
 10
25.5
 20
1.30000000000001
 30
0.0
 11
29.00000000000003
 21
1.30000000000001
 31
0.0
  0
ARC
  5
1AFCB
330
1AFBA
100
AcDbEntity
  8
AM_2
100
AcDbCircle
 10
28.50000000000003
 20
12.80000000000001
 30
0.0
 40
0.5
100
AcDbArc
 50
0.0
 51
90.0
1001
GENIUS_GENOBJ-N-FIL_13
1002
{
1000
OWNER
1000
GEN
1002
}
1001
GENIUS_GENODEF_13
1002
{
1000
HIER
1070
     0
1002
}
1002
{
1000
MANEDIT
1070
     0
1002
}
1002
{
1000
NOSEL
1070
     0
1002
}
1002
{
1000
BEHIND
1070
     0
1002
}
1002
{
1000
OTHER
1070
     0
1002
}
1002
{
1000
REACTOR
1002
}
  0
ARC
  5
1AFCC
330
1AFBA
100
AcDbEntity
  8
AM_2
100
AcDbCircle
 10
26.91421356237308
 20
12.30000000000001
 30
0.0
 40
1.0
100
AcDbArc
 50
90.0
 51
135.0000000000002
1001
GENIUS_GENOBJ-N-FIL_13
1002
{
1000
OWNER
1000
GEN
1002
}
1001
GENIUS_GENODEF_13
1002
{
1000
HIER
1070
     0
1002
}
1002
{
1000
MANEDIT
1070
     0
1002
}
1002
{
1000
NOSEL
1070
     0
1002
}
1002
{
1000
BEHIND
1070
     0
1002
}
1002
{
1000
OTHER
1070
     0
1002
}
1002
{
1000
REACTOR
1002
}
  0
ARC
  5
1AFCD
330
1AFBA
100
AcDbEntity
  8
AM_2
100
AcDbCircle
 10
26.5
 20
11.8857864376269
 30
0.0
 40
1.0
100
AcDbArc
 50
135.0000000000002
 51
180.0
1001
GENIUS_GENFIL_13
1070
     0
1040
1.0
1040
1.0
1040
0.9999999999999891
1040
44.9999999999999
1000
~T
1001
GENIUS_GENOREF_13
1005
0
1001
GENIUS_GENOBJ-N-FIL_13
1002
{
1000
OWNER
1000
GEN
1002
}
1001
GENIUS_GENODEF_13
1002
{
1000
HIER
1070
     0
1002
}
1002
{
1000
MANEDIT
1070
     0
1002
}
1002
{
1000
NOSEL
1070
     0
1002
}
1002
{
1000
BEHIND
1070
     0
1002
}
1002
{
1000
OTHER
1070
     0
1002
}
1002
{
1000
REACTOR
1002
}
  0
LINE
  5
1AFCE
330
1AFBA
100
AcDbEntity
  8
AM_2
100
AcDbLine
 10
25.79289321881344
 20
12.59289321881345
 30
0.0
 11
26.20710678118655
 21
13.00710678118655
 31
0.0
1001
GENIUS_GENFIL_13
1070
     0
1040
1.0
1040
1.0
1040
0.9999999999999891
1040
44.9999999999999
1000
~T
1001
GENIUS_GENOREF_13
1005
0
  0
LINE
  5
1AFCF
330
1AFBA
100
AcDbEntity
  8
AM_2
100
AcDbLine
 10
26.91421356237308
 20
13.30000000000001
 30
0.0
 11
28.50000000000003
 21
13.30000000000001
 31
0.0
  0
ENDBLK
  5
1AFD0
330
1AFBA
100
AcDbEntity
  8
0
100
AcDbBlockEnd
  0
BLOCK
  5
1AFD2
330
1AFD1
100
AcDbEntity
  8
0
100
AcDbBlockBegin
  2
B3A780B
 70
     0
 10
0.0
 20
0.0
 30
0.0
  3
B3A780B
  1

  0
LINE
  5
1AFD3
330
1AFD1
100
AcDbEntity
  8
AM_2
100
AcDbLine
 10
3.950101513061155
 20
-30.02493936304344
 30
0.0000000000387151
 11
3.950101513061099
 21
-27.79993936304347
 31
0.000000000001027
  0
LINE
  5
1AFD4
330
1AFD1
100
AcDbEntity
  8
AM_2
100
AcDbLine
 10
3.150101513061144
 20
-30.02493936304344
 30
0.0000000000387151
 11
3.150101513061144
 21
-27.79993936304347
 31
0.000000000001027
  0
LINE
  5
1AFD5
330
1AFD1
100
AcDbEntity
  8
AM_3
100
AcDbLine
 10
15.35010151306565
 20
-23.99993936304216
 30
0.0
 11
15.35010151306565
 21
-0.1999393630421196
 31
0.0
  0
LINE
  5
1AFD6
330
1AFD1
100
AcDbEntity
  8
AM_2
100
AcDbLine
 10
26.50010151306563
 20
-1.999939363042158
 30
0.0
 11
26.50010151306563
 21
-19.99993936304216
 31
0.0
  0
LINE
  5
1AFD7
330
1AFD1
100
AcDbEntity
  8
AM_2
100
AcDbLine
 10
24.50010151306563
 20
-3.499939363042158
 30
0.0
 11
24.50010151306563
 21
-18.49993936304215
 31
0.0
  0
LINE
  5
1AFD8
330
1AFD1
100
AcDbEntity
  8
AM_2
100
AcDbLine
 10
22.30010151306564
 20
-3.499941363042153
 30
0.0
 11
22.30010151306564
 21
-18.49993936304215
 31
0.0
  0
LINE
  5
1AFD9
330
1AFD1
100
AcDbEntity
  8
AM_2
100
AcDbLine
 10
14.10000000000002
 20
-13.5
 30
0.0
 11
14.10000000000002
 21
0.0
 31
0.0
  0
LINE
  5
1AFDA
330
1AFD1
100
AcDbEntity
  8
AM_2
100
AcDbLine
 10
2.000000000000027
 20
-13.5
 30
0.0
 11
2.000000000000027
 21
0.0
 31
0.0
  0
LINE
  5
1AFDB
330
1AFD1
100
AcDbEntity
  8
AM_2
100
AcDbLine
 10
0.0
 20
-13.5
 30
0.0
 11
0.0
 21
0.0
 31
0.0
  0
LINE
  5
1AFDC
330
1AFD1
100
AcDbEntity
  8
AM_2
100
AcDbLine
 10
25.55010151306564
 20
-23.99993936304216
 30
0.0
 11
25.55010151306564
 21
-0.1999393630421196
 31
0.0
  0
LINE
  5
1AFDD
330
1AFD1
100
AcDbEntity
  8
AM_2
100
AcDbLine
 10
14.1501015130656
 20
-23.99993936304216
 30
0.0
 11
14.1501015130656
 21
-0.1999393630421196
 31
0.0
  0
ARC
  5
1AFDE
330
1AFD1
100
AcDbEntity
  8
AM_2
100
AcDbCircle
 10
4.250101513061139
 20
-27.79993936304347
 30
-0.0000000001401918
 40
1.1
210
-0.000000000003346
220
0.0000000000033651
230
1.0
100
AcDbArc
 50
90.0
 51
180.0
1001
GENIUS_GENODEF_13
1002
{
1000
HIER
1070
     0
1002
}
1002
{
1000
MANEDIT
1070
     0
1002
}
1002
{
1000
NOSEL
1070
     0
1002
}
1002
{
1000
BEHIND
1070
     0
1002
}
1002
{
1000
OTHER
1070
     0
1002
}
1002
{
1000
REACTOR
1002
}
1001
GENIUS_GENOBJ-N-FIL_13
1002
{
1000
OWNER
1000
GEN
1002
}
  0
LINE
  5
1AFDF
330
1AFD1
100
AcDbEntity
  8
AM_2
100
AcDbLine
 10
3.95010151306124
 20
-29.19993936304347
 30
-0.0000000000021177
 11
3.150101513061172
 21
-29.19993936304347
 31
-0.0000000000498029
  0
LINE
  5
1AFE0
330
1AFD1
100
AcDbEntity
  8
AM_2
100
AcDbLine
 10
15.05010151306575
 20
-27.49993936304352
 30
0.0000000000000207
 11
4.250101513061082
 21
-27.49993936304346
 31
0.0000000000000174
  0
LINE
  5
1AFE1
330
1AFD1
100
AcDbEntity
  8
AM_2
100
AcDbLine
 10
4.250101513061139
 20
-26.69993936304347
 30
0.000000000001006
 11
15.05010151306575
 21
-26.69993936304347
 31
0.0000000000000145
  0
LINE
  5
1AFE2
330
1AFD1
100
AcDbEntity
  8
AM_2
100
AcDbLine
 10
14.10000000000002
 20
-13.5
 30
0.0
 11
0.0
 21
-13.5
 31
0.0
  0
ARC
  5
1AFE3
330
1AFD1
100
AcDbEntity
  8
AM_2
100
AcDbCircle
 10
4.250101513061082
 20
-27.79993936304347
 30
-0.0000000000925227
 40
0.3
210
0.0000000000000002
220
0.0000000000033651
230
1.0
100
AcDbArc
 50
90.0
 51
180.0
1001
GENIUS_GENOBJ-N-FIL_13
1002
{
1000
OWNER
1000
GEN
1002
}
1001
GENIUS_GENODEF_13
1002
{
1000
HIER
1070
     0
1002
}
1002
{
1000
MANEDIT
1070
     0
1002
}
1002
{
1000
NOSEL
1070
     0
1002
}
1002
{
1000
BEHIND
1070
     0
1002
}
1002
{
1000
OTHER
1070
     0
1002
}
1002
{
1000
REACTOR
1002
}
  0
LINE
  5
1AFE4
330
1AFD1
100
AcDbEntity
  8
AM_7
100
AcDbLine
 10
4.000000000000028
 20
-6.0
 30
0.0
 11
-2.0
 21
-6.0
 31
0.0
  0
ARC
  5
1AFE5
330
1AFD1
100
AcDbEntity
  8
AM_2
100
AcDbCircle
 10
15.05010151306575
 20
-26.39993936304353
 30
-0.0000000000011278
 40
1.1
100
AcDbArc
 50
270.0
 51
0.0
1001
GENIUS_GENODEF_13
1002
{
1000
HIER
1070
     0
1002
}
1002
{
1000
MANEDIT
1070
     0
1002
}
1002
{
1000
NOSEL
1070
     0
1002
}
1002
{
1000
BEHIND
1070
     0
1002
}
1002
{
1000
OTHER
1070
     0
1002
}
1002
{
1000
REACTOR
1002
}
1001
GENIUS_GENOBJ-N-FIL_13
1002
{
1000
OWNER
1000
GEN
1002
}
  0
LINE
  5
1AFE6
330
1AFD1
100
AcDbEntity
  8
AM_2
100
AcDbLine
 10
22.30010151306564
 20
-18.49993936304215
 30
0.0
 11
26.50010151306563
 21
-18.49993936304215
 31
0.0
  0
LINE
  5
1AFE7
330
1AFD1
100
AcDbEntity
  8
AM_2
100
AcDbLine
 10
25.55010151306564
 20
-22.99993936304216
 30
0.0
 11
24.35010151306559
 21
-22.99993936304216
 31
0.0
  0
LINE
  5
1AFE8
330
1AFD1
100
AcDbEntity
  8
AM_2
100
AcDbLine
 10
25.55010151306564
 20
-23.99993936304216
 30
0.0
 11
14.1501015130656
 21
-23.99993936304216
 31
0.0
  0
LINE
  5
1AFE9
330
1AFD1
100
AcDbEntity
  8
AM_2
100
AcDbLine
 10
15.05010151306564
 20
-22.99993936304216
 30
0.0
 11
25.55010151306564
 21
-22.99993936304216
 31
0.0
  0
LINE
  5
1AFEA
330
1AFD1
100
AcDbEntity
  8
AM_7
100
AcDbLine
 10
13.05010151306564
 20
-10.99993936304215
 30
0.0
 11
28.50010151306562
 21
-10.99993936304215
 31
0.0
  0
LINE
  5
1AFEB
330
1AFD1
100
AcDbEntity
  8
AM_2
100
AcDbLine
 10
15.35010151306573
 20
-26.39993936304347
 30
0.0000000000000173
 11
15.35010151306576
 21
-23.99993936304216
 31
0.0
  0
LINE
  5
1AFEC
330
1AFD1
100
AcDbEntity
  8
AM_2
100
AcDbLine
 10
15.35010151306565
 20
-22.99993936304216
 30
0.0
 11
14.1501015130656
 21
-22.99993936304216
 31
0.0
  0
ARC
  5
1AFED
330
1AFD1
100
AcDbEntity
  8
AM_2
100
AcDbCircle
 10
15.05010151306575
 20
-26.39993936304347
 30
0.0000000000000461
 40
0.3
100
AcDbArc
 50
270.0
 51
0.0
1001
GENIUS_GENOBJ-N-FIL_13
1002
{
1000
OWNER
1000
GEN
1002
}
1001
GENIUS_GENODEF_13
1002
{
1000
HIER
1070
     0
1002
}
1002
{
1000
MANEDIT
1070
     0
1002
}
1002
{
1000
NOSEL
1070
     0
1002
}
1002
{
1000
BEHIND
1070
     0
1002
}
1002
{
1000
OTHER
1070
     0
1002
}
1002
{
1000
REACTOR
1002
}
  0
LINE
  5
1AFEE
330
1AFD1
100
AcDbEntity
  8
AM_2
100
AcDbLine
 10
16.15010151306575
 20
-23.99993936304216
 30
0.0
 11
16.15010151306575
 21
-26.39993936304353
 31
-0.0000000000000004
  0
LINE
  5
1AFEF
330
1AFD1
100
AcDbEntity
  8
AM_3
100
AcDbLine
 10
24.3501015130657
 20
-23.99993936304216
 30
0.0
 11
24.3501015130657
 21
-18.49993936304215
 31
0.0
  0
LINE
  5
1AFF0
330
1AFD1
100
AcDbEntity
  8
AM_2
100
AcDbLine
 10
25.55010151306564
 20
-19.99993936304216
 30
0.0
 11
26.50010151306563
 21
-19.99993936304216
 31
0.0
  0
LINE
  5
1AFF1
330
1AFD1
100
AcDbEntity
  8
AM_2
100
AcDbLine
 10
25.55010151306564
 20
-18.59993936304215
 30
0.0
 11
25.55010151306564
 21
-22.99993936304216
 31
0.0
  0
LINE
  5
1AFF2
330
1AFD1
100
AcDbEntity
  8
AM_2
100
AcDbLine
 10
0.0
 20
0.0
 30
0.0
 11
9.800000000000041
 21
0.0
 31
0.0
  0
LINE
  5
1AFF3
330
1AFD1
100
AcDbEntity
  8
AM_2
100
AcDbLine
 10
0.0
 20
-3.0
 30
0.0
 11
2.000000000000027
 21
-3.0
 31
0.0
  0
LINE
  5
1AFF4
330
1AFD1
100
AcDbEntity
  8
AM_2
100
AcDbLine
 10
22.30010151306564
 20
-3.499939363042158
 30
0.0
 11
26.50010151306563
 21
-3.499939363042158
 31
0.0
  0
ARC
  5
1AFF5
330
1AFD1
100
AcDbEntity
  8
AM_2
100
AcDbCircle
 10
24.3501015130657
 20
-0.1999393630421196
 30
0.0
 40
1.199999999999999
100
AcDbArc
 50
0.0
 51
90.0
  0
LINE
  5
1AFF6
330
1AFD1
100
AcDbEntity
  8
AM_3
100
AcDbLine
 10
24.3501015130657
 20
-0.1999393630421196
 30
0.0
 11
15.35010151306565
 21
-0.1999393630421196
 31
0.0
  0
LINE
  5
1AFF7
330
1AFD1
100
AcDbEntity
  8
AM_2
100
AcDbLine
 10
18.10000000000002
 20
2.0
 30
0.0
 11
12.10000000000002
 21
2.0
 31
0.0
  0
LINE
  5
1AFF8
330
1AFD1
100
AcDbEntity
  8
AM_2
100
AcDbLine
 10
24.3501015130657
 20
1.000060636957869
 30
0.0
 11
15.35010151306565
 21
1.000060636957869
 31
0.0
  0
LINE
  5
1AFF9
330
1AFD1
100
AcDbEntity
  8
AM_2
100
AcDbLine
 10
14.16687530852726
 20
0.0
 30
0.0
 11
14.10000000000002
 21
0.0
 31
0.0
  0
LINE
  5
1AFFA
330
1AFD1
100
AcDbEntity
  8
AM_2
100
AcDbLine
 10
14.10000000000002
 20
-0.3000000000000114
 30
0.0
 11
10.10000000000002
 21
-0.3000000000000114
 31
0.0
  0
LINE
  5
1AFFB
330
1AFD1
100
AcDbEntity
  8
AM_2
100
AcDbLine
 10
12.10000000000002
 20
0.0
 30
0.0
 11
12.10000000000002
 21
-0.3000000000000114
 31
0.0
  0
LINE
  5
1AFFC
330
1AFD1
100
AcDbEntity
  8
AM_2
100
AcDbLine
 10
12.10000000000002
 20
0.0
 30
0.0
 11
12.10000000000002
 21
2.0
 31
0.0
  0
ARC
  5
1AFFD
330
1AFD1
100
AcDbEntity
  8
AM_2
100
AcDbCircle
 10
14.10000000000005
 20
0.0
 30
0.0
 40
2.0
100
AcDbArc
 50
90.0
 51
180.0
  0
ARC
  5
1AFFE
330
1AFD1
100
AcDbEntity
  8
AM_2
100
AcDbCircle
 10
10.10000000000002
 20
0.0
 30
0.0
 40
0.3
100
AcDbArc
 50
180.0
 51
270.0
1001
GENIUS_GENOBJ-N-FIL_13
1002
{
1000
OWNER
1000
GEN
1002
}
1001
GENIUS_GENODEF_13
1002
{
1000
HIER
1070
     0
1002
}
1002
{
1000
MANEDIT
1070
     0
1002
}
1002
{
1000
NOSEL
1070
     0
1002
}
1002
{
1000
BEHIND
1070
     0
1002
}
1002
{
1000
OTHER
1070
     0
1002
}
1002
{
1000
REACTOR
1002
}
  0
ARC
  5
1AFFF
330
1AFD1
100
AcDbEntity
  8
AM_2
100
AcDbCircle
 10
15.35010151306565
 20
-0.1999393630421196
 30
0.0
 40
1.199999999999999
100
AcDbArc
 50
90.0
 51
180.0
  0
LINE
  5
1B000
330
1AFD1
100
AcDbEntity
  8
AM_3
100
AcDbLine
 10
24.3501015130657
 20
-3.499939363042158
 30
0.0
 11
24.3501015130657
 21
-0.1999393630421196
 31
0.0
  0
LINE
  5
1B001
330
1AFD1
100
AcDbEntity
  8
AM_2
100
AcDbLine
 10
18.10000000000002
 20
1.000060636957869
 30
0.0
 11
18.10000000000002
 21
2.0
 31
0.0
  0
LINE
  5
1B002
330
1AFD1
100
AcDbEntity
  8
AM_2
100
AcDbLine
 10
25.55010151306564
 20
-1.999939363042158
 30
0.0
 11
26.50010151306563
 21
-1.999939363042158
 31
0.0
  0
LINE
  5
1B003
330
1AFD1
100
AcDbEntity
  8
AM_2
100
AcDbLine
 10
3.150101513061116
 20
-40.02493936304345
 30
0.0000000000387151
 11
11.15010151306111
 21
-40.02493936304345
 31
0.0000000000387151
  0
LINE
  5
1B004
330
1AFD1
100
AcDbEntity
  8
AM_2
100
AcDbLine
 10
2.150101513061116
 20
-30.02493936304344
 30
0.0000000000387151
 11
12.15010151306111
 21
-30.02493936304344
 31
0.0000000000387151
  0
LINE
  5
1B005
330
1AFD1
100
AcDbEntity
  8
AM_2
100
AcDbLine
 10
2.150101513061116
 20
-30.02493936304344
 30
0.0000000000387151
 11
2.150101513061116
 21
-39.02493936304345
 31
0.0000000000387151
  0
ARC
  5
1B006
330
1AFD1
100
AcDbEntity
  8
AM_2
100
AcDbCircle
 10
3.150101513061116
 20
-39.02493936304345
 30
0.0000000000387151
 40
1.0
100
AcDbArc
 50
180.0
 51
270.0
  0
LINE
  5
1B007
330
1AFD1
100
AcDbEntity
  8
AM_2
100
AcDbLine
 10
12.15010151306111
 20
-30.02493936304344
 30
0.0000000000387151
 11
12.15010151306111
 21
-39.02493936304345
 31
0.0000000000387151
  0
ARC
  5
1B008
330
1AFD1
100
AcDbEntity
  8
AM_2
100
AcDbCircle
 10
11.15010151306111
 20
-39.02493936304345
 30
0.0000000000387151
 40
1.0
100
AcDbArc
 50
270.0
 51
0.0
  0
ENDBLK
  5
1B009
330
1AFD1
100
AcDbEntity
  8
0
100
AcDbBlockEnd
  0
BLOCK
  5
1B00B
330
1B00A
100
AcDbEntity
  8
0
100
AcDbBlockBegin
  2
B3A735
 70
     0
 10
0.0
 20
0.0
 30
0.0
  3
B3A735
  1

  0
LINE
  5
1B00C
330
1B00A
100
AcDbEntity
  8
AM_11
100
AcDbLine
 10
8.900000000001682
 20
2.0
 30
0.0
 11
4.089918751351547
 21
1.999999999999914
 31
0.0
  0
LINE
  5
1B00D
330
1B00A
100
AcDbEntity
  8
AM_11
100
AcDbLine
 10
8.12540333076015
 20
1.399999999999919
 30
0.0
 11
4.299999999999386
 21
1.399999999999834
 31
0.0
  0
LINE
  5
1B00E
330
1B00A
100
AcDbEntity
  8
AM_11
100
AcDbLine
 10
1.554791459841111
 20
0.1266475580512747
 30
0.0
 11
3.577392648966109
 21
1.814261340451763
 31
0.0
  0
LINE
  5
1B00F
330
1B00A
100
AcDbEntity
  8
AM_11
100
AcDbLine
 10
-2.0
 20
-0.5999999999999659
 30
0.0
 11
-2.0
 21
0.2000000000000028
 31
0.0
  0
LINE
  5
1B010
330
1B00A
100
AcDbEntity
  8
AM_11
100
AcDbLine
 10
4.299999999999386
 20
1.399999999999834
 30
0.0
 11
2.28996533116333
 21
-0.5226418571476758
 31
0.0
  0
LINE
  5
1B011
330
1B00A
100
AcDbEntity
  8
AM_11
100
AcDbLine
 10
0.0
 20
0.0
 30
0.0
 11
1.200000000000386
 21
-0.0000000000000568
 31
0.0
  0
LINE
  5
1B012
330
1B00A
100
AcDbEntity
  8
AM_11
100
AcDbLine
 10
1.598742685195928
 20
-0.8000000000000111
 30
0.0
 11
-1.799999999999271
 21
-0.7999999999999547
 31
0.0
  0
ARC
  5
1B013
330
1B00A
100
AcDbEntity
  8
AM_11
100
AcDbCircle
 10
-0.1999999999998181
 20
0.0
 30
0.0
 40
0.2
100
AcDbArc
 50
90.0
 51
0.0
  0
ARC
  5
1B014
330
1B00A
100
AcDbEntity
  8
AM_11
100
AcDbCircle
 10
-1.799999999999271
 20
-0.5999999999999659
 30
0.0
 40
0.2
100
AcDbArc
 50
180.0
 51
270.0
1001
GENIUS_GENODEF_13
1002
{
1000
HIER
1070
     0
1002
}
1002
{
1000
MANEDIT
1070
     0
1002
}
1002
{
1000
NOSEL
1070
     0
1002
}
1002
{
1000
BEHIND
1070
     0
1002
}
1002
{
1000
OTHER
1070
     0
1002
}
1002
{
1000
REACTOR
1002
}
1001
GENIUS_GENOBJ-N-FIL_13
1002
{
1000
OWNER
1000
GEN
1002
}
  0
ARC
  5
1B015
330
1B00A
100
AcDbEntity
  8
AM_11
100
AcDbCircle
 10
1.598742685195928
 20
0.1999999999999886
 30
0.0
 40
1.0
100
AcDbArc
 50
270.0
 51
313.7269699799373
1001
GENIUS_GENOBJ-N-FIL_13
1002
{
1000
OWNER
1000
GEN
1002
}
1001
GENIUS_GENODEF_13
1002
{
1000
HIER
1070
     0
1002
}
1002
{
1000
MANEDIT
1070
     0
1002
}
1002
{
1000
NOSEL
1070
     0
1002
}
1002
{
1000
BEHIND
1070
     0
1002
}
1002
{
1000
OTHER
1070
     0
1002
}
1002
{
1000
REACTOR
1002
}
  0
LINE
  5
1B016
330
1B00A
100
AcDbEntity
  8
AM_11
100
AcDbLine
 10
1.400000000000203
 20
-0.2000000000000455
 30
0.0
 11
1.400000000000203
 21
-0.8000000000000111
 31
0.0
  0
ARC
  5
1B017
330
1B00A
100
AcDbEntity
  8
AM_11
100
AcDbCircle
 10
1.400000000000203
 20
-0.0000000000000568
 30
0.0
 40
0.2
100
AcDbArc
 50
180.0
 51
39.28940686243164
  0
ARC
  5
1B018
330
1B00A
100
AcDbEntity
  8
AM_11
100
AcDbCircle
 10
4.089918751351547
 20
1.19999999999993
 30
0.0
 40
0.8
100
AcDbArc
 50
90.0
 51
129.8408746573302
1001
GENIUS_GENOBJ-N-FIL_13
1002
{
1000
OWNER
1000
GEN
1002
}
1001
GENIUS_GENODEF_13
1002
{
1000
HIER
1070
     0
1002
}
1002
{
1000
MANEDIT
1070
     0
1002
}
1002
{
1000
NOSEL
1070
     0
1002
}
1002
{
1000
BEHIND
1070
     0
1002
}
1002
{
1000
OTHER
1070
     0
1002
}
1002
{
1000
REACTOR
1002
}
  0
ARC
  5
1B019
330
1B00A
100
AcDbEntity
  8
AM_11
100
AcDbCircle
 10
8.900000000001682
 20
1.199999999999987
 30
0.0
 40
0.8
100
AcDbArc
 50
165.5224878140756
 51
90.0
  0
INSERT
  5
1B01A
330
1B00A
100
AcDbEntity
  8
AM_8
  6
Continuous
100
AcDbBlockReference
  2
*X33
 10
0.0
 20
0.0
 30
0.0
  0
ENDBLK
  5
1B01B
330
1B00A
100
AcDbEntity
  8
0
100
AcDbBlockEnd
  0
BLOCK
  5
1B01D
330
1B01C
100
AcDbEntity
  8
0
100
AcDbBlockBegin
  2
*X33
 70
     1
 10
0.0
 20
0.0
 30
0.0
  3
*X33
  1

  0
LINE
  5
1B01E
330
1B01C
100
AcDbEntity
  8
0
 62
     0
100
AcDbLine
 10
-1.760803583897569
 20
2.000000000000027
 30
0.0
 11
-2.568516711658047
 21
1.192286872239548
 31
0.0
  0
LINE
  5
1B01F
330
1B01C
100
AcDbEntity
  8
0
 62
     0
100
AcDbLine
 10
-1.958404746185293
 20
0.9043732256054111
 30
0.0
 11
-2.000000000000084
 21
0.8627779717905923
 31
0.0
  0
LINE
  5
1B020
330
1B01C
100
AcDbEntity
  8
0
 62
     0
100
AcDbLine
 10
-0.862777971790649
 20
2.000000000000055
 30
0.0
 11
-1.804373225605387
 21
1.058404746185289
 31
0.0
  0
LINE
  5
1B021
330
1B01C
100
AcDbEntity
  8
0
 62
     0
100
AcDbLine
 10
0.0352476403162712
 20
2.000000000000027
 30
0.0
 11
-2.000000000000084
 21
-0.035247640316328
 31
0.0
  0
LINE
  5
1B022
330
1B01C
100
AcDbEntity
  8
0
 62
     0
100
AcDbLine
 10
-0.1999999999999318
 20
0.8667267475769333
 30
0.0
 11
-1.858101339328753
 21
-0.7913745917518896
 31
0.0
  0
LINE
  5
1B023
330
1B01C
100
AcDbEntity
  8
0
 62
     0
100
AcDbLine
 10
0.400000000000432
 20
1.466726747577296
 30
0.0
 11
0.0332732524231574
 21
1.100000000000022
 31
0.0
  0
LINE
  5
1B024
330
1B01C
100
AcDbEntity
  8
0
 62
     0
100
AcDbLine
 10
-0.3249033879477281
 20
-0.1562022524778399
 30
0.0
 11
-0.9687011354698995
 21
-0.799999999999983
 31
0.0
  0
LINE
  5
1B025
330
1B01C
100
AcDbEntity
  8
0
 62
     0
100
AcDbLine
 10
0.7293244766370039
 20
0.0000000000000284
 30
0.0
 11
-0.0706755233629508
 21
-0.7999999999999261
 31
0.0
  0
LINE
  5
1B026
330
1B01C
100
AcDbEntity
  8
0
 62
     0
100
AcDbLine
 10
1.400000000000146
 20
-0.2273500887437763
 30
0.0
 11
0.8273500887439695
 21
-0.7999999999999547
 31
0.0
  0
ENDBLK
  5
1B027
330
1B01C
100
AcDbEntity
  8
0
100
AcDbBlockEnd
  0
BLOCK
  5
1B029
330
1B028
100
AcDbEntity
  8
0
100
AcDbBlockBegin
  2
A$C7F303707
 70
     0
 10
0.0
 20
0.0
 30
0.0
  3
A$C7F303707
  1

  0
LINE
  5
1B02A
330
1B028
100
AcDbEntity
  8
AM_0
100
AcDbLine
 10
9.99999987695574
 20
0.5000000414534043
 30
0.0
 11
9.99999987695574
 21
20.0000000414534
 31
0.0
  0
LINE
  5
1B02B
330
1B028
100
AcDbEntity
  8
AM_0
100
AcDbLine
 10
8.799999876955752
 20
1.000000041453404
 30
0.0
 11
8.799999876955752
 21
20.0000000414534
 31
0.0
  0
LINE
  5
1B02C
330
1B028
100
AcDbEntity
  8
AM_0
100
AcDbLine
 10
6.999999876955739
 20
1.000000041453404
 30
0.0
 11
8.799999876955752
 21
1.000000041453404
 31
0.0
  0
ARC
  5
1B02D
330
1B028
100
AcDbEntity
  8
AM_0
100
AcDbCircle
 10
9.49999987695574
 20
0.5000000414534043
 30
0.0
 40
0.5
100
AcDbArc
 50
270.0
 51
0.0
  0
LINE
  5
1B02E
330
1B028
100
AcDbEntity
  8
AM_0
100
AcDbLine
 10
6.999999876955739
 20
0.0000000414534043
 30
0.0
 11
9.49999987695574
 21
0.0000000414534043
 31
0.0
  0
LINE
  5
1B02F
330
1B028
100
AcDbEntity
  8
AM_0
100
AcDbLine
 10
6.999999876955739
 20
1.000000041453404
 30
0.0
 11
6.999999876955739
 21
0.0000000414534043
 31
0.0
  0
LINE
  5
1B030
330
1B028
100
AcDbEntity
  8
AM_0
100
AcDbLine
 10
1.649999876955376
 20
90.00000004145237
 30
0.0
 11
24.49999987695528
 21
90.00000004145237
 31
0.0
  0
LINE
  5
1B031
330
1B028
100
AcDbEntity
  8
AM_0
100
AcDbLine
 10
9.99999987695574
 20
20.00000004145328
 30
0.0
 11
24.49999987695528
 21
20.00000004145328
 31
0.0
  0
LINE
  5
1B032
330
1B028
100
AcDbEntity
  8
AM_0
100
AcDbLine
 10
23.34999987695565
 20
21.65000004145339
 30
0.0
 11
23.34999987695519
 21
88.35000004145229
 31
0.0
  0
ARC
  5
1B033
330
1B028
100
AcDbEntity
  8
AM_0
100
AcDbCircle
 10
0.8249998769550899
 20
24.17500004145347
 30
0.0
 40
0.8249999999999129
100
AcDbArc
 50
0.0
 51
180.0
  0
ARC
  5
1B034
330
1B028
100
AcDbEntity
  8
AM_0
100
AcDbCircle
 10
1.649999876954908
 20
21.65000004145339
 30
0.0
 40
1.649999999999999
100
AcDbArc
 50
180.0
 51
270.0
1001
GENIUS_GENODEF_13
1002
{
1000
HIER
1070
     0
1002
}
1002
{
1000
MANEDIT
1070
     0
1002
}
1002
{
1000
NOSEL
1070
     0
1002
}
1002
{
1000
BEHIND
1070
     0
1002
}
1002
{
1000
OTHER
1070
     0
1002
}
1002
{
1000
REACTOR
1002
}
1001
GENIUS_GENOBJ-N-FIL_13
1002
{
1000
OWNER
1000
GEN
1002
}
  0
LINE
  5
1B035
330
1B028
100
AcDbEntity
  8
AM_0
100
AcDbLine
 10
-0.000000123044714
 20
21.65000004145339
 30
0.0
 11
-0.000000123044714
 21
24.17500004145347
 31
0.0
  0
LINE
  5
1B036
330
1B028
100
AcDbEntity
  8
AM_0
100
AcDbLine
 10
1.649999876954921
 20
20.00000004145328
 30
0.0
 11
8.799999876955752
 21
20.00000004145328
 31
0.0
  0
LINE
  5
1B037
330
1B028
100
AcDbEntity
  8
AM_0
100
AcDbLine
 10
1.649999876954921
 20
21.65000004145339
 30
0.0
 11
23.34999987695565
 21
21.65000004145339
 31
0.0
  0
LINE
  5
1B038
330
1B028
100
AcDbEntity
  8
AM_0
100
AcDbLine
 10
1.649999876954921
 20
21.65000004145339
 30
0.0
 11
1.649999876955376
 21
24.17500004145347
 31
0.0
  0
ARC
  5
1B039
330
1B028
100
AcDbEntity
  8
AM_0
100
AcDbCircle
 10
1.649999876955362
 20
88.35000004145229
 30
0.0
 40
1.649999999999999
100
AcDbArc
 50
90.0
 51
180.0
1001
GENIUS_GENOBJ-N-FIL_13
1002
{
1000
OWNER
1000
GEN
1002
}
1001
GENIUS_GENODEF_13
1002
{
1000
HIER
1070
     0
1002
}
1002
{
1000
MANEDIT
1070
     0
1002
}
1002
{
1000
NOSEL
1070
     0
1002
}
1002
{
1000
BEHIND
1070
     0
1002
}
1002
{
1000
OTHER
1070
     0
1002
}
1002
{
1000
REACTOR
1002
}
  0
ARC
  5
1B03A
330
1B028
100
AcDbEntity
  8
AM_0
100
AcDbCircle
 10
0.8249998769550899
 20
85.82500004145241
 30
0.0
 40
0.8249999999999129
100
AcDbArc
 50
180.0
 51
0.0
  0
LINE
  5
1B03B
330
1B028
100
AcDbEntity
  8
AM_0
100
AcDbLine
 10
-0.000000123044714
 20
85.82500004145241
 30
0.0
 11
-0.000000123044714
 21
88.35000004145229
 31
0.0
  0
LINE
  5
1B03C
330
1B028
100
AcDbEntity
  8
AM_0
100
AcDbLine
 10
1.649999876955376
 20
85.82500004145241
 30
0.0
 11
1.649999876955376
 21
88.35000004145229
 31
0.0
  0
LINE
  5
1B03D
330
1B028
100
AcDbEntity
  8
AM_0
100
AcDbLine
 10
1.649999876955376
 20
88.35000004145229
 30
0.0
 11
23.34999987695519
 21
88.35000004145229
 31
0.0
  0
LINE
  5
1B03E
330
1B028
100
AcDbEntity
  8
AM_0
100
AcDbLine
 10
24.99999987695528
 20
46.15000004145324
 30
0.0
 11
24.99999987695528
 21
84.85000004145311
 31
0.0
  0
LINE
  5
1B03F
330
1B028
100
AcDbEntity
  8
AM_0
100
AcDbLine
 10
24.99999987695528
 20
20.50000004145329
 30
0.0
 11
24.99999987695528
 21
44.50000004145322
 31
0.0
  0
ARC
  5
1B040
330
1B028
100
AcDbEntity
  8
AM_0
100
AcDbCircle
 10
24.49999987695525
 20
20.50000004145329
 30
0.0
 40
0.5
100
AcDbArc
 50
270.0
 51
0.0
1001
GENIUS_GENODEF_13
1002
{
1000
HIER
1070
     0
1002
}
1002
{
1000
MANEDIT
1070
     0
1002
}
1002
{
1000
NOSEL
1070
     0
1002
}
1002
{
1000
BEHIND
1070
     0
1002
}
1002
{
1000
OTHER
1070
     0
1002
}
1002
{
1000
REACTOR
1002
}
1001
GENIUS_GENOBJ-N-FIL_13
1002
{
1000
OWNER
1000
GEN
1002
}
  0
LINE
  5
1B041
330
1B028
100
AcDbEntity
  8
AM_0
100
AcDbLine
 10
36.49999987695545
 20
46.75000004145331
 30
0.0
 11
31.49999987695534
 21
46.75000004145331
 31
0.0
  0
LINE
  5
1B042
330
1B028
100
AcDbEntity
  8
AM_0
100
AcDbLine
 10
36.49999987695545
 20
45.30000004145334
 30
0.0
 11
35.59999987695513
 21
45.30000004145334
 31
0.0
  0
LINE
  5
1B043
330
1B028
100
AcDbEntity
  8
AM_0
100
AcDbLine
 10
36.99999987695528
 20
44.50000004145322
 30
0.0
 11
35.59999987695513
 21
44.50000004145322
 31
0.0
  0
LINE
  5
1B044
330
1B028
100
AcDbEntity
  8
AM_0
100
AcDbLine
 10
36.99999987695528
 20
48.40000004145318
 30
0.0
 11
30.34999987695533
 21
48.40000004145318
 31
0.0
  0
LINE
  5
1B045
330
1B028
100
AcDbEntity
  8
AM_0
100
AcDbLine
 10
31.49999987695534
 20
45.30000004145334
 30
0.0
 11
31.49999987695534
 21
46.75000004145331
 31
0.0
  0
LINE
  5
1B046
330
1B028
100
AcDbEntity
  8
AM_0
100
AcDbLine
 10
32.39999987695543
 20
44.50000004145328
 30
0.0
 11
24.99999987695528
 21
44.50000004145322
 31
0.0
  0
LINE
  5
1B047
330
1B028
100
AcDbEntity
  8
AM_0
100
AcDbLine
 10
35.29999987695517
 20
45.0000000414534
 30
0.0
 11
35.29999987695517
 21
44.80000004145329
 31
0.0
  0
ARC
  5
1B048
330
1B028
100
AcDbEntity
  8
AM_0
100
AcDbCircle
 10
35.59999987695511
 20
45.0000000414534
 30
0.0
 40
0.3
100
AcDbArc
 50
90.0
 51
180.0
1001
GENIUS_GENODEF_13
1002
{
1000
HIER
1070
     0
1002
}
1002
{
1000
MANEDIT
1070
     0
1002
}
1002
{
1000
NOSEL
1070
     0
1002
}
1002
{
1000
BEHIND
1070
     0
1002
}
1002
{
1000
OTHER
1070
     0
1002
}
1002
{
1000
REACTOR
1002
}
1001
GENIUS_GENOBJ-N-FIL_13
1002
{
1000
OWNER
1000
GEN
1002
}
  0
ARC
  5
1B049
330
1B028
100
AcDbEntity
  8
AM_0
100
AcDbCircle
 10
35.59999987695511
 20
44.80000004145329
 30
0.0
 40
0.3
100
AcDbArc
 50
180.0
 51
270.0
1001
GENIUS_GENOBJ-N-FIL_13
1002
{
1000
OWNER
1000
GEN
1002
}
1001
GENIUS_GENODEF_13
1002
{
1000
HIER
1070
     0
1002
}
1002
{
1000
MANEDIT
1070
     0
1002
}
1002
{
1000
NOSEL
1070
     0
1002
}
1002
{
1000
BEHIND
1070
     0
1002
}
1002
{
1000
OTHER
1070
     0
1002
}
1002
{
1000
REACTOR
1002
}
  0
LINE
  5
1B04A
330
1B028
100
AcDbEntity
  8
AM_0
100
AcDbLine
 10
32.69999987695539
 20
45.0000000414534
 30
0.0
 11
32.69999987695539
 21
44.80000004145329
 31
0.0
  0
ARC
  5
1B04B
330
1B028
100
AcDbEntity
  8
AM_0
100
AcDbCircle
 10
32.3999998769554
 20
45.0000000414534
 30
0.0
 40
0.3
100
AcDbArc
 50
0.0
 51
90.0
1001
GENIUS_GENOBJ-N-FIL_13
1002
{
1000
OWNER
1000
GEN
1002
}
1001
GENIUS_GENODEF_13
1002
{
1000
HIER
1070
     0
1002
}
1002
{
1000
MANEDIT
1070
     0
1002
}
1002
{
1000
NOSEL
1070
     0
1002
}
1002
{
1000
BEHIND
1070
     0
1002
}
1002
{
1000
OTHER
1070
     0
1002
}
1002
{
1000
REACTOR
1002
}
  0
ARC
  5
1B04C
330
1B028
100
AcDbEntity
  8
AM_0
100
AcDbCircle
 10
32.3999998769554
 20
44.80000004145329
 30
0.0
 40
0.3
100
AcDbArc
 50
270.0
 51
0.0
1001
GENIUS_GENOBJ-N-FIL_13
1002
{
1000
OWNER
1000
GEN
1002
}
1001
GENIUS_GENODEF_13
1002
{
1000
HIER
1070
     0
1002
}
1002
{
1000
MANEDIT
1070
     0
1002
}
1002
{
1000
NOSEL
1070
     0
1002
}
1002
{
1000
BEHIND
1070
     0
1002
}
1002
{
1000
OTHER
1070
     0
1002
}
1002
{
1000
REACTOR
1002
}
  0
LINE
  5
1B04D
330
1B028
100
AcDbEntity
  8
AM_0
100
AcDbLine
 10
32.39999987695543
 20
45.30000004145334
 30
0.0
 11
31.49999987695534
 21
45.30000004145334
 31
0.0
  0
ARC
  5
1B04E
330
1B028
100
AcDbEntity
  8
AM_0
100
AcDbCircle
 10
30.34999987695533
 20
47.90000004145318
 30
0.0
 40
0.5
100
AcDbArc
 50
90.0
 51
180.0
1001
GENIUS_GENOBJ-N-FIL_13
1002
{
1000
OWNER
1000
GEN
1002
}
1001
GENIUS_GENODEF_13
1002
{
1000
HIER
1070
     0
1002
}
1002
{
1000
MANEDIT
1070
     0
1002
}
1002
{
1000
NOSEL
1070
     0
1002
}
1002
{
1000
BEHIND
1070
     0
1002
}
1002
{
1000
OTHER
1070
     0
1002
}
1002
{
1000
REACTOR
1002
}
  0
LINE
  5
1B04F
330
1B028
100
AcDbEntity
  8
AM_0
100
AcDbLine
 10
29.84999987695533
 20
46.15000004145324
 30
0.0
 11
29.84999987695533
 21
47.90000004145318
 31
0.0
  0
LINE
  5
1B050
330
1B028
100
AcDbEntity
  8
AM_0
100
AcDbLine
 10
29.84999987695533
 20
46.15000004145324
 30
0.0
 11
24.99999987695528
 21
46.15000004145324
 31
0.0
  0
LINE
  5
1B051
330
1B028
100
AcDbEntity
  8
AM_0
100
AcDbLine
 10
37.49999987695531
 20
47.90000004145318
 30
0.0
 11
37.49999987695531
 21
45.00000004145323
 31
0.0
  0
LINE
  5
1B052
330
1B028
100
AcDbEntity
  8
AM_0
100
AcDbLine
 10
36.49999987695545
 20
45.30000004145334
 30
0.0
 11
36.49999987695545
 21
46.75000004145331
 31
0.0
  0
ARC
  5
1B053
330
1B028
100
AcDbEntity
  8
AM_0
100
AcDbCircle
 10
36.99999987695525
 20
45.00000004145323
 30
0.0
 40
0.5
100
AcDbArc
 50
270.0
 51
0.0
1001
GENIUS_GENOBJ-N-FIL_13
1002
{
1000
OWNER
1000
GEN
1002
}
1001
GENIUS_GENODEF_13
1002
{
1000
HIER
1070
     0
1002
}
1002
{
1000
MANEDIT
1070
     0
1002
}
1002
{
1000
NOSEL
1070
     0
1002
}
1002
{
1000
BEHIND
1070
     0
1002
}
1002
{
1000
OTHER
1070
     0
1002
}
1002
{
1000
REACTOR
1002
}
  0
ARC
  5
1B054
330
1B028
100
AcDbEntity
  8
AM_0
100
AcDbCircle
 10
36.99999987695525
 20
47.90000004145318
 30
0.0
 40
0.5
100
AcDbArc
 50
0.0
 51
90.0
1001
GENIUS_GENODEF_13
1002
{
1000
HIER
1070
     0
1002
}
1002
{
1000
MANEDIT
1070
     0
1002
}
1002
{
1000
NOSEL
1070
     0
1002
}
1002
{
1000
BEHIND
1070
     0
1002
}
1002
{
1000
OTHER
1070
     0
1002
}
1002
{
1000
REACTOR
1002
}
1001
GENIUS_GENOBJ-N-FIL_13
1002
{
1000
OWNER
1000
GEN
1002
}
  0
ARC
  5
1B055
330
1B028
100
AcDbEntity
  8
AM_0
100
AcDbCircle
 10
43.99999987695486
 20
85.50000004145317
 30
0.0
 40
1.0
100
AcDbArc
 50
0.0
 51
90.0
1001
GENIUS_GENODEF_13
1002
{
1000
HIER
1070
     0
1002
}
1002
{
1000
MANEDIT
1070
     0
1002
}
1002
{
1000
NOSEL
1070
     0
1002
}
1002
{
1000
BEHIND
1070
     0
1002
}
1002
{
1000
OTHER
1070
     0
1002
}
1002
{
1000
REACTOR
1002
}
1001
GENIUS_GENOBJ-N-FIL_13
1002
{
1000
OWNER
1000
GEN
1002
}
  0
LINE
  5
1B056
330
1B028
100
AcDbEntity
  8
AM_0
100
AcDbLine
 10
24.99999987695528
 20
86.50000004145317
 30
0.0
 11
24.99999987695528
 21
89.50000004145236
 31
0.0
  0
LINE
  5
1B057
330
1B028
100
AcDbEntity
  8
AM_0
100
AcDbLine
 10
24.99999987695528
 20
84.85000004145311
 30
0.0
 11
39.39999987695458
 21
84.85000004145311
 31
0.0
  0
LINE
  5
1B058
330
1B028
100
AcDbEntity
  8
AM_0
100
AcDbLine
 10
24.99999987695528
 20
86.50000004145317
 30
0.0
 11
43.99999987695486
 21
86.50000004145317
 31
0.0
  0
LINE
  5
1B059
330
1B028
100
AcDbEntity
  8
AM_0
100
AcDbLine
 10
40.39999987695522
 20
84.85000004145318
 30
0.0
 11
43.99999987695466
 21
84.85000004145318
 31
0.0
  0
LINE
  5
1B05A
330
1B028
100
AcDbEntity
  8
AM_0
100
AcDbLine
 10
41.09999987695458
 20
82.90000004145301
 30
0.0
 11
41.09999987695458
 21
83.1000000414531
 31
0.0
  0
ARC
  5
1B05B
330
1B028
100
AcDbEntity
  8
AM_0
100
AcDbCircle
 10
40.79999987695485
 20
82.90000004145301
 30
0.0
 40
0.3
100
AcDbArc
 50
270.0
 51
0.0
1001
GENIUS_GENOBJ-N-FIL_13
1002
{
1000
OWNER
1000
GEN
1002
}
1001
GENIUS_GENODEF_13
1002
{
1000
HIER
1070
     0
1002
}
1002
{
1000
MANEDIT
1070
     0
1002
}
1002
{
1000
NOSEL
1070
     0
1002
}
1002
{
1000
BEHIND
1070
     0
1002
}
1002
{
1000
OTHER
1070
     0
1002
}
1002
{
1000
REACTOR
1002
}
  0
ARC
  5
1B05C
330
1B028
100
AcDbEntity
  8
AM_0
100
AcDbCircle
 10
40.79999987695485
 20
83.1000000414531
 30
0.0
 40
0.3
100
AcDbArc
 50
0.0
 51
90.0
1001
GENIUS_GENOBJ-N-FIL_13
1002
{
1000
OWNER
1000
GEN
1002
}
1001
GENIUS_GENODEF_13
1002
{
1000
HIER
1070
     0
1002
}
1002
{
1000
MANEDIT
1070
     0
1002
}
1002
{
1000
NOSEL
1070
     0
1002
}
1002
{
1000
BEHIND
1070
     0
1002
}
1002
{
1000
OTHER
1070
     0
1002
}
1002
{
1000
REACTOR
1002
}
  0
LINE
  5
1B05D
330
1B028
100
AcDbEntity
  8
AM_0
100
AcDbLine
 10
40.39999987695522
 20
83.40000004145329
 30
0.0
 11
40.79999987695485
 21
83.40000004145329
 31
0.0
  0
LINE
  5
1B05E
330
1B028
100
AcDbEntity
  8
AM_0
100
AcDbLine
 10
40.19999987695569
 20
82.60000004145309
 30
0.0
 11
40.79999987695485
 21
82.60000004145309
 31
0.0
  0
LINE
  5
1B05F
330
1B028
100
AcDbEntity
  8
AM_0
100
AcDbLine
 10
40.39999987695522
 20
83.40000004145329
 30
0.0
 11
40.39999987695522
 21
84.85000004145318
 31
0.0
  0
LINE
  5
1B060
330
1B028
100
AcDbEntity
  8
AM_0
100
AcDbLine
 10
39.39999987695549
 20
83.40000004145329
 30
0.0
 11
39.39999987695458
 21
84.85000004145311
 31
0.0
  0
ARC
  5
1B061
330
1B028
100
AcDbEntity
  8
AM_0
100
AcDbCircle
 10
40.19999987695569
 20
83.40000004145329
 30
0.0
 40
0.8
100
AcDbArc
 50
180.0
 51
270.0
1001
GENIUS_GENOBJ-N-FIL_13
1002
{
1000
OWNER
1000
GEN
1002
}
1001
GENIUS_GENODEF_13
1002
{
1000
HIER
1070
     0
1002
}
1002
{
1000
MANEDIT
1070
     0
1002
}
1002
{
1000
NOSEL
1070
     0
1002
}
1002
{
1000
BEHIND
1070
     0
1002
}
1002
{
1000
OTHER
1070
     0
1002
}
1002
{
1000
REACTOR
1002
}
  0
LINE
  5
1B062
330
1B028
100
AcDbEntity
  8
AM_0
100
AcDbLine
 10
44.99999987695486
 20
83.40000004145329
 30
0.0
 11
44.99999987695486
 21
85.50000004145317
 31
0.0
  0
ARC
  5
1B063
330
1B028
100
AcDbEntity
  8
AM_0
100
AcDbCircle
 10
43.59999987695504
 20
83.1000000414531
 30
0.0
 40
0.3
100
AcDbArc
 50
90.0
 51
180.0
1001
GENIUS_GENOBJ-N-FIL_13
1002
{
1000
OWNER
1000
GEN
1002
}
1001
GENIUS_GENODEF_13
1002
{
1000
HIER
1070
     0
1002
}
1002
{
1000
MANEDIT
1070
     0
1002
}
1002
{
1000
NOSEL
1070
     0
1002
}
1002
{
1000
BEHIND
1070
     0
1002
}
1002
{
1000
OTHER
1070
     0
1002
}
1002
{
1000
REACTOR
1002
}
  0
ARC
  5
1B064
330
1B028
100
AcDbEntity
  8
AM_0
100
AcDbCircle
 10
43.59999987695504
 20
82.90000004145348
 30
0.0
 40
0.3
100
AcDbArc
 50
180.0
 51
269.9999999999479
1001
GENIUS_GENOBJ-N-FIL_13
1002
{
1000
OWNER
1000
GEN
1002
}
1001
GENIUS_GENODEF_13
1002
{
1000
HIER
1070
     0
1002
}
1002
{
1000
MANEDIT
1070
     0
1002
}
1002
{
1000
NOSEL
1070
     0
1002
}
1002
{
1000
BEHIND
1070
     0
1002
}
1002
{
1000
OTHER
1070
     0
1002
}
1002
{
1000
REACTOR
1002
}
  0
LINE
  5
1B065
330
1B028
100
AcDbEntity
  8
AM_0
100
AcDbLine
 10
43.59999987695504
 20
83.40000004145329
 30
0.0
 11
43.99999987695466
 21
83.40000004145329
 31
0.0
  0
LINE
  5
1B066
330
1B028
100
AcDbEntity
  8
AM_0
100
AcDbLine
 10
43.59999987695458
 20
82.60000004145354
 30
0.0
 11
44.19999987695514
 21
82.60000004145309
 31
0.0
  0
LINE
  5
1B067
330
1B028
100
AcDbEntity
  8
AM_0
100
AcDbLine
 10
43.29999987695485
 20
82.90000004145348
 30
0.0
 11
43.29999987695485
 21
83.1000000414531
 31
0.0
  0
LINE
  5
1B068
330
1B028
100
AcDbEntity
  8
AM_0
100
AcDbLine
 10
43.99999987695466
 20
83.40000004145329
 30
0.0
 11
43.99999987695466
 21
84.85000004145318
 31
0.0
  0
ARC
  5
1B069
330
1B028
100
AcDbEntity
  8
AM_0
100
AcDbCircle
 10
44.19999987695514
 20
83.40000004145329
 30
0.0
 40
0.8
100
AcDbArc
 50
270.0
 51
0.0
1001
GENIUS_GENOBJ-N-FIL_13
1002
{
1000
OWNER
1000
GEN
1002
}
1001
GENIUS_GENODEF_13
1002
{
1000
HIER
1070
     0
1002
}
1002
{
1000
MANEDIT
1070
     0
1002
}
1002
{
1000
NOSEL
1070
     0
1002
}
1002
{
1000
BEHIND
1070
     0
1002
}
1002
{
1000
OTHER
1070
     0
1002
}
1002
{
1000
REACTOR
1002
}
  0
ARC
  5
1B06A
330
1B028
100
AcDbEntity
  8
AM_0
100
AcDbCircle
 10
24.49999987695525
 20
89.50000004145236
 30
0.0
 40
0.5
100
AcDbArc
 50
0.0
 51
90.0
1001
GENIUS_GENOBJ-N-FIL_13
1002
{
1000
OWNER
1000
GEN
1002
}
1001
GENIUS_GENODEF_13
1002
{
1000
HIER
1070
     0
1002
}
1002
{
1000
MANEDIT
1070
     0
1002
}
1002
{
1000
NOSEL
1070
     0
1002
}
1002
{
1000
BEHIND
1070
     0
1002
}
1002
{
1000
OTHER
1070
     0
1002
}
1002
{
1000
REACTOR
1002
}
  0
ENDBLK
  5
1B06B
330
1B028
100
AcDbEntity
  8
0
100
AcDbBlockEnd
  0
BLOCK
  5
1C787
330
1C786
100
AcDbEntity
  8
0
100
AcDbBlockBegin
  2
*D35
 70
     1
 10
0.0
 20
0.0
 30
0.0
  3
*D35
  1

  0
LINE
  5
1C826
330
1C786
100
AcDbEntity
  8
003
 62
     4
370
    20
100
AcDbLine
 10
299.0152399062667
 20
155.282705031434
 30
0.0
 11
299.0152399062667
 21
132.6001278518657
 31
0.0
  0
LINE
  5
1C827
330
1C786
100
AcDbEntity
  8
003
 62
     4
370
    20
100
AcDbLine
 10
319.0152399062666
 20
218.1827051187005
 30
0.0
 11
319.0152399062666
 21
132.6001278518657
 31
0.0
  0
LINE
  5
1C828
330
1C786
100
AcDbEntity
  8
003
 62
     4
370
    20
100
AcDbLine
 10
302.0152399062667
 20
134.6001278518657
 30
0.0
 11
316.0152399062666
 21
134.6001278518657
 31
0.0
  0
INSERT
  5
1C829
330
1C786
100
AcDbEntity
  8
003
 62
     4
370
    20
100
AcDbBlockReference
  2
_Open30
 10
299.0152399062667
 20
134.6001278518657
 30
0.0
 41
3.0
 42
3.0
 43
3.0
 50
180.0
  0
INSERT
  5
1C82A
330
1C786
100
AcDbEntity
  8
003
 62
     4
370
    20
100
AcDbBlockReference
  2
_Open30
 10
319.0152399062666
 20
134.6001278518657
 30
0.0
 41
3.0
 42
3.0
 43
3.0
  0
MTEXT
  5
1C82B
330
1C786
100
AcDbEntity
  8
003
 62
     7
100
AcDbMText
 10
309.0152399062667
 20
139.6001278518657
 30
0.0
 40
6.0
 41
0.0
 71
     5
 72
     1
  1
20
  7
DIM
 73
     1
 44
1.0
1001
ACAD
1000
MTEXTBEGIN
1070
    73
1070
     1
1070
    44
1040
1.0
1070
    74
1070
     0
1000
MTEXTEND
  0
POINT
  5
1C82C
330
1C786
100
AcDbEntity
  8
Defpoints
 62
     0
100
AcDbPoint
 10
299.0152399062667
 20
158.282705031434
 30
0.0
  0
POINT
  5
1C82D
330
1C786
100
AcDbEntity
  8
Defpoints
 62
     0
100
AcDbPoint
 10
319.0152399062666
 20
221.1827051187005
 30
0.0
  0
POINT
  5
1C82E
330
1C786
100
AcDbEntity
  8
Defpoints
 62
     0
100
AcDbPoint
 10
319.0152399062666
 20
134.6001278518657
 30
0.0
  0
ENDBLK
  5
1C788
330
1C786
100
AcDbEntity
  8
0
100
AcDbBlockEnd
  0
BLOCK
  5
1C793
330
1C792
100
AcDbEntity
  8
0
100
AcDbBlockBegin
  2
*D36
 70
     1
 10
0.0
 20
0.0
 30
0.0
  3
*D36
  1

  0
LINE
  5
1C82F
330
1C792
100
AcDbEntity
  8
003
 62
     4
370
    20
100
AcDbLine
 10
566.0152399062665
 20
155.282705031434
 30
0.0
 11
566.0152399062665
 21
132.6001278518657
 31
0.0
  0
LINE
  5
1C830
330
1C792
100
AcDbEntity
  8
003
 62
     4
370
    20
100
AcDbLine
 10
546.0152399062669
 20
218.1826943874457
 30
0.0
 11
546.0152399062669
 21
132.6001278518657
 31
0.0
  0
LINE
  5
1C831
330
1C792
100
AcDbEntity
  8
003
 62
     4
370
    20
100
AcDbLine
 10
563.0152399062665
 20
134.6001278518657
 30
0.0
 11
549.015239906267
 21
134.6001278518657
 31
0.0
  0
INSERT
  5
1C832
330
1C792
100
AcDbEntity
  8
003
 62
     4
370
    20
100
AcDbBlockReference
  2
_Open30
 10
566.0152399062665
 20
134.6001278518657
 30
0.0
 41
3.0
 42
3.0
 43
3.0
  0
INSERT
  5
1C833
330
1C792
100
AcDbEntity
  8
003
 62
     4
370
    20
100
AcDbBlockReference
  2
_Open30
 10
546.0152399062669
 20
134.6001278518657
 30
0.0
 41
3.0
 42
3.0
 43
3.0
 50
180.0
  0
MTEXT
  5
1C834
330
1C792
100
AcDbEntity
  8
003
 62
     7
100
AcDbMText
 10
556.0152399062667
 20
139.6001278518657
 30
0.0
 40
6.0
 41
0.0
 71
     5
 72
     1
  1
20
  7
DIM
 73
     1
 44
1.0
1001
ACAD
1000
MTEXTBEGIN
1070
    73
1070
     1
1070
    44
1040
1.0
1070
    74
1070
     0
1000
MTEXTEND
  0
POINT
  5
1C835
330
1C792
100
AcDbEntity
  8
Defpoints
 62
     0
100
AcDbPoint
 10
566.0152399062665
 20
158.282705031434
 30
0.0
  0
POINT
  5
1C836
330
1C792
100
AcDbEntity
  8
Defpoints
 62
     0
100
AcDbPoint
 10
546.0152399062669
 20
221.1826943874457
 30
0.0
  0
POINT
  5
1C837
330
1C792
100
AcDbEntity
  8
Defpoints
 62
     0
100
AcDbPoint
 10
546.0152399062669
 20
134.6001278518657
 30
0.0
  0
ENDBLK
  5
1C794
330
1C792
100
AcDbEntity
  8
0
100
AcDbBlockEnd
  0
BLOCK
  5
1C79F
330
1C79E
100
AcDbEntity
  8
0
100
AcDbBlockBegin
  2
*D37
 70
     1
 10
0.0
 20
0.0
 30
0.0
  3
*D37
  1

  0
LINE
  5
1C838
330
1C79E
100
AcDbEntity
  8
003
 62
     4
370
    20
100
AcDbLine
 10
300.0152399062667
 20
282.2827051187007
 30
0.0
 11
300.0152399062667
 21
339.081124983564
 31
0.0
  0
LINE
  5
1C839
330
1C79E
100
AcDbEntity
  8
003
 62
     4
370
    20
100
AcDbLine
 10
299.0152399062667
 20
230.2827051186996
 30
0.0
 11
299.0152399062667
 21
339.081124983564
 31
0.0
  0
LINE
  5
1C83A
330
1C79E
100
AcDbEntity
  8
003
 62
     4
370
    20
100
AcDbLine
 10
303.0152399062667
 20
337.081124983564
 30
0.0
 11
306.0152399062667
 21
337.081124983564
 31
0.0
  0
LINE
  5
1C83B
330
1C79E
100
AcDbEntity
  8
003
 62
     4
370
    20
100
AcDbLine
 10
296.0152399062668
 20
337.081124983564
 30
0.0
 11
293.0152399062667
 21
337.081124983564
 31
0.0
  0
LINE
  5
1C83C
330
1C79E
100
AcDbEntity
  8
003
 62
     4
370
    20
100
AcDbLine
 10
300.0152399062667
 20
337.081124983564
 30
0.0
 11
299.0152399062667
 21
337.081124983564
 31
0.0
  0
INSERT
  5
1C83D
330
1C79E
100
AcDbEntity
  8
003
 62
     4
370
    20
100
AcDbBlockReference
  2
_Open30
 10
300.0152399062667
 20
337.081124983564
 30
0.0
 41
3.0
 42
3.0
 43
3.0
 50
180.0
  0
INSERT
  5
1C83E
330
1C79E
100
AcDbEntity
  8
003
 62
     4
370
    20
100
AcDbBlockReference
  2
_Open30
 10
299.0152399062667
 20
337.081124983564
 30
0.0
 41
3.0
 42
3.0
 43
3.0
  0
MTEXT
  5
1C83F
330
1C79E
100
AcDbEntity
  8
003
 62
     7
100
AcDbMText
 10
299.5152399062667
 20
342.081124983564
 30
0.0
 40
6.0
 41
0.0
 71
     5
 72
     1
  1
1
  7
DIM
 73
     1
 44
1.0
1001
ACAD
1000
MTEXTBEGIN
1070
    73
1070
     1
1070
    44
1040
1.0
1070
    74
1070
     0
1000
MTEXTEND
  0
POINT
  5
1C840
330
1C79E
100
AcDbEntity
  8
Defpoints
 62
     0
100
AcDbPoint
 10
300.0152399062667
 20
279.2827051187007
 30
0.0
  0
POINT
  5
1C841
330
1C79E
100
AcDbEntity
  8
Defpoints
 62
     0
100
AcDbPoint
 10
299.0152399062667
 20
227.2827051186996
 30
0.0
  0
POINT
  5
1C842
330
1C79E
100
AcDbEntity
  8
Defpoints
 62
     0
100
AcDbPoint
 10
299.0152399062667
 20
337.081124983564
 30
0.0
  0
ENDBLK
  5
1C7A0
330
1C79E
100
AcDbEntity
  8
0
100
AcDbBlockEnd
  0
BLOCK
  5
1C7AD
330
1C7AC
100
AcDbEntity
  8
0
100
AcDbBlockBegin
  2
*D38
 70
     1
 10
0.0
 20
0.0
 30
0.0
  3
*D38
  1

  0
LINE
  5
1C843
330
1C7AC
100
AcDbEntity
  8
003
 62
     4
370
    20
100
AcDbLine
 10
300.0152399062667
 20
282.2827051187007
 30
0.0
 11
300.0152399062667
 21
325.081124983564
 31
0.0
  0
LINE
  5
1C844
330
1C7AC
100
AcDbEntity
  8
003
 62
     4
370
    20
100
AcDbLine
 10
330.0152399062667
 20
292.2827051187007
 30
0.0
 11
330.0152399062667
 21
325.081124983564
 31
0.0
  0
LINE
  5
1C845
330
1C7AC
100
AcDbEntity
  8
003
 62
     4
370
    20
100
AcDbLine
 10
303.0152399062667
 20
323.081124983564
 30
0.0
 11
327.0152399062667
 21
323.081124983564
 31
0.0
  0
INSERT
  5
1C846
330
1C7AC
100
AcDbEntity
  8
003
 62
     4
370
    20
100
AcDbBlockReference
  2
_Open30
 10
300.0152399062667
 20
323.081124983564
 30
0.0
 41
3.0
 42
3.0
 43
3.0
 50
180.0
  0
INSERT
  5
1C847
330
1C7AC
100
AcDbEntity
  8
003
 62
     4
370
    20
100
AcDbBlockReference
  2
_Open30
 10
330.0152399062667
 20
323.081124983564
 30
0.0
 41
3.0
 42
3.0
 43
3.0
  0
MTEXT
  5
1C848
330
1C7AC
100
AcDbEntity
  8
003
 62
     7
100
AcDbMText
 10
315.0152399062668
 20
328.081124983564
 30
0.0
 40
6.0
 41
0.0
 71
     5
 72
     1
  1
30
  7
DIM
 73
     1
 44
1.0
1001
ACAD
1000
MTEXTBEGIN
1070
    73
1070
     1
1070
    44
1040
1.0
1070
    74
1070
     0
1000
MTEXTEND
  0
POINT
  5
1C849
330
1C7AC
100
AcDbEntity
  8
Defpoints
 62
     0
100
AcDbPoint
 10
300.0152399062667
 20
279.2827051187007
 30
0.0
  0
POINT
  5
1C84A
330
1C7AC
100
AcDbEntity
  8
Defpoints
 62
     0
100
AcDbPoint
 10
330.0152399062667
 20
289.2827051187008
 30
0.0
  0
POINT
  5
1C84B
330
1C7AC
100
AcDbEntity
  8
Defpoints
 62
     0
100
AcDbPoint
 10
330.0152399062667
 20
323.081124983564
 30
0.0
  0
ENDBLK
  5
1C7AE
330
1C7AC
100
AcDbEntity
  8
0
100
AcDbBlockEnd
  0
BLOCK
  5
1C7B9
330
1C7B8
100
AcDbEntity
  8
0
100
AcDbBlockBegin
  2
*D39
 70
     1
 10
0.0
 20
0.0
 30
0.0
  3
*D39
  1

  0
LINE
  5
1C84C
330
1C7B8
100
AcDbEntity
  8
003
 62
     4
370
    20
100
AcDbLine
 10
299.0152399062668
 20
230.2827051186996
 30
0.0
 11
299.0152399062668
 21
339.081124983564
 31
0.0
  0
LINE
  5
1C84D
330
1C7B8
100
AcDbEntity
  8
003
 62
     4
370
    20
100
AcDbLine
 10
565.015239906266
 20
282.2826943874456
 30
0.0
 11
565.015239906266
 21
339.081124983564
 31
0.0
  0
LINE
  5
1C84E
330
1C7B8
100
AcDbEntity
  8
003
 62
     4
370
    20
100
AcDbLine
 10
302.0152399062668
 20
337.081124983564
 30
0.0
 11
562.015239906266
 21
337.081124983564
 31
0.0
  0
INSERT
  5
1C84F
330
1C7B8
100
AcDbEntity
  8
003
 62
     4
370
    20
100
AcDbBlockReference
  2
_Open30
 10
299.0152399062668
 20
337.081124983564
 30
0.0
 41
3.0
 42
3.0
 43
3.0
 50
180.0
  0
INSERT
  5
1C850
330
1C7B8
100
AcDbEntity
  8
003
 62
     4
370
    20
100
AcDbBlockReference
  2
_Open30
 10
565.015239906266
 20
337.081124983564
 30
0.0
 41
3.0
 42
3.0
 43
3.0
  0
MTEXT
  5
1C851
330
1C7B8
100
AcDbEntity
  8
003
 62
     7
100
AcDbMText
 10
432.0152399062664
 20
342.081124983564
 30
0.0
 40
6.0
 41
0.0
 71
     5
 72
     1
  1
製品W=SW-2
  7
DIM
 73
     1
 44
1.0
1001
ACAD
1000
MTEXTBEGIN
1070
    73
1070
     1
1070
    44
1040
1.0
1070
    74
1070
     0
1000
MTEXTEND
  0
POINT
  5
1C852
330
1C7B8
100
AcDbEntity
  8
Defpoints
 62
     0
100
AcDbPoint
 10
299.0152399062668
 20
227.2827051186996
 30
0.0
  0
POINT
  5
1C853
330
1C7B8
100
AcDbEntity
  8
Defpoints
 62
     0
100
AcDbPoint
 10
565.015239906266
 20
279.2826943874457
 30
0.0
  0
POINT
  5
1C854
330
1C7B8
100
AcDbEntity
  8
Defpoints
 62
     0
100
AcDbPoint
 10
565.015239906266
 20
337.081124983564
 30
0.0
  0
ENDBLK
  5
1C7BA
330
1C7B8
100
AcDbEntity
  8
0
100
AcDbBlockEnd
  0
BLOCK
  5
1C7C5
330
1C7C4
100
AcDbEntity
  8
0
100
AcDbBlockBegin
  2
*D40
 70
     1
 10
0.0
 20
0.0
 30
0.0
  3
*D40
  1

  0
LINE
  5
1C855
330
1C7C4
100
AcDbEntity
  8
003
 62
     4
370
    20
100
AcDbLine
 10
565.015239906266
 20
282.2827051187007
 30
0.0
 11
565.015239906266
 21
339.081124983564
 31
0.0
  0
LINE
  5
1C856
330
1C7C4
100
AcDbEntity
  8
003
 62
     4
370
    20
100
AcDbLine
 10
566.015239906266
 20
230.2827051186996
 30
0.0
 11
566.015239906266
 21
339.081124983564
 31
0.0
  0
LINE
  5
1C857
330
1C7C4
100
AcDbEntity
  8
003
 62
     4
370
    20
100
AcDbLine
 10
562.015239906266
 20
337.081124983564
 30
0.0
 11
559.015239906266
 21
337.081124983564
 31
0.0
  0
LINE
  5
1C858
330
1C7C4
100
AcDbEntity
  8
003
 62
     4
370
    20
100
AcDbLine
 10
569.015239906266
 20
337.081124983564
 30
0.0
 11
572.015239906266
 21
337.081124983564
 31
0.0
  0
LINE
  5
1C859
330
1C7C4
100
AcDbEntity
  8
003
 62
     4
370
    20
100
AcDbLine
 10
565.015239906266
 20
337.081124983564
 30
0.0
 11
566.015239906266
 21
337.081124983564
 31
0.0
  0
INSERT
  5
1C85A
330
1C7C4
100
AcDbEntity
  8
003
 62
     4
370
    20
100
AcDbBlockReference
  2
_Open30
 10
565.015239906266
 20
337.081124983564
 30
0.0
 41
3.0
 42
3.0
 43
3.0
  0
INSERT
  5
1C85B
330
1C7C4
100
AcDbEntity
  8
003
 62
     4
370
    20
100
AcDbBlockReference
  2
_Open30
 10
566.015239906266
 20
337.081124983564
 30
0.0
 41
3.0
 42
3.0
 43
3.0
 50
180.0
  0
MTEXT
  5
1C85C
330
1C7C4
100
AcDbEntity
  8
003
 62
     7
100
AcDbMText
 10
565.515239906266
 20
342.081124983564
 30
0.0
 40
6.0
 41
0.0
 71
     5
 72
     1
  1
1
  7
DIM
 73
     1
 44
1.0
1001
ACAD
1000
MTEXTBEGIN
1070
    73
1070
     1
1070
    44
1040
1.0
1070
    74
1070
     0
1000
MTEXTEND
  0
POINT
  5
1C85D
330
1C7C4
100
AcDbEntity
  8
Defpoints
 62
     0
100
AcDbPoint
 10
565.015239906266
 20
279.2827051187007
 30
0.0
  0
POINT
  5
1C85E
330
1C7C4
100
AcDbEntity
  8
Defpoints
 62
     0
100
AcDbPoint
 10
566.015239906266
 20
227.2827051186996
 30
0.0
  0
POINT
  5
1C85F
330
1C7C4
100
AcDbEntity
  8
Defpoints
 62
     0
100
AcDbPoint
 10
566.015239906266
 20
337.081124983564
 30
0.0
  0
ENDBLK
  5
1C7C6
330
1C7C4
100
AcDbEntity
  8
0
100
AcDbBlockEnd
  0
BLOCK
  5
1C7D3
330
1C7D2
100
AcDbEntity
  8
0
100
AcDbBlockBegin
  2
*D41
 70
     1
 10
0.0
 20
0.0
 30
0.0
  3
*D41
  1

  0
LINE
  5
1C860
330
1C7D2
100
AcDbEntity
  8
003
 62
     4
370
    20
100
AcDbLine
 10
565.015239906266
 20
282.2827051187007
 30
0.0
 11
565.015239906266
 21
325.081124983564
 31
0.0
  0
LINE
  5
1C861
330
1C7D2
100
AcDbEntity
  8
003
 62
     4
370
    20
100
AcDbLine
 10
535.015239906266
 20
292.2827051187007
 30
0.0
 11
535.015239906266
 21
325.081124983564
 31
0.0
  0
LINE
  5
1C862
330
1C7D2
100
AcDbEntity
  8
003
 62
     4
370
    20
100
AcDbLine
 10
562.015239906266
 20
323.081124983564
 30
0.0
 11
538.015239906266
 21
323.081124983564
 31
0.0
  0
INSERT
  5
1C863
330
1C7D2
100
AcDbEntity
  8
003
 62
     4
370
    20
100
AcDbBlockReference
  2
_Open30
 10
565.015239906266
 20
323.081124983564
 30
0.0
 41
3.0
 42
3.0
 43
3.0
  0
INSERT
  5
1C864
330
1C7D2
100
AcDbEntity
  8
003
 62
     4
370
    20
100
AcDbBlockReference
  2
_Open30
 10
535.015239906266
 20
323.081124983564
 30
0.0
 41
3.0
 42
3.0
 43
3.0
 50
180.0
  0
MTEXT
  5
1C865
330
1C7D2
100
AcDbEntity
  8
003
 62
     7
100
AcDbMText
 10
550.0152399062661
 20
328.081124983564
 30
0.0
 40
6.0
 41
0.0
 71
     5
 72
     1
  1
30
  7
DIM
 73
     1
 44
1.0
1001
ACAD
1000
MTEXTBEGIN
1070
    73
1070
     1
1070
    44
1040
1.0
1070
    74
1070
     0
1000
MTEXTEND
  0
POINT
  5
1C866
330
1C7D2
100
AcDbEntity
  8
Defpoints
 62
     0
100
AcDbPoint
 10
565.015239906266
 20
279.2827051187007
 30
0.0
  0
POINT
  5
1C867
330
1C7D2
100
AcDbEntity
  8
Defpoints
 62
     0
100
AcDbPoint
 10
535.015239906266
 20
289.2827051187008
 30
0.0
  0
POINT
  5
1C868
330
1C7D2
100
AcDbEntity
  8
Defpoints
 62
     0
100
AcDbPoint
 10
535.015239906266
 20
323.081124983564
 30
0.0
  0
ENDBLK
  5
1C7D4
330
1C7D2
100
AcDbEntity
  8
0
100
AcDbBlockEnd
  0
BLOCK
  5
1C7DF
330
1C7DE
100
AcDbEntity
  8
0
100
AcDbBlockBegin
  2
*D42
 70
     1
 10
0.0
 20
0.0
 30
0.0
  3
*D42
  1

  0
LINE
  5
1C869
330
1C7DE
100
AcDbEntity
  8
003
 62
     4
370
    20
100
AcDbLine
 10
299.0152399062667
 20
155.2827051187005
 30
0.0
 11
299.0152399062667
 21
118.6001278518657
 31
0.0
  0
LINE
  5
1C86A
330
1C7DE
100
AcDbEntity
  8
003
 62
     4
370
    20
100
AcDbLine
 10
566.0152399062665
 20
155.2827051187005
 30
0.0
 11
566.0152399062665
 21
118.6001278518657
 31
0.0
  0
LINE
  5
1C86B
330
1C7DE
100
AcDbEntity
  8
003
 62
     4
370
    20
100
AcDbLine
 10
302.0152399062667
 20
120.6001278518657
 30
0.0
 11
563.0152399062665
 21
120.6001278518657
 31
0.0
  0
INSERT
  5
1C86C
330
1C7DE
100
AcDbEntity
  8
003
 62
     4
370
    20
100
AcDbBlockReference
  2
_Open30
 10
299.0152399062667
 20
120.6001278518657
 30
0.0
 41
3.0
 42
3.0
 43
3.0
 50
180.0
  0
INSERT
  5
1C86D
330
1C7DE
100
AcDbEntity
  8
003
 62
     4
370
    20
100
AcDbBlockReference
  2
_Open30
 10
566.0152399062665
 20
120.6001278518657
 30
0.0
 41
3.0
 42
3.0
 43
3.0
  0
MTEXT
  5
1C86E
330
1C7DE
100
AcDbEntity
  8
003
 62
     7
100
AcDbMText
 10
432.5152399062666
 20
125.6001278518657
 30
0.0
 40
6.0
 41
0.0
 71
     5
 72
     1
  1
SW
  7
DIM
 73
     1
 44
1.0
1001
ACAD
1000
MTEXTBEGIN
1070
    73
1070
     1
1070
    44
1040
1.0
1070
    74
1070
     0
1000
MTEXTEND
  0
POINT
  5
1C86F
330
1C7DE
100
AcDbEntity
  8
Defpoints
 62
     0
100
AcDbPoint
 10
299.0152399062667
 20
158.2827051187005
 30
0.0
  0
POINT
  5
1C870
330
1C7DE
100
AcDbEntity
  8
Defpoints
 62
     0
100
AcDbPoint
 10
566.0152399062665
 20
158.2827051187005
 30
0.0
  0
POINT
  5
1C871
330
1C7DE
100
AcDbEntity
  8
Defpoints
 62
     0
100
AcDbPoint
 10
566.0152399062665
 20
120.6001278518657
 30
0.0
  0
ENDBLK
  5
1C7E0
330
1C7DE
100
AcDbEntity
  8
0
100
AcDbBlockEnd
  0
BLOCK
  5
1C7EB
330
1C7EA
100
AcDbEntity
  8
0
100
AcDbBlockBegin
  2
*D43
 70
     1
 10
0.0
 20
0.0
 30
0.0
  3
*D43
  1

  0
LINE
  5
1C872
330
1C7EA
100
AcDbEntity
  8
003
 62
     4
370
    20
100
AcDbLine
 10
574.9582168559184
 20
227.7826943874448
 30
0.0
 11
579.19206269758
 21
227.7826943874448
 31
0.0
  0
LINE
  5
1C873
330
1C7EA
100
AcDbEntity
  8
003
 62
     4
370
    20
100
AcDbLine
 10
577.4330710027973
 20
157.7826943874453
 30
0.0
 11
579.19206269758
 21
157.7826943874453
 31
0.0
  0
LINE
  5
1C874
330
1C7EA
100
AcDbEntity
  8
003
 62
     4
370
    20
100
AcDbLine
 10
577.1920626975799
 20
224.7826943874448
 30
0.0
 11
577.1920626975799
 21
160.7826943874453
 31
0.0
  0
INSERT
  5
1C875
330
1C7EA
100
AcDbEntity
  8
003
 62
     4
370
    20
100
AcDbBlockReference
  2
_Open30
 10
577.1920626975799
 20
227.7826943874448
 30
0.0
 41
3.0
 42
3.0
 43
3.0
 50
90.0
  0
INSERT
  5
1C876
330
1C7EA
100
AcDbEntity
  8
003
 62
     4
370
    20
100
AcDbBlockReference
  2
_Open30
 10
577.1920626975799
 20
157.7826943874453
 30
0.0
 41
3.0
 42
3.0
 43
3.0
 50
270.0
  0
MTEXT
  5
1C877
330
1C7EA
100
AcDbEntity
  8
003
 62
     7
100
AcDbMText
 10
572.19206269758
 20
192.7826943874451
 30
0.0
 40
6.0
 41
0.0
 71
     5
 72
     1
  1
70
  7
DIM
 11
0.0000000000000001
 21
1.0
 31
0.0
 73
     1
 44
1.0
1001
ACAD
1000
MTEXTBEGIN
1070
    73
1070
     1
1070
    44
1040
1.0
1070
    74
1070
     0
1000
MTEXTEND
  0
POINT
  5
1C878
330
1C7EA
100
AcDbEntity
  8
Defpoints
 62
     0
100
AcDbPoint
 10
571.9582168559184
 20
227.7826943874448
 30
0.0
  0
POINT
  5
1C879
330
1C7EA
100
AcDbEntity
  8
Defpoints
 62
     0
100
AcDbPoint
 10
574.4330710027973
 20
157.7826943874453
 30
0.0
  0
POINT
  5
1C87A
330
1C7EA
100
AcDbEntity
  8
Defpoints
 62
     0
100
AcDbPoint
 10
577.1920626975799
 20
157.7826943874453
 30
0.0
  0
ENDBLK
  5
1C7EC
330
1C7EA
100
AcDbEntity
  8
0
100
AcDbBlockEnd
  0
BLOCK
  5
1C7F7
330
1C7F6
100
AcDbEntity
  8
0
100
AcDbBlockBegin
  2
*D44
 70
     1
 10
0.0
 20
0.0
 30
0.0
  3
*D44
  1

  0
LINE
  5
1C87B
330
1C7F6
100
AcDbEntity
  8
003
 62
     4
370
    20
100
AcDbLine
 10
558.0152399062661
 20
289.2826943874457
 30
0.0
 11
579.1920626975801
 21
289.2826943874457
 31
0.0
  0
LINE
  5
1C87C
330
1C7F6
100
AcDbEntity
  8
003
 62
     4
370
    20
100
AcDbLine
 10
574.9582168559184
 20
227.7826943874448
 30
0.0
 11
579.19206269758
 21
227.7826943874448
 31
0.0
  0
LINE
  5
1C87D
330
1C7F6
100
AcDbEntity
  8
003
 62
     4
370
    20
100
AcDbLine
 10
577.1920626975801
 20
286.2826943874456
 30
0.0
 11
577.1920626975799
 21
230.7826943874448
 31
0.0
  0
INSERT
  5
1C87E
330
1C7F6
100
AcDbEntity
  8
003
 62
     4
370
    20
100
AcDbBlockReference
  2
_Open30
 10
577.1920626975801
 20
289.2826943874457
 30
0.0
 41
3.0
 42
3.0
 43
3.0
 50
90.0
  0
INSERT
  5
1C87F
330
1C7F6
100
AcDbEntity
  8
003
 62
     4
370
    20
100
AcDbBlockReference
  2
_Open30
 10
577.1920626975799
 20
227.7826943874448
 30
0.0
 41
3.0
 42
3.0
 43
3.0
 50
270.0
  0
MTEXT
  5
1C880
330
1C7F6
100
AcDbEntity
  8
003
 62
     7
100
AcDbMText
 10
572.19206269758
 20
258.5326943874453
 30
0.0
 40
6.0
 41
0.0
 71
     5
 72
     1
  1
61.5
  7
DIM
 11
0.0000000000000001
 21
1.0
 31
0.0
 73
     1
 44
1.0
1001
ACAD
1000
MTEXTBEGIN
1070
    73
1070
     1
1070
    44
1040
1.0
1070
    74
1070
     0
1000
MTEXTEND
  0
POINT
  5
1C881
330
1C7F6
100
AcDbEntity
  8
Defpoints
 62
     0
100
AcDbPoint
 10
555.015239906266
 20
289.2826943874457
 30
0.0
  0
POINT
  5
1C882
330
1C7F6
100
AcDbEntity
  8
Defpoints
 62
     0
100
AcDbPoint
 10
571.9582168559184
 20
227.7826943874448
 30
0.0
  0
POINT
  5
1C883
330
1C7F6
100
AcDbEntity
  8
Defpoints
 62
     0
100
AcDbPoint
 10
577.1920626975799
 20
227.7826943874448
 30
0.0
  0
ENDBLK
  5
1C7F8
330
1C7F6
100
AcDbEntity
  8
0
100
AcDbBlockEnd
  0
BLOCK
  5
1C803
330
1C802
100
AcDbEntity
  8
0
100
AcDbBlockBegin
  2
*D45
 70
     1
 10
0.0
 20
0.0
 30
0.0
  3
*D45
  1

  0
LINE
  5
1C884
330
1C802
100
AcDbEntity
  8
003
 62
     4
370
    20
100
AcDbLine
 10
553.5902499062668
 20
224.2826943874456
 30
0.0
 11
550.3894167947273
 21
224.2826943874456
 31
0.0
  0
LINE
  5
1C885
330
1C802
100
AcDbEntity
  8
003
 62
     4
370
    20
100
AcDbLine
 10
549.0152399062663
 20
289.2826943874457
 30
0.0
 11
554.3894167947274
 21
289.2826943874457
 31
0.0
  0
LINE
  5
1C886
330
1C802
100
AcDbEntity
  8
003
 62
     4
370
    20
100
AcDbLine
 10
552.3894167947274
 20
227.2826943874457
 30
0.0
 11
552.3894167947275
 21
286.2826943874456
 31
0.0
  0
INSERT
  5
1C887
330
1C802
100
AcDbEntity
  8
003
 62
     4
370
    20
100
AcDbBlockReference
  2
_Open30
 10
552.3894167947274
 20
224.2826943874456
 30
0.0
 41
3.0
 42
3.0
 43
3.0
 50
270.0
  0
INSERT
  5
1C888
330
1C802
100
AcDbEntity
  8
003
 62
     4
370
    20
100
AcDbBlockReference
  2
_Open30
 10
552.3894167947275
 20
289.2826943874457
 30
0.0
 41
3.0
 42
3.0
 43
3.0
 50
90.0
  0
MTEXT
  5
1C889
330
1C802
100
AcDbEntity
  8
003
 62
     7
100
AcDbMText
 10
547.3894167947273
 20
256.7826943874457
 30
0.0
 40
6.0
 41
0.0
 71
     5
 72
     1
  1
65
  7
DIM
 11
0.0000000000000001
 21
1.0
 31
0.0
 73
     1
 44
1.0
1001
ACAD
1000
MTEXTBEGIN
1070
    73
1070
     1
1070
    44
1040
1.0
1070
    74
1070
     0
1000
MTEXTEND
  0
POINT
  5
1C88A
330
1C802
100
AcDbEntity
  8
Defpoints
 62
     0
100
AcDbPoint
 10
556.5902499062668
 20
224.2826943874456
 30
0.0
  0
POINT
  5
1C88B
330
1C802
100
AcDbEntity
  8
Defpoints
 62
     0
100
AcDbPoint
 10
546.0152399062663
 20
289.2826943874457
 30
0.0
  0
POINT
  5
1C88C
330
1C802
100
AcDbEntity
  8
Defpoints
 62
     0
100
AcDbPoint
 10
552.3894167947275
 20
289.2826943874457
 30
0.0
  0
ENDBLK
  5
1C804
330
1C802
100
AcDbEntity
  8
0
100
AcDbBlockEnd
  0
BLOCK
  5
1C80F
330
1C80E
100
AcDbEntity
  8
0
100
AcDbBlockBegin
  2
*D46
 70
     1
 10
0.0
 20
0.0
 30
0.0
  3
*D46
  1

  0
LINE
  5
1C88D
330
1C80E
100
AcDbEntity
  8
003
 62
     4
370
    20
100
AcDbLine
 10
683.790587796177
 20
418.2401181554426
 30
0.0
 11
721.5525996421706
 21
418.2401181554426
 31
0.0
  0
LINE
  5
1C88E
330
1C80E
100
AcDbEntity
  8
003
 62
     4
370
    20
100
AcDbLine
 10
683.790587796177
 20
528.3401181554426
 30
0.0
 11
721.5525996421706
 21
528.3401181554426
 31
0.0
  0
LINE
  5
1C88F
330
1C80E
100
AcDbEntity
  8
003
 62
     4
370
    20
100
AcDbLine
 10
719.5525996421706
 20
421.2401181554425
 30
0.0
 11
719.5525996421706
 21
525.3401181554425
 31
0.0
  0
INSERT
  5
1C890
330
1C80E
100
AcDbEntity
  8
003
 62
     4
370
    20
100
AcDbBlockReference
  2
_Open30
 10
719.5525996421706
 20
418.2401181554426
 30
0.0
 41
3.0
 42
3.0
 43
3.0
 50
270.0
  0
INSERT
  5
1C891
330
1C80E
100
AcDbEntity
  8
003
 62
     4
370
    20
100
AcDbBlockReference
  2
_Open30
 10
719.5525996421706
 20
528.3401181554426
 30
0.0
 41
3.0
 42
3.0
 43
3.0
 50
90.0
  0
MTEXT
  5
1C892
330
1C80E
100
AcDbEntity
  8
003
 62
     7
100
AcDbMText
 10
714.5525996421705
 20
473.2901181554427
 30
0.0
 40
6.0
 41
0.0
 71
     5
 72
     1
  1
製品H
  7
DIM
 11
0.0000000000000001
 21
1.0
 31
0.0
 73
     1
 44
1.0
1001
ACAD
1000
MTEXTBEGIN
1070
    73
1070
     1
1070
    44
1040
1.0
1070
    74
1070
     0
1000
MTEXTEND
  0
POINT
  5
1C893
330
1C80E
100
AcDbEntity
  8
Defpoints
 62
     0
100
AcDbPoint
 10
680.790587796177
 20
418.2401181554426
 30
0.0
  0
POINT
  5
1C894
330
1C80E
100
AcDbEntity
  8
Defpoints
 62
     0
100
AcDbPoint
 10
680.790587796177
 20
528.3401181554426
 30
0.0
  0
POINT
  5
1C895
330
1C80E
100
AcDbEntity
  8
Defpoints
 62
     0
100
AcDbPoint
 10
719.5525996421706
 20
528.3401181554426
 30
0.0
  0
ENDBLK
  5
1C810
330
1C80E
100
AcDbEntity
  8
0
100
AcDbBlockEnd
  0
BLOCK
  5
1C81B
330
1C81A
100
AcDbEntity
  8
0
100
AcDbBlockBegin
  2
*D47
 70
     1
 10
0.0
 20
0.0
 30
0.0
  3
*D47
  1

  0
LINE
  5
1C896
330
1C81A
100
AcDbEntity
  8
003
 62
     4
370
    20
100
AcDbLine
 10
590.7905877961771
 20
415.2401181554425
 30
0.0
 11
590.7905877961771
 21
393.9218147561323
 31
0.0
  0
LINE
  5
1C897
330
1C81A
100
AcDbEntity
  8
003
 62
     4
370
    20
100
AcDbLine
 10
680.790587796177
 20
415.2401181554425
 30
0.0
 11
680.790587796177
 21
393.9218147561323
 31
0.0
  0
LINE
  5
1C898
330
1C81A
100
AcDbEntity
  8
003
 62
     4
370
    20
100
AcDbLine
 10
593.790587796177
 20
395.9218147561323
 30
0.0
 11
677.7905877961771
 21
395.9218147561323
 31
0.0
  0
INSERT
  5
1C899
330
1C81A
100
AcDbEntity
  8
003
 62
     4
370
    20
100
AcDbBlockReference
  2
_Open30
 10
590.7905877961771
 20
395.9218147561323
 30
0.0
 41
3.0
 42
3.0
 43
3.0
 50
180.0
  0
INSERT
  5
1C89A
330
1C81A
100
AcDbEntity
  8
003
 62
     4
370
    20
100
AcDbBlockReference
  2
_Open30
 10
680.790587796177
 20
395.9218147561323
 30
0.0
 41
3.0
 42
3.0
 43
3.0
  0
MTEXT
  5
1C89B
330
1C81A
100
AcDbEntity
  8
003
 62
     7
100
AcDbMText
 10
635.790587796177
 20
400.9218147561323
 30
0.0
 40
6.0
 41
0.0
 71
     5
 72
     1
  1
製品W
  7
DIM
 73
     1
 44
1.0
1001
ACAD
1000
MTEXTBEGIN
1070
    73
1070
     1
1070
    44
1040
1.0
1070
    74
1070
     0
1000
MTEXTEND
  0
POINT
  5
1C89C
330
1C81A
100
AcDbEntity
  8
Defpoints
 62
     0
100
AcDbPoint
 10
590.7905877961771
 20
418.2401181554426
 30
0.0
  0
POINT
  5
1C89D
330
1C81A
100
AcDbEntity
  8
Defpoints
 62
     0
100
AcDbPoint
 10
680.790587796177
 20
418.2401181554426
 30
0.0
  0
POINT
  5
1C89E
330
1C81A
100
AcDbEntity
  8
Defpoints
 62
     0
100
AcDbPoint
 10
680.790587796177
 20
395.9218147561323
 30
0.0
  0
ENDBLK
  5
1C81C
330
1C81A
100
AcDbEntity
  8
0
100
AcDbBlockEnd
  0
ENDSEC
  0
SECTION
  2
ENTITIES
  0
POINT
  5
F7F2
330
1F
100
AcDbEntity
  8
0
100
AcDbPoint
 10
20.0000000000001
 20
558.0
 30
0.0
  0
LINE
  5
18764
330
1F
100
AcDbEntity
  8
0
  6
ByBlock
 62
     0
370
    -2
100
AcDbLine
 10
40.00000000000034
 20
38.0
 30
0.0
 11
798.0000000000034
 21
38.00000000000011
 31
0.0
  0
LINE
  5
18765
330
1F
100
AcDbEntity
  8
0
  6
ByBlock
 62
     0
370
    -2
100
AcDbLine
 10
40.00000000000034
 20
58.0
 30
0.0
 11
798.0000000000034
 21
58.0
 31
0.0
  0
LINE
  5
18766
330
1F
100
AcDbEntity
  8
0
  6
ByBlock
 62
     0
370
    -2
100
AcDbLine
 10
579.0000000000002
 20
51.0
 30
0.0
 11
419.0000000000004
 21
51.0
 31
0.0
  0
LINE
  5
18767
330
1F
100
AcDbEntity
  8
0
  6
ByBlock
 62
     0
370
    -2
100
AcDbLine
 10
40.00000000000011
 20
558.0
 30
0.0
 11
40.00000000000011
 21
38.0
 31
0.0
  0
LINE
  5
18768
330
1F
100
AcDbEntity
  8
0
  6
ByBlock
 62
     0
370
    -2
100
AcDbLine
 10
145.0000000000004
 20
38.0
 30
0.0
 11
235.0000000000002
 21
38.0
 31
0.0
  0
LINE
  5
18769
330
1F
100
AcDbEntity
  8
0
  6
ByBlock
 62
     0
370
    -2
100
AcDbLine
 10
145.0000000000004
 20
48.07416123045095
 30
0.0
 11
235.0000000000002
 21
48.07416123045095
 31
0.0
  0
LINE
  5
1876A
330
1F
100
AcDbEntity
  8
0
  6
ByBlock
 62
     0
370
    -2
100
AcDbLine
 10
145.0000000000004
 20
53.07416123045095
 30
0.0
 11
235.0000000000002
 21
53.07416123045095
 31
0.0
  0
LINE
  5
1876B
330
1F
100
AcDbEntity
  8
0
  6
ByBlock
 62
     0
370
    -2
100
AcDbLine
 10
145.0000000000004
 20
43.07416123045095
 30
0.0
 11
235.0000000000002
 21
43.07416123045095
 31
0.0
  0
HATCH
  5
1876C
330
1F
100
AcDbEntity
  8
0
  6
ByBlock
 62
     0
100
AcDbHatch
 10
0.0
 20
0.0
 30
0.0
210
0.0
220
0.0
230
1.0
  2
ANSI31
 70
     0
 71
     0
 91
        1
 92
        1
 93
        1
 72
     4
 94
        3
 73
     0
 74
     0
 95
       53
 96
       49
 40
0.0
 40
0.0
 40
0.0
 40
0.0
 40
1.0
 40
1.0
 40
1.0
 40
2.0
 40
2.0
 40
2.0
 40
3.0
 40
3.0
 40
3.0
 40
4.0
 40
4.0
 40
4.0
 40
5.0
 40
5.0
 40
5.0
 40
6.0
 40
6.0
 40
6.0
 40
7.0
 40
7.0
 40
7.0
 40
8.0
 40
8.0
 40
8.0
 40
9.0
 40
9.0
 40
9.0
 40
10.0
 40
10.0
 40
10.0
 40
11.0
 40
11.0
 40
11.0
 40
12.0
 40
12.0
 40
12.0
 40
13.0
 40
13.0
 40
13.0
 40
14.0
 40
14.0
 40
14.0
 40
15.0
 40
15.0
 40
15.0
 40
16.0
 40
16.0
 40
16.0
 40
16.0
 10
92.27996644160327
 20
51.18337933628414
 10
92.20713712302687
 20
51.26742244066782
 10
92.09065844464147
 20
51.31010717374067
 10
91.93414775670737
 20
51.31010717374067
 10
91.93414775670737
 20
51.31010717374067
 10
86.12625075692438
 20
51.31010717374067
 10
86.12625075692438
 20
51.31010717374067
 10
86.12625075692438
 20
51.31010717374067
 10
86.12625075692438
 20
50.59061620694388
 10
86.12625075692438
 20
50.59061620694388
 10
86.12625075692438
 20
50.59061620694388
 10
91.33849074715874
 20
50.59061620694388
 10
91.43543573413797
 20
50.59061620694388
 10
91.40697924542269
 20
49.5122840943136
 10
90.40569669333933
 20
48.51944202617119
 10
89.38789490840008
 20
48.1675944241747
 10
89.39139168031852
 20
48.25947512078926
 10
89.39609423565707
 20
48.35063234735184
 10
89.39609423565707
 20
48.44540692417467
 10
89.39609423565707
 20
48.44540692417467
 10
89.39609423565707
 20
49.71003257521636
 10
89.39609423565707
 20
49.71003257521636
 10
89.39609423565707
 20
49.71003257521636
 10
88.53878222393836
 20
49.71003257521636
 10
88.53878222393836
 20
49.71003257521636
 10
88.53878222393836
 20
49.71003257521636
 10
88.53878222393836
 20
48.57442575012953
 10
88.53878222393836
 20
48.57442575012953
 10
88.53878222393836
 20
46.47395103224766
 10
87.77660652406849
 20
45.27491999926155
 10
86.13987610957201
 20
44.7993590183587
 10
86.13987610957201
 20
44.7993590183587
 10
86.10659648717614
 20
44.7899539076817
 10
86.10659648717614
 20
44.7899539076817
 10
86.10659648717614
 20
44.7899539076817
 10
86.10659648717614
 20
44.09349340420942
 10
86.10659648717614
 20
44.09349340420942
 10
86.10659648717614
 20
44.09349340420942
 10
86.16411235631677
 20
44.10796280525107
 10
86.16411235631677
 20
44.10796280525107
 10
87.94758661304422
 20
44.55458498407051
 10
88.99734165861719
 20
45.64099584561563
 10
89.30107850215007
 20
47.34018584127546
 10
91.16196405445043
 20
47.94934762512958
 10
92.35617195375608
 20
49.34287152378408
 10
92.35617195375608
 20
50.93366158997333
 10
92.35689542380805
 20
50.93257638489524
 10
92.37546448847821
 20
51.07256783997332
 10
92.27996644160327
 20
51.18337933628414
 97
        0
 75
     0
 76
     1
 52
0.0
 41
0.01
 77
     0
 78
     1
 53
45.0
 43
-0.9999983001881673
 44
21.50000079055394
 45
-0.0224506403026729
 46
0.0224506403026729
 79
     0
 98
        1
 10
95.92806417923339
 20
47.88960105666172
  0
HATCH
  5
1876D
330
1F
100
AcDbEntity
  8
0
  6
ByBlock
 62
     0
100
AcDbHatch
 10
0.0
 20
0.0
 30
0.0
210
0.0
220
0.0
230
1.0
  2
ANSI31
 70
     0
 71
     0
 91
        1
 92
        3
 72
     0
 73
     1
 93
        4
 10
56.65075447328729
 20
45.01398846714346
 10
56.65075447328729
 20
44.29510039205661
 10
63.26085918248873
 20
44.29510039205661
 10
63.26085918248873
 20
45.01398846714346
 97
        0
 75
     0
 76
     1
 52
0.0
 41
0.01
 77
     0
 78
     1
 53
45.0
 43
-0.9999983001881673
 44
21.50000079055394
 45
-0.0224506403026729
 46
0.0224506403026729
 79
     0
 98
        1
 10
59.95580682788795
 20
47.74948902324161
  0
HATCH
  5
1876E
330
1F
100
AcDbEntity
  8
0
  6
ByBlock
 62
     0
100
AcDbHatch
 10
0.0
 20
0.0
 30
0.0
210
0.0
220
0.0
230
1.0
  2
ANSI31
 70
     0
 71
     0
 91
        1
 92
        3
 72
     0
 73
     1
 93
        4
 10
62.63409296070051
 20
47.68140070925108
 10
62.63409296070051
 20
48.40077109770596
 10
57.27740011673347
 20
48.40077109770596
 10
57.27740011673347
 20
47.68140070925108
 97
        0
 75
     0
 76
     1
 52
0.0
 41
0.01
 77
     0
 78
     1
 53
45.0
 43
-0.9999983001881673
 44
21.32489919802617
 45
-0.0224506403026729
 46
0.0224506403026729
 79
     0
 98
        1
 10
59.95580682788795
 20
47.57438743071384
  0
HATCH
  5
1876F
330
1F
100
AcDbEntity
  8
0
  6
ByBlock
 62
     0
100
AcDbHatch
 10
0.0
 20
0.0
 30
0.0
210
0.0
220
0.0
230
1.0
  2
ANSI31
 70
     0
 71
     0
 91
        1
 92
        3
 72
     0
 73
     1
 93
        4
 10
62.88465475540533
 20
51.20387765442649
 10
57.02683832202865
 20
51.20387765442649
 10
57.02683832202865
 20
50.48438668762958
 10
62.88465475540533
 20
50.48438668762958
 97
        0
 75
     0
 76
     1
 52
0.0
 41
0.01
 77
     0
 78
     1
 53
45.0
 43
-0.9999983001881673
 44
21.50000079055394
 45
-0.0224506403026729
 46
0.0224506403026729
 79
     0
 98
        1
 10
59.95580682788795
 20
47.74948902324161
  0
HATCH
  5
18770
330
1F
100
AcDbEntity
  8
_13極細線
100
AcDbHatch
 10
0.0
 20
0.0
 30
0.0
210
0.0
220
0.0
230
1.0
  2
ANSI37
 70
     0
 71
     0
 91
        1
 92
        1
 93
        1
 72
     4
 94
        3
 73
     0
 74
     0
 95
      200
 96
      196
 40
0.0
 40
0.0
 40
0.0
 40
0.0
 40
1.0
 40
1.0
 40
1.0
 40
2.0
 40
2.0
 40
2.0
 40
3.0
 40
3.0
 40
3.0
 40
4.0
 40
4.0
 40
4.0
 40
5.0
 40
5.0
 40
5.0
 40
6.0
 40
6.0
 40
6.0
 40
7.0
 40
7.0
 40
7.0
 40
8.0
 40
8.0
 40
8.0
 40
9.0
 40
9.0
 40
9.0
 40
10.0
 40
10.0
 40
10.0
 40
11.0
 40
11.0
 40
11.0
 40
12.0
 40
12.0
 40
12.0
 40
13.0
 40
13.0
 40
13.0
 40
14.0
 40
14.0
 40
14.0
 40
15.0
 40
15.0
 40
15.0
 40
16.0
 40
16.0
 40
16.0
 40
17.0
 40
17.0
 40
17.0
 40
18.0
 40
18.0
 40
18.0
 40
19.0
 40
19.0
 40
19.0
 40
20.0
 40
20.0
 40
20.0
 40
21.0
 40
21.0
 40
21.0
 40
22.0
 40
22.0
 40
22.0
 40
23.0
 40
23.0
 40
23.0
 40
24.0
 40
24.0
 40
24.0
 40
25.0
 40
25.0
 40
25.0
 40
26.0
 40
26.0
 40
26.0
 40
27.0
 40
27.0
 40
27.0
 40
28.0
 40
28.0
 40
28.0
 40
29.0
 40
29.0
 40
29.0
 40
30.0
 40
30.0
 40
30.0
 40
31.0
 40
31.0
 40
31.0
 40
32.0
 40
32.0
 40
32.0
 40
33.0
 40
33.0
 40
33.0
 40
34.0
 40
34.0
 40
34.0
 40
35.0
 40
35.0
 40
35.0
 40
36.0
 40
36.0
 40
36.0
 40
37.0
 40
37.0
 40
37.0
 40
38.0
 40
38.0
 40
38.0
 40
39.0
 40
39.0
 40
39.0
 40
40.0
 40
40.0
 40
40.0
 40
41.0
 40
41.0
 40
41.0
 40
42.0
 40
42.0
 40
42.0
 40
43.0
 40
43.0
 40
43.0
 40
44.0
 40
44.0
 40
44.0
 40
45.0
 40
45.0
 40
45.0
 40
46.0
 40
46.0
 40
46.0
 40
47.0
 40
47.0
 40
47.0
 40
48.0
 40
48.0
 40
48.0
 40
49.0
 40
49.0
 40
49.0
 40
50.0
 40
50.0
 40
50.0
 40
51.0
 40
51.0
 40
51.0
 40
52.0
 40
52.0
 40
52.0
 40
53.0
 40
53.0
 40
53.0
 40
54.0
 40
54.0
 40
54.0
 40
55.0
 40
55.0
 40
55.0
 40
56.0
 40
56.0
 40
56.0
 40
57.0
 40
57.0
 40
57.0
 40
58.0
 40
58.0
 40
58.0
 40
59.0
 40
59.0
 40
59.0
 40
60.0
 40
60.0
 40
60.0
 40
61.0
 40
61.0
 40
61.0
 40
62.0
 40
62.0
 40
62.0
 40
63.0
 40
63.0
 40
63.0
 40
64.0
 40
64.0
 40
64.0
 40
65.0
 40
65.0
 40
65.0
 40
65.0
 10
47.33969490297477
 20
53.2898829712667
 10
46.75573399260156
 20
53.01436145976504
 10
46.34335606291403
 20
52.45101944587611
 10
46.23712654359974
 20
51.78313600946115
 10
46.23555902515363
 20
51.77373089878404
 10
46.23399150670741
 20
51.76589330655315
 10
46.23314745831328
 20
51.75684993090214
 10
46.18600132658594
 20
51.75974381111053
 10
46.14042271330458
 20
51.76275826966082
 10
46.08977980965881
 20
51.76275826966082
 10
45.45517599563971
 20
51.76275826966082
 10
45.01880297589138
 20
51.58599042026844
 10
44.58580614971959
 20
51.15227012404455
 10
44.32885370288795
 20
50.89495594218693
 10
44.19862909351297
 20
50.53020645759488
 10
44.19862909351297
 20
50.15569012729975
 10
44.19862909351297
 20
49.8247025784716
 10
44.3012412625668
 20
49.48611859409663
 10
44.50911832419876
 20
49.21083823927893
 10
44.97997674976295
 20
48.58624242764699
 10
45.79882427037932
 20
48.44854196106712
 10
46.39701342511023
 20
48.34773846714347
 10
46.39701342511023
 20
48.34773846714347
 10
46.50312236608238
 20
48.33037518589344
 10
46.50312236608238
 20
48.33037518589344
 10
47.11023431812236
 20
48.22571318502537
 10
48.82075867793139
 20
48.09548857565039
 10
49.22843405228036
 20
48.07716066766431
 10
49.29499329707198
 20
48.07474910082408
 10
49.33888381356507
 20
48.07016712382744
 10
49.36890782072646
 20
48.06582630351499
 10
49.37107823088275
 20
48.04508682868856
 10
49.37336921938106
 20
48.01952422018167
 10
49.3750573161692
 20
47.98238609084137
 10
49.38976787389492
 20
47.623544945008
 10
49.41424527732374
 20
46.51567113858448
 10
49.41424527732374
 20
46.09774660516428
 10
49.41424527732374
 20
44.60426326098025
 10
49.38410069182021
 20
44.57267173537263
 10
49.35889981833941
 20
44.28135446106705
 10
49.35781461326121
 20
44.26905547018168
 10
49.35733229989319
 20
44.25772110603236
 10
49.35733229989319
 20
44.24590442851502
 10
49.35733229989319
 20
44.04164471714352
 10
49.51456645787925
 20
43.86728843459138
 10
49.72244351951122
 20
43.84896052660531
 10
49.94201668031848
 20
43.82990914856714
 10
50.13590665427682
 20
43.99317222365391
 10
50.15471687563104
 20
44.21262480611915
 10
50.19318136673348
 20
44.65972929830662
 10
50.21283563648172
 20
44.8755645305115
 10
50.21283563648172
 20
46.09774660516428
 10
50.21283563648172
 20
46.52194121236914
 10
50.1876347630008
 20
47.65031333693514
 10
50.17280362693316
 20
48.01494224318514
 10
50.1485673801883
 20
48.60625843242122
 10
49.89342360848695
 20
48.84789742981706
 10
49.26376350649036
 20
48.8753892917963
 10
48.81497091751464
 20
48.89516413988656
 10
47.17739645462404
 20
49.02442412252537
 10
46.63804953079591
 20
49.1176311809022
 10
46.63804953079591
 20
49.1176311809022
 10
46.52916728795742
 20
49.13499446215212
 10
46.52916728795742
 20
49.13499446215212
 10
46.03720765254069
 20
49.21831409648371
 10
45.42563430184634
 20
49.32068510885358
 10
45.1461337050581
 20
49.69170466723028
 10
44.92668112259287
 20
49.98266020650977
 10
44.96743660219351
 20
50.40528729526852
 10
45.1502333686866
 20
50.58748117005143
 10
45.43491883418141
 20
50.87252837057224
 10
45.66341479229765
 20
50.96392675381878
 10
46.08977980965881
 20
50.96392675381878
 10
46.13994039993656
 20
50.96392675381878
 10
46.18153992793134
 20
50.96235923537268
 10
46.22012499737581
 20
50.95958593350633
 10
46.24412008743661
 20
50.86493193502542
 10
46.28149937346086
 20
50.78269750577192
 10
46.33431268726292
 20
50.7056479452251
 10
46.50481046287064
 20
50.45641251228232
 10
46.80890904142962
 20
50.37634849318511
 10
47.04174581985841
 20
50.51911325012963
 10
47.17655240623003
 20
50.60279461948721
 10
47.27410028491919
 20
50.75761721063305
 10
47.27410028491919
 20
50.94306670065043
 10
47.27410028491919
 20
51.03639433736919
 10
47.24950230314834
 20
51.13731840963476
 10
47.19258932571778
 20
51.24017173537265
 10
47.14001716859979
 20
51.33639325229967
 10
47.07611064733237
 20
51.41790421150108
 10
47.0014726536258
 20
51.48591039639689
 10
47.00762214906854
 20
51.53607098667476
 10
47.01461569290529
 20
51.59093413229107
 10
47.02498543031857
 20
51.65676990703059
 10
47.08889195158588
 20
52.05841636427885
 10
47.34005663800076
 20
52.40712892938302
 10
47.68056987584805
 20
52.56846275099769
 10
48.05231290427684
 20
52.74342192525978
 10
48.48591262215882
 20
52.57798844001673
 10
48.71127354338273
 20
52.17501562100631
 10
48.95652989103905
 20
51.73623103441776
 10
49.03165019811365
 20
50.60858237990385
 10
49.0727674127404
 20
50.00339968133619
 10
49.08952780228037
 20
49.74861764466083
 10
49.10230910653377
 20
49.56437393806357
 10
49.12099874954595
 20
49.44548369283791
 10
49.17537958179423
 20
49.1146167223518
 10
49.31959127884283
 20
48.91783286818508
 10
49.55086053882542
 20
48.86164336080662
 10
49.9180215902578
 20
48.77193307434834
 10
50.1744917237213
 20
49.11582250577191
 10
50.29699931920743
 20
49.28077367764695
 10
50.46797940818305
 20
49.51035484084139
 10
50.62424893943307
 20
49.84254817308965
 10
50.78968242467613
 20
50.19427519674412
 10
50.86612909351299
 20
50.35705595846287
 10
50.94522848587406
 20
50.52562448059837
 10
51.02384556486708
 20
50.67900013164001
 10
51.19410218379073
 20
51.01034941549414
 10
51.70656013734981
 20
51.73140790073728
 10
52.203704641473
 20
51.84583674730845
 10
52.36033590774912
 20
51.88140735820252
 10
52.49345439733247
 20
51.8505393026469
 10
52.63621915427688
 20
51.74346573493858
 10
52.73075257441576
 20
51.67244509149248
 10
52.77416077754072
 20
51.59913345954795
 10
52.78223952645567
 20
51.49784765225627
 10
52.81057543682891
 20
51.12441652703933
 10
52.36298863127331
 20
50.53792347148373
 10
52.14172737367789
 20
50.31280370694378
 10
52.00643847393826
 20
50.17450034865385
 10
51.98883403600428
 20
49.96011205655316
 10
52.10012784568312
 20
49.80263674188302
 10
52.21118049867789
 20
49.64516142721288
 10
52.41881640362578
 20
49.58897191983442
 10
52.59389615623002
 20
49.67012114400984
 10
52.93079204381683
 20
49.82530547018166
 10
53.77508159459807
 20
49.57353789205672
 10
54.0515677328359
 20
49.29717233216081
 10
54.16539368769702
 20
49.18322579895766
 10
54.23074714906852
 20
49.01911867547676
 10
54.23074714906852
 20
48.84645048971288
 10
54.23074714906852
 20
48.71743166375802
 10
54.19372959807026
 20
48.52667672669213
 10
54.01852926712411
 20
48.35135581740394
 10
53.74361064733239
 20
48.07643719761222
 10
52.7035018691206
 20
48.02892933085877
 10
50.96452102059629
 20
49.02623279765567
 10
50.77328377016226
 20
49.13620024557224
 10
50.52947436261013
 20
49.07012331414865
 10
50.41962749303547
 20
48.87876548537258
 10
50.30990120180286
 20
48.6872870782546
 10
50.37621928991052
 20
48.4432365140185
 10
50.56721538366059
 20
48.33399253615391
 10
52.35551277406853
 20
47.30787084561564
 10
53.89481588821786
 20
47.09878800056367
 10
54.58319764277508
 20
47.78704917677885
 10
54.87077698847826
 20
48.07474910082408
 10
55.02945808656853
 20
48.45095352790735
 10
55.02945808656853
 20
48.84645048971288
 10
55.02945808656853
 20
48.84645048971288
 10
55.02945808656853
 20
48.84645048971288
 10
55.02945808656853
 20
48.84645048971288
 10
55.02945808656853
 20
49.229166147265
 10
54.87825284568316
 20
49.59885934387955
 10
54.61611553014495
 20
49.86172012946986
 10
54.34674351408592
 20
50.13060983216087
 10
53.80956700041406
 20
50.38973268914867
 10
53.26648214798343
 20
50.48088991571114
 10
53.43734165861713
 20
50.77220719001672
 10
53.58167393400776
 20
51.11959339335874
 10
53.58167393400776
 20
51.46577381328063
 10
53.58167393400776
 20
51.49628013381016
 10
53.58058872892957
 20
51.52666587599765
 10
53.5784183187734
 20
51.55620756979101
 10
53.55406149368661
 20
51.88828032369724
 10
53.39357172046607
 20
52.17429215095421
 10
53.11503575041399
 20
52.38277210429624
 10
52.78597745505805
 20
52.62839018697855
 10
52.40917013626471
 20
52.71219213467816
 10
52.02452522524038
 20
52.62368763163999
 10
51.01673144268829
 20
52.39133316657921
 10
50.34149272741058
 20
51.09897449687434
 10
50.31400086543135
 20
51.04387019457409
 10
50.22851082094348
 20
50.87795439596288
 10
50.14651754837405
 20
50.70323637838476
 10
50.06741815601299
 20
50.53382380785524
 10
49.99929139277515
 20
50.39045615920077
 10
49.93152636456329
 20
50.24624446215216
 10
49.86508769811371
 20
50.11493464769898
 10
49.81396248109979
 20
50.87554282912265
 10
49.73245152189838
 20
51.98305490052018
 10
49.4084575169071
 20
52.56376019565914
 10
48.97919861933758
 20
53.33220596931358
 10
48.0900539253272
 20
53.64438329678762
 10
47.33969490297477
 20
53.2898829712667
 97
        0
 75
     0
 76
     1
 52
0.0
 41
0.1
 77
     0
 78
     2
 53
45.0
 43
-0.9999983001881673
 44
19.00000079055394
 45
-0.2245064030267288
 46
0.2245064030267288
 79
     0
 53
135.0
 43
-0.9999983001881673
 44
19.00000079055394
 45
-0.2245064030267288
 46
-0.2245064030267288
 79
     0
 98
        1
 10
89.70200148934623
 20
48.59842084019033
  0
HATCH
  5
18771
330
1F
100
AcDbEntity
  8
0
  6
ByBlock
 62
     0
100
AcDbHatch
 10
0.0
 20
0.0
 30
0.0
210
0.0
220
0.0
230
1.0
  2
ANSI31
 70
     0
 71
     0
 91
        1
 92
        3
 72
     0
 73
     1
 93
        8
 10
77.52817092294003
 20
51.13960939813307
 10
74.87749723044874
 20
51.13960939813307
 10
74.87749723044874
 20
51.71935006653587
 10
74.06974291729773
 20
51.71935006653587
 10
74.06974291729773
 20
51.13960939813307
 10
71.41906922480643
 20
51.13960939813307
 10
71.41906922480643
 20
50.42035958802023
 10
77.52817092294003
 20
50.42035958802023
 97
        0
 75
     0
 76
     1
 52
0.0
 41
0.01
 77
     0
 78
     1
 53
45.0
 43
-0.9999983001881673
 44
21.50000079055394
 45
-0.0224506403026729
 46
0.0224506403026729
 79
     0
 98
        1
 10
74.47362007387323
 20
48.00710465095426
  0
HATCH
  5
18772
330
1F
100
AcDbEntity
  8
0
  6
ByBlock
 62
     0
100
AcDbHatch
 10
0.0
 20
0.0
 30
0.0
210
0.0
220
0.0
230
1.0
  2
ANSI31
 70
     0
 71
     0
 91
        1
 92
        1
 93
        1
 72
     4
 94
        3
 73
     0
 74
     0
 95
       35
 96
       31
 40
0.0
 40
0.0
 40
0.0
 40
0.0
 40
1.0
 40
1.0
 40
1.0
 40
2.0
 40
2.0
 40
2.0
 40
3.0
 40
3.0
 40
3.0
 40
4.0
 40
4.0
 40
4.0
 40
5.0
 40
5.0
 40
5.0
 40
6.0
 40
6.0
 40
6.0
 40
7.0
 40
7.0
 40
7.0
 40
8.0
 40
8.0
 40
8.0
 40
9.0
 40
9.0
 40
9.0
 40
10.0
 40
10.0
 40
10.0
 40
10.0
 10
75.7466259196849
 20
45.01398846714346
 10
76.03010560175949
 20
45.62942032478235
 10
76.89501404902512
 20
47.67659941549413
 10
77.0053432319678
 20
49.98627755677023
 10
77.0053432319678
 20
49.98627755677023
 10
77.00751364212408
 20
50.03487062860177
 10
77.00751364212408
 20
50.03487062860177
 10
77.00751364212408
 20
50.03487062860177
 10
76.16274177797482
 20
50.03487062860177
 10
76.16274177797482
 20
50.03487062860177
 10
76.16274177797482
 20
50.03487062860177
 10
76.16069194616057
 20
49.99061837708268
 10
76.16069194616057
 20
49.99061837708268
 10
76.04879524477166
 20
47.61124595412264
 10
75.22789789234116
 20
45.56744305698726
 10
74.98734410002339
 20
45.01398846714346
 10
74.98734410002339
 20
45.01398846714346
 10
71.04298537606507
 20
45.01398846714346
 10
71.04298537606507
 20
45.01398846714346
 10
71.04298537606507
 20
45.01398846714346
 10
71.04298537606507
 20
44.29485923537265
 10
71.04298537606507
 20
44.29485923537265
 10
71.04298537606507
 20
44.29485923537265
 10
77.90425477168139
 20
44.29485923537265
 10
77.90425477168139
 20
44.29485923537265
 10
77.90425477168139
 20
44.29485923537265
 10
77.90425477168139
 20
45.01398846714346
 10
77.90425477168139
 20
45.01398846714346
 10
77.90425477168139
 20
45.01398846714346
 10
75.7466259196849
 20
45.01398846714346
 10
75.7466259196849
 20
45.01398846714346
 97
        0
 75
     0
 76
     1
 52
0.0
 41
0.01
 77
     0
 78
     1
 53
45.0
 43
-0.9999983001881673
 44
21.50000079055394
 45
-0.0224506403026729
 46
0.0224506403026729
 79
     0
 98
        1
 10
74.47362007387323
 20
48.00710465095426
  0
HATCH
  5
18773
330
1F
100
AcDbEntity
  8
0
  6
ByBlock
 62
     0
100
AcDbHatch
 10
0.0
 20
0.0
 30
0.0
210
0.0
220
0.0
230
1.0
  2
ANSI31
 70
     0
 71
     0
 91
        1
 92
        3
 72
     0
 73
     1
 93
       12
 10
65.53508729121268
 20
49.34600656067653
 10
65.53508729121268
 20
50.06537694913129
 10
64.8867375462039
 20
50.06537694913129
 10
64.8867375462039
 20
51.7194706448779
 10
64.1173271458133
 20
51.7194706448779
 10
64.1173271458133
 20
50.06537694913129
 10
63.57062494312231
 20
50.06537694913129
 10
63.57062494312231
 20
49.34600656067653
 10
64.1173271458133
 20
49.34600656067653
 10
64.1173271458133
 20
44.106515865147
 10
64.8867375462039
 20
44.106515865147
 10
64.8867375462039
 20
49.34600656067653
 97
        0
 75
     0
 76
     1
 52
0.0
 41
0.01
 77
     0
 78
     1
 53
45.0
 43
-0.9999983001881673
 44
21.50000079055394
 45
-0.0224506403026729
 46
0.0224506403026729
 79
     0
 98
        1
 10
67.00554017207196
 20
47.90973763977809
  0
HATCH
  5
18774
330
1F
100
AcDbEntity
  8
0
  6
ByBlock
 62
     0
100
AcDbHatch
 10
0.0
 20
0.0
 30
0.0
210
0.0
220
0.0
230
1.0
  2
ANSI31
 70
     0
 71
     0
 91
        1
 92
        1
 93
        1
 72
     4
 94
        3
 73
     0
 74
     0
 95
       71
 96
       67
 40
0.0
 40
0.0
 40
0.0
 40
0.0
 40
1.0
 40
1.0
 40
1.0
 40
2.0
 40
2.0
 40
2.0
 40
3.0
 40
3.0
 40
3.0
 40
4.0
 40
4.0
 40
4.0
 40
5.0
 40
5.0
 40
5.0
 40
6.0
 40
6.0
 40
6.0
 40
7.0
 40
7.0
 40
7.0
 40
8.0
 40
8.0
 40
8.0
 40
9.0
 40
9.0
 40
9.0
 40
10.0
 40
10.0
 40
10.0
 40
11.0
 40
11.0
 40
11.0
 40
12.0
 40
12.0
 40
12.0
 40
13.0
 40
13.0
 40
13.0
 40
14.0
 40
14.0
 40
14.0
 40
15.0
 40
15.0
 40
15.0
 40
16.0
 40
16.0
 40
16.0
 40
17.0
 40
17.0
 40
17.0
 40
18.0
 40
18.0
 40
18.0
 40
19.0
 40
19.0
 40
19.0
 40
20.0
 40
20.0
 40
20.0
 40
21.0
 40
21.0
 40
21.0
 40
22.0
 40
22.0
 40
22.0
 40
22.0
 10
65.83375984438101
 20
48.96582304830667
 10
65.83375984438101
 20
48.96582304830667
 10
65.79674229338275
 20
48.95810603441782
 10
65.79674229338275
 20
48.95810603441782
 10
65.79674229338275
 20
48.95810603441782
 10
65.79674229338275
 20
48.31060033780318
 10
65.79674229338275
 20
48.31060033780318
 10
65.79674229338275
 20
48.31060033780318
 10
65.84967618552685
 20
48.31807619500807
 10
65.84967618552685
 20
48.31807619500807
 10
67.15457500280115
 20
48.50280221497337
 10
67.89275561261013
 20
49.15898955221291
 10
68.16538324390354
 20
50.39600276293345
 10
68.89415874303551
 20
50.39600276293345
 10
69.50066780336533
 20
50.39600276293345
 10
69.53575610089138
 20
50.39600276293345
 10
69.53575610089138
 20
50.31220081523372
 10
69.53575610089138
 20
49.1405410658848
 10
69.53575610089138
 20
49.05661853984316
 10
69.45183357484973
 20
49.05661853984316
 10
68.58246372892961
 20
49.05661853984316
 10
68.58246372892961
 20
49.05661853984316
 10
68.58246372892961
 20
49.05661853984316
 10
68.58246372892961
 20
48.33712757304624
 10
68.58246372892961
 20
48.33712757304624
 10
68.58246372892961
 20
48.33712757304624
 10
69.83671964255814
 20
48.33712757304624
 10
69.83671964255814
 20
48.33712757304624
 10
70.02771573630809
 20
48.33712757304624
 10
70.25524706768829
 20
48.41767390551149
 10
70.25524706768829
 20
48.80063071974769
 10
70.25524706768829
 20
48.80063071974769
 10
70.25524706768829
 20
50.72699031176148
 10
70.25524706768829
 20
50.72699031176148
 10
70.25524706768829
 20
50.91376616354103
 10
70.10814149043131
 20
51.11561430807228
 10
69.87060215666407
 20
51.11561430807228
 10
69.87060215666407
 20
51.11561430807228
 10
68.26691020787928
 20
51.11561430807228
 10
68.26691020787928
 20
51.11561430807228
 10
68.28029440384284
 20
51.29322620585878
 10
68.28921720115181
 20
51.47710817742995
 10
68.28921720115181
 20
51.67304798320254
 10
68.28921720115181
 20
51.67304798320254
 10
68.28921720115181
 20
51.7194706448779
 10
68.28921720115181
 20
51.7194706448779
 10
68.28921720115181
 20
51.7194706448779
 10
67.4821863580529
 20
51.7194706448779
 10
67.4821863580529
 20
51.7194706448779
 10
67.4821863580529
 20
51.7194706448779
 10
67.4821863580529
 20
51.67304798320254
 10
67.4821863580529
 20
51.67304798320254
 10
67.4821863580529
 20
51.4765052857199
 10
67.47784553774045
 20
51.29093521736047
 10
67.46771695701125
 20
51.11561430807228
 10
67.46771695701125
 20
51.11561430807228
 10
65.56016758635156
 20
51.11561430807228
 10
65.56016758635156
 20
51.11561430807228
 10
65.56016758635156
 20
51.11561430807228
 10
65.56016758635156
 20
50.39600276293345
 10
65.56016758635156
 20
50.39600276293345
 10
65.56016758635156
 20
50.39600276293345
 10
66.44159526647309
 20
50.39600276293345
 10
67.37438932029249
 20
50.39600276293345
 10
67.20256518292263
 20
49.63394764140559
 10
66.78331428774038
 20
49.16188343242129
 10
65.83375984438101
 20
48.96582304830667
 97
        0
 75
     0
 76
     1
 52
0.0
 41
0.01
 77
     0
 78
     1
 53
45.0
 43
-0.9999983001881673
 44
21.50000079055394
 45
-0.0224506403026729
 46
0.0224506403026729
 79
     0
 98
        1
 10
67.00554017207196
 20
47.90973763977809
  0
HATCH
  5
18775
330
1F
100
AcDbEntity
  8
0
  6
ByBlock
 62
     0
100
AcDbHatch
 10
0.0
 20
0.0
 30
0.0
210
0.0
220
0.0
230
1.0
  2
ANSI31
 70
     0
 71
     0
 91
        1
 92
        1
 93
        1
 72
     4
 94
        3
 73
     0
 74
     0
 95
       29
 96
       25
 40
0.0
 40
0.0
 40
0.0
 40
0.0
 40
1.0
 40
1.0
 40
1.0
 40
2.0
 40
2.0
 40
2.0
 40
3.0
 40
3.0
 40
3.0
 40
4.0
 40
4.0
 40
4.0
 40
5.0
 40
5.0
 40
5.0
 40
6.0
 40
6.0
 40
6.0
 40
7.0
 40
7.0
 40
7.0
 40
8.0
 40
8.0
 40
8.0
 40
8.0
 10
72.63437833396437
 20
49.81397110603234
 10
72.63437833396437
 20
49.81397110603234
 10
71.92224264603033
 20
49.81397110603234
 10
71.92224264603033
 20
49.81397110603234
 10
71.92224264603033
 20
49.81397110603234
 10
71.93984708396442
 20
49.75440540507747
 10
71.93984708396442
 20
49.75440540507747
 10
72.59374343270565
 20
47.54034588901845
 10
72.67272224672479
 20
45.34340849752538
 10
72.67332513843484
 20
45.31953398580663
 10
72.67332513843484
 20
45.31953398580663
 10
72.67477207853904
 20
45.27491999926155
 10
72.67477207853904
 20
45.27491999926155
 10
72.67477207853904
 20
45.27491999926155
 10
73.52038799108242
 20
45.27491999926155
 10
73.52038799108242
 20
45.27491999926155
 10
73.52038799108242
 20
45.27491999926155
 10
73.51821758092615
 20
45.3231513360671
 10
73.51821758092615
 20
45.3231513360671
 10
73.51701179750603
 20
45.35016088467819
 10
73.39185147849559
 20
47.86301353224769
 10
72.64595385479765
 20
49.78430883389695
 10
72.64595385479765
 20
49.78430883389695
 10
72.63437833396437
 20
49.81397110603234
 10
72.63437833396437
 20
49.81397110603234
 97
        0
 75
     0
 76
     1
 52
0.0
 41
0.01
 77
     0
 78
     1
 53
45.0
 43
-0.9999983001881673
 44
21.50000079055394
 45
-0.0224506403026729
 46
0.0224506403026729
 79
     0
 98
        1
 10
74.47362007387323
 20
48.00710465095426
  0
HATCH
  5
18776
330
1F
100
AcDbEntity
  8
0
  6
ByBlock
 62
     0
100
AcDbHatch
 10
0.0
 20
0.0
 30
0.0
210
0.0
220
0.0
230
1.0
  2
ANSI31
 70
     0
 71
     0
 91
        1
 92
        1
 93
        1
 72
     4
 94
        3
 73
     0
 74
     0
 95
       71
 96
       67
 40
0.0
 40
0.0
 40
0.0
 40
0.0
 40
1.0
 40
1.0
 40
1.0
 40
2.0
 40
2.0
 40
2.0
 40
3.0
 40
3.0
 40
3.0
 40
4.0
 40
4.0
 40
4.0
 40
5.0
 40
5.0
 40
5.0
 40
6.0
 40
6.0
 40
6.0
 40
7.0
 40
7.0
 40
7.0
 40
8.0
 40
8.0
 40
8.0
 40
9.0
 40
9.0
 40
9.0
 40
10.0
 40
10.0
 40
10.0
 40
11.0
 40
11.0
 40
11.0
 40
12.0
 40
12.0
 40
12.0
 40
13.0
 40
13.0
 40
13.0
 40
14.0
 40
14.0
 40
14.0
 40
15.0
 40
15.0
 40
15.0
 40
16.0
 40
16.0
 40
16.0
 40
17.0
 40
17.0
 40
17.0
 40
18.0
 40
18.0
 40
18.0
 40
19.0
 40
19.0
 40
19.0
 40
20.0
 40
20.0
 40
20.0
 40
21.0
 40
21.0
 40
21.0
 40
22.0
 40
22.0
 40
22.0
 40
22.0
 10
67.24271777081333
 20
47.84323868415731
 10
67.24271777081333
 20
47.84323868415731
 10
66.45630582419869
 20
47.84323868415731
 10
66.45630582419869
 20
47.84323868415731
 10
66.45606466751473
 20
47.96574627964344
 10
66.45570293248863
 20
48.08777156176154
 10
66.45570293248863
 20
48.20834990377545
 10
66.45570293248863
 20
48.20834990377545
 10
66.45570293248863
 20
48.21534344761222
 10
66.45570293248863
 20
48.21534344761222
 10
66.45570293248863
 20
48.21534344761222
 10
65.79891270353903
 20
48.21534344761222
 10
65.79891270353903
 20
48.21534344761222
 10
65.79891270353903
 20
48.21534344761222
 10
65.79927443856502
 20
48.00143746887954
 10
65.79927443856502
 20
48.00143746887954
 10
65.79951559524909
 20
47.94886531176155
 10
65.79987733027508
 20
47.89605199795949
 10
65.80023906530119
 20
47.84323868415731
 10
65.80023906530119
 20
47.84323868415731
 10
65.08641528057887
 20
47.84323868415731
 10
65.08641528057887
 20
47.84323868415731
 10
65.08641528057887
 20
47.84323868415731
 10
65.08641528057887
 20
47.12410945238651
 10
65.08641528057887
 20
47.12410945238651
 10
65.08641528057887
 20
47.12410945238651
 10
65.41872919116918
 20
47.12410945238651
 10
65.80180658374729
 20
47.12410945238651
 10
65.79228089472827
 20
46.13054391419211
 10
65.69437128101299
 20
45.21993627530321
 10
65.04156013734974
 20
44.76993790290737
 10
65.04156013734974
 20
44.76993790290737
 10
65.02142355423348
 20
44.75595081523374
 10
65.02142355423348
 20
44.75595081523374
 10
65.02142355423348
 20
44.75595081523374
 10
65.02142355423348
 20
44.10434545499072
 10
65.02142355423348
 20
44.10434545499072
 10
65.02142355423348
 20
44.10434545499072
 10
65.08641528057887
 20
44.13280194370599
 10
65.08641528057887
 20
44.13280194370599
 10
66.21406393509278
 20
44.6254850491747
 10
66.41494745288799
 20
45.84573787035526
 10
66.4491917020199
 20
47.12410945238651
 10
66.70734993227165
 20
47.12410945238651
 10
66.90714824498866
 20
47.12410945238651
 10
66.93536357701987
 20
47.12410945238651
 10
66.93536357701987
 20
47.03681073276846
 10
66.93536357701987
 20
44.90691489943515
 10
66.93536357701987
 20
44.81913386644907
 10
66.85337030445044
 20
44.81913386644907
 10
66.30208612476292
 20
44.81913386644907
 10
66.30208612476292
 20
44.81913386644907
 10
66.30208612476292
 20
44.81913386644907
 10
66.30208612476292
 20
44.10000463467816
 10
66.30208612476292
 20
44.10000463467816
 10
66.30208612476292
 20
44.10000463467816
 10
67.16892382550077
 20
44.10000463467816
 10
67.16892382550077
 20
44.10000463467816
 10
67.46409960675078
 20
44.10000463467816
 10
67.65473396547474
 20
44.31801027703932
 10
67.65473396547474
 20
44.65466500794207
 10
67.65473396547474
 20
44.65466500794207
 10
67.65473396547474
 20
47.41084474969556
 10
67.65473396547474
 20
47.41084474969556
 10
67.65473396547474
 20
47.68986303311566
 10
67.50835185826986
 20
47.84323868415731
 10
67.24271777081333
 20
47.84323868415731
 97
        0
 75
     0
 76
     1
 52
0.0
 41
0.01
 77
     0
 78
     1
 53
45.0
 43
-0.9999983001881673
 44
21.50000079055394
 45
-0.0224506403026729
 46
0.0224506403026729
 79
     0
 98
        1
 10
67.00554017207196
 20
47.90973763977809
  0
HATCH
  5
18777
330
1F
100
AcDbEntity
  8
0
  6
ByBlock
 62
     0
100
AcDbHatch
 10
0.0
 20
0.0
 30
0.0
210
0.0
220
0.0
230
1.0
  2
ANSI31
 70
     0
 71
     0
 91
        1
 92
        1
 93
        1
 72
     4
 94
        3
 73
     0
 74
     0
 95
       71
 96
       67
 40
0.0
 40
0.0
 40
0.0
 40
0.0
 40
1.0
 40
1.0
 40
1.0
 40
2.0
 40
2.0
 40
2.0
 40
3.0
 40
3.0
 40
3.0
 40
4.0
 40
4.0
 40
4.0
 40
5.0
 40
5.0
 40
5.0
 40
6.0
 40
6.0
 40
6.0
 40
7.0
 40
7.0
 40
7.0
 40
8.0
 40
8.0
 40
8.0
 40
9.0
 40
9.0
 40
9.0
 40
10.0
 40
10.0
 40
10.0
 40
11.0
 40
11.0
 40
11.0
 40
12.0
 40
12.0
 40
12.0
 40
13.0
 40
13.0
 40
13.0
 40
14.0
 40
14.0
 40
14.0
 40
15.0
 40
15.0
 40
15.0
 40
16.0
 40
16.0
 40
16.0
 40
17.0
 40
17.0
 40
17.0
 40
18.0
 40
18.0
 40
18.0
 40
19.0
 40
19.0
 40
19.0
 40
20.0
 40
20.0
 40
20.0
 40
21.0
 40
21.0
 40
21.0
 40
22.0
 40
22.0
 40
22.0
 40
22.0
 10
70.02819804967612
 20
47.84323868415731
 10
70.02819804967612
 20
47.84323868415731
 10
69.24166552471956
 20
47.84323868415731
 10
69.24166552471956
 20
47.84323868415731
 10
69.24154494637753
 20
47.96574627964344
 10
69.24130378969346
 20
48.08777156176154
 10
69.24130378969346
 20
48.20834990377545
 10
69.24130378969346
 20
48.20834990377545
 10
69.24130378969346
 20
48.21534344761222
 10
69.24130378969346
 20
48.21534344761222
 10
69.24130378969346
 20
48.21534344761222
 10
68.58427240405979
 20
48.21534344761222
 10
68.58427240405979
 20
48.21534344761222
 10
68.58427240405979
 20
48.21534344761222
 10
68.58499587411188
 20
48.00119631219558
 10
68.58499587411188
 20
48.00119631219558
 10
68.58523703079595
 20
47.94862415507748
 10
68.58547818748002
 20
47.89605199795949
 10
68.58571934416398
 20
47.84323868415731
 10
68.58571934416398
 20
47.84323868415731
 10
67.87201613778382
 20
47.84323868415731
 10
67.87201613778382
 20
47.84323868415731
 10
67.87201613778382
 20
47.84323868415731
 10
67.87201613778382
 20
47.12410945238651
 10
67.87201613778382
 20
47.12410945238651
 10
67.87201613778382
 20
47.12410945238651
 10
68.20324484329592
 20
47.12410945238651
 10
68.58535760913799
 20
47.12410945238651
 10
68.57161167814843
 20
46.13054391419211
 10
68.46453811044
 20
45.21993627530321
 10
67.81172696677685
 20
44.76993790290737
 10
67.81172696677685
 20
44.76993790290737
 10
67.79159038366049
 20
44.75595081523374
 10
67.79159038366049
 20
44.75595081523374
 10
67.79159038366049
 20
44.75595081523374
 10
67.79159038366049
 20
44.10434545499072
 10
67.79159038366049
 20
44.10434545499072
 10
67.79159038366049
 20
44.10434545499072
 10
67.85670268834803
 20
44.13280194370599
 10
67.85670268834803
 20
44.13280194370599
 10
68.98435134286194
 20
44.6254850491747
 10
69.19451939299211
 20
45.84573787035526
 10
69.23274272741048
 20
47.12410945238651
 10
69.4918655843984
 20
47.12410945238651
 10
69.69262852385146
 20
47.12410945238651
 10
69.72084385588278
 20
47.12410945238651
 10
69.72084385588278
 20
47.03681073276846
 10
69.72084385588278
 20
44.90691489943515
 10
69.72084385588278
 20
44.81913386644907
 10
69.6390917399973
 20
44.81913386644907
 10
69.08756640362582
 20
44.81913386644907
 10
69.08756640362582
 20
44.81913386644907
 10
69.08756640362582
 20
44.81913386644907
 10
69.08756640362582
 20
44.10000463467816
 10
69.08756640362582
 20
44.10000463467816
 10
69.08756640362582
 20
44.10000463467816
 10
69.9545246827056
 20
44.10000463467816
 10
69.9545246827056
 20
44.10000463467816
 10
70.2497004639556
 20
44.10000463467816
 10
70.4404554010216
 20
44.31801027703932
 10
70.4404554010216
 20
44.65466500794207
 10
70.4404554010216
 20
44.65466500794207
 10
70.4404554010216
 20
47.41084474969556
 10
70.4404554010216
 20
47.41084474969556
 10
70.4404554010216
 20
47.68986303311566
 10
70.29407329381683
 20
47.84323868415731
 10
70.02819804967612
 20
47.84323868415731
 97
        0
 75
     0
 76
     1
 52
0.0
 41
0.01
 77
     0
 78
     1
 53
45.0
 43
-0.9999983001881673
 44
21.50000079055394
 45
-0.0224506403026729
 46
0.0224506403026729
 79
     0
 98
        1
 10
67.00554017207196
 20
47.90973763977809
  0
HATCH
  5
18778
330
1F
100
AcDbEntity
  8
0
  6
ByBlock
 62
     0
100
AcDbHatch
 10
0.0
 20
0.0
 30
0.0
210
0.0
220
0.0
230
1.0
  2
ANSI31
 70
     0
 71
     0
 91
        1
 92
        1
 93
        1
 72
     4
 94
        3
 73
     0
 74
     0
 95
       47
 96
       43
 40
0.0
 40
0.0
 40
0.0
 40
0.0
 40
1.0
 40
1.0
 40
1.0
 40
2.0
 40
2.0
 40
2.0
 40
3.0
 40
3.0
 40
3.0
 40
4.0
 40
4.0
 40
4.0
 40
5.0
 40
5.0
 40
5.0
 40
6.0
 40
6.0
 40
6.0
 40
7.0
 40
7.0
 40
7.0
 40
8.0
 40
8.0
 40
8.0
 40
9.0
 40
9.0
 40
9.0
 40
10.0
 40
10.0
 40
10.0
 40
11.0
 40
11.0
 40
11.0
 40
12.0
 40
12.0
 40
12.0
 40
13.0
 40
13.0
 40
13.0
 40
14.0
 40
14.0
 40
14.0
 40
14.0
 10
84.51267138409457
 20
50.78366213250808
 10
84.51267138409457
 20
50.78366213250808
 10
84.51267138409457
 20
45.10562800707407
 10
84.51267138409457
 20
45.01398846714346
 10
84.49157017424216
 20
45.01398846714346
 10
83.47702400453727
 20
45.01398846714346
 10
82.35673062888622
 20
45.01398846714346
 10
82.35673062888622
 20
45.01398846714346
 10
82.35673062888622
 20
51.71935006653587
 10
82.35673062888622
 20
51.71935006653587
 10
82.35673062888622
 20
51.71935006653587
 10
81.51207934307899
 20
51.71935006653587
 10
81.51207934307899
 20
51.71935006653587
 10
81.51207934307899
 20
51.71935006653587
 10
81.51207934307899
 20
45.01398846714346
 10
81.51207934307899
 20
45.01398846714346
 10
80.40649652515355
 20
45.01398846714346
 10
79.41377503535318
 20
45.01398846714346
 10
79.39303556052687
 20
45.01398846714346
 10
79.39303556052687
 20
45.10562800707407
 10
79.39303556052687
 20
50.78366213250808
 10
79.39303556052687
 20
50.78366213250808
 10
79.39303556052687
 20
50.78366213250808
 10
78.54838427471952
 20
50.78366213250808
 10
78.54838427471952
 20
50.78366213250808
 10
78.54838427471952
 20
50.78366213250808
 10
78.54838427471952
 20
44.95659317634488
 10
78.54838427471952
 20
44.95659317634488
 10
78.54838427471952
 20
44.53601591940037
 10
78.75807001148166
 20
44.29485923537265
 10
79.12342238778376
 20
44.29485923537265
 10
79.12342238778376
 20
44.29485923537265
 10
84.78216397849564
 20
44.29485923537265
 10
84.78216397849564
 20
44.29485923537265
 10
85.14763693313966
 20
44.29485923537265
 10
85.3573226699018
 20
44.53601591940037
 10
85.3573226699018
 20
44.95659317634488
 10
85.3573226699018
 20
44.95659317634488
 10
85.3573226699018
 20
50.78366213250808
 10
85.3573226699018
 20
50.78366213250808
 10
85.3573226699018
 20
50.78366213250808
 10
84.51267138409457
 20
50.78366213250808
 10
84.51267138409457
 20
50.78366213250808
 97
        0
 75
     0
 76
     1
 52
0.0
 41
0.01
 77
     0
 78
     1
 53
45.0
 43
-0.9999983001881673
 44
21.50000079055394
 45
-0.0224506403026729
 46
0.0224506403026729
 79
     0
 98
        1
 10
95.92806417923339
 20
47.88960105666172
  0
HATCH
  5
18779
330
1F
100
AcDbEntity
  8
0
  6
ByBlock
 62
     0
100
AcDbHatch
 10
0.0
 20
0.0
 30
0.0
210
0.0
220
0.0
230
1.0
  2
ANSI31
 70
     0
 71
     0
 91
        1
 92
        1
 93
        1
 72
     4
 94
        3
 73
     0
 74
     0
 95
       53
 96
       49
 40
0.0
 40
0.0
 40
0.0
 40
0.0
 40
1.0
 40
1.0
 40
1.0
 40
2.0
 40
2.0
 40
2.0
 40
3.0
 40
3.0
 40
3.0
 40
4.0
 40
4.0
 40
4.0
 40
5.0
 40
5.0
 40
5.0
 40
6.0
 40
6.0
 40
6.0
 40
7.0
 40
7.0
 40
7.0
 40
8.0
 40
8.0
 40
8.0
 40
9.0
 40
9.0
 40
9.0
 40
10.0
 40
10.0
 40
10.0
 40
11.0
 40
11.0
 40
11.0
 40
12.0
 40
12.0
 40
12.0
 40
13.0
 40
13.0
 40
13.0
 40
14.0
 40
14.0
 40
14.0
 40
15.0
 40
15.0
 40
15.0
 40
16.0
 40
16.0
 40
16.0
 40
16.0
 10
120.615876814867
 20
46.97652156176149
 10
120.615876814867
 20
46.97652156176149
 10
122.1720608968983
 20
46.97652156176149
 10
122.1720608968983
 20
46.97652156176149
 10
122.1720608968983
 20
46.97652156176149
 10
121.3576747749365
 20
44.86495363641426
 10
121.3576747749365
 20
44.86495363641426
 10
121.2696525852664
 20
44.62331463901853
 10
121.3140254151275
 20
44.48199682217818
 10
121.3670798856136
 20
44.40627362339353
 10
121.431951033617
 20
44.31366945672675
 10
121.5426419515859
 20
44.26447349318516
 10
121.6875771186864
 20
44.26447349318516
 10
121.6875771186864
 20
44.26447349318516
 10
126.8464009034087
 20
44.26447349318516
 10
126.8464009034087
 20
44.26447349318516
 10
126.9855483100928
 20
44.26447349318516
 10
127.0853871772803
 20
44.30956979309837
 10
127.1423001547108
 20
44.39783313945247
 10
127.2252580540163
 20
44.52588733867128
 10
127.1917372749365
 20
44.71206029874065
 10
127.1324127306657
 20
44.84397300490388
 10
127.1336185140858
 20
44.84035565464353
 10
126.5541190023671
 20
46.51494766853239
 10
126.5541190023671
 20
46.51494766853239
 10
126.5541190023671
 20
46.51494766853239
 10
125.7884465305789
 20
46.51494766853239
 10
125.7884465305789
 20
46.51494766853239
 10
125.7884465305789
 20
46.51494766853239
 10
126.2664190783219
 20
45.0959817397129
 10
126.3016279541899
 20
44.984085038324
 10
126.1810496121761
 20
44.984085038324
 10
122.3657097141727
 20
44.984085038324
 10
122.2354851047976
 20
44.984085038324
 10
122.2750348009782
 20
45.08344159214345
 10
122.8381356581831
 20
46.49252009691781
 10
123.0315433187734
 20
46.97652156176149
 10
123.0315433187734
 20
46.97652156176149
 10
127.6017036377838
 20
46.97652156176149
 10
127.6017036377838
 20
46.97652156176149
 10
127.6017036377838
 20
46.97652156176149
 10
127.6017036377838
 20
47.69613310690044
 10
127.6017036377838
 20
47.69613310690044
 10
127.6017036377838
 20
47.69613310690044
 10
120.615876814867
 20
47.69613310690044
 10
120.615876814867
 20
47.69613310690044
 10
120.615876814867
 20
47.69613310690044
 10
120.615876814867
 20
46.97652156176149
 10
120.615876814867
 20
46.97652156176149
 97
        0
 75
     0
 76
     1
 52
0.0
 41
0.01
 77
     0
 78
     1
 53
45.0
 43
-0.9999983001881673
 44
21.50000079055394
 45
-0.0224506403026729
 46
0.0224506403026729
 79
     0
 98
        1
 10
124.1165072402143
 20
47.99209264737351
  0
HATCH
  5
1877A
330
1F
100
AcDbEntity
  8
0
  6
ByBlock
 62
     0
100
AcDbHatch
 10
0.0
 20
0.0
 30
0.0
210
0.0
220
0.0
230
1.0
  2
ANSI31
 70
     0
 71
     0
 91
        2
 92
        1
 93
        1
 72
     4
 94
        3
 73
     0
 74
     0
 95
       14
 96
       10
 40
0.0
 40
0.0
 40
0.0
 40
0.0
 40
1.0
 40
1.0
 40
1.0
 40
2.0
 40
2.0
 40
2.0
 40
3.0
 40
3.0
 40
3.0
 40
3.0
 10
122.1443278782351
 20
49.31706775859311
 10
122.8422353218116
 20
49.60645577942648
 10
123.5606410835303
 20
50.05548952508616
 10
124.1162660835302
 20
50.69648399123207
 10
124.6718910835302
 20
50.05548952508616
 10
125.390779158617
 20
49.60645577942648
 10
126.0886866021934
 20
49.31706775859311
 10
126.0886866021934
 20
49.31706775859311
 10
122.1443278782351
 20
49.31706775859311
 10
122.1443278782351
 20
49.31706775859311
 97
        0
 92
       16
 93
        1
 72
     4
 94
        3
 73
     0
 74
     0
 95
       53
 96
       49
 40
0.0
 40
0.0
 40
0.0
 40
0.0
 40
1.0
 40
1.0
 40
1.0
 40
2.0
 40
2.0
 40
2.0
 40
3.0
 40
3.0
 40
3.0
 40
4.0
 40
4.0
 40
4.0
 40
5.0
 40
5.0
 40
5.0
 40
6.0
 40
6.0
 40
6.0
 40
7.0
 40
7.0
 40
7.0
 40
8.0
 40
8.0
 40
8.0
 40
9.0
 40
9.0
 40
9.0
 40
10.0
 40
10.0
 40
10.0
 40
11.0
 40
11.0
 40
11.0
 40
12.0
 40
12.0
 40
12.0
 40
13.0
 40
13.0
 40
13.0
 40
14.0
 40
14.0
 40
14.0
 40
15.0
 40
15.0
 40
15.0
 40
16.0
 40
16.0
 40
16.0
 40
16.0
 10
127.5799995362213
 20
49.60102975403583
 10
126.8341019125233
 20
49.72341677117992
 10
125.4356343018462
 20
50.14134130460002
 10
124.4459272705962
 20
51.56247764357579
 10
124.4275993626102
 20
51.58864314379275
 10
124.3125676243288
 20
51.71971180156186
 10
124.1220538439469
 20
51.71971180156186
 10
124.1220538439469
 20
51.71971180156186
 10
124.1003497423844
 20
51.71971180156186
 10
124.1003497423844
 20
51.71971180156186
 10
123.9079067085302
 20
51.71971180156186
 10
123.7972157905615
 20
51.57803224969552
 10
123.7863637397802
 20
51.56187475186573
 10
122.7973801785823
 20
50.14134130460002
 10
121.3986714112212
 20
49.72341677117992
 10
120.6525326308393
 20
49.60102975403583
 10
120.6525326308393
 20
49.60102975403583
 10
120.6141887180788
 20
49.59463910190914
 10
120.6141887180788
 20
49.59463910190914
 10
120.6141887180788
 20
49.59463910190914
 10
120.6141887180788
 20
48.91349204787264
 10
120.6141887180788
 20
48.91349204787264
 10
120.6141887180788
 20
48.91349204787264
 10
120.6655550917768
 20
48.91952096497334
 10
120.6655550917768
 20
48.91952096497334
 10
120.9667597901274
 20
48.95400637078933
 10
121.3149900418637
 20
49.02828262946991
 10
121.6810658882177
 20
49.14644940464348
 10
121.6810658882177
 20
49.14644940464348
 10
121.6810658882177
 20
48.59805910516434
 10
121.6810658882177
 20
48.59805910516434
 10
121.6810658882177
 20
48.59805910516434
 10
126.536755721117
 20
48.59805910516434
 10
126.536755721117
 20
48.59805910516434
 10
126.536755721117
 20
48.59805910516434
 10
126.536755721117
 20
49.15115195998203
 10
126.536755721117
 20
49.15115195998203
 10
126.9083781712039
 20
49.02997072625805
 10
127.2621550266726
 20
48.95448868415735
 10
127.5674593886518
 20
48.91952096497334
 10
127.5674593886518
 20
48.91952096497334
 10
127.6188257623497
 20
48.91349204787264
 10
127.6188257623497
 20
48.91349204787264
 10
127.6188257623497
 20
48.91349204787264
 10
127.6188257623497
 20
49.59463910190914
 10
127.6188257623497
 20
49.59463910190914
 10
127.6188257623497
 20
49.59463910190914
 10
127.5799995362213
 20
49.60102975403583
 10
127.5799995362213
 20
49.60102975403583
 97
        0
 75
     0
 76
     1
 52
0.0
 41
0.01
 77
     0
 78
     1
 53
45.0
 43
-0.9999983001881673
 44
21.50000079055394
 45
-0.0224506403026729
 46
0.0224506403026729
 79
     0
 98
        1
 10
124.1165072402143
 20
47.99209264737351
  0
HATCH
  5
1877B
330
1F
100
AcDbEntity
  8
0
  6
ByBlock
 62
     0
100
AcDbHatch
 10
0.0
 20
0.0
 30
0.0
210
0.0
220
0.0
230
1.0
  2
ANSI31
 70
     0
 71
     0
 91
        1
 92
        1
 93
        1
 72
     4
 94
        3
 73
     0
 74
     0
 95
      194
 96
      190
 40
0.0
 40
0.0
 40
0.0
 40
0.0
 40
1.0
 40
1.0
 40
1.0
 40
2.0
 40
2.0
 40
2.0
 40
3.0
 40
3.0
 40
3.0
 40
4.0
 40
4.0
 40
4.0
 40
5.0
 40
5.0
 40
5.0
 40
6.0
 40
6.0
 40
6.0
 40
7.0
 40
7.0
 40
7.0
 40
8.0
 40
8.0
 40
8.0
 40
9.0
 40
9.0
 40
9.0
 40
10.0
 40
10.0
 40
10.0
 40
11.0
 40
11.0
 40
11.0
 40
12.0
 40
12.0
 40
12.0
 40
13.0
 40
13.0
 40
13.0
 40
14.0
 40
14.0
 40
14.0
 40
15.0
 40
15.0
 40
15.0
 40
16.0
 40
16.0
 40
16.0
 40
17.0
 40
17.0
 40
17.0
 40
18.0
 40
18.0
 40
18.0
 40
19.0
 40
19.0
 40
19.0
 40
20.0
 40
20.0
 40
20.0
 40
21.0
 40
21.0
 40
21.0
 40
22.0
 40
22.0
 40
22.0
 40
23.0
 40
23.0
 40
23.0
 40
24.0
 40
24.0
 40
24.0
 40
25.0
 40
25.0
 40
25.0
 40
26.0
 40
26.0
 40
26.0
 40
27.0
 40
27.0
 40
27.0
 40
28.0
 40
28.0
 40
28.0
 40
29.0
 40
29.0
 40
29.0
 40
30.0
 40
30.0
 40
30.0
 40
31.0
 40
31.0
 40
31.0
 40
32.0
 40
32.0
 40
32.0
 40
33.0
 40
33.0
 40
33.0
 40
34.0
 40
34.0
 40
34.0
 40
35.0
 40
35.0
 40
35.0
 40
36.0
 40
36.0
 40
36.0
 40
37.0
 40
37.0
 40
37.0
 40
38.0
 40
38.0
 40
38.0
 40
39.0
 40
39.0
 40
39.0
 40
40.0
 40
40.0
 40
40.0
 40
41.0
 40
41.0
 40
41.0
 40
42.0
 40
42.0
 40
42.0
 40
43.0
 40
43.0
 40
43.0
 40
44.0
 40
44.0
 40
44.0
 40
45.0
 40
45.0
 40
45.0
 40
46.0
 40
46.0
 40
46.0
 40
47.0
 40
47.0
 40
47.0
 40
48.0
 40
48.0
 40
48.0
 40
49.0
 40
49.0
 40
49.0
 40
50.0
 40
50.0
 40
50.0
 40
51.0
 40
51.0
 40
51.0
 40
52.0
 40
52.0
 40
52.0
 40
53.0
 40
53.0
 40
53.0
 40
54.0
 40
54.0
 40
54.0
 40
55.0
 40
55.0
 40
55.0
 40
56.0
 40
56.0
 40
56.0
 40
57.0
 40
57.0
 40
57.0
 40
58.0
 40
58.0
 40
58.0
 40
59.0
 40
59.0
 40
59.0
 40
60.0
 40
60.0
 40
60.0
 40
61.0
 40
61.0
 40
61.0
 40
62.0
 40
62.0
 40
62.0
 40
63.0
 40
63.0
 40
63.0
 40
63.0
 10
113.3708065566205
 20
45.03834529223024
 10
112.359395423808
 20
45.70538468025108
 10
112.1001519884782
 20
46.94878854309831
 10
112.0191233426449
 20
47.93970135776851
 10
112.0191233426449
 20
47.93970135776851
 10
113.1265148357004
 20
47.93970135776851
 10
113.1265148357004
 20
47.93970135776851
 10
113.1265148357004
 20
47.93970135776851
 10
113.1265148357004
 20
48.65907174622339
 10
113.1265148357004
 20
48.65907174622339
 10
113.1265148357004
 20
48.65907174622339
 10
111.2052195340511
 20
48.65907174622339
 10
111.2052195340511
 20
48.65907174622339
 10
111.2052195340511
 20
48.65907174622339
 10
111.2052195340511
 20
49.92442086731705
 10
111.2052195340511
 20
49.92442086731705
 10
111.2052195340511
 20
49.92442086731705
 10
112.9222551243288
 20
49.92442086731705
 10
112.9222551243288
 20
49.92442086731705
 10
112.9222551243288
 20
49.92442086731705
 10
112.9222551243288
 20
50.64367067742989
 10
112.9222551243288
 20
50.64367067742989
 10
112.9222551243288
 20
50.64367067742989
 10
112.0473386746761
 20
50.64367067742989
 10
111.2052195340511
 20
50.64367067742989
 10
111.2052195340511
 20
50.64367067742989
 10
111.2052195340511
 20
51.71947064487778
 10
111.2052195340511
 20
51.71947064487778
 10
111.2052195340511
 20
51.71947064487778
 10
110.4858491455962
 20
51.71947064487778
 10
110.4858491455962
 20
51.71947064487778
 10
110.4858491455962
 20
51.71947064487778
 10
110.4858491455962
 20
50.64367067742989
 10
110.4858491455962
 20
50.64367067742989
 10
110.0471851373497
 20
50.64367067742989
 10
109.7146300700754
 20
50.64367067742989
 10
109.6758038439469
 20
50.64367067742989
 10
109.711977346551
 20
50.75038251011221
 10
109.9885840631309
 20
51.56826540399243
 10
109.9885840631309
 20
51.56826540399243
 10
109.9885840631309
 20
51.56826540399243
 10
109.9239540718115
 20
51.56838598233446
 10
109.9239540718115
 20
51.56838598233446
 10
109.9239540718115
 20
51.56838598233446
 10
109.2918824029747
 20
51.56838598233446
 10
109.2918824029747
 20
51.56838598233446
 10
109.2918824029747
 20
51.56838598233446
 10
109.2595674073149
 20
51.56838598233446
 10
109.2595674073149
 20
51.56838598233446
 10
109.2595674073149
 20
51.56838598233446
 10
108.8356139567941
 20
50.39877606479968
 10
108.8356139567941
 20
50.39877606479968
 10
108.8013697076622
 20
50.30134876445254
 10
108.7917234403011
 20
50.15858400750801
 10
108.8681701091379
 20
50.05066639140557
 10
108.9089255887386
 20
49.99302994392303
 10
108.990918861308
 20
49.92442086731705
 10
109.1503234294504
 20
49.92442086731705
 10
109.1503234294504
 20
49.92442086731705
 10
110.4858491455962
 20
49.92442086731705
 10
110.4858491455962
 20
49.92442086731705
 10
110.4858491455962
 20
49.92442086731705
 10
110.4858491455962
 20
48.65907174622339
 10
110.4858491455962
 20
48.65907174622339
 10
110.4858491455962
 20
48.65907174622339
 10
108.5459847792768
 20
48.65907174622339
 10
108.5459847792768
 20
48.65907174622339
 10
108.5459847792768
 20
48.65907174622339
 10
108.5459847792768
 20
47.98310956089347
 10
108.5459847792768
 20
47.98310956089347
 10
108.2604552653879
 20
48.36678984518164
 10
108.0342502957698
 20
48.8544086602858
 10
107.8767749810997
 20
49.42655289314178
 10
107.8767749810997
 20
49.42655289314178
 10
107.8767749810997
 20
49.81758845629281
 10
107.8767749810997
 20
49.81758845629281
 10
107.8767749810997
 20
49.81758845629281
 10
108.6458236464643
 20
49.81758845629281
 10
108.6458236464643
 20
49.81758845629281
 10
108.6458236464643
 20
49.81758845629281
 10
108.6458236464643
 20
50.5370794230896
 10
108.6458236464643
 20
50.5370794230896
 10
108.6458236464643
 20
50.5370794230896
 10
107.8767749810997
 20
50.5370794230896
 10
107.8767749810997
 20
50.5370794230896
 10
107.8767749810997
 20
50.5370794230896
 10
107.8767749810997
 20
51.71947064487778
 10
107.8767749810997
 20
51.71947064487778
 10
107.8767749810997
 20
51.71947064487778
 10
107.1571634359608
 20
51.71947064487778
 10
107.1571634359608
 20
51.71947064487778
 10
107.1571634359608
 20
51.71947064487778
 10
107.1571634359608
 20
50.5370794230896
 10
107.1571634359608
 20
50.5370794230896
 10
107.1571634359608
 20
50.5370794230896
 10
106.19494826669
 20
50.5370794230896
 10
106.19494826669
 20
50.5370794230896
 10
106.19494826669
 20
50.5370794230896
 10
106.19494826669
 20
49.81758845629281
 10
106.19494826669
 20
49.81758845629281
 10
106.19494826669
 20
49.81758845629281
 10
107.1571634359608
 20
49.81758845629281
 10
107.1571634359608
 20
49.81758845629281
 10
107.1571634359608
 20
49.81758845629281
 10
107.1571634359608
 20
49.33262236471296
 10
107.1571634359608
 20
49.33262236471296
 10
107.0127105822282
 20
48.71236737339348
 10
106.7187405843983
 20
48.11863961731706
 10
106.2757357558393
 20
47.56108536384488
 10
106.2757357558393
 20
47.56108536384488
 10
106.26560717511
 20
47.54830405959137
 10
106.26560717511
 20
47.54830405959137
 10
106.26560717511
 20
47.54830405959137
 10
106.26560717511
 20
46.48287382955664
 10
106.26560717511
 20
46.48287382955664
 10
106.26560717511
 20
46.48287382955664
 10
106.3456711942074
 20
46.56559057217816
 10
106.3456711942074
 20
46.56559057217816
 10
106.6787085748497
 20
46.91092694370593
 10
106.9475982775407
 20
47.26663305264696
 10
107.1571634359608
 20
47.60786976054624
 10
107.1571634359608
 20
47.60786976054624
 10
107.1571634359608
 20
44.10651586514688
 10
107.1571634359608
 20
44.10651586514688
 10
107.1571634359608
 20
44.10651586514688
 10
107.8767749810997
 20
44.10651586514688
 10
107.8767749810997
 20
44.10651586514688
 10
107.8767749810997
 20
44.10651586514688
 10
107.8767749810997
 20
47.77330324578929
 10
107.8767749810997
 20
47.77330324578929
 10
108.1362595731136
 20
47.39420493849763
 10
108.4410816217247
 20
47.05128013381011
 10
108.774119002367
 20
46.78359621453933
 10
108.774119002367
 20
46.78359621453933
 10
108.8496010444677
 20
46.72282473016434
 10
108.8496010444677
 20
46.72282473016434
 10
108.8496010444677
 20
46.72282473016434
 10
108.8496010444677
 20
47.63198542894906
 10
108.8496010444677
 20
47.63198542894906
 10
108.8496010444677
 20
47.63198542894906
 10
108.8353728001101
 20
47.64573135993862
 10
108.8353728001101
 20
47.64573135993862
 10
108.7449390435997
 20
47.73423586297679
 10
108.6605342041901
 20
47.83407473016427
 10
108.5790232449886
 20
47.93970135776851
 10
108.5790232449886
 20
47.93970135776851
 10
109.6492766087038
 20
47.93970135776851
 10
109.6492766087038
 20
47.93970135776851
 10
109.5687302762386
 20
46.94878854309831
 10
109.3094868409087
 20
45.70538468025108
 10
108.2978345514123
 20
45.03834529223024
 10
108.2978345514123
 20
45.03834529223024
 10
108.2768539199019
 20
45.02435820455661
 10
108.2768539199019
 20
45.02435820455661
 10
108.2768539199019
 20
45.02435820455661
 10
108.2768539199019
 20
44.34743139249064
 10
108.2768539199019
 20
44.34743139249064
 10
108.2768539199019
 20
44.34743139249064
 10
108.3446189481136
 20
44.38312258172686
 10
108.3446189481136
 20
44.38312258172686
 10
109.5846466173844
 20
45.04123917243862
 10
110.1979080648671
 20
46.20699058302887
 10
110.3611711399539
 20
47.93970135776851
 10
110.3611711399539
 20
47.93970135776851
 10
110.4858491455962
 20
47.93970135776851
 10
110.4858491455962
 20
47.93970135776851
 10
110.4858491455962
 20
47.93970135776851
 10
110.4858491455962
 20
44.10651586514688
 10
110.4858491455962
 20
44.10651586514688
 10
110.4858491455962
 20
44.10651586514688
 10
111.2052195340511
 20
44.10651586514688
 10
111.2052195340511
 20
44.10651586514688
 10
111.2052195340511
 20
44.10651586514688
 10
111.2052195340511
 20
47.93970135776851
 10
111.2052195340511
 20
47.93970135776851
 10
111.2052195340511
 20
47.93970135776851
 10
111.3077111247629
 20
47.93970135776851
 10
111.3077111247629
 20
47.93970135776851
 10
111.4709741998497
 20
46.20699058302887
 10
112.0837533339643
 20
45.04123917243862
 10
113.3235398465511
 20
44.38312258172686
 10
113.3235398465511
 20
44.38312258172686
 10
113.391546031447
 20
44.34743139249064
 10
113.391546031447
 20
44.34743139249064
 10
113.391546031447
 20
44.34743139249064
 10
113.391546031447
 20
45.02435820455661
 10
113.391546031447
 20
45.02435820455661
 10
113.391546031447
 20
45.02435820455661
 10
113.3708065566205
 20
45.03834529223024
 10
113.3708065566205
 20
45.03834529223024
 97
        0
 75
     0
 76
     1
 52
0.0
 41
0.01
 77
     0
 78
     1
 53
45.0
 43
-0.9999983001881673
 44
21.50000079055394
 45
-0.0224506403026729
 46
0.0224506403026729
 79
     0
 98
        1
 10
95.92806417923339
 20
47.88960105666172
  0
HATCH
  5
1877C
330
1F
100
AcDbEntity
  8
0
  6
ByBlock
 62
     0
100
AcDbHatch
 10
0.0
 20
0.0
 30
0.0
210
0.0
220
0.0
230
1.0
  2
ANSI31
 70
     0
 71
     0
 91
        1
 92
        1
 93
        1
 72
     4
 94
        3
 73
     0
 74
     0
 95
       29
 96
       25
 40
0.0
 40
0.0
 40
0.0
 40
0.0
 40
1.0
 40
1.0
 40
1.0
 40
2.0
 40
2.0
 40
2.0
 40
3.0
 40
3.0
 40
3.0
 40
4.0
 40
4.0
 40
4.0
 40
5.0
 40
5.0
 40
5.0
 40
6.0
 40
6.0
 40
6.0
 40
7.0
 40
7.0
 40
7.0
 40
8.0
 40
8.0
 40
8.0
 40
8.0
 10
93.44451206877341
 20
47.87892987339342
 10
93.44451206877341
 20
46.26028621019907
 10
93.07385424542269
 20
45.30000029440043
 10
92.3108344971588
 20
44.94453534214346
 10
92.3108344971588
 20
44.94453534214346
 10
92.28406610523165
 20
44.93199519457403
 10
92.28406610523165
 20
44.93199519457403
 10
92.28406610523165
 20
44.93199519457403
 10
92.28406610523165
 20
44.08408829353231
 10
92.28406610523165
 20
44.08408829353231
 10
92.28406610523165
 20
44.08408829353231
 10
92.34797262649909
 20
44.10989205872328
 10
92.34797262649909
 20
44.10989205872328
 10
93.6885626330095
 20
44.65466500794207
 10
94.27264412172474
 20
45.71141359735179
 10
94.3018240804921
 20
47.64307863641431
 10
94.3018240804921
 20
47.64307863641431
 10
94.3018240804921
 20
51.3503803399733
 10
94.3018240804921
 20
51.3503803399733
 10
94.3018240804921
 20
51.3503803399733
 10
93.44451206877341
 20
51.3503803399733
 10
93.44451206877341
 20
51.3503803399733
 10
93.44451206877341
 20
51.3503803399733
 10
93.44451206877341
 20
47.87892987339342
 10
93.44451206877341
 20
47.87892987339342
 97
        0
 75
     0
 76
     1
 52
0.0
 41
0.01
 77
     0
 78
     1
 53
45.0
 43
-0.9999983001881673
 44
21.50000079055394
 45
-0.0224506403026729
 46
0.0224506403026729
 79
     0
 98
        1
 10
95.75925450041404
 20
47.71723431675286
  0
HATCH
  5
1877D
330
1F
100
AcDbEntity
  8
0
  6
ByBlock
 62
     0
100
AcDbHatch
 10
0.0
 20
0.0
 30
0.0
210
0.0
220
0.0
230
1.0
  2
ANSI31
 70
     0
 71
     0
 91
        1
 92
        1
 93
        1
 72
     4
 94
        3
 73
     0
 74
     0
 95
       35
 96
       31
 40
0.0
 40
0.0
 40
0.0
 40
0.0
 40
1.0
 40
1.0
 40
1.0
 40
2.0
 40
2.0
 40
2.0
 40
3.0
 40
3.0
 40
3.0
 40
4.0
 40
4.0
 40
4.0
 40
5.0
 40
5.0
 40
5.0
 40
6.0
 40
6.0
 40
6.0
 40
7.0
 40
7.0
 40
7.0
 40
8.0
 40
8.0
 40
8.0
 40
9.0
 40
9.0
 40
9.0
 40
10.0
 40
10.0
 40
10.0
 40
10.0
 10
98.53098884828728
 20
48.75915177009483
 10
98.53098884828728
 20
48.75915177009483
 10
98.53098884828728
 20
48.7128496867615
 10
98.53098884828728
 20
48.7128496867615
 10
98.53098884828728
 20
46.36012507738655
 10
97.31652378752336
 20
45.15820016419207
 10
96.16861797155117
 20
45.01929391419207
 10
96.16861797155117
 20
45.12540285516434
 10
96.16861797155117
 20
51.3503803399733
 10
96.16861797155117
 20
51.3503803399733
 10
96.16861797155117
 20
51.3503803399733
 10
95.31154711651641
 20
51.3503803399733
 10
95.31154711651641
 20
51.3503803399733
 10
95.31154711651641
 20
51.3503803399733
 10
95.31154711651641
 20
44.56181968459134
 10
95.31154711651641
 20
44.56181968459134
 10
95.31154711651641
 20
44.41133791375807
 10
95.35302606616927
 20
44.29461807868858
 10
95.43477818205463
 20
44.21383058953927
 10
95.54643372675945
 20
44.10434545499072
 10
95.69088658049214
 20
44.10651586514688
 10
95.69715665427692
 20
44.10651586514688
 10
97.4571181343116
 20
44.10651586514688
 10
99.2344428955962
 20
45.53054608433092
 10
99.2344428955962
 20
48.7128496867615
 10
99.2344428955962
 20
48.7128496867615
 10
99.2344428955962
 20
48.75915177009483
 10
99.2344428955962
 20
48.75915177009483
 10
99.2344428955962
 20
48.75915177009483
 10
98.53098884828728
 20
48.75915177009483
 10
98.53098884828728
 20
48.75915177009483
 97
        0
 75
     0
 76
     1
 52
0.0
 41
0.01
 77
     0
 78
     1
 53
45.0
 43
-0.9999983001881673
 44
21.50000079055394
 45
-0.0224506403026729
 46
0.0224506403026729
 79
     0
 98
        1
 10
95.75925450041404
 20
47.71723431675286
  0
HATCH
  5
1877E
330
1F
100
AcDbEntity
  8
0
  6
ByBlock
 62
     0
100
AcDbHatch
 10
0.0
 20
0.0
 30
0.0
210
0.0
220
0.0
230
1.0
  2
ANSI31
 70
     0
 71
     0
 91
        1
 92
        1
 93
        1
 72
     4
 94
        3
 73
     0
 74
     0
 95
       35
 96
       31
 40
0.0
 40
0.0
 40
0.0
 40
0.0
 40
1.0
 40
1.0
 40
1.0
 40
2.0
 40
2.0
 40
2.0
 40
3.0
 40
3.0
 40
3.0
 40
4.0
 40
4.0
 40
4.0
 40
5.0
 40
5.0
 40
5.0
 40
6.0
 40
6.0
 40
6.0
 40
7.0
 40
7.0
 40
7.0
 40
8.0
 40
8.0
 40
8.0
 40
9.0
 40
9.0
 40
9.0
 40
10.0
 40
10.0
 40
10.0
 40
10.0
 10
105.3564464763254
 20
44.8890693048171
 10
105.3434240153878
 20
44.89630400533792
 10
104.0406956082698
 20
45.61253935690035
 10
101.3655445123497
 20
45.61253935690035
 10
101.3655445123497
 20
45.61253935690035
 10
99.78500360523163
 20
45.61253935690035
 10
99.78500360523163
 20
45.61253935690035
 10
99.78500360523163
 20
45.61253935690035
 10
99.7387015218983
 20
45.61253935690035
 10
99.7387015218983
 20
45.61253935690035
 10
99.7387015218983
 20
45.61253935690035
 10
99.7387015218983
 20
44.7805487970046
 10
99.7387015218983
 20
44.7805487970046
 10
99.7387015218983
 20
44.7805487970046
 10
101.4506728218115
 20
44.7805487970046
 10
101.4506728218115
 20
44.7805487970046
 10
103.6268707384782
 20
44.7805487970046
 10
105.2469613417768
 20
44.13786623407054
 10
105.3149675266726
 20
44.11061552877538
 10
105.3149675266726
 20
44.11061552877538
 10
105.3783917345719
 20
44.08505292026847
 10
105.3783917345719
 20
44.08505292026847
 10
105.3783917345719
 20
44.08505292026847
 10
105.3800798313601
 20
44.15305910516429
 10
105.3800798313601
 20
44.15305910516429
 10
105.3800798313601
 20
44.15305910516429
 10
105.3800798313601
 20
44.8755645305115
 10
105.3800798313601
 20
44.8755645305115
 10
105.3800798313601
 20
44.8755645305115
 10
105.3564464763254
 20
44.8890693048171
 10
105.3564464763254
 20
44.8890693048171
 97
        0
 75
     0
 76
     1
 52
0.0
 41
0.01
 77
     0
 78
     1
 53
45.0
 43
-0.9999983001881673
 44
21.50000079055394
 45
-0.0224506403026729
 46
0.0224506403026729
 79
     0
 98
        1
 10
102.5593906766292
 20
47.70372954244726
  0
HATCH
  5
1877F
330
1F
100
AcDbEntity
  8
0
  6
ByBlock
 62
     0
100
AcDbHatch
 10
0.0
 20
0.0
 30
0.0
210
0.0
220
0.0
230
1.0
  2
ANSI31
 70
     0
 71
     0
 91
        1
 92
        1
 93
        1
 72
     4
 94
        3
 73
     0
 74
     0
 95
       35
 96
       31
 40
0.0
 40
0.0
 40
0.0
 40
0.0
 40
1.0
 40
1.0
 40
1.0
 40
2.0
 40
2.0
 40
2.0
 40
3.0
 40
3.0
 40
3.0
 40
4.0
 40
4.0
 40
4.0
 40
5.0
 40
5.0
 40
5.0
 40
6.0
 40
6.0
 40
6.0
 40
7.0
 40
7.0
 40
7.0
 40
8.0
 40
8.0
 40
8.0
 40
9.0
 40
9.0
 40
9.0
 40
10.0
 40
10.0
 40
10.0
 40
10.0
 10
100.1718189264122
 20
48.77217423103241
 10
100.1718189264122
 20
48.77217423103241
 10
100.1255168430788
 20
48.77217423103241
 10
100.1255168430788
 20
48.77217423103241
 10
100.1255168430788
 20
48.77217423103241
 10
100.1255168430788
 20
47.99034426141429
 10
100.1255168430788
 20
47.99034426141429
 10
100.1255168430788
 20
47.99034426141429
 10
101.1412687962038
 20
47.99034426141429
 10
101.1412687962038
 20
47.99034426141429
 10
103.2632064589643
 20
47.99034426141429
 10
104.6491339220719
 20
47.39251684170949
 10
104.8005803196413
 20
47.32426950012961
 10
104.8005803196413
 20
47.32426950012961
 10
104.8659337810129
 20
47.29508954136224
 10
104.8659337810129
 20
47.29508954136224
 10
104.8659337810129
 20
47.29508954136224
 10
104.8681041911691
 20
47.36574844978235
 10
104.8681041911691
 20
47.36574844978235
 10
104.8681041911691
 20
47.36574844978235
 10
104.8681041911691
 20
48.02700007738656
 10
104.8681041911691
 20
48.02700007738656
 10
104.8681041911691
 20
48.02700007738656
 10
104.8512232232872
 20
48.04098716506018
 10
104.8512232232872
 20
48.04098716506018
 10
104.815049720683
 20
48.07089059387954
 10
103.9316927870893
 20
48.77217423103241
 10
100.9789703478532
 20
48.77217423103241
 10
100.9789703478532
 20
48.77217423103241
 10
100.1718189264122
 20
48.77217423103241
 10
100.1718189264122
 20
48.77217423103241
 97
        0
 75
     0
 76
     1
 52
0.0
 41
0.01
 77
     0
 78
     1
 53
45.0
 43
-0.9999983001881673
 44
21.50000079055394
 45
-0.0224506403026729
 46
0.0224506403026729
 79
     0
 98
        1
 10
102.5593906766292
 20
47.70372954244726
  0
HATCH
  5
18780
330
1F
100
AcDbEntity
  8
0
  6
ByBlock
 62
     0
100
AcDbHatch
 10
0.0
 20
0.0
 30
0.0
210
0.0
220
0.0
230
1.0
  2
ANSI31
 70
     0
 71
     0
 91
        1
 92
        1
 93
        1
 72
     4
 94
        3
 73
     0
 74
     0
 95
       35
 96
       31
 40
0.0
 40
0.0
 40
0.0
 40
0.0
 40
1.0
 40
1.0
 40
1.0
 40
2.0
 40
2.0
 40
2.0
 40
3.0
 40
3.0
 40
3.0
 40
4.0
 40
4.0
 40
4.0
 40
5.0
 40
5.0
 40
5.0
 40
6.0
 40
6.0
 40
6.0
 40
7.0
 40
7.0
 40
7.0
 40
8.0
 40
8.0
 40
8.0
 40
9.0
 40
9.0
 40
9.0
 40
10.0
 40
10.0
 40
10.0
 40
10.0
 10
104.9862709663427
 20
49.83796619609313
 10
104.9862709663427
 20
49.83796619609313
 10
105.0523478977663
 20
49.80733929722157
 10
105.0523478977663
 20
49.80733929722157
 10
105.0523478977663
 20
49.80733929722157
 10
105.0559652480268
 20
49.87848051900982
 10
105.0559652480268
 20
49.87848051900982
 10
105.0559652480268
 20
49.87848051900982
 10
105.0559652480268
 20
50.58205514466078
 10
105.0559652480268
 20
50.58205514466078
 10
105.0559652480268
 20
50.58205514466078
 10
105.0328142063601
 20
50.59555991896639
 10
105.0328142063601
 20
50.59555991896639
 10
105.0202740587907
 20
50.60291519782925
 10
103.7546837810129
 20
51.32240616462604
 10
101.1668314047108
 20
51.32240616462604
 10
101.1668314047108
 20
51.32240616462604
 10
99.9839578695545
 20
51.32240616462604
 10
99.9839578695545
 20
51.32240616462604
 10
99.9839578695545
 20
51.32240616462604
 10
99.93765578622129
 20
51.32240616462604
 10
99.93765578622129
 20
51.32240616462604
 10
99.93765578622129
 20
51.32240616462604
 10
99.93765578622129
 20
50.51525474318509
 10
99.93765578622129
 20
50.51525474318509
 10
99.93765578622129
 20
50.51525474318509
 10
101.3624094754573
 20
50.51525474318509
 10
101.3624094754573
 20
50.51525474318509
 10
103.4710835205962
 20
50.51525474318509
 10
104.8374772922976
 20
49.90741932109313
 10
104.9862709663427
 20
49.83796619609313
 97
        0
 75
     0
 76
     1
 52
0.0
 41
0.01
 77
     0
 78
     1
 53
45.0
 43
-0.9999983001881673
 44
21.50000079055394
 45
-0.0224506403026729
 46
0.0224506403026729
 79
     0
 98
        1
 10
102.5593906766292
 20
47.70372954244726
  0
HATCH
  5
18781
330
1F
100
AcDbEntity
  8
0
  6
ByBlock
 62
     0
100
AcDbHatch
 10
0.0
 20
0.0
 30
0.0
210
0.0
220
0.0
230
1.0
  2
ANSI31
 70
     0
 71
     0
 91
        1
 92
        1
 93
        1
 72
     4
 94
        3
 73
     0
 74
     0
 95
       77
 96
       73
 40
0.0
 40
0.0
 40
0.0
 40
0.0
 40
1.0
 40
1.0
 40
1.0
 40
2.0
 40
2.0
 40
2.0
 40
3.0
 40
3.0
 40
3.0
 40
4.0
 40
4.0
 40
4.0
 40
5.0
 40
5.0
 40
5.0
 40
6.0
 40
6.0
 40
6.0
 40
7.0
 40
7.0
 40
7.0
 40
8.0
 40
8.0
 40
8.0
 40
9.0
 40
9.0
 40
9.0
 40
10.0
 40
10.0
 40
10.0
 40
11.0
 40
11.0
 40
11.0
 40
12.0
 40
12.0
 40
12.0
 40
13.0
 40
13.0
 40
13.0
 40
14.0
 40
14.0
 40
14.0
 40
15.0
 40
15.0
 40
15.0
 40
16.0
 40
16.0
 40
16.0
 40
17.0
 40
17.0
 40
17.0
 40
18.0
 40
18.0
 40
18.0
 40
19.0
 40
19.0
 40
19.0
 40
20.0
 40
20.0
 40
20.0
 40
21.0
 40
21.0
 40
21.0
 40
22.0
 40
22.0
 40
22.0
 40
23.0
 40
23.0
 40
23.0
 40
24.0
 40
24.0
 40
24.0
 40
24.0
 10
120.3414405084433
 20
44.91897273363656
 10
119.0951427653879
 20
46.05867922235177
 10
118.6774593886518
 20
47.57748401835875
 10
118.5650803738948
 20
49.92442086731705
 10
118.5650803738948
 20
49.92442086731705
 10
119.9090465739816
 20
49.92442086731705
 10
119.9090465739816
 20
49.92442086731705
 10
120.0493997640858
 20
49.92442086731705
 10
120.1603318387386
 20
49.97108468567649
 10
120.2297849637386
 20
50.05934803203058
 10
120.3050258491553
 20
50.15508723558969
 10
120.3245595405615
 20
50.29049671367125
 10
120.285733314433
 20
50.45038359518162
 10
120.2324376872629
 20
50.67128311775116
 10
119.9934514133913
 20
51.48566923971293
 10
119.9830816759782
 20
51.52015464552892
 10
119.9830816759782
 20
51.52015464552892
 10
119.9736765653011
 20
51.55343426792478
 10
119.9736765653011
 20
51.55343426792478
 10
119.9736765653011
 20
51.55343426792478
 10
119.939191159485
 20
51.55343426792478
 10
119.939191159485
 20
51.55343426792478
 10
119.939191159485
 20
51.55343426792478
 10
119.2335667020198
 20
51.55343426792478
 10
119.2335667020198
 20
51.55343426792478
 10
119.2335667020198
 20
51.55343426792478
 10
119.2473126330094
 20
51.49615955546813
 10
119.2473126330094
 20
51.49615955546813
 10
119.2487595731136
 20
51.49109526510358
 10
119.3659617215511
 20
51.01083172886228
 10
119.5017329346588
 20
50.64367067742989
 10
119.4694179389991
 20
50.64367067742989
 10
119.0912842584434
 20
50.64367067742989
 10
118.5412058621762
 20
50.64367067742989
 10
118.5337300049712
 20
50.9726083944438
 10
118.5296303413428
 20
51.31324221063301
 10
118.5296303413428
 20
51.67304798320254
 10
118.5296303413428
 20
51.67304798320254
 10
118.5296303413428
 20
51.7194706448779
 10
118.5296303413428
 20
51.7194706448779
 10
118.5296303413428
 20
51.7194706448779
 10
118.4833282580094
 20
51.7194706448779
 10
118.4833282580094
 20
51.7194706448779
 10
118.4833282580094
 20
51.7194706448779
 10
117.7610639893462
 20
51.7194706448779
 10
117.7610639893462
 20
51.7194706448779
 10
117.7610639893462
 20
51.7194706448779
 10
117.7610639893462
 20
51.67304798320254
 10
117.7610639893462
 20
51.67304798320254
 10
117.7610639893462
 20
51.31432741571121
 10
117.7666105930789
 20
50.97200550273374
 10
117.7772214871761
 20
50.64367067742989
 10
116.0464399659087
 20
50.64367067742989
 10
113.6372846924712
 20
50.64367067742989
 10
113.6372846924712
 20
50.64367067742989
 10
113.6372846924712
 20
50.64367067742989
 10
113.6372846924712
 20
49.92442086731705
 10
113.6372846924712
 20
49.92442086731705
 10
113.6372846924712
 20
49.92442086731705
 10
117.81098342294
 20
49.92442086731705
 10
117.81098342294
 20
49.92442086731705
 10
117.9973975396934
 20
46.9475827596782
 10
118.7254495687733
 20
45.29710641419206
 10
120.2821159641726
 20
44.11592097582399
 10
120.2821159641726
 20
44.11592097582399
 10
120.3566333795372
 20
44.05949031176158
 10
120.3566333795372
 20
44.05949031176158
 10
120.3566333795372
 20
44.05949031176158
 10
120.3566333795372
 20
44.90498564596293
 10
120.3566333795372
 20
44.90498564596293
 10
120.3566333795372
 20
44.90498564596293
 10
120.3414405084433
 20
44.91897273363656
 10
120.3414405084433
 20
44.91897273363656
 97
        0
 75
     0
 76
     1
 52
0.0
 41
0.01
 77
     0
 78
     1
 53
45.0
 43
-0.9999983001881673
 44
21.50000079055394
 45
-0.0224506403026729
 46
0.0224506403026729
 79
     0
 98
        1
 10
116.9969590360042
 20
47.88948047831968
  0
HATCH
  5
18782
330
1F
100
AcDbEntity
  8
0
  6
ByBlock
 62
     0
100
AcDbHatch
 10
0.0
 20
0.0
 30
0.0
210
0.0
220
0.0
230
1.0
  2
ANSI31
 70
     0
 71
     0
 91
        1
 92
        1
 93
        1
 72
     4
 94
        3
 73
     0
 74
     0
 95
       53
 96
       49
 40
0.0
 40
0.0
 40
0.0
 40
0.0
 40
1.0
 40
1.0
 40
1.0
 40
2.0
 40
2.0
 40
2.0
 40
3.0
 40
3.0
 40
3.0
 40
4.0
 40
4.0
 40
4.0
 40
5.0
 40
5.0
 40
5.0
 40
6.0
 40
6.0
 40
6.0
 40
7.0
 40
7.0
 40
7.0
 40
8.0
 40
8.0
 40
8.0
 40
9.0
 40
9.0
 40
9.0
 40
10.0
 40
10.0
 40
10.0
 40
11.0
 40
11.0
 40
11.0
 40
12.0
 40
12.0
 40
12.0
 40
13.0
 40
13.0
 40
13.0
 40
14.0
 40
14.0
 40
14.0
 40
15.0
 40
15.0
 40
15.0
 40
16.0
 40
16.0
 40
16.0
 40
16.0
 10
116.0529511963775
 20
45.10803957391431
 10
116.0529511963775
 20
45.10803957391431
 10
116.0529511963775
 20
47.93970135776851
 10
116.0529511963775
 20
47.93970135776851
 10
116.0529511963775
 20
47.93970135776851
 10
117.656160831794
 20
47.93970135776851
 10
117.656160831794
 20
47.93970135776851
 10
117.656160831794
 20
47.93970135776851
 10
117.656160831794
 20
48.65907174622339
 10
117.656160831794
 20
48.65907174622339
 10
117.656160831794
 20
48.65907174622339
 10
113.9613992758046
 20
48.65907174622339
 10
113.9613992758046
 20
48.65907174622339
 10
113.9613992758046
 20
48.65907174622339
 10
113.9613992758046
 20
47.93970135776851
 10
113.9613992758046
 20
47.93970135776851
 10
113.9613992758046
 20
47.93970135776851
 10
115.3338219646066
 20
47.93970135776851
 10
115.3338219646066
 20
47.93970135776851
 10
115.3338219646066
 20
47.93970135776851
 10
115.3338219646066
 20
45.08006539856705
 10
115.3338219646066
 20
45.08006539856705
 10
114.8951579563601
 20
45.06897219110181
 10
114.3986163439469
 20
45.06390790073726
 10
113.8212872423844
 20
45.06390790073726
 10
113.8212872423844
 20
45.06390790073726
 10
113.7749851590511
 20
45.06390790073726
 10
113.7749851590511
 20
45.06390790073726
 10
113.7749851590511
 20
45.06390790073726
 10
113.7749851590511
 20
44.33247967808097
 10
113.7749851590511
 20
44.33247967808097
 10
113.7749851590511
 20
44.33247967808097
 10
113.8212872423844
 20
44.33247967808097
 10
113.8212872423844
 20
44.33247967808097
 10
115.5096251872629
 20
44.33247967808097
 10
117.2703101373497
 20
44.41616104743866
 10
118.3854186442941
 20
44.84831382521645
 10
118.3854186442941
 20
44.84831382521645
 10
118.4136339763254
 20
44.86013050273379
 10
118.4136339763254
 20
44.86013050273379
 10
118.4136339763254
 20
44.86013050273379
 10
118.4136339763254
 20
45.56792537035528
 10
118.4136339763254
 20
45.56792537035528
 10
118.4136339763254
 20
45.56792537035528
 10
118.34924514169
 20
45.54091582174419
 10
118.34924514169
 20
45.54091582174419
 10
117.7569643257178
 20
45.29155981045948
 10
117.1150052328358
 20
45.16591717808103
 10
116.0529511963775
 20
45.10803957391431
 97
        0
 75
     0
 76
     1
 52
0.0
 41
0.01
 77
     0
 78
     1
 53
45.0
 43
-0.9999983001881673
 44
21.50000079055394
 45
-0.0224506403026729
 46
0.0224506403026729
 79
     0
 98
        1
 10
116.9969590360042
 20
47.88948047831968
  0
LINE
  5
18783
330
1F
100
AcDbEntity
  8
0
  6
ByBlock
 62
     0
370
    -2
100
AcDbLine
 10
140.0000000000004
 20
38.0
 30
0.0
 11
140.0000000000004
 21
58.0
 31
0.0
  0
HATCH
  5
18784
330
1F
100
AcDbEntity
  8
0
  6
ByBlock
 62
     0
100
AcDbHatch
 10
0.0
 20
0.0
 30
0.0
210
0.0
220
0.0
230
1.0
  2
ANSI31
 70
     0
 71
     0
 91
        1
 92
        3
 72
     0
 73
     1
 93
       16
 10
133.4234671468985
 20
44.984085038324
 10
133.4234671468985
 20
49.35553224969556
 10
135.0474162571413
 20
49.35553224969556
 10
135.0474162571413
 20
50.0747820598084
 10
133.4234671468985
 20
50.0747820598084
 10
133.4234671468985
 20
51.71585329461743
 10
132.7045790718115
 20
51.71585329461743
 10
132.7045790718115
 20
50.0747820598084
 10
131.2959828804053
 20
50.0747820598084
 10
131.2959828804053
 20
49.35553224969556
 10
132.7045790718115
 20
49.35553224969556
 10
132.7045790718115
 20
44.984085038324
 10
130.8971097250233
 20
44.984085038324
 10
130.8971097250233
 20
44.26447349318516
 10
135.2053738851796
 20
44.26447349318516
 10
135.2053738851796
 20
44.984085038324
 97
        0
 75
     0
 76
     1
 52
0.0
 41
0.01
 77
     0
 78
     1
 53
45.0
 43
-0.9999983001881673
 44
21.50000079055394
 45
-0.0224506403026729
 46
0.0224506403026729
 79
     0
 98
        1
 10
131.6469864340078
 20
47.90370872267738
  0
HATCH
  5
18785
330
1F
100
AcDbEntity
  8
0
  6
ByBlock
 62
     0
100
AcDbHatch
 10
0.0
 20
0.0
 30
0.0
210
0.0
220
0.0
230
1.0
  2
ANSI31
 70
     0
 71
     0
 91
        1
 92
        1
 93
        1
 72
     4
 94
        3
 73
     0
 74
     0
 95
       77
 96
       73
 40
0.0
 40
0.0
 40
0.0
 40
0.0
 40
1.0
 40
1.0
 40
1.0
 40
2.0
 40
2.0
 40
2.0
 40
3.0
 40
3.0
 40
3.0
 40
4.0
 40
4.0
 40
4.0
 40
5.0
 40
5.0
 40
5.0
 40
6.0
 40
6.0
 40
6.0
 40
7.0
 40
7.0
 40
7.0
 40
8.0
 40
8.0
 40
8.0
 40
9.0
 40
9.0
 40
9.0
 40
10.0
 40
10.0
 40
10.0
 40
11.0
 40
11.0
 40
11.0
 40
12.0
 40
12.0
 40
12.0
 40
13.0
 40
13.0
 40
13.0
 40
14.0
 40
14.0
 40
14.0
 40
15.0
 40
15.0
 40
15.0
 40
16.0
 40
16.0
 40
16.0
 40
17.0
 40
17.0
 40
17.0
 40
18.0
 40
18.0
 40
18.0
 40
19.0
 40
19.0
 40
19.0
 40
20.0
 40
20.0
 40
20.0
 40
21.0
 40
21.0
 40
21.0
 40
22.0
 40
22.0
 40
22.0
 40
23.0
 40
23.0
 40
23.0
 40
24.0
 40
24.0
 40
24.0
 40
24.0
 10
131.3299859728531
 20
46.65819473884482
 10
131.3299859728531
 20
46.65819473884482
 10
131.4016095080094
 20
46.6104457154073
 10
131.4016095080094
 20
46.6104457154073
 10
131.4016095080094
 20
46.6104457154073
 10
131.4016095080094
 20
47.43327232131014
 10
131.4016095080094
 20
47.43327232131014
 10
131.4016095080094
 20
47.43327232131014
 10
131.3842462267594
 20
47.44725940898376
 10
131.3842462267594
 20
47.44725940898376
 10
131.042527205492
 20
47.71518448493861
 10
130.6805510227664
 20
48.17579375143168
 10
130.4270953478531
 20
48.57297881002546
 10
130.8216276829225
 20
49.18792835429622
 10
131.1083629802316
 20
49.84242759474762
 10
131.2296647922976
 20
50.46581762295943
 10
131.2311117324018
 20
50.47172596171811
 10
131.2713848986344
 20
50.64921728116257
 10
131.1715460314469
 20
50.77570396193516
 10
131.1093276069678
 20
50.85456219761226
 10
131.0092475830962
 20
50.89435305047686
 10
130.8744409967247
 20
50.89435305047686
 10
130.8744409967247
 20
50.89435305047686
 10
130.5428505561865
 20
50.89435305047686
 10
130.5428505561865
 20
50.89435305047686
 10
130.5428505561865
 20
50.89435305047686
 10
130.0373861464643
 20
50.89435305047686
 10
130.0373861464643
 20
50.89435305047686
 10
130.0373861464643
 20
50.89435305047686
 10
130.0373861464643
 20
51.7194706448779
 10
130.0373861464643
 20
51.7194706448779
 10
130.0373861464643
 20
51.7194706448779
 10
129.3180157580094
 20
51.7194706448779
 10
129.3180157580094
 20
51.7194706448779
 10
129.3180157580094
 20
51.7194706448779
 10
129.3180157580094
 20
50.89435305047686
 10
129.3180157580094
 20
50.89435305047686
 10
129.3180157580094
 20
50.89435305047686
 10
128.1635987115684
 20
50.89435305047686
 10
128.1635987115684
 20
50.89435305047686
 10
128.1635987115684
 20
50.89435305047686
 10
128.1635987115684
 20
50.17486208367995
 10
128.1635987115684
 20
50.17486208367995
 10
128.1635987115684
 20
50.17486208367995
 10
130.2725139133914
 20
50.17486208367995
 10
130.4017738960302
 20
50.17486208367995
 10
130.0067592475927
 20
49.15754261210873
 10
129.4209896620893
 20
48.01470108650107
 10
128.1095796143462
 20
47.16221220846295
 10
128.1095796143462
 20
47.16221220846295
 10
128.0885989828358
 20
47.14846627747329
 10
128.0885989828358
 20
47.14846627747329
 10
128.0885989828358
 20
47.14846627747329
 10
128.0885989828358
 20
46.31406415073718
 10
128.0885989828358
 20
46.31406415073718
 10
128.0885989828358
 20
46.31406415073718
 10
128.1580521078358
 20
46.35361384691782
 10
128.1580521078358
 20
46.35361384691782
 10
128.5648834337906
 20
46.58608889032052
 10
128.9565218886518
 20
46.88705243198717
 10
129.3180157580094
 20
47.23070070672679
 10
129.3180157580094
 20
47.23070070672679
 10
129.3180157580094
 20
44.08794680047686
 10
129.3180157580094
 20
44.08794680047686
 10
129.3180157580094
 20
44.08794680047686
 10
130.0373861464643
 20
44.08794680047686
 10
130.0373861464643
 20
44.08794680047686
 10
130.0373861464643
 20
44.08794680047686
 10
130.0373861464643
 20
47.87410673971294
 10
130.0373861464643
 20
47.87410673971294
 10
130.3959861356136
 20
47.40288657912265
 10
130.8423671577491
 20
46.9798977553379
 10
131.3299859728531
 20
46.65819473884482
 97
        0
 75
     0
 76
     1
 52
0.0
 41
0.01
 77
     0
 78
     1
 53
45.0
 43
-0.9999983001881673
 44
21.50000079055394
 45
-0.0224506403026729
 46
0.0224506403026729
 79
     0
 98
        1
 10
131.6469864340078
 20
47.90370872267738
  0
LINE
  5
18786
330
1F
100
AcDbEntity
  8
0
  6
ByBlock
 62
     0
370
    -2
100
AcDbLine
 10
240.0000000000005
 20
48.0
 30
0.0
 11
340.0000000000005
 21
48.0
 31
0.0
  0
LINE
  5
18787
330
1F
100
AcDbEntity
  8
0
  6
ByBlock
 62
     0
370
    -2
100
AcDbLine
 10
240.0000000000005
 20
38.0
 30
0.0
 11
240.0000000000005
 21
58.0
 31
0.0
  0
MTEXT
  5
18788
330
1F
100
AcDbEntity
  8
0
100
AcDbMText
 10
242.0000000000005
 20
43.0
 30
0.0
 40
4.0
 41
12.208605964787
 71
     4
 72
     5
  1
御施工
  7
ST_Design
 73
     1
 44
1.0
1001
ACAD
1000
MTEXTBEGIN
1070
    73
1070
     1
1070
    44
1040
1.0
1070
    74
1070
     0
1000
MTEXTEND
  0
MTEXT
  5
18789
330
1F
100
AcDbEntity
  8
0
100
AcDbMText
 10
242.0000000000005
 20
53.0
 30
0.0
 40
4.0
 41
13.91
 71
     4
 72
     5
  1
御設計
  7
ST_Design
 73
     1
 44
1.0
1001
ACAD
1000
MTEXTBEGIN
1070
    73
1070
     1
1070
    44
1040
1.0
1070
    74
1070
     0
1000
MTEXTEND
  0
MTEXT
  5
1878A
330
1F
100
AcDbEntity
  8
0
100
AcDbMText
 10
335.7714923696954
 20
43.0
 30
0.0
 40
4.0
 41
3.089999999999998
 71
     4
 72
     5
  1
殿
  7
ST_Design
 73
     1
 44
1.0
1001
ACAD
1000
MTEXTBEGIN
1070
    73
1070
     1
1070
    44
1040
1.0
1070
    74
1070
     0
1000
MTEXTEND
  0
MTEXT
  5
1878B
330
1F
100
AcDbEntity
  8
0
100
AcDbMText
 10
335.8944653645499
 20
53.0
 30
0.0
 40
4.0
 41
3.089999999999998
 71
     4
 72
     5
  1
殿
  7
ST_Design
 73
     1
 44
1.0
1001
ACAD
1000
MTEXTBEGIN
1070
    73
1070
     1
1070
    44
1040
1.0
1070
    74
1070
     0
1000
MTEXTEND
  0
MTEXT
  5
1878C
330
1F
100
AcDbEntity
  8
0
100
AcDbMText
 10
341.0193080318454
 20
55.20513729706067
 30
0.0
 40
3.5
 41
5.0
 71
     1
 72
     5
  1
受\P{\H0.7143x;　\P}領
  7
ST_Design
 73
     1
 44
1.0
1001
ACAD
1000
MTEXTBEGIN
1070
    73
1070
     1
1070
    44
1040
1.0
1070
    74
1070
     0
1000
MTEXTEND
  0
LINE
  5
1878D
330
1F
100
AcDbEntity
  8
0
  6
ByBlock
 62
     0
370
    -2
100
AcDbLine
 10
340.0000000000005
 20
38.0
 30
0.0
 11
340.0000000000005
 21
58.0
 31
0.0
  0
LINE
  5
1878E
330
1F
100
AcDbEntity
  8
0
  6
ByBlock
 62
     0
370
    -2
100
AcDbLine
 10
345.0
 20
38.0
 30
0.0
 11
344.9999999999984
 21
58.0
 31
0.0
  0
LINE
  5
1878F
330
1F
100
AcDbEntity
  8
0
  6
ByBlock
 62
     0
370
    -2
100
AcDbLine
 10
410.0000000000004
 20
38.0
 30
0.0
 11
410.0000000000004
 21
58.0
 31
0.0
  0
MTEXT
  5
18790
330
1F
100
AcDbEntity
  8
0
100
AcDbMText
 10
411.9101362171959
 20
55.32828371120036
 30
0.0
 40
3.5
 41
5.0
 71
     1
 72
     5
  1
工\P事\P名
  7
ST_Design
 73
     1
 44
1.0
1001
ACAD
1000
MTEXTBEGIN
1070
    73
1070
     1
1070
    44
1040
1.0
1070
    74
1070
     0
1000
MTEXTEND
  0
LINE
  5
18791
330
1F
100
AcDbEntity
  8
0
  6
ByBlock
 62
     0
370
    -2
100
AcDbLine
 10
798.0000000000036
 20
38.0
 30
0.0
 11
798.0
 21
558.0
 31
0.0
  0
MTEXT
  5
18792
330
1F
100
AcDbEntity
  8
0
100
AcDbMText
 10
663.0000000000043
 20
53.5
 30
0.0
 40
3.5
 41
13.59593930004324
 71
     8
 72
     5
  1
尺　　度
  7
ST_Design
 73
     1
 44
1.0
1001
ACAD
1000
MTEXTBEGIN
1070
    73
1070
     1
1070
    44
1040
1.0
1070
    74
1070
     0
1000
MTEXTEND
  0
LINE
  5
18793
330
1F
100
AcDbEntity
  8
0
  6
ByBlock
 62
     0
370
    -2
100
AcDbLine
 10
678.0
 20
53.0
 30
0.0
 11
588.0000000000002
 21
53.0
 31
0.0
  0
LINE
  5
18794
330
1F
100
AcDbEntity
  8
0
  6
ByBlock
 62
     0
370
    -2
100
AcDbLine
 10
588.0000000000004
 20
38.0
 30
0.0
 11
588.0000000000004
 21
58.0
 31
0.0
  0
MTEXT
  5
18795
330
1F
100
AcDbEntity
  8
0
100
AcDbMText
 10
625.5000000000043
 20
53.5
 30
0.0
 40
3.5
 41
13.5959
 71
     8
 72
     5
  1
打　合
  7
ST_Design
 73
     1
 44
1.0
1001
ACAD
1000
MTEXTBEGIN
1070
    73
1070
     1
1070
    44
1040
1.0
1070
    74
1070
     0
1000
MTEXTEND
  0
MTEXT
  5
18796
330
1F
100
AcDbEntity
  8
0
100
AcDbMText
 10
603.0000000000004
 20
53.5
 30
0.0
 40
3.5
 41
13.5959
 71
     8
 72
     5
  1
照　　査
  7
ST_Design
 73
     1
 44
1.0
1001
ACAD
1000
MTEXTBEGIN
1070
    73
1070
     1
1070
    44
1040
1.0
1070
    74
1070
     0
1000
MTEXTEND
  0
LINE
  5
18797
330
1F
100
AcDbEntity
  8
0
  6
ByBlock
 62
     0
370
    -2
100
AcDbLine
 10
618.0000000000041
 20
38.0
 30
0.0
 11
618.0000000000041
 21
58.0
 31
0.0
  0
MTEXT
  5
18798
330
1F
100
AcDbEntity
  8
0
100
AcDbMText
 10
640.5000000000043
 20
53.5
 30
0.0
 40
3.5
 41
13.5959
 71
     8
 72
     5
  1
作　図
  7
ST_Design
 73
     1
 44
1.0
1001
ACAD
1000
MTEXTBEGIN
1070
    73
1070
     1
1070
    44
1040
1.0
1070
    74
1070
     0
1000
MTEXTEND
  0
LINE
  5
18799
330
1F
100
AcDbEntity
  8
0
  6
ByBlock
 62
     0
370
    -2
100
AcDbLine
 10
633.0000000000004
 20
38.0
 30
0.0
 11
633.000000000004
 21
58.0
 31
0.0
  0
LINE
  5
1879A
330
1F
100
AcDbEntity
  8
0
  6
ByBlock
 62
     0
370
    -2
100
AcDbLine
 10
648.0000000000041
 20
38.0
 30
0.0
 11
648.0000000000041
 21
58.0
 31
0.0
  0
LINE
  5
1879B
330
1F
100
AcDbEntity
  8
0
  6
ByBlock
 62
     0
370
    -2
100
AcDbLine
 10
652.0000000000041
 20
45.49999999999999
 30
0.0
 11
660.0000000000041
 21
45.49999999999999
 31
0.0
  0
LINE
  5
1879C
330
1F
100
AcDbEntity
  8
0
  6
ByBlock
 62
     0
370
    -2
100
AcDbLine
 10
798.0000000000041
 20
53.0
 30
0.0
 11
768.0000000000041
 21
53.0
 31
0.0
  0
LINE
  5
1879D
330
1F
100
AcDbEntity
  8
0
  6
ByBlock
 62
     0
370
    -2
100
AcDbLine
 10
768.0000000000041
 20
48.0
 30
0.0
 11
678.0000000000041
 21
48.0
 31
0.0
  0
LINE
  5
1879E
330
1F
100
AcDbEntity
  8
0
  6
ByBlock
 62
     0
370
    -2
100
AcDbLine
 10
666.000000000008
 20
45.49999999999999
 30
0.0
 11
674.000000000008
 21
45.49999999999999
 31
0.0
  0
LINE
  5
1879F
330
1F
100
AcDbEntity
  8
0
  6
ByBlock
 62
     0
370
    -2
100
AcDbLine
 10
678.0000000000041
 20
38.0
 30
0.0
 11
678.0000000000041
 21
58.0
 31
0.0
  0
LINE
  5
187A0
330
1F
100
AcDbEntity
  8
0
  6
ByBlock
 62
     0
370
    -2
100
AcDbLine
 10
678.0000000000041
 20
38.0
 30
0.0
 11
678.0000000000041
 21
58.0
 31
0.0
  0
LINE
  5
187A1
330
1F
100
AcDbEntity
  8
0
  6
ByBlock
 62
     0
370
    -2
100
AcDbLine
 10
768.0000000000041
 20
38.0
 30
0.0
 11
768.0000000000041
 21
58.0
 31
0.0
  0
MTEXT
  5
187A2
330
1F
100
AcDbEntity
  8
0
100
AcDbMText
 10
783.000000000004
 20
53.5
 30
0.0
 40
3.5
 41
13.5959
 71
     8
 72
     5
  1
図　　番
  7
ST_Design
 73
     1
 44
1.0
1001
ACAD
1000
MTEXTBEGIN
1070
    73
1070
     1
1070
    44
1040
1.0
1070
    74
1070
     0
1000
MTEXTEND
  0
TEXT
  5
187AB
330
1F
100
AcDbEntity
  8
0
100
AcDbText
 10
718.4146959686858
 20
23.25114259729503
 30
0.0
 40
10.0
  1
-Ａｋ６－１-
  7
AT_VECTOR
 72
     1
 11
760.7956483496382
 21
28.25114259729503
 31
0.0
100
AcDbText
 73
     2
  0
POINT
  5
187AC
330
1F
100
AcDbEntity
  8
0
100
AcDbPoint
 10
808.0000000000037
 20
21.0
 30
0.0
  0
TEXT
  5
187AD
330
1F
100
AcDbEntity
  8
0
100
AcDbText
 10
40.45819394134276
 20
32.38714182789852
 30
0.0
 40
4.0
  1
12.02.01　作成
  7
AT_VECTOR
 11
40.45819394134276
 21
32.38714182789852
 31
0.0
100
AcDbText
 73
     1
  0
LINE
  5
1C57E
330
1F
100
AcDbEntity
  8
0
  6
ByBlock
 62
     0
370
    -2
100
AcDbLine
 10
798.0
 20
558.0
 30
0.0
 11
40.00000000000011
 21
558.0
 31
0.0
  0
LINE
  5
1C57F
330
1F
100
AcDbEntity
  8
0
  6
ByBlock
 62
     0
370
    -2
100
AcDbLine
 10
776.0
 20
522.0
 30
0.0
 11
798.0
 21
522.0
 31
0.0
  0
LINE
  5
1C580
330
1F
100
AcDbEntity
  8
0
  6
ByBlock
 62
     0
370
    -2
100
AcDbLine
 10
776.0
 20
549.0
 30
0.0
 11
798.0
 21
549.0
 31
0.0
  0
LINE
  5
1C581
330
1F
100
AcDbEntity
  8
0
  6
ByBlock
 62
     0
370
    -2
100
AcDbLine
 10
776.0
 20
531.0
 30
0.0
 11
798.0
 21
531.0
 31
0.0
  0
LINE
  5
1C582
330
1F
100
AcDbEntity
  8
0
  6
ByBlock
 62
     0
370
    -2
100
AcDbLine
 10
776.0
 20
540.0
 30
0.0
 11
798.0
 21
540.0
 31
0.0
  0
LINE
  5
1C583
330
1F
100
AcDbEntity
  8
0
  6
ByBlock
 62
     0
370
    -2
100
AcDbLine
 10
776.0
 20
513.0
 30
0.0
 11
798.0
 21
513.0
 31
0.0
  0
LINE
  5
1C584
330
1F
100
AcDbEntity
  8
0
  6
ByBlock
 62
     0
370
    -2
100
AcDbLine
 10
776.0
 20
495.0
 30
0.0
 11
798.0
 21
495.0
 31
0.0
  0
LINE
  5
1C585
330
1F
100
AcDbEntity
  8
0
  6
ByBlock
 62
     0
370
    -2
100
AcDbLine
 10
776.0
 20
504.0
 30
0.0
 11
798.0
 21
504.0
 31
0.0
  0
LINE
  5
1C586
330
1F
100
AcDbEntity
  8
0
  6
ByBlock
 62
     0
370
    -2
100
AcDbLine
 10
776.0
 20
558.0
 30
0.0
 11
776.0
 21
495.0
 31
0.0
  0
TEXT
  5
1C587
330
1F
100
AcDbEntity
  8
0
100
AcDbText
 10
44.00000000000011
 20
537.0
 30
0.0
 40
6.0
  1
名称
  7
AT_VECTOR
 11
44.00000000000011
 21
540.0
 31
0.0
100
AcDbText
 73
     2
  0
TEXT
  5
1C588
330
1F
100
AcDbEntity
  8
0
100
AcDbText
 10
44.00000000000011
 20
549.0
 30
0.0
 40
6.0
  1
形式
  7
AT_VECTOR
 11
44.00000000000011
 21
552.0
 31
0.0
100
AcDbText
 73
     2
  0
LINE
  5
1C589
330
1F
100
AcDbEntity
  8
003
100
AcDbLine
 10
40.00000000000011
 20
546.0
 30
0.0
 11
175.0000000000001
 21
546.0
 31
0.0
  0
LINE
  5
1C58A
330
1F
100
AcDbEntity
  8
003
100
AcDbLine
 10
40.00000000000011
 20
534.0
 30
0.0
 11
175.0000000000001
 21
534.0
 31
0.0
  0
TEXT
  5
1C58B
330
1F
100
AcDbEntity
  8
0
100
AcDbText
 10
44.00000000000011
 20
501.0
 30
0.0
 40
6.0
  1
付属品
  7
AT_VECTOR
 11
44.00000000000011
 21
504.0
 31
0.0
100
AcDbText
 73
     2
  0
LINE
  5
1C58C
330
1F
100
AcDbEntity
  8
003
100
AcDbLine
 10
40.00000000000011
 20
510.0
 30
0.0
 11
175.0000000000001
 21
510.0
 31
0.0
  0
LINE
  5
1C58D
330
1F
100
AcDbEntity
  8
003
100
AcDbLine
 10
40.00000000000011
 20
498.0
 30
0.0
 11
175.0000000000001
 21
498.0
 31
0.0
  0
LINE
  5
1C58E
330
1F
100
AcDbEntity
  8
003
100
AcDbLine
 10
40.00000000000011
 20
438.0
 30
0.0
 11
175.0000000000001
 21
438.0
 31
0.0
  0
TEXT
  5
1C58F
330
1F
100
AcDbEntity
  8
0
100
AcDbText
 10
44.00000000000011
 20
489.0
 30
0.0
 40
6.0
  1
備考
  7
AT_VECTOR
 11
44.00000000000011
 21
492.0
 31
0.0
100
AcDbText
 73
     2
  0
TEXT
  5
1C590
330
1F
100
AcDbEntity
  8
0
100
AcDbText
 10
44.00000000000011
 20
513.0
 30
0.0
 40
6.0
  1
製品色
  7
AT_VECTOR
 11
44.00000000000011
 21
516.0
 31
0.0
100
AcDbText
 73
     2
  0
LINE
  5
1C591
330
1F
100
AcDbEntity
  8
003
100
AcDbLine
 10
40.00000000000011
 20
522.0
 30
0.0
 11
175.0000000000001
 21
522.0
 31
0.0
  0
TEXT
  5
1C592
330
1F
100
AcDbEntity
  8
0
100
AcDbText
 10
44.00000000000011
 20
525.0
 30
0.0
 40
6.0
  1
ｻｯｼﾒｰｶｰ
  7
AT_VECTOR
 11
44.00000000000011
 21
528.0
 31
0.0
100
AcDbText
 73
     2
  0
LINE
  5
1C593
330
1F
100
AcDbEntity
  8
003
100
AcDbLine
 10
175.0000000000001
 20
558.0
 30
0.0
 11
175.0000000000001
 21
438.0
 31
0.0
  0
LINE
  5
1C594
330
1F
100
AcDbEntity
  8
003
100
AcDbLine
 10
75.00000000000011
 20
558.0
 30
0.0
 11
75.00000000000011
 21
498.0
 31
0.0
  0
TEXT
  5
1C595
330
1F
100
AcDbEntity
  8
0
100
AcDbText
 10
79.00000000000011
 20
501.0
 30
0.0
 40
6.0
  1
取付金具
  7
AT_VECTOR
 11
79.00000000000011
 21
504.0
 31
0.0
100
AcDbText
 73
     2
  0
TEXT
  5
1C596
330
1F
100
AcDbEntity
  8
0
100
AcDbText
 10
79.00000000000011
 20
525.0
 30
0.0
 40
6.0
  1
三協立山アルミ（３５間口）
  7
AT_VECTOR
 11
79.00000000000011
 21
528.0
 31
0.0
100
AcDbText
 73
     2
  0
LINE
  5
1C597
330
1F
100
AcDbEntity
  8
003
100
AcDbLine
 10
199.0212626666846
 20
515.4661076327386
 30
0.0
 11
199.0212626666846
 21
481.708116720541
 31
0.0
  0
TEXT
  5
1C598
330
1F
100
AcDbEntity
  8
0
100
AcDbText
 10
67.81722297933971
 20
489.0
 30
0.0
 40
6.0
  1
内・外網戸（網色：ブラック・グレー）
 41
0.85
  7
AT_VECTOR
 11
67.81722297933971
 21
492.0
 31
0.0
100
AcDbText
 73
     2
  0
TEXT
  5
1C599
330
1F
100
AcDbEntity
  8
0
100
AcDbText
 10
205.357123632162
 20
443.4647244922421
 30
0.0
 40
8.0
  1
特記事項
  7
AT_VECTOR
100
AcDbText
  0
TEXT
  5
1C59A
330
1F
100
AcDbEntity
  8
0
100
AcDbText
 10
219.9982392998786
 20
430.5147298961651
 30
0.0
 40
6.0
  1
ご注文の際には網戸の仕様（内・外）及び網色（ブラック・グレー）のご指示お願いします
 41
0.9
  7
AT_VECTOR
 11
219.9982392998786
 21
433.5147298961651
 31
0.0
100
AcDbText
 73
     2
  0
TEXT
  5
1C59B
330
1F
100
AcDbEntity
  8
0
100
AcDbText
 10
219.9982392998786
 20
418.5147298961651
 30
0.0
 40
6.0
  1
本図以外のサッシの場合、納まりが変更となる場合ありますのでご確認お願いします
 41
0.9
  7
AT_VECTOR
 11
219.9982392998786
 21
421.5147298961651
 31
0.0
100
AcDbText
 73
     2
  0
TEXT
  5
1C59C
330
1F
100
AcDbEntity
  8
0
100
AcDbText
 10
207.9361824660775
 20
430.5147298961651
 30
0.0
 40
6.0
  1
1
 41
0.9
  7
AT_VECTOR
 11
207.9361824660775
 21
433.5147298961651
 31
0.0
100
AcDbText
 73
     2
  0
TEXT
  5
1C59D
330
1F
100
AcDbEntity
  8
0
100
AcDbText
 10
207.9361824660775
 20
418.5147298961651
 30
0.0
 40
6.0
  1
2
 41
0.9
  7
AT_VECTOR
 11
207.9361824660775
 21
421.5147298961651
 31
0.0
100
AcDbText
 73
     2
  0
CIRCLE
  5
1C59E
330
1F
100
AcDbEntity
  8
010
100
AcDbCircle
 10
210.9181020216272
 20
421.4966494517147
 30
0.0
 40
4.410730708366473
  0
CIRCLE
  5
1C59F
330
1F
100
AcDbEntity
  8
010
100
AcDbCircle
 10
210.9181020216272
 20
433.4966494517147
 30
0.0
 40
4.410730708366473
  0
LINE
  5
1C5A0
330
1F
100
AcDbEntity
  8
003
100
AcDbLine
 10
202.4421484457528
 20
447.0430615799791
 30
0.0
 11
199.0212626666846
 21
447.0430615799791
 31
0.0
  0
LINE
  5
1C5A1
330
1F
100
AcDbEntity
  8
003
100
AcDbLine
 10
199.0212626666846
 20
447.0430615799791
 30
0.0
 11
199.0212626666846
 21
411.5372569385795
 31
0.0
  0
LINE
  5
1C5A2
330
1F
100
AcDbEntity
  8
003
100
AcDbLine
 10
199.0212626666846
 20
411.5372569385795
 30
0.0
 11
491.7351060924868
 21
411.5372569385795
 31
0.0
  0
LINE
  5
1C5A3
330
1F
100
AcDbEntity
  8
003
100
AcDbLine
 10
491.7351060924868
 20
411.5372569385795
 30
0.0
 11
491.7351060924868
 21
446.8840717029689
 31
0.0
  0
LINE
  5
1C5A4
330
1F
100
AcDbEntity
  8
003
100
AcDbLine
 10
491.7351060924868
 20
447.0430615799791
 30
0.0
 11
245.1658153724036
 21
447.0430615799791
 31
0.0
  0
LINE
  5
1C5A5
330
1F
100
AcDbEntity
  8
003
100
AcDbLine
 10
392.5152399062666
 20
86.92875121012184
 30
0.0
 11
472.5152399062666
 21
86.92875121012184
 31
0.0
  0
LINE
  5
1C5A6
330
1F
100
AcDbEntity
  8
003
100
AcDbLine
 10
392.5152399062666
 20
73.59541787678836
 30
0.0
 11
472.5152399062661
 21
73.59541787678836
 31
0.0
  0
LINE
  5
1C5A7
330
1F
100
AcDbEntity
  8
003
100
AcDbLine
 10
392.5152399062666
 20
73.59541787678836
 30
0.0
 11
392.5152399062666
 21
86.92875121012184
 31
0.0
  0
TEXT
  5
1C5A8
330
1F
100
AcDbEntity
  8
0
100
AcDbText
 10
414.6485732396
 20
76.26208454345487
 30
0.0
 40
7.999999999999998
  1
横断面図
  7
AT_VECTOR
 72
     1
 11
432.5152399062666
 21
80.26208454345487
 31
0.0
100
AcDbText
 73
     2
  0
LINE
  5
1C5A9
330
1F
100
AcDbEntity
  8
003
100
AcDbLine
 10
472.5152399062661
 20
73.59541787678836
 30
0.0
 11
472.5152399062666
 21
86.92875121012184
 31
0.0
  0
LINE
  5
1C5AA
330
1F
100
AcDbEntity
  8
003
100
AcDbLine
 10
417.5152399062666
 20
101.3936021851
 30
0.0
 11
447.5152399062666
 21
101.3936021851
 31
0.0
  0
LINE
  5
1C5AB
330
1F
100
AcDbEntity
  8
003
100
AcDbLine
 10
417.5152399062666
 20
110.3936021851
 30
0.0
 11
447.5152399062666
 21
110.3936021851
 31
0.0
  0
LINE
  5
1C5AC
330
1F
100
AcDbEntity
  8
003
100
AcDbLine
 10
417.5152399062666
 20
110.3936021851
 30
0.0
 11
417.5152399062666
 21
101.3936021851
 31
0.0
  0
TEXT
  5
1C5AD
330
1F
100
AcDbEntity
  8
0
100
AcDbText
 10
422.3152399062666
 20
102.8936021851
 30
0.0
 40
6.0
  1
内　部
  7
AT_VECTOR
 72
     1
 11
432.5152399062666
 21
105.8936021851
 31
0.0
100
AcDbText
 73
     2
  0
LINE
  5
1C5AE
330
1F
100
AcDbEntity
  8
003
100
AcDbLine
 10
447.5152399062666
 20
110.3936021851
 30
0.0
 11
447.5152399062666
 21
101.3936021851
 31
0.0
  0
LINE
  5
1C5AF
330
1F
100
AcDbEntity
  8
003
100
AcDbLine
 10
417.5152399062667
 20
373.50157139405
 30
0.0
 11
447.5152399062666
 21
373.50157139405
 31
0.0
  0
LINE
  5
1C5B0
330
1F
100
AcDbEntity
  8
003
100
AcDbLine
 10
417.5152399062667
 20
364.5015713940499
 30
0.0
 11
447.5152399062666
 21
364.5015713940499
 31
0.0
  0
LINE
  5
1C5B1
330
1F
100
AcDbEntity
  8
003
100
AcDbLine
 10
417.5152399062667
 20
373.50157139405
 30
0.0
 11
417.5152399062667
 21
364.5015713940499
 31
0.0
  0
TEXT
  5
1C5B2
330
1F
100
AcDbEntity
  8
0
100
AcDbText
 10
422.5152399062666
 20
366.00157139405
 30
0.0
 40
6.0
  1
外　部
  7
AT_VECTOR
 72
     1
 11
432.5152399062666
 21
369.00157139405
 31
0.0
100
AcDbText
 73
     2
  0
LINE
  5
1C5B3
330
1F
100
AcDbEntity
  8
003
100
AcDbLine
 10
447.5152399062666
 20
373.50157139405
 30
0.0
 11
447.5152399062666
 21
364.5015713940499
 31
0.0
  0
LINE
  5
1C5B4
330
1F
100
AcDbEntity
  8
007
100
AcDbLine
 10
508.6155219062668
 20
285.4826918323845
 30
0.0
 11
437.5152399062661
 21
285.4826918323845
 31
0.0
  0
LINE
  5
1C5B5
330
1F
100
AcDbEntity
  8
007
100
AcDbLine
 10
508.6155219062668
 20
286.3827918323848
 30
0.0
 11
437.5152399062661
 21
286.3827918323848
 31
0.0
  0
LINE
  5
1C5B6
330
1F
100
AcDbEntity
  8
007
100
AcDbLine
 10
508.6155219062668
 20
289.6826918323847
 30
0.0
 11
437.5152399062661
 21
289.6826918323847
 31
0.0
  0
LINE
  5
1C5B7
330
1F
100
AcDbEntity
  8
007
100
AcDbLine
 10
437.5152399062661
 20
299.1826918323848
 30
0.0
 11
508.6155219062668
 21
299.1826918323848
 31
0.0
  0
MTEXT
  5
1C5B8
102
{ACAD_REACTORS
330
1C5C5
102
}
330
1F
100
AcDbEntity
  8
003
 62
     7
100
AcDbMText
 10
382.6118276748398
 20
309.9196416507405
 30
0.0
 40
6.0
 41
0.0
 71
     9
 72
     1
  1
外網戸
  7
DIM
 73
     1
 44
1.0
1001
ACAD
1000
MTEXTBEGIN
1070
    73
1070
     1
1070
    44
1040
1.0
1070
    74
1070
     0
1000
MTEXTEND
  0
LINE
  5
1C5B9
330
1F
100
AcDbEntity
  8
007
100
AcDbLine
 10
356.4149579062655
 20
299.6826918323843
 30
0.0
 11
331.1149579062655
 21
299.6826918323843
 31
0.0
  0
LINE
  5
1C5BA
330
1F
100
AcDbEntity
  8
007
100
AcDbLine
 10
356.4149579062655
 20
289.6826918323843
 30
0.0
 11
328.1149579062656
 21
289.6826918323843
 31
0.0
  0
LINE
  5
1C5BB
330
1F
100
AcDbEntity
  8
007
100
AcDbLine
 10
354.9149579062655
 20
289.3826918323841
 30
0.0
 11
333.6149579062655
 21
289.3826918323841
 31
0.0
  0
LINE
  5
1C5BC
330
1F
100
AcDbEntity
  8
007
100
AcDbLine
 10
354.9149579062655
 20
284.8826918323841
 30
0.0
 11
333.6149579062655
 21
284.8826918323841
 31
0.0
  0
LINE
  5
1C5BD
330
1F
100
AcDbEntity
  8
007
100
AcDbLine
 10
355.4149579062655
 20
286.3826918323841
 30
0.0
 11
333.1149579062655
 21
286.3826918323841
 31
0.0
  0
ARC
  5
1C5BE
330
1F
100
AcDbEntity
  8
007
100
AcDbCircle
 10
331.1149579062655
 20
296.6826918323843
 30
0.0
 40
3.0
100
AcDbArc
 50
90.0
 51
180.0
  0
ARC
  5
1C5BF
330
1F
100
AcDbEntity
  8
007
100
AcDbCircle
 10
333.6149579062655
 20
288.8826918323841
 30
0.0
 40
0.5
100
AcDbArc
 50
90.0
 51
180.0
  0
LINE
  5
1C5C0
330
1F
100
AcDbEntity
  8
007
100
AcDbLine
 10
333.1149579062655
 20
285.3826918323841
 30
0.0
 11
333.1149579062655
 21
288.8826918323841
 31
0.0
  0
ARC
  5
1C5C1
330
1F
100
AcDbEntity
  8
007
100
AcDbCircle
 10
333.6149579062655
 20
285.3826918323841
 30
0.0
 40
0.5
100
AcDbArc
 50
180.0
 51
270.0
  0
LINE
  5
1C5C2
330
1F
100
AcDbEntity
  8
007
100
AcDbLine
 10
328.1149579062656
 20
289.6826918323843
 30
0.0
 11
328.1149579062656
 21
296.6826918323843
 31
0.0
  0
MTEXT
  5
1C5C3
102
{ACAD_REACTORS
330
1C5C4
102
}
330
1F
100
AcDbEntity
  8
003
 62
     7
100
AcDbMText
 10
383.7588010393748
 20
229.9359253797104
 30
0.0
 40
6.0
 41
0.0
 71
     7
 72
     1
  1
内網戸
  7
DIM
 73
     1
 44
1.0
1001
ACAD
1000
MTEXTBEGIN
1070
    73
1070
     1
1070
    44
1040
1.0
1070
    74
1070
     0
1000
MTEXTEND
  0
LEADER
  5
1C5C4
330
1F
100
AcDbEntity
  8
003
100
AcDbLeader
  3
DIM
 73
     0
 74
     0
 40
6.000000000000002
 41
14.7
 76
     3
 10
370.5763303874661
 20
239.7081766290309
 30
0.0
 10
377.3730428152292
 20
227.9359253797104
 30
0.0
 10
381.7588010393748
 20
227.9359253797104
 30
0.0
340
1C5C3
1001
ACAD
1000
DSTYLE
1002
{
1070
   147
1040
1.0
1070
    77
1070
     1
1002
}
  0
LEADER
  5
1C5C5
330
1F
100
AcDbEntity
  8
003
100
AcDbLeader
  3
DIM
 73
     0
 40
6.0
 41
15.0
 76
     3
 10
396.8761698342447
 20
294.2512479487852
 30
0.0
 10
388.9847190510313
 20
307.9196416507405
 30
0.0
 10
384.6118276748398
 20
307.9196416507405
 30
0.0
1001
ACAD
1000
DSTYLE
1002
{
1070
   147
1040
1.0
1070
    77
1070
     1
1002
}
  0
LINE
  5
1C5C6
330
1F
100
AcDbEntity
  8
007
100
AcDbLine
 10
427.5152399062664
 20
299.1826918323843
 30
0.0
 11
356.4149579062655
 21
299.1826918323843
 31
0.0
  0
LINE
  5
1C5C7
330
1F
100
AcDbEntity
  8
007
100
AcDbLine
 10
356.4149579062655
 20
289.6826918323843
 30
0.0
 11
427.5152399062664
 21
289.6826918323843
 31
0.0
  0
LINE
  5
1C5C8
330
1F
100
AcDbEntity
  8
007
100
AcDbLine
 10
356.4149579062655
 20
286.3827918323843
 30
0.0
 11
427.5152399062664
 21
286.3827918323843
 31
0.0
  0
LINE
  5
1C5C9
330
1F
100
AcDbEntity
  8
007
100
AcDbLine
 10
356.4149579062655
 20
285.4826918323841
 30
0.0
 11
427.5152399062664
 21
285.4826918323841
 31
0.0
  0
ARC
  5
1C5CA
330
1F
100
AcDbEntity
  8
007
100
AcDbCircle
 10
354.9149579062655
 20
288.8826918323841
 30
0.0
 40
0.5
100
AcDbArc
 50
0.0
 51
90.0
  0
LINE
  5
1C5CB
330
1F
100
AcDbEntity
  8
007
100
AcDbLine
 10
355.4149579062655
 20
285.3826918323841
 30
0.0
 11
355.4149579062655
 21
288.8826918323841
 31
0.0
  0
ARC
  5
1C5CC
330
1F
100
AcDbEntity
  8
007
100
AcDbCircle
 10
354.9149579062655
 20
285.3826918323841
 30
0.0
 40
0.5
100
AcDbArc
 50
270.0
 51
0.0
  0
LINE
  5
1C5CD
330
1F
100
AcDbEntity
  8
007
100
AcDbLine
 10
356.4149579062655
 20
288.482691832384
 30
0.0
 11
355.4149579062655
 21
288.482691832384
 31
0.0
  0
LINE
  5
1C5CE
330
1F
100
AcDbEntity
  8
007
100
AcDbLine
 10
356.4149579062655
 20
285.4826918323841
 30
0.0
 11
356.4149579062655
 21
299.6826918323843
 31
0.0
  0
LINE
  5
1C5CF
330
1F
100
AcDbEntity
  8
007
100
AcDbLine
 10
509.6155219062668
 20
286.3826918323846
 30
0.0
 11
531.9155219062666
 21
286.3826918323846
 31
0.0
  0
LINE
  5
1C5D0
330
1F
100
AcDbEntity
  8
007
100
AcDbLine
 10
510.1155219062668
 20
284.8826918323846
 30
0.0
 11
531.4155219062666
 21
284.8826918323846
 31
0.0
  0
LINE
  5
1C5D1
330
1F
100
AcDbEntity
  8
007
100
AcDbLine
 10
508.6155219062668
 20
289.6826918323847
 30
0.0
 11
536.9155219062665
 21
289.6826918323847
 31
0.0
  0
LINE
  5
1C5D2
330
1F
100
AcDbEntity
  8
007
100
AcDbLine
 10
508.6155219062668
 20
299.6826918323847
 30
0.0
 11
533.9155219062665
 21
299.6826918323847
 31
0.0
  0
LINE
  5
1C5D3
330
1F
100
AcDbEntity
  8
007
100
AcDbLine
 10
510.1155219062668
 20
289.3826918323846
 30
0.0
 11
531.4155219062666
 21
289.3826918323846
 31
0.0
  0
LINE
  5
1C5D4
330
1F
100
AcDbEntity
  8
007
100
AcDbLine
 10
509.6155219062668
 20
285.3826918323846
 30
0.0
 11
509.6155219062668
 21
288.8826918323846
 31
0.0
  0
ARC
  5
1C5D5
330
1F
100
AcDbEntity
  8
007
100
AcDbCircle
 10
510.1155219062668
 20
288.8826918323846
 30
0.0
 40
0.5
100
AcDbArc
 50
90.0
 51
180.0
  0
LINE
  5
1C5D6
330
1F
100
AcDbEntity
  8
007
100
AcDbLine
 10
508.6155219062668
 20
288.4826918323845
 30
0.0
 11
509.6155219062668
 21
288.4826918323845
 31
0.0
  0
ARC
  5
1C5D7
330
1F
100
AcDbEntity
  8
007
100
AcDbCircle
 10
510.1155219062668
 20
285.3826918323846
 30
0.0
 40
0.5
100
AcDbArc
 50
180.0
 51
270.0
  0
LINE
  5
1C5D8
330
1F
100
AcDbEntity
  8
007
100
AcDbLine
 10
508.6155219062668
 20
285.4826918323845
 30
0.0
 11
508.6155219062668
 21
299.6826918323847
 31
0.0
  0
ARC
  5
1C5D9
330
1F
100
AcDbEntity
  8
007
100
AcDbCircle
 10
533.9155219062665
 20
296.6826918323848
 30
0.0
 40
3.0
100
AcDbArc
 50
0.0
 51
90.0
  0
LINE
  5
1C5DA
330
1F
100
AcDbEntity
  8
007
100
AcDbLine
 10
531.9155219062666
 20
285.3826918323846
 30
0.0
 11
531.9155219062666
 21
288.8826918323846
 31
0.0
  0
ARC
  5
1C5DB
330
1F
100
AcDbEntity
  8
007
100
AcDbCircle
 10
531.4155219062666
 20
288.8826918323846
 30
0.0
 40
0.5
100
AcDbArc
 50
0.0
 51
90.0
  0
ARC
  5
1C5DC
330
1F
100
AcDbEntity
  8
007
100
AcDbCircle
 10
531.4155219062666
 20
285.3826918323846
 30
0.0
 40
0.5
100
AcDbArc
 50
270.0
 51
0.0
  0
LINE
  5
1C5DD
330
1F
100
AcDbEntity
  8
007
100
AcDbLine
 10
536.9155219062665
 20
289.6826918323847
 30
0.0
 11
536.9155219062665
 21
296.6826918323848
 31
0.0
  0
DIMENSION
  5
1C5DE
330
1F
100
AcDbEntity
  8
003
100
AcDbDimension
  2
*D42
 10
566.0152399062665
 20
120.6001278518657
 30
0.0
 11
432.5152399062666
 21
120.6001278518657
 31
0.0
 70
   160
  1
SW
 71
     5
 42
266.9999999999998
  3
DIM
100
AcDbAlignedDimension
 13
299.0152399062667
 23
158.2827051187005
 33
0.0
 14
566.0152399062665
 24
158.2827051187005
 34
0.0
100
AcDbRotatedDimension
  0
DIMENSION
  5
1C5DF
330
1F
100
AcDbEntity
  8
003
100
AcDbDimension
  2
*D43
 10
577.1920626975799
 20
157.7826943874453
 30
0.0
 11
572.19206269758
 21
192.7826943874451
 31
0.0
 70
    32
 71
     5
 42
69.99999999999954
  3
DIM
100
AcDbAlignedDimension
 13
571.9582168559184
 23
227.7826943874448
 33
0.0
 14
574.4330710027973
 24
157.7826943874453
 34
0.0
 50
90.0
100
AcDbRotatedDimension
1001
ACAD
1000
DSTYLE
1002
{
1070
   279
1070
     1
1002
}
  0
DIMENSION
  5
1C5E0
330
1F
100
AcDbEntity
  8
003
100
AcDbDimension
  2
*D44
 10
577.1920626975799
 20
227.7826943874448
 30
0.0
 11
572.19206269758
 21
258.5326943874453
 31
0.0
 70
    32
 71
     5
 42
61.5000000000008
  3
DIM
100
AcDbAlignedDimension
 13
555.015239906266
 23
289.2826943874457
 33
0.0
 14
571.9582168559184
 24
227.7826943874448
 34
0.0
 50
90.0
100
AcDbRotatedDimension
  0
DIMENSION
  5
1C5E1
330
1F
100
AcDbEntity
  8
003
100
AcDbDimension
  2
*D45
 10
552.3894167947275
 20
289.2826943874457
 30
0.0
 11
547.3894167947273
 21
256.7826943874457
 31
0.0
 70
    32
 71
     5
 42
65.0
  3
DIM
100
AcDbAlignedDimension
 13
556.5902499062668
 23
224.2826943874456
 33
0.0
 14
546.0152399062663
 24
289.2826943874457
 34
0.0
 50
90.0
100
AcDbRotatedDimension
  0
DIMENSION
  5
1C5E2
330
1F
100
AcDbEntity
  8
003
100
AcDbDimension
  2
*D46
 10
719.5525996421706
 20
528.3401181554426
 30
0.0
 11
714.5525996421705
 21
473.2901181554427
 31
0.0
 70
    32
  1
製品H
 71
     5
 42
110.0999999999999
  3
DIM
100
AcDbAlignedDimension
 13
680.790587796177
 23
418.2401181554426
 33
0.0
 14
680.790587796177
 24
528.3401181554426
 34
0.0
 50
90.0
100
AcDbRotatedDimension
  0
LINE
  5
1C5E3
330
1F
100
AcDbEntity
  8
003
100
AcDbLine
 10
671.790587796177
 20
524.4401181554425
 30
0.0
 11
671.790587796177
 21
422.1401181554425
 31
0.0
  0
LINE
  5
1C5E4
330
1F
100
AcDbEntity
  8
003
100
AcDbLine
 10
680.790587796177
 20
528.3401181554426
 30
0.0
 11
680.790587796177
 21
418.2401181554426
 31
0.0
  0
LINE
  5
1C5E5
330
1F
100
AcDbEntity
  8
003
100
AcDbLine
 10
599.7905877961771
 20
524.4401181554425
 30
0.0
 11
599.7905877961771
 21
422.1401181554425
 31
0.0
  0
LINE
  5
1C5E6
330
1F
100
AcDbEntity
  8
003
100
AcDbLine
 10
590.7905877961771
 20
528.3401181554426
 30
0.0
 11
590.7905877961771
 21
418.2401181554426
 31
0.0
  0
DIMENSION
  5
1C5E7
330
1F
100
AcDbEntity
  8
003
100
AcDbDimension
  2
*D47
 10
680.790587796177
 20
395.9218147561323
 30
0.0
 11
635.790587796177
 21
400.9218147561323
 31
0.0
 70
    32
  1
製品W
 71
     5
 42
90.0
  3
DIM
100
AcDbAlignedDimension
 13
590.7905877961771
 23
418.2401181554426
 33
0.0
 14
680.790587796177
 24
418.2401181554426
 34
0.0
100
AcDbRotatedDimension
  0
LINE
  5
1C5E8
330
1F
100
AcDbEntity
  8
003
100
AcDbLine
 10
590.7905877961771
 20
418.2401181554426
 30
0.0
 11
680.790587796177
 21
418.2401181554426
 31
0.0
  0
LINE
  5
1C5E9
330
1F
100
AcDbEntity
  8
003
100
AcDbLine
 10
590.7905877961771
 20
422.1401181554425
 30
0.0
 11
680.790587796177
 21
422.1401181554425
 31
0.0
  0
LINE
  5
1C5EA
330
1F
100
AcDbEntity
  8
003
100
AcDbLine
 10
590.7905877961771
 20
419.4401181554424
 30
0.0
 11
680.790587796177
 21
419.4401181554424
 31
0.0
  0
LINE
  5
1C5EB
330
1F
100
AcDbEntity
  8
003
100
AcDbLine
 10
590.7905877961771
 20
418.2401181554426
 30
0.0
 11
680.790587796177
 21
418.2401181554426
 31
0.0
  0
LINE
  5
1C5EC
330
1F
100
AcDbEntity
  8
003
100
AcDbLine
 10
599.7905877961771
 20
425.1401181554426
 30
0.0
 11
671.790587796177
 21
425.1401181554426
 31
0.0
  0
LINE
  5
1C5ED
330
1F
100
AcDbEntity
  8
003
100
AcDbLine
 10
595.7905877961771
 20
365.9218147561323
 30
0.0
 11
675.790587796177
 21
365.9218147561323
 31
0.0
  0
LINE
  5
1C5EE
330
1F
100
AcDbEntity
  8
003
100
AcDbLine
 10
595.7905877961771
 20
380.9218147561324
 30
0.0
 11
675.790587796177
 21
380.9218147561324
 31
0.0
  0
TEXT
  5
1C5EF
330
1F
100
AcDbEntity
  8
0
100
AcDbText
 10
617.9239211295104
 20
369.4218147561323
 30
0.0
 40
8.0
  1
外観姿図
  7
AT_VECTOR
 72
     1
 11
635.790587796177
 21
373.4218147561323
 31
0.0
100
AcDbText
 73
     2
  0
LINE
  5
1C5F0
330
1F
100
AcDbEntity
  8
003
100
AcDbLine
 10
595.7905877961771
 20
380.9218147561324
 30
0.0
 11
595.7905877961771
 21
365.9218147561323
 31
0.0
  0
LINE
  5
1C5F1
330
1F
100
AcDbEntity
  8
003
100
AcDbLine
 10
605.790587796177
 20
422.1401181554425
 30
0.0
 11
605.790587796177
 21
419.4401181554424
 31
0.0
  0
CIRCLE
  5
1C5F2
330
1F
100
AcDbEntity
  8
003
100
AcDbCircle
 10
602.7905877961771
 20
420.7901181554425
 30
0.0
 40
0.75
  0
LINE
  5
1C5F3
330
1F
100
AcDbEntity
  8
003
100
AcDbLine
 10
593.790587796177
 20
422.1401181554425
 30
0.0
 11
593.790587796177
 21
419.4401181554424
 31
0.0
  0
CIRCLE
  5
1C5F4
330
1F
100
AcDbEntity
  8
003
100
AcDbCircle
 10
596.790587796177
 20
420.7901181554425
 30
0.0
 40
0.75
  0
MTEXT
  5
1C5F5
102
{ACAD_REACTORS
330
1C5F6
102
}
330
1F
100
AcDbEntity
  8
003
 62
     7
100
AcDbMText
 10
692.8199079774947
 20
403.7954547045838
 30
0.0
 40
6.0
 41
0.0
 71
     7
 72
     1
  1
取付金具（下部）
  7
DIM
 73
     1
 44
1.0
1001
ACAD
1000
MTEXTBEGIN
1070
    73
1070
     1
1070
    44
1040
1.0
1070
    74
1070
     0
1000
MTEXTEND
  0
LEADER
  5
1C5F6
330
1F
100
AcDbEntity
  8
003
100
AcDbLeader
  3
DIM
 73
     0
 74
     0
 40
6.000000000000001
 41
39.29999999999998
 76
     3
 10
672.6021494303665
 20
420.3414288253247
 30
0.0
 10
683.3096725813602
 20
401.7954547045839
 30
0.0
 10
690.8199079774947
 20
401.7954547045839
 30
0.0
340
1C5F5
1001
ACAD
1000
DSTYLE
1002
{
1070
   147
1040
1.0
1070
    77
1070
     1
1002
}
  0
LINE
  5
1C5F7
330
1F
100
AcDbEntity
  8
003
100
AcDbLine
 10
675.790587796177
 20
380.9218147561324
 30
0.0
 11
675.790587796177
 21
365.9218147561323
 31
0.0
  0
LINE
  5
1C5F8
330
1F
100
AcDbEntity
  8
003
100
AcDbLine
 10
665.7905877961771
 20
422.1401181554425
 30
0.0
 11
665.7905877961771
 21
419.4401181554424
 31
0.0
  0
CIRCLE
  5
1C5F9
330
1F
100
AcDbEntity
  8
003
100
AcDbCircle
 10
668.790587796177
 20
420.7901181554425
 30
0.0
 40
0.75
  0
LINE
  5
1C5FA
330
1F
100
AcDbEntity
  8
003
100
AcDbLine
 10
677.7905877961771
 20
422.1401181554425
 30
0.0
 11
677.7905877961771
 21
419.4401181554424
 31
0.0
  0
CIRCLE
  5
1C5FB
330
1F
100
AcDbEntity
  8
003
100
AcDbCircle
 10
674.7905877961771
 20
420.7901181554425
 30
0.0
 40
0.75
  0
LEADER
  5
1C5FC
330
1F
100
AcDbEntity
  8
003
100
AcDbLeader
  3
DIM
 73
     0
 74
     0
 40
6.000000000000001
 41
9.600000000000001
 76
     3
 10
652.8329453333944
 20
477.9828095394201
 30
0.0
 10
659.0938621974815
 20
488.8270356499837
 30
0.0
 10
687.5945848650385
 20
488.8270356499837
 30
0.0
340
1C5FD
1001
ACAD
1000
DSTYLE
1002
{
1070
   147
1040
1.0
1070
    77
1070
     1
1002
}
  0
MTEXT
  5
1C5FD
102
{ACAD_REACTORS
330
1C5FC
102
}
330
1F
100
AcDbEntity
  8
003
 62
     7
100
AcDbMText
 10
689.5945848650385
 20
490.8270356499837
 30
0.0
 40
6.0
 41
0.0
 71
     7
 72
     1
  1
羽根
  7
DIM
 73
     1
 44
1.0
1001
ACAD
1000
MTEXTBEGIN
1070
    73
1070
     1
1070
    44
1040
1.0
1070
    74
1070
     0
1000
MTEXTEND
  0
LINE
  5
1C5FE
330
1F
100
AcDbEntity
  8
003
100
AcDbLine
 10
665.7905877961771
 20
531.3401181554426
 30
0.0
 11
653.7905877961771
 21
531.3401181554426
 31
0.0
  0
LINE
  5
1C5FF
330
1F
100
AcDbEntity
  8
003
100
AcDbLine
 10
590.7905877961771
 20
528.3401181554426
 30
0.0
 11
680.790587796177
 21
528.3401181554426
 31
0.0
  0
LINE
  5
1C600
330
1F
100
AcDbEntity
  8
003
100
AcDbLine
 10
590.7905877961771
 20
524.4401181554425
 30
0.0
 11
680.790587796177
 21
524.4401181554425
 31
0.0
  0
LINE
  5
1C601
330
1F
100
AcDbEntity
  8
003
100
AcDbLine
 10
590.7905877961771
 20
527.1401181554425
 30
0.0
 11
680.790587796177
 21
527.1401181554425
 31
0.0
  0
LINE
  5
1C602
330
1F
100
AcDbEntity
  8
003
100
AcDbLine
 10
599.7905877961771
 20
521.4401181554425
 30
0.0
 11
671.790587796177
 21
521.4401181554425
 31
0.0
  0
LINE
  5
1C603
330
1F
100
AcDbEntity
  8
003
100
AcDbLine
 10
599.7905877961771
 20
453.4901181554426
 30
0.0
 11
671.790587796177
 21
453.4901181554426
 31
0.0
  0
LINE
  5
1C604
330
1F
100
AcDbEntity
  8
003
100
AcDbLine
 10
599.7905877961771
 20
463.3901181554425
 30
0.0
 11
671.790587796177
 21
463.3901181554425
 31
0.0
  0
LINE
  5
1C605
330
1F
100
AcDbEntity
  8
003
100
AcDbLine
 10
599.7905877961771
 20
473.2901181554425
 30
0.0
 11
671.790587796177
 21
473.2901181554425
 31
0.0
  0
LINE
  5
1C606
330
1F
100
AcDbEntity
  8
003
100
AcDbLine
 10
599.7905877961771
 20
483.1901181554425
 30
0.0
 11
671.790587796177
 21
483.1901181554425
 31
0.0
  0
LINE
  5
1C607
330
1F
100
AcDbEntity
  8
003
100
AcDbLine
 10
599.7905877961771
 20
493.0901181554426
 30
0.0
 11
671.790587796177
 21
493.0901181554426
 31
0.0
  0
LINE
  5
1C608
330
1F
100
AcDbEntity
  8
003
100
AcDbLine
 10
599.7905877961771
 20
502.9901181554426
 30
0.0
 11
671.790587796177
 21
502.9901181554426
 31
0.0
  0
LINE
  5
1C609
330
1F
100
AcDbEntity
  8
003
100
AcDbLine
 10
599.7905877961771
 20
433.6901181554424
 30
0.0
 11
671.790587796177
 21
433.6901181554424
 31
0.0
  0
LINE
  5
1C60A
330
1F
100
AcDbEntity
  8
003
100
AcDbLine
 10
599.7905877961771
 20
443.5901181554425
 30
0.0
 11
671.790587796177
 21
443.5901181554425
 31
0.0
  0
LINE
  5
1C60B
330
1F
100
AcDbEntity
  8
003
100
AcDbLine
 10
599.7905877961771
 20
453.4901181554426
 30
0.0
 11
671.790587796177
 21
453.4901181554426
 31
0.0
  0
LINE
  5
1C60C
330
1F
100
AcDbEntity
  8
003
100
AcDbLine
 10
599.7905877961771
 20
512.8901181554425
 30
0.0
 11
671.790587796177
 21
512.8901181554425
 31
0.0
  0
LEADER
  5
1C60D
330
1F
100
AcDbEntity
  8
003
100
AcDbLeader
  3
DIM
 73
     0
 40
6.0
 41
18.68571428571429
 76
     3
 10
595.7966294850661
 20
455.2146621773978
 30
0.0
 10
584.195323866063
 20
475.3087129436454
 30
0.0
 10
580.3575495915106
 20
475.3087129436454
 30
0.0
340
1C60E
1001
ACAD
1000
DSTYLE
1002
{
1070
   147
1040
1.0
1070
    77
1070
     1
1002
}
  0
MTEXT
  5
1C60E
102
{ACAD_REACTORS
330
1C60D
102
}
330
1F
100
AcDbEntity
  8
003
 62
     7
100
AcDbMText
 10
578.3575495915106
 20
477.3087129436454
 30
0.0
 40
6.0
 41
0.0
 71
     9
 72
     1
  1
Ｈ材1型
  7
DIM
 73
     1
 44
1.0
1001
ACAD
1000
MTEXTBEGIN
1070
    73
1070
     1
1070
    44
1040
1.0
1070
    74
1070
     0
1000
MTEXTEND
  0
LEADER
  5
1C60F
330
1F
100
AcDbEntity
  8
003
100
AcDbLeader
  3
DIM
 73
     0
 40
6.000000000000003
 41
54.38571428571428
 76
     3
 10
593.4352298874021
 20
524.4401181554425
 30
0.0
 10
587.2510277923318
 20
535.1514703883782
 30
0.0
 10
586.7623353824263
 20
535.1514703883782
 30
0.0
340
1C610
1001
ACAD
1000
DSTYLE
1002
{
1070
   147
1040
1.0
1070
    77
1070
     1
1002
}
  0
MTEXT
  5
1C610
102
{ACAD_REACTORS
330
1C60F
102
}
330
1F
100
AcDbEntity
  8
003
 62
     7
100
AcDbMText
 10
584.7623353824262
 20
537.1514703883782
 30
0.0
 40
6.0
 41
0.0
 71
     9
 72
     1
  1
安全キャップ（4ヶ所）
  7
DIM
 73
     1
 44
1.0
1001
ACAD
1000
MTEXTBEGIN
1070
    73
1070
     1
1070
    44
1040
1.0
1070
    74
1070
     0
1000
MTEXTEND
  0
LINE
  5
1C611
330
1F
100
AcDbEntity
  8
003
100
AcDbLine
 10
605.790587796177
 20
531.3401181554426
 30
0.0
 11
617.790587796177
 21
531.3401181554426
 31
0.0
  0
LINE
  5
1C612
330
1F
100
AcDbEntity
  8
003
100
AcDbLine
 10
605.790587796177
 20
528.3401181554426
 30
0.0
 11
605.790587796177
 21
531.3401181554426
 31
0.0
  0
LINE
  5
1C613
330
1F
100
AcDbEntity
  8
003
100
AcDbLine
 10
617.790587796177
 20
528.3401181554426
 30
0.0
 11
617.790587796177
 21
531.3401181554426
 31
0.0
  0
LINE
  5
1C614
330
1F
100
AcDbEntity
  8
003
100
AcDbLine
 10
653.7905877961771
 20
528.3401181554426
 30
0.0
 11
653.7905877961771
 21
531.3401181554426
 31
0.0
  0
MTEXT
  5
1C615
102
{ACAD_REACTORS
330
1C616
102
}
330
1F
100
AcDbEntity
  8
003
 62
     7
100
AcDbMText
 10
671.9598478149318
 20
543.1375241189901
 30
0.0
 40
6.0
 41
0.0
 71
     7
 72
     1
  1
取付金具（上部）
  7
DIM
 73
     1
 44
1.0
1001
ACAD
1000
MTEXTBEGIN
1070
    73
1070
     1
1070
    44
1040
1.0
1070
    74
1070
     0
1000
MTEXTEND
  0
LEADER
  5
1C616
330
1F
100
AcDbEntity
  8
003
100
AcDbLeader
  3
DIM
 73
     0
 74
     0
 40
6.000000000000001
 41
39.29999999999998
 76
     3
 10
659.790587796177
 20
531.3401181554426
 30
0.0
 10
665.4471227665914
 20
541.1375241189902
 30
0.0
 10
669.9598478149319
 20
541.1375241189902
 30
0.0
340
1C615
1001
ACAD
1000
DSTYLE
1002
{
1070
   147
1040
1.0
1070
    77
1070
     1
1002
}
  0
LINE
  5
1C617
330
1F
100
AcDbEntity
  8
003
100
AcDbLine
 10
665.7905877961771
 20
528.3401181554426
 30
0.0
 11
665.7905877961771
 21
531.3401181554426
 31
0.0
  0
LINE
  5
1C618
330
1F
100
AcDbEntity
  8
003
100
AcDbLine
 10
243.1311383070195
 20
521.4050126380008
 30
0.0
 11
330.9751516968124
 21
521.4050126380008
 31
0.0
  0
LINE
  5
1C619
330
1F
100
AcDbEntity
  8
003
100
AcDbLine
 10
199.0212626666846
 20
481.708116720541
 30
0.0
 11
330.9751516968124
 21
481.708116720541
 31
0.0
  0
TEXT
  5
1C61A
330
1F
100
AcDbEntity
  8
0
100
AcDbText
 10
204.4458488650173
 20
487.9332677470679
 30
0.0
 40
8.0
  1
サッシＨ＝４３５～９６４.５
  7
AT_VECTOR
100
AcDbText
  0
TEXT
  5
1C61B
330
1F
100
AcDbEntity
  8
0
100
AcDbText
 10
204.4458488650173
 20
502.9332677470679
 30
0.0
 40
8.0
  1
サッシＷ＝２５２～　８０２
  7
AT_VECTOR
100
AcDbText
  0
TEXT
  5
1C61C
330
1F
100
AcDbEntity
  8
0
100
AcDbText
 10
194.7479322779402
 20
517.9332677470679
 30
0.0
 40
8.0
  1
※製作範囲
  7
AT_VECTOR
100
AcDbText
  0
LINE
  5
1C61D
330
1F
100
AcDbEntity
  8
003
100
AcDbLine
 10
330.9751516968124
 20
481.708116720541
 30
0.0
 11
330.9751516968124
 21
521.4050126380008
 31
0.0
  0
DIMENSION
  5
1C61E
330
1F
100
AcDbEntity
  8
003
100
AcDbDimension
  2
*D35
 10
319.0152399062666
 20
134.6001278518657
 30
0.0
 11
309.0152399062667
 21
139.6001278518657
 31
0.0
 70
    32
 71
     5
 42
19.99999999999988
  3
DIM
100
AcDbAlignedDimension
 13
299.0152399062667
 23
158.282705031434
 33
0.0
 14
319.0152399062666
 24
221.1827051187005
 34
0.0
100
AcDbRotatedDimension
  0
DIMENSION
  5
1C61F
330
1F
100
AcDbEntity
  8
003
100
AcDbDimension
  2
*D36
 10
546.0152399062669
 20
134.6001278518657
 30
0.0
 11
556.0152399062667
 21
139.6001278518657
 31
0.0
 70
    32
 71
     5
 42
19.99999999999954
  3
DIM
100
AcDbAlignedDimension
 13
566.0152399062665
 23
158.282705031434
 33
0.0
 14
546.0152399062669
 24
221.1826943874457
 34
0.0
 50
180.0
100
AcDbRotatedDimension
  0
LINE
  5
1C620
330
1F
100
AcDbEntity
  8
0
100
AcDbLine
 10
581.0152399062665
 20
317.782694387445
 30
0.0
 11
581.0152399062665
 21
242.782694387445
 31
0.0
  0
LINE
  5
1C621
330
1F
100
AcDbEntity
  8
0
100
AcDbLine
 10
591.0152399062665
 20
327.7826943874451
 30
0.0
 11
609.0652399062662
 21
327.7826943874451
 31
0.0
  0
LINE
  5
1C622
330
1F
100
AcDbEntity
  8
0
100
AcDbLine
 10
591.0152399062665
 20
327.7826943874451
 30
0.0
 11
581.0152399062665
 21
317.782694387445
 31
0.0
  0
LINE
  5
1C623
330
1F
100
AcDbEntity
  8
0
100
AcDbLine
 10
581.0152399062665
 20
242.782694387445
 30
0.0
 11
613.1852399062661
 21
242.782694387445
 31
0.0
  0
LINE
  5
1C624
330
1F
100
AcDbEntity
  8
0
100
AcDbLine
 10
582.0152399062664
 20
241.7826943874449
 30
0.0
 11
582.0152399062664
 21
228.7826943874447
 31
0.0
  0
LINE
  5
1C625
330
1F
100
AcDbEntity
  8
0
100
AcDbLine
 10
582.0152399062664
 20
232.4542672626987
 30
0.0
 11
591.0152399062665
 21
241.4542672626985
 31
0.0
  0
LINE
  5
1C626
330
1F
100
AcDbEntity
  8
0
100
AcDbLine
 10
582.0152399062664
 20
235.2826943874447
 30
0.0
 11
589.5152399062665
 21
242.7826943874447
 31
0.0
  0
LINE
  5
1C627
330
1F
100
AcDbEntity
  8
0
100
AcDbLine
 10
582.0152399062664
 20
238.1111215121909
 30
0.0
 11
586.6868127815205
 21
242.7826943874447
 31
0.0
  0
LINE
  5
1C628
330
1F
100
AcDbEntity
  8
0
100
AcDbLine
 10
585.8289484052513
 20
242.782694387445
 30
0.0
 11
591.0152399062665
 21
237.5964028864298
 31
0.0
  0
LINE
  5
1C629
330
1F
100
AcDbEntity
  8
0
100
AcDbLine
 10
583.0005212805049
 20
242.782694387445
 30
0.0
 11
591.0152399062665
 21
234.7679757616836
 31
0.0
  0
LINE
  5
1C62A
330
1F
100
AcDbEntity
  8
0
100
AcDbLine
 10
582.0152399062664
 20
240.9395486369372
 30
0.0
 11
591.0152399062665
 21
231.9395486369374
 31
0.0
  0
LINE
  5
1C62B
330
1F
100
AcDbEntity
  8
0
100
AcDbLine
 10
582.0152399062664
 20
240.9395486369372
 30
0.0
 11
583.8583856567743
 21
242.7826943874447
 31
0.0
  0
LINE
  5
1C62C
330
1F
100
AcDbEntity
  8
0
100
AcDbLine
 10
588.6573755299975
 20
242.782694387445
 30
0.0
 11
591.0152399062665
 21
240.424830011176
 31
0.0
  0
LINE
  5
1C62D
330
1F
100
AcDbEntity
  8
0
100
AcDbLine
 10
582.0152399062664
 20
241.7826943874449
 30
0.0
 11
581.0152399062665
 21
242.782694387445
 31
0.0
  0
LINE
  5
1C62E
330
1F
100
AcDbEntity
  8
0
100
AcDbLine
 10
582.0152399062664
 20
229.6258401379525
 30
0.0
 11
591.0152399062665
 21
238.6258401379523
 31
0.0
  0
LINE
  5
1C62F
330
1F
100
AcDbEntity
  8
0
100
AcDbLine
 10
582.0152399062664
 20
238.1111215121909
 30
0.0
 11
591.0152399062665
 21
229.1111215121912
 31
0.0
  0
LINE
  5
1C630
330
1F
100
AcDbEntity
  8
0
100
AcDbLine
 10
582.0152399062664
 20
228.7826943874447
 30
0.0
 11
581.0152399062665
 21
227.782694387445
 31
0.0
  0
LINE
  5
1C631
330
1F
100
AcDbEntity
  8
0
100
AcDbLine
 10
588.6573755299975
 20
227.7826943874448
 30
0.0
 11
591.0152399062665
 21
230.1405587637137
 31
0.0
  0
LINE
  5
1C632
330
1F
100
AcDbEntity
  8
0
100
AcDbLine
 10
583.0005212805049
 20
227.7826943874448
 30
0.0
 11
591.0152399062665
 21
235.7974130132061
 31
0.0
  0
LINE
  5
1C633
330
1F
100
AcDbEntity
  8
0
100
AcDbLine
 10
585.8289484052513
 20
227.7826943874448
 30
0.0
 11
591.0152399062665
 21
232.9689858884599
 31
0.0
  0
LINE
  5
1C634
330
1F
100
AcDbEntity
  8
0
100
AcDbLine
 10
582.0152399062664
 20
232.4542672626987
 30
0.0
 11
586.6868127815205
 21
227.782694387445
 31
0.0
  0
LINE
  5
1C635
330
1F
100
AcDbEntity
  8
0
100
AcDbLine
 10
582.0152399062664
 20
229.6258401379525
 30
0.0
 11
583.8583856567743
 21
227.782694387445
 31
0.0
  0
LINE
  5
1C636
330
1F
100
AcDbEntity
  8
0
100
AcDbLine
 10
582.0152399062664
 20
235.282694387445
 30
0.0
 11
589.5152399062665
 21
227.782694387445
 31
0.0
  0
INSERT
  5
1C637
330
1F
100
AcDbEntity
  8
AM_0
100
AcDbBlockReference
  2
B3A780B
 10
565.5153414193444
 20
206.7826283870747
 30
0.0
 41
-1.0
  0
LINE
  5
1C638
330
1F
100
AcDbEntity
  8
AM_2
100
AcDbLine
 10
437.5152399062667
 20
177.2826943874399
 30
0.0
 11
533.7492655380604
 21
177.2826943874404
 31
0.0
  0
LINE
  5
1C639
330
1F
100
AcDbEntity
  8
AM_2
100
AcDbLine
 10
591.0152399062742
 20
227.7826943874448
 30
0.0
 11
565.015239906266
 21
227.7826943874448
 31
0.0
  0
LINE
  5
1C63A
330
1F
100
AcDbEntity
  8
AM_2
100
AcDbLine
 10
591.0152399062742
 20
157.7826943874458
 30
0.0
 11
437.5152399062668
 21
157.7826943874457
 31
0.0
  0
LINE
  5
1C63B
330
1F
100
AcDbEntity
  8
AM_2
100
AcDbLine
 10
437.5152399062669
 20
179.482694387435
 30
0.0
 11
514.5152558658339
 21
179.482694387435
 31
0.0
  0
LINE
  5
1C63C
330
1F
100
AcDbEntity
  8
AM_2
100
AcDbLine
 10
514.8361885101287
 20
182.2826943874374
 30
0.0
 11
437.5152399062668
 21
182.2826943874374
 31
0.0
  0
LINE
  5
1C63D
330
1F
100
AcDbEntity
  8
AM_2
100
AcDbLine
 10
437.5152399062669
 20
218.2826943874447
 30
0.0
 11
516.3757260840041
 21
218.2826943874447
 31
0.0
  0
LINE
  5
1C63E
330
1F
100
AcDbEntity
  8
AM_2
100
AcDbLine
 10
514.5152399062742
 20
221.7826943874404
 30
0.0
 11
437.5152399062668
 21
221.7826943874404
 31
0.0
  0
LINE
  5
1C63F
330
1F
100
AcDbEntity
  8
AM_2
100
AcDbLine
 10
437.5152399062668
 20
159.5826943874458
 30
0.0
 11
566.0152399062742
 21
159.5826943874458
 31
0.0
  0
LINE
  5
1C640
330
1F
100
AcDbEntity
  8
AM_2
100
AcDbLine
 10
437.5152399062669
 20
167.6826943874443
 30
0.0
 11
506.0152399062742
 21
167.6826943874443
 31
0.0
  0
LINE
  5
1C641
330
1F
100
AcDbEntity
  8
AM_2
100
AcDbLine
 10
529.0152399062174
 20
192.9826943874423
 30
0.0
 11
437.5152399062668
 21
192.9826943874423
 31
0.0
  0
LINE
  5
1C642
330
1F
100
AcDbEntity
  8
AM_2
100
AcDbLine
 10
437.5152399062669
 20
206.5826943874422
 30
0.0
 11
529.0152399062174
 21
206.5826943874422
 31
0.0
  0
LINE
  5
1C643
330
1F
100
AcDbEntity
  8
AM_2
100
AcDbLine
 10
437.5152399062668
 20
189.5826943874422
 30
0.0
 11
529.0152399062174
 21
189.5826943874422
 31
0.0
  0
LINE
  5
1C644
330
1F
100
AcDbEntity
  8
AM_0
100
AcDbLine
 10
529.0152399062174
 20
193.7826943874422
 30
0.0
 11
437.5152399062668
 21
193.7826943874422
 31
0.0
  0
LINE
  5
1C645
330
1F
100
AcDbEntity
  8
AM_0
100
AcDbLine
 10
437.5152399062668
 20
188.7826943874422
 30
0.0
 11
529.0152399062174
 21
188.7826943874422
 31
0.0
  0
LINE
  5
1C646
330
1F
100
AcDbEntity
  8
AM_0
100
AcDbLine
 10
437.5152399062669
 20
205.7826943874422
 30
0.0
 11
529.0152399062174
 21
205.7826943874422
 31
0.0
  0
LINE
  5
1C647
330
1F
100
AcDbEntity
  8
AM_0
100
AcDbLine
 10
529.0152399062174
 20
211.7826943874422
 30
0.0
 11
437.5152399062669
 21
211.7826943874422
 31
0.0
  0
LINE
  5
1C648
330
1F
100
AcDbEntity
  8
AM_2
100
AcDbLine
 10
529.0152399062174
 20
210.9826943874423
 30
0.0
 11
437.5152399062669
 21
210.9826943874423
 31
0.0
  0
LINE
  5
1C649
330
1F
100
AcDbEntity
  8
AM_2
100
AcDbLine
 10
536.0152399062742
 20
168.4826943874457
 30
0.0
 11
536.0152399062742
 21
177.2826943874402
 31
0.0
  0
INSERT
  5
1C64A
330
1F
100
AcDbEntity
  8
AM_2
100
AcDbBlockReference
  2
A$C2DAD0FDB
 10
536.5152399062742
 20
168.4826943874457
 30
0.0
  0
LINE
  5
1C64B
330
1F
100
AcDbEntity
  8
AM_11
100
AcDbLine
 10
536.0152399062742
 20
170.1326943874444
 30
0.0
 11
536.5152399062742
 21
170.1326943874444
 31
0.0
  0
LINE
  5
1C64C
330
1F
100
AcDbEntity
  8
AM_11
100
AcDbLine
 10
565.5152399062742
 20
170.1326943874444
 30
0.0
 11
566.0152399062742
 21
170.1326943874444
 31
0.0
  0
INSERT
  5
1C64D
330
1F
100
AcDbEntity
  8
AM_0
100
AcDbBlockReference
  2
A$C0AB071A4
 10
561.3152399062739
 20
177.1826943874453
 30
0.0
 41
-1.0
 50
180.0
  0
INSERT
  5
1C64E
330
1F
100
AcDbEntity
  8
AM_2
100
AcDbBlockReference
  2
AJ1430
 10
538.0152399062742
 20
179.2826943874406
 30
0.0
 41
-1.0
  0
INSERT
  5
1C64F
330
1F
100
AcDbEntity
  8
AM_11
100
AcDbBlockReference
  2
B3A735
 10
547.715239906274
 20
220.3826943874474
 30
0.0
 41
-1.0
  0
LINE
  5
1C650
330
1F
100
AcDbEntity
  8
AM_2
100
AcDbLine
 10
523.0152399062173
 20
193.7826943874422
 30
0.0
 11
529.0152399062174
 21
205.7826943874422
 31
0.0
  0
LINE
  5
1C651
330
1F
100
AcDbEntity
  8
AM_2
100
AcDbLine
 10
523.0152399062173
 20
205.7826943874422
 30
0.0
 11
529.0152399062174
 21
193.7826943874422
 31
0.0
  0
LINE
  5
1C652
330
1F
100
AcDbEntity
  8
AM_0
100
AcDbLine
 10
523.0152399062173
 20
193.7826943874422
 30
0.0
 11
523.0152399062173
 21
205.7826943874422
 31
0.0
  0
LINE
  5
1C653
330
1F
100
AcDbEntity
  8
AM_0
100
AcDbLine
 10
529.0152399062174
 20
188.7826943874422
 30
0.0
 11
529.0152399062174
 21
211.7826943874422
 31
0.0
  0
INSERT
  5
1C654
330
1F
100
AcDbEntity
  8
AM_2
100
AcDbBlockReference
  2
AJ1412
 10
519.515239906256
 20
181.4326943874425
 30
0.0
 41
-1.0
  0
LINE
  5
1C655
330
1F
100
AcDbEntity
  8
AM_11
100
AcDbLine
 10
536.0152399062742
 20
175.4326943874444
 30
0.0
 11
536.5152399062742
 21
175.4326943874444
 31
0.0
  0
INSERT
  5
1C656
330
1F
100
AcDbEntity
  8
BLOCK
100
AcDbBlockReference
  2
ラッチネジ
 10
541.0152399062742
 20
195.7826900240318
 30
0.0
 41
-1.0
 50
90.0
  0
INSERT
  5
1C657
330
1F
100
AcDbEntity
  8
BLOCK
100
AcDbBlockReference
  2
D008M_______________01
 10
563.5153414193439
 20
200.7826253721814
 30
0.0
 41
-1.0
 50
180.0
  0
INSERT
  5
1C658
330
1F
100
AcDbEntity
  8
BLOCK
100
AcDbBlockReference
  2
B3A782
 10
567.6652399062747
 20
200.7826276951925
 30
0.0
 41
-1.0
  0
INSERT
  5
1C659
330
1F
100
AcDbEntity
  8
BLOCK
100
AcDbBlockReference
  2
BP3094
 10
567.6652399062743
 20
200.7826276951925
 30
0.0
 41
-1.0
  0
INSERT
  5
1C65A
330
1F
100
AcDbEntity
  8
BLOCK
100
AcDbBlockReference
  2
BP3094
 10
567.6652399062747
 20
200.7826276951925
 30
0.0
 41
-1.0
  0
INSERT
  5
1C65B
330
1F
100
AcDbEntity
  8
BLOCK
100
AcDbBlockReference
  2
D008M_______________01A
 10
565.5153414193444
 20
200.7826253721814
 30
0.0
  0
INSERT
  5
1C65C
330
1F
100
AcDbEntity
  8
AM_0
100
AcDbBlockReference
  2
B3A777潰れ
 10
554.5152399062747
 20
184.582694387481
 30
0.0
 50
90.0
  0
LINE
  5
1C65D
330
1F
100
AcDbEntity
  8
AM_11
100
AcDbLine
 10
565.5152399062742
 20
175.4326943874444
 30
0.0
 11
566.0152399062742
 21
175.4326943874444
 31
0.0
  0
INSERT
  5
1C65E
330
1F
100
AcDbEntity
  8
AM_0
100
AcDbBlockReference
  2
A$C7F303707
 10
591.0152397832218
 20
137.7826943459924
 30
0.0
 41
-1.0
  0
LINE
  5
1C65F
330
1F
100
AcDbEntity
  8
納まり
  6
HIDDEN
100
AcDbLine
 10
602.015239906272
 20
203.2826943874447
 30
0.0
 11
602.015239906272
 21
182.2826943874447
 31
0.0
  0
LINE
  5
1C660
330
1F
100
AcDbEntity
  8
納まり
  6
HIDDEN
100
AcDbLine
 10
593.0152399062719
 20
225.5326943874447
 30
0.0
 11
593.0152399062719
 21
160.0326943874447
 31
0.0
  0
LINE
  5
1C661
330
1F
100
AcDbEntity
  8
納まり
  6
HIDDEN
100
AcDbLine
 10
591.0152399062719
 20
225.5326943874447
 30
0.0
 11
591.0152399062719
 21
160.0326943874447
 31
0.0
  0
ARC
  5
1C662
330
1F
100
AcDbEntity
  8
納まり
  6
HIDDEN
100
AcDbCircle
 10
600.5152399062719
 20
182.2826943874447
 30
0.0
 40
1.5
100
AcDbArc
 50
270.0
 51
0.0
  0
LINE
  5
1C663
330
1F
100
AcDbEntity
  8
納まり
  6
HIDDEN
100
AcDbLine
 10
591.0152399062719
 20
160.0326943874447
 30
0.0
 11
593.0152399062719
 21
160.0326943874447
 31
0.0
  0
ARC
  5
1C664
330
1F
100
AcDbEntity
  8
納まり
  6
HIDDEN
100
AcDbCircle
 10
591.0152399062719
 20
166.2826943874447
 30
0.0
 40
2.0
100
AcDbArc
 50
270.0
 51
0.0
  0
ARC
  5
1C665
330
1F
100
AcDbEntity
  8
納まり
  6
HIDDEN
100
AcDbCircle
 10
589.2652399062719
 20
164.2926943874447
 30
0.0
 40
2.0
100
AcDbArc
 50
90.0
 51
180.0
  0
LINE
  5
1C666
330
1F
100
AcDbEntity
  8
納まり
  6
HIDDEN
100
AcDbLine
 10
589.2652399062719
 20
166.2926943874447
 30
0.0
 11
591.0152399062719
 21
166.2926943874447
 31
0.0
  0
LINE
  5
1C667
330
1F
100
AcDbEntity
  8
納まり
  6
HIDDEN
100
AcDbLine
 10
587.265239906272
 20
159.5326943874447
 30
0.0
 11
589.2652399062719
 21
159.5326943874447
 31
0.0
  0
LINE
  5
1C668
330
1F
100
AcDbEntity
  8
納まり
  6
HIDDEN
100
AcDbLine
 10
589.2652399062719
 20
164.2826943874447
 30
0.0
 11
591.0152399062719
 21
164.2826943874447
 31
0.0
  0
LINE
  5
1C669
330
1F
100
AcDbEntity
  8
納まり
  6
HIDDEN
100
AcDbLine
 10
589.2652399062719
 20
159.5326943874447
 30
0.0
 11
589.2652399062719
 21
164.2826943874447
 31
0.0
  0
LINE
  5
1C66A
330
1F
100
AcDbEntity
  8
納まり
  6
HIDDEN
100
AcDbLine
 10
587.265239906272
 20
159.5326943874447
 30
0.0
 11
587.265239906272
 21
164.2826943874447
 31
0.0
  0
LINE
  5
1C66B
330
1F
100
AcDbEntity
  8
納まり
  6
HIDDEN
100
AcDbLine
 10
600.5152399062719
 20
180.7826943874447
 30
0.0
 11
593.0152399062719
 21
180.7826943874447
 31
0.0
  0
ARC
  5
1C66C
330
1F
100
AcDbEntity
  8
納まり
  6
HIDDEN
100
AcDbCircle
 10
600.5152399062719
 20
203.2826943874447
 30
0.0
 40
1.5
100
AcDbArc
 50
0.0
 51
90.0
  0
LINE
  5
1C66D
330
1F
100
AcDbEntity
  8
納まり
  6
HIDDEN
100
AcDbLine
 10
600.5152399062719
 20
204.7826943874447
 30
0.0
 11
593.0152399062719
 21
204.7826943874447
 31
0.0
  0
LINE
  5
1C66E
330
1F
100
AcDbEntity
  8
納まり
  6
HIDDEN
100
AcDbLine
 10
589.2652399062719
 20
226.0326943874447
 30
0.0
 11
589.2652399062719
 21
221.2826943874447
 31
0.0
  0
LINE
  5
1C66F
330
1F
100
AcDbEntity
  8
納まり
  6
HIDDEN
100
AcDbLine
 10
587.265239906272
 20
226.0326943874447
 30
0.0
 11
587.265239906272
 21
221.2826943874447
 31
0.0
  0
ARC
  5
1C670
330
1F
100
AcDbEntity
  8
納まり
  6
HIDDEN
100
AcDbCircle
 10
591.0152399062719
 20
219.2726943874447
 30
0.0
 40
2.0
100
AcDbArc
 50
0.0
 51
90.0
  0
ARC
  5
1C671
330
1F
100
AcDbEntity
  8
納まり
  6
HIDDEN
100
AcDbCircle
 10
589.2652399062719
 20
221.2726943874447
 30
0.0
 40
2.0
100
AcDbArc
 50
180.0
 51
270.0
  0
LINE
  5
1C672
330
1F
100
AcDbEntity
  8
納まり
  6
HIDDEN
100
AcDbLine
 10
589.2652399062719
 20
219.2726943874447
 30
0.0
 11
591.0152399062719
 21
219.2726943874447
 31
0.0
  0
LINE
  5
1C673
330
1F
100
AcDbEntity
  8
納まり
  6
HIDDEN
100
AcDbLine
 10
589.2652399062719
 20
221.2726943874447
 30
0.0
 11
591.0152399062719
 21
221.2726943874447
 31
0.0
  0
LINE
  5
1C674
330
1F
100
AcDbEntity
  8
納まり
  6
HIDDEN
100
AcDbLine
 10
591.0152399062719
 20
225.5326943874447
 30
0.0
 11
593.0152399062719
 21
225.5326943874447
 31
0.0
  0
LINE
  5
1C675
330
1F
100
AcDbEntity
  8
納まり
  6
HIDDEN
100
AcDbLine
 10
587.265239906272
 20
226.0326943874447
 30
0.0
 11
589.2652399062719
 21
226.0326943874447
 31
0.0
  0
LINE
  5
1C676
330
1F
100
AcDbEntity
  8
0
100
AcDbLine
 10
613.1852399062661
 20
299.4038903776557
 30
0.0
 11
581.0152399062665
 21
267.2338903776554
 31
0.0
  0
LINE
  5
1C677
330
1F
100
AcDbEntity
  8
0
100
AcDbLine
 10
613.1852399062661
 20
302.2238903776554
 30
0.0
 11
581.0152399062665
 21
270.0538903776553
 31
0.0
  0
LINE
  5
1C678
330
1F
100
AcDbEntity
  8
0
100
AcDbLine
 10
613.1852399062661
 20
305.0438903776556
 30
0.0
 11
581.0152399062665
 21
272.8738903776553
 31
0.0
  0
LINE
  5
1C679
330
1F
100
AcDbEntity
  8
003
100
AcDbLine
 10
537.015239906266
 20
253.2826506011297
 30
0.0
 11
537.015239906266
 21
285.2826811011301
 31
0.0
  0
LINE
  5
1C67A
330
1F
100
AcDbEntity
  8
003
100
AcDbLine
 10
535.015239906266
 20
253.2826506011302
 30
0.0
 11
535.015239906266
 21
285.2826811011301
 31
0.0
  0
LINE
  5
1C67B
330
1F
100
AcDbEntity
  8
003
100
AcDbLine
 10
540.9152399062661
 20
274.2826943874456
 30
0.0
 11
540.9152399062661
 21
254.2826943874457
 31
0.0
  0
LINE
  5
1C67C
330
1F
100
AcDbEntity
  8
003
100
AcDbLine
 10
545.9152399062661
 20
274.2826943874456
 30
0.0
 11
545.9152399062661
 21
264.2826943874457
 31
0.0
  0
LINE
  5
1C67D
330
1F
100
AcDbEntity
  8
003
100
AcDbLine
 10
563.8152399062662
 20
255.7988304158716
 30
0.0
 11
563.8152399062662
 21
279.2826943874457
 31
0.0
  0
LINE
  5
1C67E
330
1F
100
AcDbEntity
  8
003
100
AcDbLine
 10
565.015239906266
 20
224.2826943874456
 30
0.0
 11
565.015239906266
 21
279.2826943874457
 31
0.0
  0
LINE
  5
1C67F
330
1F
100
AcDbEntity
  8
003
100
AcDbLine
 10
540.4152399062661
 20
273.0826943874454
 30
0.0
 11
540.4152399062661
 21
279.2826943874452
 31
0.0
  0
LINE
  5
1C680
330
1F
100
AcDbEntity
  8
003
100
AcDbLine
 10
538.015239906266
 20
250.4826943874455
 30
0.0
 11
538.015239906266
 21
274.2826943874452
 31
0.0
  0
LINE
  5
1C681
330
1F
100
AcDbEntity
  8
003
100
AcDbLine
 10
537.015239906266
 20
253.2826506011297
 30
0.0
 11
437.5152399062669
 21
253.2826630727188
 31
0.0
  0
LINE
  5
1C682
330
1F
100
AcDbEntity
  8
003
100
AcDbLine
 10
511.8152399062662
 20
250.4826943874455
 30
0.0
 11
538.015239906266
 21
250.4826943874455
 31
0.0
  0
LINE
  5
1C683
330
1F
100
AcDbEntity
  8
003
100
AcDbLine
 10
520.8152399062662
 20
249.2826943874456
 30
0.0
 11
556.7152399062663
 21
249.2826943874456
 31
0.0
  0
LINE
  5
1C684
330
1F
100
AcDbEntity
  8
007
100
AcDbLine
 10
437.5152399062669
 20
251.3827060949489
 30
0.0
 11
485.7152399062668
 21
251.3826943874455
 31
0.0
  0
LINE
  5
1C685
330
1F
100
AcDbEntity
  8
007
100
AcDbLine
 10
437.5152399062669
 20
250.4826060949491
 30
0.0
 11
485.7152399062668
 21
250.4825943874457
 31
0.0
  0
LINE
  5
1C686
330
1F
100
AcDbEntity
  8
007
100
AcDbLine
 10
437.5152399062669
 20
247.1827060949491
 30
0.0
 11
485.7152399062668
 21
247.1826943874457
 31
0.0
  0
LINE
  5
1C687
330
1F
100
AcDbEntity
  8
003
100
AcDbLine
 10
437.5152399062669
 20
248.782706699032
 30
0.0
 11
519.6152399062659
 21
248.7826943874456
 31
0.0
  0
LINE
  5
1C688
330
1F
100
AcDbEntity
  8
003
100
AcDbLine
 10
437.5152399062669
 20
247.5827066990306
 30
0.0
 11
519.6152399062659
 21
247.5826943874458
 31
0.0
  0
LINE
  5
1C689
330
1F
100
AcDbEntity
  8
007
100
AcDbLine
 10
485.7152399062668
 20
237.6826943874458
 30
0.0
 11
437.5152399062669
 21
237.6827060949491
 31
0.0
  0
LINE
  5
1C68A
330
1F
100
AcDbEntity
  8
007
100
AcDbLine
 10
486.7152399062668
 20
250.4826943874455
 30
0.0
 11
509.0152399062665
 21
250.4826943874455
 31
0.0
  0
LINE
  5
1C68B
330
1F
100
AcDbEntity
  8
007
100
AcDbLine
 10
487.2152399062668
 20
251.9826943874455
 30
0.0
 11
508.5152399062665
 21
251.9826943874455
 31
0.0
  0
LINE
  5
1C68C
330
1F
100
AcDbEntity
  8
007
100
AcDbLine
 10
487.2152399062668
 20
247.4826943874455
 30
0.0
 11
508.5152399062665
 21
247.4826943874455
 31
0.0
  0
LINE
  5
1C68D
330
1F
100
AcDbEntity
  8
007
100
AcDbLine
 10
485.7152399062668
 20
247.1826943874457
 30
0.0
 11
514.0152399062665
 21
247.1826943874457
 31
0.0
  0
LINE
  5
1C68E
330
1F
100
AcDbEntity
  8
007
100
AcDbLine
 10
485.7152399062668
 20
237.1826943874457
 30
0.0
 11
511.0152399062664
 21
237.1826943874457
 31
0.0
  0
LINE
  5
1C68F
330
1F
100
AcDbEntity
  8
007
100
AcDbLine
 10
486.7152399062668
 20
251.4826943874455
 30
0.0
 11
486.7152399062668
 21
247.9826943874455
 31
0.0
  0
LINE
  5
1C690
330
1F
100
AcDbEntity
  8
007
100
AcDbLine
 10
485.7152399062668
 20
251.3826943874455
 30
0.0
 11
485.7152399062668
 21
237.1826943874457
 31
0.0
  0
ARC
  5
1C691
330
1F
100
AcDbEntity
  8
007
100
AcDbCircle
 10
487.2152399062668
 20
247.9826943874455
 30
0.0
 40
0.5
100
AcDbArc
 50
180.0
 51
270.0
  0
LINE
  5
1C692
330
1F
100
AcDbEntity
  8
007
100
AcDbLine
 10
485.7152399062668
 20
248.3826943874456
 30
0.0
 11
486.7152399062668
 21
248.3826943874456
 31
0.0
  0
ARC
  5
1C693
330
1F
100
AcDbEntity
  8
007
100
AcDbCircle
 10
487.2152399062668
 20
251.4826943874455
 30
0.0
 40
0.5
100
AcDbArc
 50
90.0
 51
180.0
  0
LINE
  5
1C694
330
1F
100
AcDbEntity
  8
007
100
AcDbLine
 10
509.0152399062665
 20
251.4826943874455
 30
0.0
 11
509.0152399062665
 21
247.9826943874455
 31
0.0
  0
LINE
  5
1C695
330
1F
100
AcDbEntity
  8
003
100
AcDbLine
 10
511.8152399062662
 20
249.2826943874456
 30
0.0
 11
519.6152399062659
 21
249.2826943874456
 31
0.0
  0
ARC
  5
1C696
330
1F
100
AcDbEntity
  8
007
100
AcDbCircle
 10
508.5152399062665
 20
247.9826943874455
 30
0.0
 40
0.5
100
AcDbArc
 50
270.0
 51
0.0
  0
LINE
  5
1C697
330
1F
100
AcDbEntity
  8
003
100
AcDbLine
 10
511.8152399062662
 20
250.4826943874455
 30
0.0
 11
511.8152399062662
 21
249.2826943874456
 31
0.0
  0
LINE
  5
1C698
330
1F
100
AcDbEntity
  8
007
100
AcDbLine
 10
514.0152399062665
 20
247.1826943874457
 30
0.0
 11
514.0152399062665
 21
240.1826943874457
 31
0.0
  0
ARC
  5
1C699
330
1F
100
AcDbEntity
  8
007
100
AcDbCircle
 10
511.0152399062664
 20
240.1826943874457
 30
0.0
 40
3.0
100
AcDbArc
 50
270.0
 51
0.0
  0
LINE
  5
1C69A
330
1F
100
AcDbEntity
  8
003
100
AcDbLine
 10
519.6152399062659
 20
244.2826943874456
 30
0.0
 11
520.8152399062662
 21
244.2826943874456
 31
0.0
  0
LINE
  5
1C69B
330
1F
100
AcDbEntity
  8
003
100
AcDbLine
 10
520.8152399062662
 20
244.2826943874456
 30
0.0
 11
520.8152399062662
 21
249.2826943874456
 31
0.0
  0
LINE
  5
1C69C
330
1F
100
AcDbEntity
  8
003
100
AcDbLine
 10
519.6152399062659
 20
244.2826943874456
 30
0.0
 11
519.6152399062659
 21
249.2826943874456
 31
0.0
  0
ARC
  5
1C69D
330
1F
100
AcDbEntity
  8
007
100
AcDbCircle
 10
508.5152399062665
 20
251.4826943874455
 30
0.0
 40
0.5
100
AcDbArc
 50
0.0
 51
90.0
  0
LINE
  5
1C69E
330
1F
100
AcDbEntity
  8
003
100
AcDbLine
 10
563.8152399062662
 20
224.2826943874456
 30
0.0
 11
563.8152399062662
 21
247.5826943874458
 31
0.0
  0
LINE
  5
1C69F
330
1F
100
AcDbEntity
  8
006
100
AcDbLine
 10
557.515239906266
 20
253.8726943874458
 30
0.0
 11
565.515239906266
 21
253.8726943874458
 31
0.0
  0
LINE
  5
1C6A0
330
1F
100
AcDbEntity
  8
006
100
AcDbLine
 10
561.515239906266
 20
249.8726943874458
 30
0.0
 11
561.515239906266
 21
257.8726943874458
 31
0.0
  0
LINE
  5
1C6A1
330
1F
100
AcDbEntity
  8
003
100
AcDbLine
 10
552.015239906266
 20
250.4826943874455
 30
0.0
 11
552.015239906266
 21
251.6826943874457
 31
0.0
  0
LINE
  5
1C6A2
330
1F
100
AcDbEntity
  8
003
100
AcDbLine
 10
539.2152399062663
 20
250.4826943874455
 30
0.0
 11
539.2152399062663
 21
273.0826943874454
 31
0.0
  0
LINE
  5
1C6A3
330
1F
100
AcDbEntity
  8
003
100
AcDbLine
 10
539.2352399062663
 20
250.4826943874455
 30
0.0
 11
563.8152399062662
 21
250.4826943874455
 31
0.0
  0
LINE
  5
1C6A4
330
1F
100
AcDbEntity
  8
003
100
AcDbLine
 10
557.3152399062662
 20
250.4826943874455
 30
0.0
 11
563.8152399062662
 21
250.4826943874455
 31
0.0
  0
LINE
  5
1C6A5
330
1F
100
AcDbEntity
  8
003
100
AcDbLine
 10
557.3152399062662
 20
249.2826943874456
 30
0.0
 11
563.8152399062662
 21
249.2826943874456
 31
0.0
  0
LINE
  5
1C6A6
330
1F
100
AcDbEntity
  8
003
100
AcDbLine
 10
563.8152399062662
 20
249.2826943874456
 30
0.0
 11
563.8152399062662
 21
250.4826943874455
 31
0.0
  0
LINE
  5
1C6A7
330
1F
100
AcDbEntity
  8
003
100
AcDbLine
 10
563.8152399062662
 20
248.7826943874456
 30
0.0
 11
563.8152399062662
 21
250.4826943874455
 31
0.0
  0
LINE
  5
1C6A8
330
1F
100
AcDbEntity
  8
003
100
AcDbLine
 10
560.8152399062662
 20
248.7826943874456
 30
0.0
 11
563.8152399062662
 21
248.7826943874456
 31
0.0
  0
LINE
  5
1C6A9
330
1F
100
AcDbEntity
  8
003
100
AcDbLine
 10
560.8152399062662
 20
247.5826943874458
 30
0.0
 11
563.8152399062662
 21
247.5826943874458
 31
0.0
  0
LINE
  5
1C6AA
330
1F
100
AcDbEntity
  8
003
100
AcDbLine
 10
560.8152399062662
 20
247.5826943874458
 30
0.0
 11
560.8152399062662
 21
249.2826943874456
 31
0.0
  0
LINE
  5
1C6AB
330
1F
100
AcDbEntity
  8
003
100
AcDbLine
 10
552.015239906266
 20
250.4826943874455
 30
0.0
 11
556.7152399062663
 21
250.4826943874455
 31
0.0
  0
ARC
  5
1C6AC
330
1F
100
AcDbEntity
  8
003
100
AcDbCircle
 10
557.015239906266
 20
249.2826943874456
 30
0.0
 40
0.2999999999999829
100
AcDbArc
 50
0.0
 51
180.0
  0
ARC
  5
1C6AD
330
1F
100
AcDbEntity
  8
003
100
AcDbCircle
 10
557.0152399062664
 20
250.4826943874455
 30
0.0
 40
0.3000000000000682
100
AcDbArc
 50
0.0000000000260551
 51
179.9999999999739
  0
LINE
  5
1C6AE
330
1F
100
AcDbEntity
  8
003
100
AcDbLine
 10
540.9152399062661
 20
254.2826943874457
 30
0.0
 11
543.4152399062661
 21
254.2826943874457
 31
0.0
  0
LINE
  5
1C6AF
330
1F
100
AcDbEntity
  8
003
100
AcDbLine
 10
539.2152399062663
 20
273.0826943874454
 30
0.0
 11
540.4152399062661
 21
273.0826943874454
 31
0.0
  0
LINE
  5
1C6B0
330
1F
100
AcDbEntity
  8
003
100
AcDbLine
 10
539.2152399062663
 20
265.7826943874456
 30
0.0
 11
540.9152399062661
 21
265.7826943874456
 31
0.0
  0
LINE
  5
1C6B1
330
1F
100
AcDbEntity
  8
003
100
AcDbLine
 10
539.2152399062663
 20
272.7826943874457
 30
0.0
 11
540.9152399062661
 21
272.7826943874457
 31
0.0
  0
LINE
  5
1C6B2
330
1F
100
AcDbEntity
  8
003
100
AcDbLine
 10
558.9166800965674
 20
252.3735323163482
 30
0.0
 11
559.9539097243971
 21
252.9770113725403
 31
0.0
  0
ARC
  5
1C6B3
330
1F
100
AcDbEntity
  8
003
100
AcDbCircle
 10
561.515239906266
 20
253.8726943874458
 30
0.0
 40
3.0
100
AcDbArc
 50
209.981522743161
 51
226.8863940541058
  0
LINE
  5
1C6B4
330
1F
100
AcDbEntity
  8
003
100
AcDbLine
 10
558.9166831481204
 20
255.3718617479144
 30
0.0
 11
559.9561058513775
 21
254.7721948037279
 31
0.0
  0
ARC
  5
1C6B5
330
1F
100
AcDbEntity
  8
003
100
AcDbCircle
 10
561.515239906266
 20
253.8726943874458
 30
0.0
 40
3.0
100
AcDbArc
 50
39.94450518981577
 51
150.0183606311517
  0
ARC
  5
1C6B6
330
1F
100
AcDbEntity
  8
003
100
AcDbCircle
 10
561.515239906266
 20
253.8726943874458
 30
0.0
 40
1.8
100
AcDbArc
 50
209.841454536181
 51
150.0183606311517
  0
LINE
  5
1C6B7
330
1F
100
AcDbEntity
  8
003
100
AcDbLine
 10
552.015239906266
 20
251.6826943874457
 30
0.0
 11
559.4648984712851
 21
251.6826943874457
 31
0.0
  0
LINE
  5
1C6B8
330
1F
100
AcDbEntity
  8
003
100
AcDbLine
 10
537.015239906266
 20
285.2826811011301
 30
0.0
 11
437.5152399062669
 21
285.2826935727192
 31
0.0
  0
LINE
  5
1C6B9
330
1F
100
AcDbEntity
  8
003
100
AcDbLine
 10
535.015239906266
 20
289.2826943874457
 30
0.0
 11
437.5152399062669
 21
289.2827068433667
 31
0.0
  0
LINE
  5
1C6BA
330
1F
100
AcDbEntity
  8
003
100
AcDbLine
 10
535.015239906266
 20
288.0826943874454
 30
0.0
 11
437.5152399062669
 21
288.0827068433667
 31
0.0
  0
ARC
  5
1C6BB
330
1F
100
AcDbEntity
  8
003
100
AcDbCircle
 10
555.015239906266
 20
279.2826943874457
 30
0.0
 40
8.8
100
AcDbArc
 50
0.0
 51
90.0
  0
ARC
  5
1C6BC
330
1F
100
AcDbEntity
  8
003
100
AcDbCircle
 10
555.015239906266
 20
279.2826943874457
 30
0.0
 40
10.0
100
AcDbArc
 50
0.0
 51
90.0
  0
LINE
  5
1C6BD
330
1F
100
AcDbEntity
  8
003
100
AcDbLine
 10
543.4413759346918
 20
288.0826943874454
 30
0.0
 11
555.015239906266
 21
288.0826943874454
 31
0.0
  0
LINE
  5
1C6BE
330
1F
100
AcDbEntity
  8
003
100
AcDbLine
 10
535.015239906266
 20
289.2826943874457
 30
0.0
 11
555.015239906266
 21
289.2826943874457
 31
0.0
  0
LINE
  5
1C6BF
330
1F
100
AcDbEntity
  8
003
100
AcDbLine
 10
542.2926315024526
 20
282.8851674581179
 30
0.0
 11
541.9859235319034
 21
284.0453236945414
 31
0.0
  0
ARC
  5
1C6C0
330
1F
100
AcDbEntity
  8
003
100
AcDbCircle
 10
541.5152399062665
 20
285.7826943874457
 30
0.0
 40
3.0
100
AcDbArc
 50
273.8225537292708
 51
285.0184772568367
  0
LINE
  5
1C6C1
330
1F
100
AcDbEntity
  8
003
100
AcDbLine
 10
544.41276841797
 20
285.0053086891839
 30
0.0
 11
543.2537570132901
 21
285.316262968488
 31
0.0
  0
ARC
  5
1C6C2
330
1F
100
AcDbEntity
  8
003
100
AcDbCircle
 10
541.5152399062665
 20
285.7826943874457
 30
0.0
 40
3.0
100
AcDbArc
 50
344.9816393688467
 51
50.05549481018423
  0
LINE
  5
1C6C3
330
1F
100
AcDbEntity
  8
003
100
AcDbLine
 10
541.7152399062663
 20
280.4826943874455
 30
0.0
 11
542.1152399062663
 21
280.4826943874455
 31
0.0
  0
LINE
  5
1C6C4
330
1F
100
AcDbEntity
  8
003
100
AcDbLine
 10
540.9152399062661
 20
276.2826943874456
 30
0.0
 11
542.1152399062659
 21
276.2826943874456
 31
0.0
  0
LINE
  5
1C6C5
330
1F
100
AcDbEntity
  8
003
100
AcDbLine
 10
540.9152399062661
 20
276.2826943874456
 30
0.0
 11
540.9152399062661
 21
279.2826943874457
 31
0.0
  0
LINE
  5
1C6C6
330
1F
100
AcDbEntity
  8
003
100
AcDbLine
 10
542.1152399062659
 20
276.2826943874456
 30
0.0
 11
542.1152399062663
 21
280.4826943874455
 31
0.0
  0
LINE
  5
1C6C7
330
1F
100
AcDbEntity
  8
003
100
AcDbLine
 10
540.9152399062661
 20
274.2826943874456
 30
0.0
 11
545.9152399062661
 21
274.2826943874456
 31
0.0
  0
LINE
  5
1C6C8
330
1F
100
AcDbEntity
  8
003
100
AcDbLine
 10
541.7152399062663
 20
280.4826943874455
 30
0.0
 11
541.7152399062663
 21
282.7893684780265
 31
0.0
  0
LINE
  5
1C6C9
330
1F
100
AcDbEntity
  8
003
100
AcDbLine
 10
535.015239906266
 20
288.0826943874454
 30
0.0
 11
535.015239906266
 21
289.2826943874457
 31
0.0
  0
LINE
  5
1C6CA
330
1F
100
AcDbEntity
  8
003
100
AcDbLine
 10
535.015239906266
 20
288.0826943874454
 30
0.0
 11
538.015239906266
 21
288.0826943874454
 31
0.0
  0
LINE
  5
1C6CB
330
1F
100
AcDbEntity
  8
003
100
AcDbLine
 10
539.2152399062663
 20
279.2826943874452
 30
0.0
 11
540.4152399062661
 21
279.2826943874452
 31
0.0
  0
LINE
  5
1C6CC
330
1F
100
AcDbEntity
  8
003
100
AcDbLine
 10
539.2152399062663
 20
274.2826943874452
 30
0.0
 11
539.2152399062663
 21
279.2826943874452
 31
0.0
  0
LINE
  5
1C6CD
330
1F
100
AcDbEntity
  8
003
100
AcDbLine
 10
539.2152399062663
 20
274.2826943874456
 30
0.0
 11
539.2152399062663
 21
279.2826943874457
 31
0.0
  0
LINE
  5
1C6CE
330
1F
100
AcDbEntity
  8
003
100
AcDbLine
 10
538.015239906266
 20
274.2826943874452
 30
0.0
 11
539.2152399062663
 21
274.2826943874452
 31
0.0
  0
LINE
  5
1C6CF
330
1F
100
AcDbEntity
  8
003
100
AcDbLine
 10
538.015239906266
 20
274.2826943874456
 30
0.0
 11
539.2152399062663
 21
274.2826943874456
 31
0.0
  0
LINE
  5
1C6D0
330
1F
100
AcDbEntity
  8
003
100
AcDbLine
 10
538.015239906266
 20
274.2826943874456
 30
0.0
 11
538.015239906266
 21
288.0826943874454
 31
0.0
  0
LINE
  5
1C6D1
330
1F
100
AcDbEntity
  8
006
100
AcDbLine
 10
538.6868127815203
 20
282.9542672626994
 30
0.0
 11
544.3436670310123
 21
288.6111215121919
 31
0.0
  0
LINE
  5
1C6D2
330
1F
100
AcDbEntity
  8
006
100
AcDbLine
 10
544.3436670310123
 20
282.9542672626994
 30
0.0
 11
538.6868127815198
 21
288.6111215121919
 31
0.0
  0
LINE
  5
1C6D3
330
1F
100
AcDbEntity
  8
003
100
AcDbLine
 10
539.2152399062663
 20
279.2826943874457
 30
0.0
 11
540.9152399062661
 21
279.2826943874457
 31
0.0
  0
ARC
  5
1C6D4
330
1F
100
AcDbEntity
  8
003
100
AcDbCircle
 10
541.5152399062665
 20
285.7826943874457
 30
0.0
 40
1.8
100
AcDbArc
 50
344.9816393688467
 51
285.158545463826
  0
LINE
  5
1C6D5
330
1F
100
AcDbEntity
  8
0
100
AcDbLine
 10
284.0152399062668
 20
317.7827051186997
 30
0.0
 11
284.0152399062668
 21
242.7827051186997
 31
0.0
  0
LINE
  5
1C6D6
330
1F
100
AcDbEntity
  8
0
100
AcDbLine
 10
274.0152399062667
 20
327.7827051186997
 30
0.0
 11
255.965239906267
 21
327.7827051186997
 31
0.0
  0
LINE
  5
1C6D7
330
1F
100
AcDbEntity
  8
0
100
AcDbLine
 10
274.0152399062667
 20
327.7827051186997
 30
0.0
 11
284.0152399062668
 21
317.7827051186997
 31
0.0
  0
LINE
  5
1C6D8
330
1F
100
AcDbEntity
  8
0
100
AcDbLine
 10
255.965239906267
 20
327.7827051186997
 30
0.0
 11
251.8452399062671
 21
327.7827051186997
 31
0.0
  0
LINE
  5
1C6D9
330
1F
100
AcDbEntity
  8
0
100
AcDbLine
 10
284.0152399062668
 20
242.7827051186997
 30
0.0
 11
251.8452399062671
 21
242.7827051186997
 31
0.0
  0
LINE
  5
1C6DA
330
1F
100
AcDbEntity
  8
0
100
AcDbLine
 10
283.0152399062667
 20
241.7827051186997
 30
0.0
 11
283.0152399062667
 21
228.7827051186995
 31
0.0
  0
LINE
  5
1C6DB
330
1F
100
AcDbEntity
  8
0
100
AcDbLine
 10
283.0152399062667
 20
232.4542779939535
 30
0.0
 11
274.0152399062667
 21
241.4542779939533
 31
0.0
  0
LINE
  5
1C6DC
330
1F
100
AcDbEntity
  8
0
100
AcDbLine
 10
283.0152399062667
 20
235.2827051186995
 30
0.0
 11
275.5152399062668
 21
242.7827051186995
 31
0.0
  0
LINE
  5
1C6DD
330
1F
100
AcDbEntity
  8
0
100
AcDbLine
 10
283.0152399062667
 20
238.1111322434457
 30
0.0
 11
278.3436670310127
 21
242.7827051186995
 31
0.0
  0
LINE
  5
1C6DE
330
1F
100
AcDbEntity
  8
0
100
AcDbLine
 10
279.2015314072819
 20
242.7827051186997
 30
0.0
 11
274.0152399062667
 21
237.5964136176845
 31
0.0
  0
LINE
  5
1C6DF
330
1F
100
AcDbEntity
  8
0
100
AcDbLine
 10
282.0299585320283
 20
242.7827051186997
 30
0.0
 11
274.0152399062667
 21
234.7679864929383
 31
0.0
  0
LINE
  5
1C6E0
330
1F
100
AcDbEntity
  8
0
100
AcDbLine
 10
283.0152399062667
 20
240.9395593681919
 30
0.0
 11
274.0152399062667
 21
231.9395593681921
 31
0.0
  0
LINE
  5
1C6E1
330
1F
100
AcDbEntity
  8
0
100
AcDbLine
 10
283.0152399062667
 20
240.9395593681919
 30
0.0
 11
281.1720941557589
 21
242.7827051186995
 31
0.0
  0
LINE
  5
1C6E2
330
1F
100
AcDbEntity
  8
0
100
AcDbLine
 10
276.3731042825357
 20
242.7827051186997
 30
0.0
 11
274.0152399062667
 21
240.4248407424308
 31
0.0
  0
LINE
  5
1C6E3
330
1F
100
AcDbEntity
  8
0
100
AcDbLine
 10
283.0152399062667
 20
241.7827051186997
 30
0.0
 11
284.0152399062668
 21
242.7827051186997
 31
0.0
  0
LINE
  5
1C6E4
330
1F
100
AcDbEntity
  8
0
100
AcDbLine
 10
283.0152399062667
 20
229.6258508692073
 30
0.0
 11
274.0152399062667
 21
238.625850869207
 31
0.0
  0
LINE
  5
1C6E5
330
1F
100
AcDbEntity
  8
0
100
AcDbLine
 10
283.0152399062667
 20
238.1111322434457
 30
0.0
 11
274.0152399062667
 21
229.1111322434459
 31
0.0
  0
LINE
  5
1C6E6
330
1F
100
AcDbEntity
  8
0
100
AcDbLine
 10
283.0152399062667
 20
228.7827051186995
 30
0.0
 11
284.0152399062668
 21
227.7827051186997
 31
0.0
  0
LINE
  5
1C6E7
330
1F
100
AcDbEntity
  8
0
100
AcDbLine
 10
276.3731042825357
 20
227.7827051186995
 30
0.0
 11
274.0152399062667
 21
230.1405694949684
 31
0.0
  0
LINE
  5
1C6E8
330
1F
100
AcDbEntity
  8
0
100
AcDbLine
 10
282.0299585320283
 20
227.7827051186995
 30
0.0
 11
274.0152399062667
 21
235.7974237444608
 31
0.0
  0
LINE
  5
1C6E9
330
1F
100
AcDbEntity
  8
0
100
AcDbLine
 10
279.2015314072819
 20
227.7827051186995
 30
0.0
 11
274.0152399062667
 21
232.9689966197146
 31
0.0
  0
LINE
  5
1C6EA
330
1F
100
AcDbEntity
  8
0
100
AcDbLine
 10
283.0152399062667
 20
232.4542779939535
 30
0.0
 11
278.3436670310127
 21
227.7827051186997
 31
0.0
  0
LINE
  5
1C6EB
330
1F
100
AcDbEntity
  8
0
100
AcDbLine
 10
283.0152399062667
 20
229.6258508692073
 30
0.0
 11
281.1720941557589
 21
227.7827051186997
 31
0.0
  0
LINE
  5
1C6EC
330
1F
100
AcDbEntity
  8
0
100
AcDbLine
 10
283.0152399062667
 20
235.2827051186997
 30
0.0
 11
275.5152399062668
 21
227.7827051186997
 31
0.0
  0
LINE
  5
1C6ED
330
1F
100
AcDbEntity
  8
0
100
AcDbLine
 10
284.0152399062668
 20
295.6711910494438
 30
0.0
 11
251.8452399062671
 21
263.5011910494436
 31
0.0
  0
LINE
  5
1C6EE
330
1F
100
AcDbEntity
  8
0
100
AcDbLine
 10
284.0152399062668
 20
298.4911910494435
 30
0.0
 11
251.8452399062671
 21
266.3211910494435
 31
0.0
  0
LINE
  5
1C6EF
330
1F
100
AcDbEntity
  8
0
100
AcDbLine
 10
284.0152399062668
 20
301.3111910494437
 30
0.0
 11
251.8452399062671
 21
269.1411910494435
 31
0.0
  0
INSERT
  5
1C6F0
330
1F
100
AcDbEntity
  8
AM_0
100
AcDbBlockReference
  2
B3A780B
 10
299.515138393189
 20
206.7826391183295
 30
0.0
  0
LINE
  5
1C6F1
330
1F
100
AcDbEntity
  8
AM_2
100
AcDbLine
 10
427.5152399062668
 20
177.2827051186946
 30
0.0
 11
331.281214274473
 21
177.2827051186951
 31
0.0
  0
LINE
  5
1C6F2
330
1F
100
AcDbEntity
  8
AM_2
100
AcDbLine
 10
274.0152399062591
 20
227.7827051186995
 30
0.0
 11
300.0152399062667
 21
227.7827051186995
 31
0.0
  0
LINE
  5
1C6F3
330
1F
100
AcDbEntity
  8
AM_2
100
AcDbLine
 10
274.0152399062591
 20
157.7827051187006
 30
0.0
 11
427.5152399062668
 21
157.7827051187004
 31
0.0
  0
LINE
  5
1C6F4
330
1F
100
AcDbEntity
  8
AM_2
100
AcDbLine
 10
427.5152399062668
 20
179.4827051186896
 30
0.0
 11
350.5152239466994
 21
179.4827051186896
 31
0.0
  0
LINE
  5
1C6F5
330
1F
100
AcDbEntity
  8
AM_2
100
AcDbLine
 10
350.1942913024046
 20
182.2827051186921
 30
0.0
 11
427.5152399062668
 21
182.2827051186921
 31
0.0
  0
LINE
  5
1C6F6
330
1F
100
AcDbEntity
  8
AM_2
100
AcDbLine
 10
427.5152399062668
 20
218.2827051186994
 30
0.0
 11
348.6547537285293
 21
218.2827051186994
 31
0.0
  0
LINE
  5
1C6F7
330
1F
100
AcDbEntity
  8
AM_2
100
AcDbLine
 10
350.5152399062591
 20
221.782705118695
 30
0.0
 11
427.5152399062668
 21
221.782705118695
 31
0.0
  0
LINE
  5
1C6F8
330
1F
100
AcDbEntity
  8
AM_2
100
AcDbLine
 10
427.5152399062668
 20
159.5827051187004
 30
0.0
 11
299.0152399062591
 21
159.5827051187004
 31
0.0
  0
LINE
  5
1C6F9
330
1F
100
AcDbEntity
  8
AM_2
100
AcDbLine
 10
427.5152399062669
 20
167.6827051186991
 30
0.0
 11
359.0152399062591
 21
167.6827051186991
 31
0.0
  0
LINE
  5
1C6FA
330
1F
100
AcDbEntity
  8
AM_2
100
AcDbLine
 10
336.015239906316
 20
192.9827051186969
 30
0.0
 11
427.5152399062668
 21
192.9827051186969
 31
0.0
  0
LINE
  5
1C6FB
330
1F
100
AcDbEntity
  8
AM_2
100
AcDbLine
 10
427.5152399062669
 20
206.5827051186969
 30
0.0
 11
336.015239906316
 21
206.5827051186969
 31
0.0
  0
LINE
  5
1C6FC
330
1F
100
AcDbEntity
  8
AM_2
100
AcDbLine
 10
427.5152399062668
 20
189.5827051186969
 30
0.0
 11
336.015239906316
 21
189.5827051186969
 31
0.0
  0
LINE
  5
1C6FD
330
1F
100
AcDbEntity
  8
AM_0
100
AcDbLine
 10
336.015239906316
 20
193.782705118697
 30
0.0
 11
427.5152399062668
 21
193.782705118697
 31
0.0
  0
LINE
  5
1C6FE
330
1F
100
AcDbEntity
  8
AM_0
100
AcDbLine
 10
427.5152399062668
 20
188.782705118697
 30
0.0
 11
336.015239906316
 21
188.782705118697
 31
0.0
  0
LINE
  5
1C6FF
330
1F
100
AcDbEntity
  8
AM_0
100
AcDbLine
 10
427.5152399062669
 20
205.782705118697
 30
0.0
 11
336.015239906316
 21
205.782705118697
 31
0.0
  0
LINE
  5
1C700
330
1F
100
AcDbEntity
  8
AM_0
100
AcDbLine
 10
336.015239906316
 20
211.782705118697
 30
0.0
 11
427.5152399062669
 21
211.782705118697
 31
0.0
  0
LINE
  5
1C701
330
1F
100
AcDbEntity
  8
AM_2
100
AcDbLine
 10
336.015239906316
 20
210.9827051186969
 30
0.0
 11
427.5152399062669
 21
210.9827051186969
 31
0.0
  0
LINE
  5
1C702
330
1F
100
AcDbEntity
  8
AM_2
100
AcDbLine
 10
329.0152399062591
 20
168.4827051187004
 30
0.0
 11
329.0152399062591
 21
177.2827051186949
 31
0.0
  0
INSERT
  5
1C703
330
1F
100
AcDbEntity
  8
AM_2
100
AcDbBlockReference
  2
A$C2DAD0FDB
 10
328.5152399062591
 20
168.4827051187004
 30
0.0
 41
-1.0
  0
LINE
  5
1C704
330
1F
100
AcDbEntity
  8
AM_11
100
AcDbLine
 10
329.0152399062591
 20
170.1327051186991
 30
0.0
 11
328.5152399062591
 21
170.1327051186991
 31
0.0
  0
LINE
  5
1C705
330
1F
100
AcDbEntity
  8
AM_11
100
AcDbLine
 10
299.5152399062591
 20
170.1327051186991
 30
0.0
 11
299.0152399062591
 21
170.1327051186991
 31
0.0
  0
INSERT
  5
1C706
330
1F
100
AcDbEntity
  8
AM_0
100
AcDbBlockReference
  2
A$C0AB071A4
 10
303.7152399062592
 20
177.1827051187
 30
0.0
 50
180.0
  0
INSERT
  5
1C707
330
1F
100
AcDbEntity
  8
AM_2
100
AcDbBlockReference
  2
AJ1430
 10
327.0152399062591
 20
179.2827051186953
 30
0.0
  0
INSERT
  5
1C708
330
1F
100
AcDbEntity
  8
AM_11
100
AcDbBlockReference
  2
B3A735
 10
317.3152399062593
 20
220.3827051187021
 30
0.0
  0
LINE
  5
1C709
330
1F
100
AcDbEntity
  8
AM_2
100
AcDbLine
 10
342.015239906316
 20
193.782705118697
 30
0.0
 11
336.015239906316
 21
205.782705118697
 31
0.0
  0
LINE
  5
1C70A
330
1F
100
AcDbEntity
  8
AM_2
100
AcDbLine
 10
342.015239906316
 20
205.782705118697
 30
0.0
 11
336.015239906316
 21
193.782705118697
 31
0.0
  0
LINE
  5
1C70B
330
1F
100
AcDbEntity
  8
AM_0
100
AcDbLine
 10
342.015239906316
 20
193.782705118697
 30
0.0
 11
342.015239906316
 21
205.782705118697
 31
0.0
  0
LINE
  5
1C70C
330
1F
100
AcDbEntity
  8
AM_0
100
AcDbLine
 10
336.015239906316
 20
188.782705118697
 30
0.0
 11
336.015239906316
 21
211.782705118697
 31
0.0
  0
INSERT
  5
1C70D
330
1F
100
AcDbEntity
  8
AM_2
100
AcDbBlockReference
  2
AJ1412
 10
345.5152399062773
 20
181.4327051186973
 30
0.0
  0
LINE
  5
1C70E
330
1F
100
AcDbEntity
  8
AM_11
100
AcDbLine
 10
329.0152399062591
 20
175.4327051186991
 30
0.0
 11
328.5152399062591
 21
175.4327051186991
 31
0.0
  0
INSERT
  5
1C70F
330
1F
100
AcDbEntity
  8
BLOCK
100
AcDbBlockReference
  2
ラッチネジ
 10
324.0152399062591
 20
195.7827007552865
 30
0.0
 50
270.0
  0
INSERT
  5
1C710
330
1F
100
AcDbEntity
  8
BLOCK
100
AcDbBlockReference
  2
D008M_______________01
 10
301.5151383931892
 20
200.7826361034361
 30
0.0
 50
180.0
  0
INSERT
  5
1C711
330
1F
100
AcDbEntity
  8
BLOCK
100
AcDbBlockReference
  2
B3A782
 10
297.3652399062586
 20
200.7826384264473
 30
0.0
  0
INSERT
  5
1C712
330
1F
100
AcDbEntity
  8
BLOCK
100
AcDbBlockReference
  2
BP3094
 10
297.3652399062588
 20
200.7826384264473
 30
0.0
  0
INSERT
  5
1C713
330
1F
100
AcDbEntity
  8
BLOCK
100
AcDbBlockReference
  2
BP3094
 10
297.3652399062586
 20
200.7826384264473
 30
0.0
  0
INSERT
  5
1C714
330
1F
100
AcDbEntity
  8
BLOCK
100
AcDbBlockReference
  2
D008M_______________01A
 10
299.515138393189
 20
200.7826361034361
 30
0.0
 41
-1.0
  0
INSERT
  5
1C715
330
1F
100
AcDbEntity
  8
AM_0
100
AcDbBlockReference
  2
B3A777潰れ
 10
310.5152399062587
 20
184.5827051187357
 30
0.0
 41
-1.0
 50
270.0
  0
LINE
  5
1C716
330
1F
100
AcDbEntity
  8
AM_11
100
AcDbLine
 10
299.5152399062591
 20
175.4327051186991
 30
0.0
 11
299.0152399062591
 21
175.4327051186991
 31
0.0
  0
INSERT
  5
1C717
330
1F
100
AcDbEntity
  8
AM_0
100
AcDbBlockReference
  2
A$C7F303707
 10
274.0152400293115
 20
137.7827050772472
 30
0.0
  0
LINE
  5
1C718
330
1F
100
AcDbEntity
  8
003
100
AcDbLine
 10
328.0152399062667
 20
285.2827051187007
 30
0.0
 11
427.5152399062669
 21
285.282705118701
 31
0.0
  0
LINE
  5
1C719
330
1F
100
AcDbEntity
  8
003
100
AcDbLine
 10
328.0152399062667
 20
253.2826746187009
 30
0.0
 11
427.5152399062669
 21
253.2826746187009
 31
0.0
  0
LINE
  5
1C71A
330
1F
100
AcDbEntity
  8
003
100
AcDbLine
 10
427.5152399062669
 20
248.7827051187012
 30
0.0
 11
345.4152399062668
 21
248.7827051187012
 31
0.0
  0
LINE
  5
1C71B
330
1F
100
AcDbEntity
  8
003
100
AcDbLine
 10
427.5152399062669
 20
247.5827051186996
 30
0.0
 11
345.4152399062668
 21
247.5827051187009
 31
0.0
  0
LINE
  5
1C71C
330
1F
100
AcDbEntity
  8
007
100
AcDbLine
 10
378.6149579062667
 20
250.4827184050161
 30
0.0
 11
356.3149579062665
 21
250.4827184050161
 31
0.0
  0
LINE
  5
1C71D
330
1F
100
AcDbEntity
  8
007
100
AcDbLine
 10
378.1149579062667
 20
251.9827184050162
 30
0.0
 11
356.8149579062665
 21
251.9827184050162
 31
0.0
  0
LINE
  5
1C71E
330
1F
100
AcDbEntity
  8
007
100
AcDbLine
 10
378.1149579062667
 20
247.4827184050162
 30
0.0
 11
356.8149579062665
 21
247.4827184050162
 31
0.0
  0
LINE
  5
1C71F
330
1F
100
AcDbEntity
  8
007
100
AcDbLine
 10
379.6149579062667
 20
247.1827184050164
 30
0.0
 11
351.3149579062665
 21
247.1827184050164
 31
0.0
  0
LINE
  5
1C720
330
1F
100
AcDbEntity
  8
007
100
AcDbLine
 10
379.6149579062667
 20
237.1827184050165
 30
0.0
 11
354.3149579062665
 21
237.1827184050165
 31
0.0
  0
LINE
  5
1C721
330
1F
100
AcDbEntity
  8
003
100
AcDbLine
 10
330.0152399062667
 20
289.2827051187008
 30
0.0
 11
427.5152399062669
 21
289.2827051187008
 31
0.0
  0
LINE
  5
1C722
330
1F
100
AcDbEntity
  8
003
100
AcDbLine
 10
330.0152399062667
 20
288.0827051187009
 30
0.0
 11
427.5152399062669
 21
288.0827051187009
 31
0.0
  0
LINE
  5
1C723
330
1F
100
AcDbEntity
  8
003
100
AcDbLine
 10
324.6152399062666
 20
273.0827051187009
 30
0.0
 11
324.6152399062666
 21
279.2827051187007
 31
0.0
  0
LINE
  5
1C724
330
1F
100
AcDbEntity
  8
003
100
AcDbLine
 10
328.0152399062667
 20
253.2826746187009
 30
0.0
 11
328.0152399062667
 21
285.2827051187007
 31
0.0
  0
LINE
  5
1C725
330
1F
100
AcDbEntity
  8
003
100
AcDbLine
 10
330.0152399062667
 20
253.2826746187009
 30
0.0
 11
330.0152399062667
 21
285.2827051187007
 31
0.0
  0
LINE
  5
1C726
330
1F
100
AcDbEntity
  8
003
100
AcDbLine
 10
327.0152399062667
 20
250.482705118701
 30
0.0
 11
327.0152399062667
 21
274.2827051187007
 31
0.0
  0
LINE
  5
1C727
330
1F
100
AcDbEntity
  8
003
100
AcDbLine
 10
319.1152399062671
 20
274.2827051187007
 30
0.0
 11
319.1152399062671
 21
254.2827051187012
 31
0.0
  0
LINE
  5
1C728
330
1F
100
AcDbEntity
  8
003
100
AcDbLine
 10
324.1152399062671
 20
274.2827051187007
 30
0.0
 11
324.1152399062671
 21
254.2827051187012
 31
0.0
  0
LINE
  5
1C729
330
1F
100
AcDbEntity
  8
003
100
AcDbLine
 10
301.215239906267
 20
255.7988411471267
 30
0.0
 11
301.215239906267
 21
279.2827051187007
 31
0.0
  0
LINE
  5
1C72A
330
1F
100
AcDbEntity
  8
003
100
AcDbLine
 10
300.0152399062667
 20
224.2827051187007
 30
0.0
 11
300.0152399062667
 21
279.2827051187007
 31
0.0
  0
LINE
  5
1C72B
330
1F
100
AcDbEntity
  8
003
100
AcDbLine
 10
301.215239906267
 20
224.2827051187012
 30
0.0
 11
301.215239906267
 21
247.5827051187009
 31
0.0
  0
LINE
  5
1C72C
330
1F
100
AcDbEntity
  8
003
100
AcDbLine
 10
344.215239906267
 20
249.2827051187007
 30
0.0
 11
308.3152399062669
 21
249.2827051187007
 31
0.0
  0
LINE
  5
1C72D
330
1F
100
AcDbEntity
  8
003
100
AcDbLine
 10
353.215239906267
 20
250.482705118701
 30
0.0
 11
327.0152399062667
 21
250.482705118701
 31
0.0
  0
LINE
  5
1C72E
330
1F
100
AcDbEntity
  8
003
100
AcDbLine
 10
313.0152399062668
 20
250.482705118701
 30
0.0
 11
313.0152399062668
 21
251.6827051187008
 31
0.0
  0
LINE
  5
1C72F
330
1F
100
AcDbEntity
  8
003
100
AcDbLine
 10
325.8152399062669
 20
250.482705118701
 30
0.0
 11
325.8152399062669
 21
273.0827051187009
 31
0.0
  0
LINE
  5
1C730
330
1F
100
AcDbEntity
  8
006
100
AcDbLine
 10
303.5152399062667
 20
249.8727051187009
 30
0.0
 11
303.5152399062667
 21
257.8727051187009
 31
0.0
  0
LINE
  5
1C731
330
1F
100
AcDbEntity
  8
003
100
AcDbLine
 10
313.0152399062668
 20
250.482705118701
 30
0.0
 11
308.3152399062669
 21
250.482705118701
 31
0.0
  0
LINE
  5
1C732
330
1F
100
AcDbEntity
  8
003
100
AcDbLine
 10
325.7952399062669
 20
250.482705118701
 30
0.0
 11
301.215239906267
 21
250.482705118701
 31
0.0
  0
LINE
  5
1C733
330
1F
100
AcDbEntity
  8
003
100
AcDbLine
 10
304.215239906267
 20
248.7827051187012
 30
0.0
 11
301.215239906267
 21
248.7827051187012
 31
0.0
  0
LINE
  5
1C734
330
1F
100
AcDbEntity
  8
003
100
AcDbLine
 10
307.715239906267
 20
250.482705118701
 30
0.0
 11
301.215239906267
 21
250.482705118701
 31
0.0
  0
LINE
  5
1C735
330
1F
100
AcDbEntity
  8
003
100
AcDbLine
 10
307.715239906267
 20
249.2827051187007
 30
0.0
 11
301.215239906267
 21
249.2827051187007
 31
0.0
  0
LINE
  5
1C736
330
1F
100
AcDbEntity
  8
003
100
AcDbLine
 10
304.215239906267
 20
247.5827051187009
 30
0.0
 11
301.215239906267
 21
247.5827051187009
 31
0.0
  0
LINE
  5
1C737
330
1F
100
AcDbEntity
  8
003
100
AcDbLine
 10
301.215239906267
 20
248.7827051187012
 30
0.0
 11
301.215239906267
 21
250.482705118701
 31
0.0
  0
LINE
  5
1C738
330
1F
100
AcDbEntity
  8
003
100
AcDbLine
 10
301.215239906267
 20
249.2827051187007
 30
0.0
 11
301.215239906267
 21
250.482705118701
 31
0.0
  0
ARC
  5
1C739
330
1F
100
AcDbEntity
  8
003
100
AcDbCircle
 10
308.0152399062667
 20
250.482705118701
 30
0.0
 40
0.3000000000000682
100
AcDbArc
 50
0.0000000000260551
 51
179.9999999999739
  0
ARC
  5
1C73A
330
1F
100
AcDbEntity
  8
003
100
AcDbCircle
 10
308.0152399062667
 20
249.2827051187012
 30
0.0
 40
0.2999999999999829
100
AcDbArc
 50
0.0
 51
180.0
  0
LINE
  5
1C73B
330
1F
100
AcDbEntity
  8
003
100
AcDbLine
 10
304.215239906267
 20
247.5827051187009
 30
0.0
 11
304.215239906267
 21
249.2827051187007
 31
0.0
  0
LINE
  5
1C73C
330
1F
100
AcDbEntity
  8
003
100
AcDbLine
 10
313.0152399062668
 20
251.6827051187008
 30
0.0
 11
305.5655813412477
 21
251.6827051187008
 31
0.0
  0
ARC
  5
1C73D
330
1F
100
AcDbEntity
  8
003
100
AcDbCircle
 10
303.5152399062667
 20
253.8727051187013
 30
0.0
 40
1.8
100
AcDbArc
 50
29.98163936884825
 51
330.1585454638189
  0
ARC
  5
1C73E
330
1F
100
AcDbEntity
  8
003
100
AcDbCircle
 10
303.5152399062667
 20
253.8727051187013
 30
0.0
 40
3.0
100
AcDbArc
 50
29.98163936884825
 51
140.0554948101842
  0
LINE
  5
1C73F
330
1F
100
AcDbEntity
  8
003
100
AcDbLine
 10
306.1137966644128
 20
255.3718724791699
 30
0.0
 11
305.0743739611557
 21
254.7722055349829
 31
0.0
  0
ARC
  5
1C740
330
1F
100
AcDbEntity
  8
003
100
AcDbCircle
 10
303.5152399062667
 20
253.8727051187013
 30
0.0
 40
3.0
100
AcDbArc
 50
313.1136059458942
 51
330.018477256839
  0
LINE
  5
1C741
330
1F
100
AcDbEntity
  8
003
100
AcDbLine
 10
306.1137997159658
 20
252.3735430476033
 30
0.0
 11
305.0765700881357
 21
252.9770221037954
 31
0.0
  0
LINE
  5
1C742
330
1F
100
AcDbEntity
  8
006
100
AcDbLine
 10
307.5152399062667
 20
253.8727051187009
 30
0.0
 11
299.5152399062667
 21
253.8727051187009
 31
0.0
  0
LINE
  5
1C743
330
1F
100
AcDbEntity
  8
003
100
AcDbLine
 10
325.8152399062669
 20
272.7827051187007
 30
0.0
 11
324.1152399062671
 21
272.7827051187007
 31
0.0
  0
LINE
  5
1C744
330
1F
100
AcDbEntity
  8
003
100
AcDbLine
 10
325.8152399062669
 20
273.0827051187009
 30
0.0
 11
324.6152399062666
 21
273.0827051187009
 31
0.0
  0
LINE
  5
1C745
330
1F
100
AcDbEntity
  8
003
100
AcDbLine
 10
324.1152399062671
 20
254.2827051187012
 30
0.0
 11
319.1152399062671
 21
254.2827051187012
 31
0.0
  0
LINE
  5
1C746
330
1F
100
AcDbEntity
  8
003
100
AcDbLine
 10
325.8152399062669
 20
265.7827051187012
 30
0.0
 11
324.1152399062671
 21
265.7827051187012
 31
0.0
  0
LINE
  5
1C747
330
1F
100
AcDbEntity
  8
007
100
AcDbLine
 10
356.3149579062665
 20
251.4827184050162
 30
0.0
 11
356.3149579062665
 21
247.9827184050162
 31
0.0
  0
LINE
  5
1C748
330
1F
100
AcDbEntity
  8
003
100
AcDbLine
 10
345.4152399062668
 20
244.2827051187007
 30
0.0
 11
344.215239906267
 21
244.2827051187007
 31
0.0
  0
LINE
  5
1C749
330
1F
100
AcDbEntity
  8
003
100
AcDbLine
 10
344.215239906267
 20
244.2827051187007
 30
0.0
 11
344.215239906267
 21
249.2827051187007
 31
0.0
  0
ARC
  5
1C74A
330
1F
100
AcDbEntity
  8
007
100
AcDbCircle
 10
356.8149579062665
 20
247.9827184050162
 30
0.0
 40
0.5
100
AcDbArc
 50
180.0
 51
270.0
  0
LINE
  5
1C74B
330
1F
100
AcDbEntity
  8
003
100
AcDbLine
 10
353.215239906267
 20
249.2827051187007
 30
0.0
 11
353.215239906267
 21
250.482705118701
 31
0.0
  0
LINE
  5
1C74C
330
1F
100
AcDbEntity
  8
003
100
AcDbLine
 10
353.215239906267
 20
249.2827051187007
 30
0.0
 11
345.4152399062668
 21
249.2827051187007
 31
0.0
  0
LINE
  5
1C74D
330
1F
100
AcDbEntity
  8
007
100
AcDbLine
 10
351.3149579062665
 20
247.1827184050164
 30
0.0
 11
351.3149579062665
 21
240.1827184050164
 31
0.0
  0
ARC
  5
1C74E
330
1F
100
AcDbEntity
  8
007
100
AcDbCircle
 10
354.3149579062665
 20
240.1827184050164
 30
0.0
 40
3.0
100
AcDbArc
 50
180.0
 51
270.0
  0
LINE
  5
1C74F
330
1F
100
AcDbEntity
  8
003
100
AcDbLine
 10
345.4152399062668
 20
244.2827051187007
 30
0.0
 11
345.4152399062668
 21
249.2827051187007
 31
0.0
  0
ARC
  5
1C750
330
1F
100
AcDbEntity
  8
007
100
AcDbCircle
 10
356.8149579062665
 20
251.4827184050162
 30
0.0
 40
0.5
100
AcDbArc
 50
90.0
 51
180.0
  0
LINE
  5
1C751
330
1F
100
AcDbEntity
  8
003
100
AcDbLine
 10
330.0152399062667
 20
288.0827051187009
 30
0.0
 11
327.0152399062667
 21
288.0827051187009
 31
0.0
  0
LINE
  5
1C752
330
1F
100
AcDbEntity
  8
003
100
AcDbLine
 10
330.0152399062667
 20
289.2827051187008
 30
0.0
 11
310.0152399062667
 21
289.2827051187008
 31
0.0
  0
LINE
  5
1C753
330
1F
100
AcDbEntity
  8
003
100
AcDbLine
 10
321.5891038778409
 20
288.0827051187009
 30
0.0
 11
310.0152399062667
 21
288.0827051187009
 31
0.0
  0
ARC
  5
1C754
330
1F
100
AcDbEntity
  8
003
100
AcDbCircle
 10
310.0152399062667
 20
279.2827051187007
 30
0.0
 40
8.8
100
AcDbArc
 50
90.0
 51
180.0
  0
ARC
  5
1C755
330
1F
100
AcDbEntity
  8
003
100
AcDbCircle
 10
310.0152399062667
 20
279.2827051187007
 30
0.0
 40
10.0
100
AcDbArc
 50
90.0
 51
180.0
  0
LINE
  5
1C756
330
1F
100
AcDbEntity
  8
003
100
AcDbLine
 10
325.8152399062669
 20
274.2827051187007
 30
0.0
 11
325.8152399062669
 21
279.2827051187007
 31
0.0
  0
LINE
  5
1C757
330
1F
100
AcDbEntity
  8
003
100
AcDbLine
 10
325.8152399062669
 20
274.2827051187007
 30
0.0
 11
325.8152399062669
 21
279.2827051187007
 31
0.0
  0
LINE
  5
1C758
330
1F
100
AcDbEntity
  8
003
100
AcDbLine
 10
327.0152399062667
 20
274.2827051187007
 30
0.0
 11
325.8152399062669
 21
274.2827051187007
 31
0.0
  0
LINE
  5
1C759
330
1F
100
AcDbEntity
  8
003
100
AcDbLine
 10
327.0152399062667
 20
274.2827051187007
 30
0.0
 11
325.8152399062669
 21
274.2827051187007
 31
0.0
  0
LINE
  5
1C75A
330
1F
100
AcDbEntity
  8
003
100
AcDbLine
 10
327.0152399062667
 20
274.2827051187007
 30
0.0
 11
327.0152399062667
 21
288.0827051187009
 31
0.0
  0
LINE
  5
1C75B
330
1F
100
AcDbEntity
  8
003
100
AcDbLine
 10
322.7378483100806
 20
282.885178189373
 30
0.0
 11
323.0445562806294
 21
284.0453344257969
 31
0.0
  0
ARC
  5
1C75C
330
1F
100
AcDbEntity
  8
003
100
AcDbCircle
 10
323.5152399062668
 20
285.7827051187007
 30
0.0
 40
3.0
100
AcDbArc
 50
254.9815227431633
 51
266.1774462707292
  0
ARC
  5
1C75D
330
1F
100
AcDbEntity
  8
003
100
AcDbCircle
 10
323.5152399062668
 20
285.7827051187007
 30
0.0
 40
3.0
100
AcDbArc
 50
129.9445051898157
 51
195.0183606311533
  0
LINE
  5
1C75E
330
1F
100
AcDbEntity
  8
003
100
AcDbLine
 10
320.6177113945628
 20
285.005319420439
 30
0.0
 11
321.7767227992431
 21
285.3162736997431
 31
0.0
  0
LINE
  5
1C75F
330
1F
100
AcDbEntity
  8
003
100
AcDbLine
 10
322.9152399062668
 20
276.2827051187007
 30
0.0
 11
322.9152399062668
 21
280.4827051187006
 31
0.0
  0
LINE
  5
1C760
330
1F
100
AcDbEntity
  8
003
100
AcDbLine
 10
323.3152399062669
 20
280.4827051187006
 30
0.0
 11
322.9152399062668
 21
280.4827051187006
 31
0.0
  0
LINE
  5
1C761
330
1F
100
AcDbEntity
  8
003
100
AcDbLine
 10
324.1152399062671
 20
276.2827051187007
 30
0.0
 11
324.1152399062671
 21
279.2827051187007
 31
0.0
  0
LINE
  5
1C762
330
1F
100
AcDbEntity
  8
003
100
AcDbLine
 10
324.1152399062671
 20
276.2827051187007
 30
0.0
 11
322.9152399062668
 21
276.2827051187007
 31
0.0
  0
LINE
  5
1C763
330
1F
100
AcDbEntity
  8
003
100
AcDbLine
 10
324.1152399062671
 20
274.2827051187007
 30
0.0
 11
319.1152399062671
 21
274.2827051187007
 31
0.0
  0
LINE
  5
1C764
330
1F
100
AcDbEntity
  8
003
100
AcDbLine
 10
323.3152399062669
 20
280.4827051187006
 30
0.0
 11
323.3152399062669
 21
282.7893792092816
 31
0.0
  0
LINE
  5
1C765
330
1F
100
AcDbEntity
  8
006
100
AcDbLine
 10
320.686812781521
 20
282.9542779939545
 30
0.0
 11
326.343667031013
 21
288.6111322434469
 31
0.0
  0
LINE
  5
1C766
330
1F
100
AcDbEntity
  8
006
100
AcDbLine
 10
326.343667031013
 20
282.9542779939545
 30
0.0
 11
320.686812781521
 21
288.6111322434469
 31
0.0
  0
LINE
  5
1C767
330
1F
100
AcDbEntity
  8
003
100
AcDbLine
 10
325.8152399062669
 20
279.2827051187007
 30
0.0
 11
324.1152399062671
 21
279.2827051187007
 31
0.0
  0
LINE
  5
1C768
330
1F
100
AcDbEntity
  8
003
100
AcDbLine
 10
325.8152399062669
 20
279.2827051187007
 30
0.0
 11
324.6152399062666
 21
279.2827051187007
 31
0.0
  0
ARC
  5
1C769
330
1F
100
AcDbEntity
  8
003
100
AcDbCircle
 10
323.5152399062668
 20
285.7827051187007
 30
0.0
 40
1.8
100
AcDbArc
 50
254.8414545361739
 51
195.0183606311533
  0
LINE
  5
1C76A
330
1F
100
AcDbEntity
  8
003
100
AcDbLine
 10
330.0152399062667
 20
288.0827051187009
 30
0.0
 11
330.0152399062667
 21
289.2827051187008
 31
0.0
  0
LINE
  5
1C76B
330
1F
100
AcDbEntity
  8
007
100
AcDbLine
 10
427.5152399062669
 20
237.6827184050164
 30
0.0
 11
379.6149579062667
 21
237.6827184050164
 31
0.0
  0
LINE
  5
1C76C
330
1F
100
AcDbEntity
  8
007
100
AcDbLine
 10
379.6149579062667
 20
250.4826184050164
 30
0.0
 11
427.5152399062669
 21
250.4826184050164
 31
0.0
  0
LINE
  5
1C76D
330
1F
100
AcDbEntity
  8
007
100
AcDbLine
 10
379.6149579062667
 20
251.3827184050163
 30
0.0
 11
427.5152399062669
 21
251.3827184050163
 31
0.0
  0
LINE
  5
1C76E
330
1F
100
AcDbEntity
  8
007
100
AcDbLine
 10
379.6149579062667
 20
247.1827184050164
 30
0.0
 11
427.5152399062669
 21
247.1827184050164
 31
0.0
  0
LINE
  5
1C76F
330
1F
100
AcDbEntity
  8
007
100
AcDbLine
 10
378.6149579062667
 20
251.4827184050162
 30
0.0
 11
378.6149579062667
 21
247.9827184050162
 31
0.0
  0
LINE
  5
1C770
330
1F
100
AcDbEntity
  8
007
100
AcDbLine
 10
379.6149579062667
 20
251.3827184050163
 30
0.0
 11
379.6149579062667
 21
237.1827184050165
 31
0.0
  0
LINE
  5
1C771
330
1F
100
AcDbEntity
  8
007
100
AcDbLine
 10
379.6149579062667
 20
248.3827184050162
 30
0.0
 11
378.6149579062667
 21
248.3827184050162
 31
0.0
  0
ARC
  5
1C772
330
1F
100
AcDbEntity
  8
007
100
AcDbCircle
 10
378.1149579062667
 20
247.9827184050162
 30
0.0
 40
0.5
100
AcDbArc
 50
270.0
 51
0.0
  0
ARC
  5
1C773
330
1F
100
AcDbEntity
  8
007
100
AcDbCircle
 10
378.1149579062667
 20
251.4827184050162
 30
0.0
 40
0.5
100
AcDbArc
 50
0.0
 51
90.0
  0
DIMENSION
  5
1C774
330
1F
100
AcDbEntity
  8
003
100
AcDbDimension
  2
*D37
 10
299.0152399062667
 20
337.081124983564
 30
0.0
 11
299.5152399062667
 21
337.081124983564
 31
0.0
 70
   160
 71
     5
  3
DIM
100
AcDbAlignedDimension
 13
300.0152399062667
 23
279.2827051187007
 33
0.0
 14
299.0152399062667
 24
227.2827051186996
 34
0.0
100
AcDbRotatedDimension
1001
ACAD
1000
DSTYLE
1002
{
1070
    49
1040
2.0
1070
    50
1040
1.570796326794894
1002
}
  0
DIMENSION
  5
1C775
330
1F
100
AcDbEntity
  8
003
100
AcDbDimension
  2
*D38
 10
330.0152399062667
 20
323.081124983564
 30
0.0
 11
315.0152399062668
 21
328.081124983564
 31
0.0
 70
    32
 71
     5
 42
30.0
  3
DIM
100
AcDbAlignedDimension
 13
300.0152399062667
 23
279.2827051187007
 33
0.0
 14
330.0152399062667
 24
289.2827051187008
 34
0.0
100
AcDbRotatedDimension
1001
ACAD
1000
DSTYLE
1002
{
1070
    49
1040
2.0
1070
    50
1040
1.570796326794894
1002
}
  0
DIMENSION
  5
1C776
330
1F
100
AcDbEntity
  8
003
100
AcDbDimension
  2
*D39
 10
565.015239906266
 20
337.081124983564
 30
0.0
 11
432.0152399062664
 21
342.081124983564
 31
0.0
 70
    32
  1
製品W=SW-2
 71
     5
 42
265.9999999999993
  3
DIM
100
AcDbAlignedDimension
 13
299.0152399062668
 23
227.2827051186996
 33
0.0
 14
565.015239906266
 24
279.2826943874457
 34
0.0
100
AcDbRotatedDimension
1001
ACAD
1000
DSTYLE
1002
{
1070
    49
1040
2.0
1070
    50
1040
1.570796326794894
1002
}
  0
DIMENSION
  5
1C777
330
1F
100
AcDbEntity
  8
003
100
AcDbDimension
  2
*D40
 10
566.015239906266
 20
337.081124983564
 30
0.0
 11
565.515239906266
 21
337.081124983564
 31
0.0
 70
   160
 71
     5
  3
DIM
100
AcDbAlignedDimension
 13
565.015239906266
 23
279.2827051187007
 33
0.0
 14
566.015239906266
 24
227.2827051186996
 34
0.0
 50
180.0
100
AcDbRotatedDimension
1001
ACAD
1000
DSTYLE
1002
{
1070
    49
1040
2.0
1070
    50
1040
1.570796326794894
1002
}
  0
DIMENSION
  5
1C778
330
1F
100
AcDbEntity
  8
003
100
AcDbDimension
  2
*D41
 10
535.015239906266
 20
323.081124983564
 30
0.0
 11
550.0152399062661
 21
328.081124983564
 31
0.0
 70
    32
 71
     5
 42
30.0
  3
DIM
100
AcDbAlignedDimension
 13
565.015239906266
 23
279.2827051187007
 33
0.0
 14
535.015239906266
 24
289.2827051187008
 34
0.0
 50
180.0
100
AcDbRotatedDimension
1001
ACAD
1000
DSTYLE
1002
{
1070
    49
1040
2.0
1070
    50
1040
1.570796326794894
1002
}
  0
LINE
  5
1C779
330
1F
100
AcDbEntity
  8
003
100
AcDbLine
 10
300.0152399062667
 20
224.2827051187004
 30
0.0
 11
427.5152399062664
 21
224.2827051187004
 31
0.0
  0
LINE
  5
1C77A
330
1F
100
AcDbEntity
  8
003
100
AcDbLine
 10
565.015239906266
 20
224.2826943874456
 30
0.0
 11
437.5152399062668
 21
224.2826943874456
 31
0.0
  0
TEXT
  5
1C77B
330
1F
100
AcDbEntity
  8
0
100
AcDbText
 10
93.40000000000012
 20
537.0
 30
0.0
 40
6.0
  1
みらんちゃん固定型
  7
AT_VECTOR
 72
     1
 11
125.0000000000001
 21
540.0
 31
0.0
100
AcDbText
 73
     2
  0
TEXT
  5
1C77C
330
1F
100
AcDbEntity
  8
0
100
AcDbText
 10
93.2000000000001
 20
549.0
 30
0.0
 40
6.0
  1
内倒し窓専用面格子
  7
AT_VECTOR
 72
     1
 11
125.0000000000001
 21
552.0
 31
0.0
100
AcDbText
 73
     2
  0
LEADER
  5
1C77D
330
1F
100
AcDbEntity
  8
003
100
AcDbLeader
  3
DIM
 73
     0
 74
     0
 40
6.000000000000001
 41
20.4
 76
     3
 10
387.0446671193825
 20
260.139403217257
 30
0.0
 10
391.3142371672166
 20
267.5345154665797
 30
0.0
 10
392.5998977978318
 20
267.5345154665797
 30
0.0
340
1C77E
1001
ACAD
1000
DSTYLE
1002
{
1070
   147
1040
1.0
1070
    77
1070
     1
1002
}
  0
MTEXT
  5
1C77E
102
{ACAD_REACTORS
330
1C77D
102
}
330
1F
100
AcDbEntity
  8
003
 62
     7
100
AcDbMText
 10
394.5998977978318
 20
269.5345154665797
 30
0.0
 40
6.0
 41
0.0
 71
     7
 72
     1
  1
羽根固定
  7
DIM
 73
     1
 44
1.0
1001
ACAD
1000
MTEXTBEGIN
1070
    73
1070
     1
1070
    44
1040
1.0
1070
    74
1070
     0
1000
MTEXTEND
  0
LINE
  5
1C77F
330
1F
100
AcDbEntity
  8
納まり
  6
HIDDEN
100
AcDbLine
 10
263.0152399062613
 20
203.2826943874447
 30
0.0
 11
263.0152399062613
 21
182.2826943874447
 31
0.0
  0
LINE
  5
1C780
330
1F
100
AcDbEntity
  8
納まり
  6
HIDDEN
100
AcDbLine
 10
272.0152399062613
 20
225.5326943874447
 30
0.0
 11
272.0152399062613
 21
160.0326943874447
 31
0.0
  0
LINE
  5
1C781
330
1F
100
AcDbEntity
  8
納まり
  6
HIDDEN
100
AcDbLine
 10
274.0152399062613
 20
225.5326943874447
 30
0.0
 11
274.0152399062613
 21
160.0326943874447
 31
0.0
  0
ARC
  5
1C782
330
1F
100
AcDbEntity
  8
納まり
  6
HIDDEN
100
AcDbCircle
 10
264.5152399062613
 20
182.2826943874447
 30
0.0
 40
1.5
100
AcDbArc
 50
180.0
 51
270.0
  0
LINE
  5
1C783
330
1F
100
AcDbEntity
  8
納まり
  6
HIDDEN
100
AcDbLine
 10
264.5152399062613
 20
180.7826943874447
 30
0.0
 11
272.0152399062613
 21
180.7826943874447
 31
0.0
  0
ARC
  5
1C784
330
1F
100
AcDbEntity
  8
納まり
  6
HIDDEN
100
AcDbCircle
 10
264.5152399062613
 20
203.2826943874447
 30
0.0
 40
1.5
100
AcDbArc
 50
90.0
 51
180.0
  0
LINE
  5
1C785
330
1F
100
AcDbEntity
  8
納まり
  6
HIDDEN
100
AcDbLine
 10
264.5152399062613
 20
204.7826943874447
 30
0.0
 11
272.0152399062613
 21
204.7826943874447
 31
0.0
  0
ENDSEC
  0
SECTION
  2
OBJECTS
  0
DICTIONARY
  5
C
330
0
100
AcDbDictionary
281
     1
  3
ACAD_COLOR
350
E400
  3
ACAD_GROUP
350
D
  3
ACAD_LAYOUT
350
1A
  3
ACAD_MATERIAL
350
E3D6
  3
ACAD_MLEADERSTYLE
350
E425
  3
ACAD_MLINESTYLE
350
17
  3
ACAD_PLOTSETTINGS
350
19
  3
ACAD_PLOTSTYLENAME
350
E
  3
ACAD_SCALELIST
350
E403
  3
ACAD_TABLESTYLE
350
E401
  3
ACAD_VISUALSTYLE
350
E3EF
  3
AcadDim
350
2AE
  3
ACDB_RECOMPOSE_DATA
350
103AB
  3
AcDbVariableDictionary
350
103AC
  3
DWGPROPS
350
1C91C
  0
DICTIONARY
  5
18A0D
330
8
100
AcDbDictionary
280
     1
281
     1
  0
DICTIONARY
  5
2859
330
2
100
AcDbDictionary
280
     1
281
     1
  3
ACAD_LAYERFILTERS
360
128C4
  3
ACAD_LAYERSTATES
360
285A
  3
ACLYDICTIONARY
360
128C3
  0
DICTIONARY
  5
F074
330
10
100
AcDbDictionary
280
     1
281
     1
  3
ADSK_XREC_LAYER_RECONCILED
360
F075
  0
DICTIONARY
  5
F07A
330
33
100
AcDbDictionary
280
     1
281
     1
  3
ADSK_XREC_LAYER_RECONCILED
360
F07B
  0
DICTIONARY
  5
F080
330
1A4
100
AcDbDictionary
280
     1
281
     1
  3
ADSK_XREC_LAYER_RECONCILED
360
F081
  0
DICTIONARY
  5
F082
330
1A5
100
AcDbDictionary
280
     1
281
     1
  3
ADSK_XREC_LAYER_RECONCILED
360
F083
  0
DICTIONARY
  5
F088
330
2B1
100
AcDbDictionary
280
     1
281
     1
  3
ADSK_XREC_LAYER_RECONCILED
360
F089
  0
DICTIONARY
  5
F144
330
1F
100
AcDbDictionary
280
     1
281
     1
  3
ACAD_SORTENTS
360
F145
  0
DICTIONARY
  5
E400
102
{ACAD_REACTORS
330
C
102
}
330
C
100
AcDbDictionary
281
     1
  0
DICTIONARY
  5
D
102
{ACAD_REACTORS
330
C
102
}
330
C
100
AcDbDictionary
281
     1
  0
DICTIONARY
  5
1A
102
{ACAD_REACTORS
330
C
102
}
330
C
100
AcDbDictionary
281
     1
  3
Model
350
22
  3
ﾚｲｱｳﾄ1
350
1E
  3
ﾚｲｱｳﾄ2
350
26
  0
DICTIONARY
  5
E3D6
102
{ACAD_REACTORS
330
C
102
}
330
C
100
AcDbDictionary
281
     1
  3
ByBlock
350
E3DF
  3
ByLayer
350
E3D7
  3
Global
350
E3E7
  0
DICTIONARY
  5
E425
102
{ACAD_REACTORS
330
C
102
}
330
C
100
AcDbDictionary
281
     1
  3
Standard
350
E426
  0
DICTIONARY
  5
17
102
{ACAD_REACTORS
330
C
102
}
330
C
100
AcDbDictionary
281
     1
  3
Standard
350
18
  0
DICTIONARY
  5
19
102
{ACAD_REACTORS
330
C
102
}
330
C
100
AcDbDictionary
281
     1
  0
ACDBDICTIONARYWDFLT
  5
E
102
{ACAD_REACTORS
330
C
102
}
330
C
100
AcDbDictionary
281
     1
  3
Normal
350
F
100
AcDbDictionaryWithDefault
340
F
  0
DICTIONARY
  5
E403
102
{ACAD_REACTORS
330
C
102
}
330
C
100
AcDbDictionary
281
     1
  3
A0
350
E404
  3
A1
350
E405
  3
A2
350
E406
  3
A3
350
E407
  3
A4
350
E408
  3
A5
350
E409
  3
A6
350
E40A
  3
A7
350
E40B
  3
A8
350
E40C
  3
A9
350
E40D
  3
B0
350
E40E
  3
B1
350
E40F
  3
B2
350
E410
  3
B3
350
E411
  3
B4
350
E412
  3
B5
350
E413
  3
B6
350
E414
  3
B7
350
E415
  3
B8
350
E416
  3
B9
350
E417
  3
C0
350
E418
  3
C1
350
E419
  3
C2
350
E41A
  3
C3
350
E41B
  3
C4
350
E41C
  3
C5
350
E41D
  3
C6
350
E41E
  3
C7
350
E41F
  3
C8
350
E420
  3
C9
350
E421
  3
D0
350
E422
  3
D1
350
E423
  3
D2
350
E424
  0
DICTIONARY
  5
E401
102
{ACAD_REACTORS
330
C
102
}
330
C
100
AcDbDictionary
281
     1
  3
Standard
350
E402
  0
DICTIONARY
  5
E3EF
102
{ACAD_REACTORS
330
C
102
}
330
C
100
AcDbDictionary
281
     1
  3
2dWireframe
350
E3F5
  3
3D Hidden
350
E3F7
  3
3dWireframe
350
E3F6
  3
Basic
350
E3F4
  3
Brighten
350
E3FB
  3
ColorChange
350
E3FF
  3
Conceptual
350
E3F8
  3
Dim
350
E3FA
  3
Facepattern
350
E3FE
  3
Flat
350
E3F0
  3
FlatWithEdges
350
E3F1
  3
Gouraud
350
E3F2
  3
GouraudWithEdges
350
E3F3
  3
Linepattern
350
E3FD
  3
Realistic
350
E3F9
  3
Thicken
350
E3FC
  0
XRECORD
  5
2AE
102
{ACAD_REACTORS
330
C
102
}
330
C
100
AcDbXrecord
280
     1
 90
   990106
  3

 60
     0
 61
     0
 62
     4
 63
     4
 64
     1
 65
     0
 66
     0
 67
     3
 68
     1
 69
     0
 70
     0
 71
     0
 72
     0
 40
0.0
170
     2
  0
XRECORD
  5
103AB
102
{ACAD_REACTORS
330
C
102
}
330
C
100
AcDbXrecord
280
     1
 90
        1
330
E402
  0
DICTIONARY
  5
103AC
102
{ACAD_REACTORS
330
C
102
}
330
C
100
AcDbDictionary
281
     1
  3
CANNOSCALE
350
103B0
  3
CMLEADERSTYLE
350
103AE
  3
CTABLESTYLE
350
103AD
  3
DIMASSOC
350
18A5F
  3
INDEXCTL
350
18A5E
  3
LIGHTINGUNITS
350
103B1
  3
MSLTSCALE
350
103AF
  3
SORTENTS
350
18A5D
  0
XRECORD
  5
1C91C
102
{ACAD_REACTORS
330
C
102
}
330
C
100
AcDbXrecord
280
     1
  1
DWGPROPS COOKIE
  2

  3

  4

  6

  7

  8
koba
  9

300
=
301
=
302
=
303
=
304
=
305
=
306
=
307
=
308
=
309
=
 40
0.4628973495370371
 41
2452888.42884919
 42
2455959.425391528
  1

 90
        0
  0
DICTIONARY
  5
128C4
102
{ACAD_REACTORS
330
2859
102
}
330
2859
100
AcDbDictionary
281
     1
  0
DICTIONARY
  5
285A
102
{ACAD_REACTORS
330
2859
102
}
330
2859
100
AcDbDictionary
281
     1
  0
DICTIONARY
  5
128C3
102
{ACAD_REACTORS
330
2859
102
}
330
2859
100
AcDbDictionary
281
     1
1001
ACAD
1000
<All
  0
XRECORD
  5
F075
102
{ACAD_REACTORS
330
F074
102
}
330
F074
100
AcDbXrecord
280
     1
290
     1
  0
XRECORD
  5
F07B
102
{ACAD_REACTORS
330
F07A
102
}
330
F07A
100
AcDbXrecord
280
     1
290
     1
  0
XRECORD
  5
F081
102
{ACAD_REACTORS
330
F080
102
}
330
F080
100
AcDbXrecord
280
     1
290
     1
  0
XRECORD
  5
F083
102
{ACAD_REACTORS
330
F082
102
}
330
F082
100
AcDbXrecord
280
     1
290
     1
  0
XRECORD
  5
F089
102
{ACAD_REACTORS
330
F088
102
}
330
F088
100
AcDbXrecord
280
     1
290
     1
  0
SORTENTSTABLE
  5
F145
102
{ACAD_REACTORS
330
F144
102
}
330
F144
100
AcDbSortentsTable
330
1F
331
1876E
  5
18773
331
18771
  5
18776
331
18774
  5
18779
331
18777
  5
1877C
331
1877A
  5
1877F
331
1877D
  5
18782
331
18782
  5
18787
331
18785
  5
1878A
331
18788
  5
1878D
331
1878B
  5
18790
331
1878E
  5
18793
331
18791
  5
18796
331
18794
  5
18799
331
18797
  5
1879C
331
1879A
  5
1879F
331
1879D
  5
187A2
331
187A2
  5
187A7
331
F7F2
  5
F806
331
18764
  5
18769
331
187AB
  5
189EF
331
18767
  5
1876C
331
1876A
  5
1876F
331
1876D
  5
18772
331
18770
  5
18775
331
18773
  5
18778
331
18776
  5
1877B
331
18779
  5
1877E
331
1877C
  5
18781
331
18781
  5
18786
331
1877F
  5
18784
331
18784
  5
18789
331
18787
  5
1878C
331
1878A
  5
1878F
331
1878D
  5
18792
331
18790
  5
18795
331
18793
  5
18798
331
18796
  5
1879B
331
18799
  5
1879E
331
1879C
  5
187A1
331
1879F
  5
187A4
331
187A1
  5
187A6
331
187AD
  5
189F1
331
18766
  5
1876B
331
18769
  5
1876E
331
1876C
  5
18771
331
1876F
  5
18774
331
18772
  5
18777
331
18775
  5
1877A
331
18778
  5
1877D
331
1877B
  5
18780
331
18780
  5
18785
331
1877E
  5
18783
331
18783
  5
18788
331
18786
  5
1878B
331
18789
  5
1878E
331
1878C
  5
18791
331
1878F
  5
18794
331
18792
  5
18797
331
18795
  5
1879A
331
18798
  5
1879D
331
1879B
  5
187A0
331
187A0
  5
187A5
331
1879E
  5
187A3
331
18765
  5
1876A
331
187AC
  5
189F0
331
18768
  5
1876D
331
1876B
  5
18770
  0
LAYOUT
  5
22
102
{ACAD_XDICTIONARY
360
1C91F
102
}
102
{ACAD_REACTORS
330
1A
102
}
330
1A
100
AcDbPlotSettings
  1

  2
Brother HL-2170W series
  4
A4
  6

 40
5.027082920074462
 41
5.027085781097412
 42
5.027069091796875
 43
5.027069091796875
 44
209.9733276367187
 45
296.9259948730469
 46
2.212012888514294
 47
0.0
 48
20.0000000000001
 49
21.0
140
808.0000000000037
141
558.0
142
1.0
143
2.746871216078874
 70
 11956
 72
     1
 73
     1
 74
     4
  7
EPSON.ctb
 75
     0
147
0.3640505583758265
148
-20.0000000000001
149
-21.0
100
AcDbLayout
  1
Model
 70
     1
 71
     0
 10
0.0
 20
0.0
 11
12.0
 21
9.0
 12
0.0
 22
0.0
 32
0.0
 14
0.0
 24
0.0
 34
0.0
 15
0.0
 25
0.0
 35
0.0
146
0.0
 13
0.0
 23
0.0
 33
0.0
 16
1.0
 26
0.0
 36
0.0
 17
0.0
 27
1.0
 37
0.0
 76
     0
330
1F
331
E3D4
1001
ACAD_PSEXT
1000
Brother HL-2170W series
1000
Brother HL-2170W series
1000
USB002
1000

1070
     0
  0
LAYOUT
  5
1E
102
{ACAD_XDICTIONARY
360
1C91D
102
}
102
{ACAD_REACTORS
330
1A
102
}
330
1A
100
AcDbPlotSettings
  1

  2
C:\PROGRAM FILES\AUTOCAD LT 2000I\plotters\HP DesignJet 430 A3.pc3
  4

  6

 40
0.0
 41
0.0
 42
0.0
 43
0.0
 44
0.0
 45
0.0
 46
0.0
 47
0.0
 48
0.0
 49
0.0
140
0.0
141
0.0
142
1.0
143
1.0
 70
   688
 72
     0
 73
     0
 74
     5
  7
EPSON.ctb
 75
    16
147
1.0
148
0.0
149
0.0
100
AcDbLayout
  1
ﾚｲｱｳﾄ1
 70
     1
 71
     1
 10
0.0
 20
0.0
 11
420.0
 21
297.0
 12
0.0
 22
0.0
 32
0.0
 14
1.000000000000000E+20
 24
1.000000000000000E+20
 34
1.000000000000000E+20
 15
-1.000000000000000E+20
 25
-1.000000000000000E+20
 35
-1.000000000000000E+20
146
0.0
 13
0.0
 23
0.0
 33
0.0
 16
1.0
 26
0.0
 36
0.0
 17
0.0
 27
1.0
 37
0.0
 76
     0
330
1B
  0
LAYOUT
  5
26
102
{ACAD_XDICTIONARY
360
1C921
102
}
102
{ACAD_REACTORS
330
1A
102
}
330
1A
100
AcDbPlotSettings
  1

  2
C:\PROGRAM FILES\AUTOCAD LT 2000I\plotters\HP DesignJet 430 A3.pc3
  4

  6

 40
0.0
 41
0.0
 42
0.0
 43
0.0
 44
0.0
 45
0.0
 46
0.0
 47
0.0
 48
0.0
 49
0.0
140
0.0
141
0.0
142
1.0
143
1.0
 70
   688
 72
     0
 73
     0
 74
     5
  7
EPSON.ctb
 75
    16
147
1.0
148
0.0
149
0.0
100
AcDbLayout
  1
ﾚｲｱｳﾄ2
 70
     1
 71
     2
 10
0.0
 20
0.0
 11
12.0
 21
9.0
 12
0.0
 22
0.0
 32
0.0
 14
0.0
 24
0.0
 34
0.0
 15
0.0
 25
0.0
 35
0.0
146
0.0
 13
0.0
 23
0.0
 33
0.0
 16
1.0
 26
0.0
 36
0.0
 17
0.0
 27
1.0
 37
0.0
 76
     0
330
23
  0
MATERIAL
  5
E3DF
102
{ACAD_XDICTIONARY
360
E3E0
102
}
102
{ACAD_REACTORS
330
E3D6
102
}
330
E3D6
100
AcDbMaterial
  1
ByBlock
 72
     0
 43
0.0008202099737533
 43
0.0
 43
0.0
 43
0.0
 43
0.0
 43
0.0008202099737533
 43
0.0
 43
0.0
 43
0.0
 43
0.0
 43
1.0
 43
0.0
 43
0.0
 43
0.0
 43
0.0
 43
1.0
 77
     0
 47
0.0008202099737533
 47
0.0
 47
0.0
 47
0.0
 47
0.0
 47
0.0008202099737533
 47
0.0
 47
0.0
 47
0.0
 47
0.0
 47
1.0
 47
0.0
 47
0.0
 47
0.0
 47
0.0
 47
1.0
171
     0
 49
0.0008202099737533
 49
0.0
 49
0.0
 49
0.0
 49
0.0
 49
0.0008202099737533
 49
0.0
 49
0.0
 49
0.0
 49
0.0
 49
1.0
 49
0.0
 49
0.0
 49
0.0
 49
0.0
 49
1.0
175
     0
142
0.0008202099737533
142
0.0
142
0.0
142
0.0
142
0.0
142
0.0008202099737533
142
0.0
142
0.0
142
0.0
142
0.0
142
1.0
142
0.0
142
0.0
142
0.0
142
0.0
142
1.0
179
     0
144
0.0008202099737533
144
0.0
144
0.0
144
0.0
144
0.0
144
0.0008202099737533
144
0.0
144
0.0
144
0.0
144
0.0
144
1.0
144
0.0
144
0.0
144
0.0
144
0.0
144
1.0
147
0.0008202099737533
147
0.0
147
0.0
147
0.0
147
0.0
147
0.0008202099737533
147
0.0
147
0.0
147
0.0
147
0.0
147
1.0
147
0.0
147
0.0
147
0.0
147
0.0
147
1.0
  0
MATERIAL
  5
E3D7
102
{ACAD_XDICTIONARY
360
E3D8
102
}
102
{ACAD_REACTORS
330
E3D6
102
}
330
E3D6
100
AcDbMaterial
  1
ByLayer
 72
     0
 43
0.0008202099737533
 43
0.0
 43
0.0
 43
0.0
 43
0.0
 43
0.0008202099737533
 43
0.0
 43
0.0
 43
0.0
 43
0.0
 43
1.0
 43
0.0
 43
0.0
 43
0.0
 43
0.0
 43
1.0
 77
     0
 47
0.0008202099737533
 47
0.0
 47
0.0
 47
0.0
 47
0.0
 47
0.0008202099737533
 47
0.0
 47
0.0
 47
0.0
 47
0.0
 47
1.0
 47
0.0
 47
0.0
 47
0.0
 47
0.0
 47
1.0
171
     0
 49
0.0008202099737533
 49
0.0
 49
0.0
 49
0.0
 49
0.0
 49
0.0008202099737533
 49
0.0
 49
0.0
 49
0.0
 49
0.0
 49
1.0
 49
0.0
 49
0.0
 49
0.0
 49
0.0
 49
1.0
175
     0
142
0.0008202099737533
142
0.0
142
0.0
142
0.0
142
0.0
142
0.0008202099737533
142
0.0
142
0.0
142
0.0
142
0.0
142
1.0
142
0.0
142
0.0
142
0.0
142
0.0
142
1.0
179
     0
144
0.0008202099737533
144
0.0
144
0.0
144
0.0
144
0.0
144
0.0008202099737533
144
0.0
144
0.0
144
0.0
144
0.0
144
1.0
144
0.0
144
0.0
144
0.0
144
0.0
144
1.0
147
0.0008202099737533
147
0.0
147
0.0
147
0.0
147
0.0
147
0.0008202099737533
147
0.0
147
0.0
147
0.0
147
0.0
147
1.0
147
0.0
147
0.0
147
0.0
147
0.0
147
1.0
  0
MATERIAL
  5
E3E7
102
{ACAD_XDICTIONARY
360
E3E8
102
}
102
{ACAD_REACTORS
330
E3D6
102
}
330
E3D6
100
AcDbMaterial
  1
Global
 72
     0
 43
0.0008202099737533
 43
0.0
 43
0.0
 43
0.0
 43
0.0
 43
0.0008202099737533
 43
0.0
 43
0.0
 43
0.0
 43
0.0
 43
1.0
 43
0.0
 43
0.0
 43
0.0
 43
0.0
 43
1.0
 77
     0
 47
0.0008202099737533
 47
0.0
 47
0.0
 47
0.0
 47
0.0
 47
0.0008202099737533
 47
0.0
 47
0.0
 47
0.0
 47
0.0
 47
1.0
 47
0.0
 47
0.0
 47
0.0
 47
0.0
 47
1.0
171
     0
 49
0.0008202099737533
 49
0.0
 49
0.0
 49
0.0
 49
0.0
 49
0.0008202099737533
 49
0.0
 49
0.0
 49
0.0
 49
0.0
 49
1.0
 49
0.0
 49
0.0
 49
0.0
 49
0.0
 49
1.0
175
     0
142
0.0008202099737533
142
0.0
142
0.0
142
0.0
142
0.0
142
0.0008202099737533
142
0.0
142
0.0
142
0.0
142
0.0
142
1.0
142
0.0
142
0.0
142
0.0
142
0.0
142
1.0
179
     0
144
0.0008202099737533
144
0.0
144
0.0
144
0.0
144
0.0
144
0.0008202099737533
144
0.0
144
0.0
144
0.0
144
0.0
144
1.0
144
0.0
144
0.0
144
0.0
144
0.0
144
1.0
147
0.0008202099737533
147
0.0
147
0.0
147
0.0
147
0.0
147
0.0008202099737533
147
0.0
147
0.0
147
0.0
147
0.0
147
1.0
147
0.0
147
0.0
147
0.0
147
0.0
147
1.0
  0
MLEADERSTYLE
  5
E426
102
{ACAD_REACTORS
330
E425
102
}
330
E425
100
AcDbMLeaderStyle
170
     2
171
     1
172
     0
 90
        2
 40
0.0
 41
0.0
173
     1
 91
-1023410172
340
15
 92
       20
290
     1
 42
0.09
291
     1
 43
-0.36
  3
Standard
341
2B
 44
3.0
300

342
34
174
     6
178
     6
175
     1
176
     0
 93
-1023410169
 45
6.0
292
     0
297
     0
 46
0.18
 94
-1056964608
 47
1.0
 49
1.0
140
1.0
293
     1
141
0.0
294
     1
177
     0
142
1.0
295
     0
296
     0
143
0.125
1001
ACAD_MLEADERVER
1070
     2
  0
MLINESTYLE
  5
18
102
{ACAD_REACTORS
330
17
102
}
330
17
100
AcDbMlineStyle
  2
STANDARD
 70
     0
  3

 62
   256
 51
90.0
 52
90.0
 71
     2
 49
0.5
 62
   256
  6
BYLAYER
 49
-0.5
 62
   256
  6
BYLAYER
  0
ACDBPLACEHOLDER
  5
F
102
{ACAD_REACTORS
330
E
102
}
330
E
  0
SCALE
  5
E404
102
{ACAD_REACTORS
330
E403
102
}
330
E403
100
AcDbScale
 70
     0
300
1:1
140
1.0
141
1.0
290
     1
  0
SCALE
  5
E405
102
{ACAD_REACTORS
330
E403
102
}
330
E403
100
AcDbScale
 70
     0
300
1:2
140
1.0
141
2.0
290
     0
  0
SCALE
  5
E406
102
{ACAD_REACTORS
330
E403
102
}
330
E403
100
AcDbScale
 70
     0
300
1:4
140
1.0
141
4.0
290
     0
  0
SCALE
  5
E407
102
{ACAD_REACTORS
330
E403
102
}
330
E403
100
AcDbScale
 70
     0
300
1:5
140
1.0
141
5.0
290
     0
  0
SCALE
  5
E408
102
{ACAD_REACTORS
330
E403
102
}
330
E403
100
AcDbScale
 70
     0
300
1:8
140
1.0
141
8.0
290
     0
  0
SCALE
  5
E409
102
{ACAD_REACTORS
330
E403
102
}
330
E403
100
AcDbScale
 70
     0
300
1:10
140
1.0
141
10.0
290
     0
  0
SCALE
  5
E40A
102
{ACAD_REACTORS
330
E403
102
}
330
E403
100
AcDbScale
 70
     0
300
1:16
140
1.0
141
16.0
290
     0
  0
SCALE
  5
E40B
102
{ACAD_REACTORS
330
E403
102
}
330
E403
100
AcDbScale
 70
     0
300
1:20
140
1.0
141
20.0
290
     0
  0
SCALE
  5
E40C
102
{ACAD_REACTORS
330
E403
102
}
330
E403
100
AcDbScale
 70
     0
300
1:30
140
1.0
141
30.0
290
     0
  0
SCALE
  5
E40D
102
{ACAD_REACTORS
330
E403
102
}
330
E403
100
AcDbScale
 70
     0
300
1:40
140
1.0
141
40.0
290
     0
  0
SCALE
  5
E40E
102
{ACAD_REACTORS
330
E403
102
}
330
E403
100
AcDbScale
 70
     0
300
1:50
140
1.0
141
50.0
290
     0
  0
SCALE
  5
E40F
102
{ACAD_REACTORS
330
E403
102
}
330
E403
100
AcDbScale
 70
     0
300
1:100
140
1.0
141
100.0
290
     0
  0
SCALE
  5
E410
102
{ACAD_REACTORS
330
E403
102
}
330
E403
100
AcDbScale
 70
     0
300
2:1
140
2.0
141
1.0
290
     0
  0
SCALE
  5
E411
102
{ACAD_REACTORS
330
E403
102
}
330
E403
100
AcDbScale
 70
     0
300
4:1
140
4.0
141
1.0
290
     0
  0
SCALE
  5
E412
102
{ACAD_REACTORS
330
E403
102
}
330
E403
100
AcDbScale
 70
     0
300
8:1
140
8.0
141
1.0
290
     0
  0
SCALE
  5
E413
102
{ACAD_REACTORS
330
E403
102
}
330
E403
100
AcDbScale
 70
     0
300
10:1
140
10.0
141
1.0
290
     0
  0
SCALE
  5
E414
102
{ACAD_REACTORS
330
E403
102
}
330
E403
100
AcDbScale
 70
     0
300
100:1
140
100.0
141
1.0
290
     0
  0
SCALE
  5
E415
102
{ACAD_REACTORS
330
E403
102
}
330
E403
100
AcDbScale
 70
     0
300
1/128" = 1'-0"
140
0.0078125
141
12.0
290
     0
  0
SCALE
  5
E416
102
{ACAD_REACTORS
330
E403
102
}
330
E403
100
AcDbScale
 70
     0
300
1/64" = 1'-0"
140
0.015625
141
12.0
290
     0
  0
SCALE
  5
E417
102
{ACAD_REACTORS
330
E403
102
}
330
E403
100
AcDbScale
 70
     0
300
1/32" = 1'-0"
140
0.03125
141
12.0
290
     0
  0
SCALE
  5
E418
102
{ACAD_REACTORS
330
E403
102
}
330
E403
100
AcDbScale
 70
     0
300
1/16" = 1'-0"
140
0.0625
141
12.0
290
     0
  0
SCALE
  5
E419
102
{ACAD_REACTORS
330
E403
102
}
330
E403
100
AcDbScale
 70
     0
300
3/32" = 1'-0"
140
0.09375
141
12.0
290
     0
  0
SCALE
  5
E41A
102
{ACAD_REACTORS
330
E403
102
}
330
E403
100
AcDbScale
 70
     0
300
1/8" = 1'-0"
140
0.125
141
12.0
290
     0
  0
SCALE
  5
E41B
102
{ACAD_REACTORS
330
E403
102
}
330
E403
100
AcDbScale
 70
     0
300
3/16" = 1'-0"
140
0.1875
141
12.0
290
     0
  0
SCALE
  5
E41C
102
{ACAD_REACTORS
330
E403
102
}
330
E403
100
AcDbScale
 70
     0
300
1/4" = 1'-0"
140
0.25
141
12.0
290
     0
  0
SCALE
  5
E41D
102
{ACAD_REACTORS
330
E403
102
}
330
E403
100
AcDbScale
 70
     0
300
3/8" = 1'-0"
140
0.375
141
12.0
290
     0
  0
SCALE
  5
E41E
102
{ACAD_REACTORS
330
E403
102
}
330
E403
100
AcDbScale
 70
     0
300
1/2" = 1'-0"
140
0.5
141
12.0
290
     0
  0
SCALE
  5
E41F
102
{ACAD_REACTORS
330
E403
102
}
330
E403
100
AcDbScale
 70
     0
300
3/4" = 1'-0"
140
0.75
141
12.0
290
     0
  0
SCALE
  5
E420
102
{ACAD_REACTORS
330
E403
102
}
330
E403
100
AcDbScale
 70
     0
300
1" = 1'-0"
140
1.0
141
12.0
290
     0
  0
SCALE
  5
E421
102
{ACAD_REACTORS
330
E403
102
}
330
E403
100
AcDbScale
 70
     0
300
1-1/2" = 1'-0"
140
1.5
141
12.0
290
     0
  0
SCALE
  5
E422
102
{ACAD_REACTORS
330
E403
102
}
330
E403
100
AcDbScale
 70
     0
300
3" = 1'-0"
140
3.0
141
12.0
290
     0
  0
SCALE
  5
E423
102
{ACAD_REACTORS
330
E403
102
}
330
E403
100
AcDbScale
 70
     0
300
6" = 1'-0"
140
6.0
141
12.0
290
     0
  0
SCALE
  5
E424
102
{ACAD_REACTORS
330
E403
102
}
330
E403
100
AcDbScale
 70
     0
300
1'-0" = 1'-0"
140
12.0
141
12.0
290
     0
  0
TABLESTYLE
  5
E402
102
{ACAD_XDICTIONARY
360
103A9
102
}
102
{ACAD_REACTORS
330
E401
102
}
330
E401
100
AcDbTableStyle
  3
Standard
 70
     0
 71
     0
 40
0.06
 41
0.06
280
     0
281
     0
  7
Standard
140
0.18
170
     2
 62
     0
 63
     7
283
     0
274
    -2
284
     1
 64
     0
275
    -2
285
     1
 65
     0
276
    -2
286
     1
 66
     0
277
    -2
287
     1
 67
     0
278
    -2
288
     1
 68
     0
279
    -2
289
     1
 69
     0
  7
Standard
140
0.25
170
     5
 62
     0
 63
     7
283
     0
274
    -2
284
     1
 64
     0
275
    -2
285
     1
 65
     0
276
    -2
286
     1
 66
     0
277
    -2
287
     1
 67
     0
278
    -2
288
     1
 68
     0
279
    -2
289
     1
 69
     0
  7
Standard
140
0.18
170
     5
 62
     0
 63
     7
283
     0
274
    -2
284
     1
 64
     0
275
    -2
285
     1
 65
     0
276
    -2
286
     1
 66
     0
277
    -2
287
     1
 67
     0
278
    -2
288
     1
 68
     0
279
    -2
289
     1
 69
     0
  0
VISUALSTYLE
  5
E3F5
102
{ACAD_REACTORS
330
E3EF
102
}
330
E3EF
100
AcDbVisualStyle
  2
2dWireframe
 70
     4
 71
     0
 72
     2
 73
     0
 90
        0
 40
-0.6
 41
-30.0
 62
     5
 63
     7
 74
     1
 91
        4
 64
     7
 65
   257
 75
     1
175
     1
 42
1.0
 92
        0
 66
   257
 43
1.0
 76
     1
 77
     6
 78
     2
 67
     7
 79
     5
170
     0
171
     0
290
     0
174
     0
 93
        1
 44
0.0
173
     0
291
     0
 45
0.0
1001
ACAD
1000
AcDbSavedByObjectVersion
1070
     0
  0
VISUALSTYLE
  5
E3F7
102
{ACAD_REACTORS
330
E3EF
102
}
330
E3EF
100
AcDbVisualStyle
  2
3D Hidden
 70
     6
 71
     1
 72
     2
 73
     2
 90
        0
 40
-0.6
 41
-30.0
 62
     5
 63
     7
 74
     2
 91
        2
 64
     7
 65
   257
 75
     2
175
     1
 42
40.0
 92
        0
 66
   257
 43
1.0
 76
     1
 77
     6
 78
     2
 67
     7
 79
     3
170
     0
171
     0
290
     0
174
     0
 93
        1
 44
0.0
173
     0
291
     0
 45
0.0
1001
ACAD
1000
AcDbSavedByObjectVersion
1070
     0
  0
VISUALSTYLE
  5
E3F6
102
{ACAD_REACTORS
330
E3EF
102
}
330
E3EF
100
AcDbVisualStyle
  2
3dWireframe
 70
     5
 71
     0
 72
     2
 73
     0
 90
        0
 40
-0.6
 41
-30.0
 62
     5
 63
     7
 74
     1
 91
        4
 64
     7
 65
   257
 75
     1
175
     1
 42
1.0
 92
        0
 66
   257
 43
1.0
 76
     1
 77
     6
 78
     2
 67
     7
 79
     5
170
     0
171
     0
290
     0
174
     0
 93
        1
 44
0.0
173
     0
291
     0
 45
0.0
1001
ACAD
1000
AcDbSavedByObjectVersion
1070
     0
  0
VISUALSTYLE
  5
E3F4
102
{ACAD_REACTORS
330
E3EF
102
}
330
E3EF
100
AcDbVisualStyle
  2
Basic
 70
     7
 71
     1
 72
     0
 73
     1
 90
        0
 40
-0.6
 41
-30.0
 62
     5
 63
     7
 74
     0
 91
        4
 64
     7
 65
   257
 75
     1
175
     1
 42
1.0
 92
        8
 66
     7
 43
1.0
 76
     1
 77
     6
 78
     2
 67
     7
 79
     5
170
     0
171
     0
290
     0
174
     0
 93
        1
 44
0.0
173
     0
291
     1
 45
0.0
1001
ACAD
1000
AcDbSavedByObjectVersion
1070
     0
  0
VISUALSTYLE
  5
E3FB
102
{ACAD_REACTORS
330
E3EF
102
}
330
E3EF
100
AcDbVisualStyle
  2
Brighten
 70
    12
 71
     2
 72
     2
 73
     0
 90
        0
 40
-0.6
 41
-30.0
 62
     5
 63
     7
 74
     1
 91
        4
 64
     7
 65
   257
 75
     1
175
     1
 42
1.0
 92
        8
 66
     7
 43
1.0
 76
     1
 77
     6
 78
     2
 67
     7
 79
     5
170
     0
171
     0
290
     0
174
     0
 93
        1
 44
50.0
173
     0
291
     1
 45
0.0
1001
ACAD
1000
AcDbSavedByObjectVersion
1070
     0
  0
VISUALSTYLE
  5
E3FF
102
{ACAD_REACTORS
330
E3EF
102
}
330
E3EF
100
AcDbVisualStyle
  2
ColorChange
 70
    16
 71
     2
 72
     2
 73
     3
 90
        0
 40
-0.6
 41
-30.0
 62
     5
 63
     8
 74
     1
 91
        4
 64
     7
 65
   257
 75
     1
175
     1
 42
1.0
 92
        8
 66
     8
 43
1.0
 76
     1
 77
     6
 78
     2
 67
     7
 79
     5
170
     0
171
     0
290
     0
174
     0
 93
        1
 44
0.0
173
     0
291
     1
 45
0.0
1001
ACAD
1000
AcDbSavedByObjectVersion
1070
     0
  0
VISUALSTYLE
  5
E3F8
102
{ACAD_REACTORS
330
E3EF
102
}
330
E3EF
100
AcDbVisualStyle
  2
Conceptual
 70
     9
 71
     3
 72
     2
 73
     0
 90
        0
 40
-0.6
 41
-30.0
 62
     5
 63
     7
 74
     2
 91
        2
 64
     7
 65
   257
 75
     1
175
     1
 42
40.0
 92
        8
 66
     7
 43
1.0
 76
     1
 77
     6
 78
     2
 67
     7
 79
     3
170
     0
171
     0
290
     0
174
     0
 93
        1
 44
0.0
173
     0
291
     0
 45
0.0
1001
ACAD
1000
AcDbSavedByObjectVersion
1070
     0
  0
VISUALSTYLE
  5
E3FA
102
{ACAD_REACTORS
330
E3EF
102
}
330
E3EF
100
AcDbVisualStyle
  2
Dim
 70
    11
 71
     2
 72
     2
 73
     0
 90
        0
 40
-0.6
 41
-30.0
 62
     5
 63
     7
 74
     1
 91
        4
 64
     7
 65
   257
 75
     1
175
     1
 42
1.0
 92
        8
 66
     7
 43
1.0
 76
     1
 77
     6
 78
     2
 67
     7
 79
     5
170
     0
171
     0
290
     0
174
     0
 93
        1
 44
-50.0
173
     0
291
     1
 45
0.0
1001
ACAD
1000
AcDbSavedByObjectVersion
1070
     0
  0
VISUALSTYLE
  5
E3FE
102
{ACAD_REACTORS
330
E3EF
102
}
330
E3EF
100
AcDbVisualStyle
  2
Facepattern
 70
    15
 71
     2
 72
     2
 73
     0
 90
        0
 40
-0.6
 41
-30.0
 62
     5
 63
     7
 74
     1
 91
        4
 64
     7
 65
   257
 75
     1
175
     1
 42
1.0
 92
        8
 66
     7
 43
1.0
 76
     1
 77
     6
 78
     2
 67
     7
 79
     5
170
     0
171
     0
290
     0
174
     0
 93
        1
 44
0.0
173
     0
291
     1
 45
0.0
1001
ACAD
1000
AcDbSavedByObjectVersion
1070
     0
  0
VISUALSTYLE
  5
E3F0
102
{ACAD_REACTORS
330
E3EF
102
}
330
E3EF
100
AcDbVisualStyle
  2
Flat
 70
     0
 71
     2
 72
     1
 73
     1
 90
        2
 40
-0.6
 41
30.0
 62
     5
 63
     7
 74
     0
 91
        4
 64
     7
 65
   257
 75
     1
175
     1
 42
1.0
 92
        8
 66
     7
 43
1.0
 76
     1
 77
     6
 78
     2
 67
     7
 79
     5
170
     0
171
     0
290
     0
174
     0
 93
       13
 44
0.0
173
     0
291
     1
 45
0.0
1001
ACAD
1000
AcDbSavedByObjectVersion
1070
     0
  0
VISUALSTYLE
  5
E3F1
102
{ACAD_REACTORS
330
E3EF
102
}
330
E3EF
100
AcDbVisualStyle
  2
FlatWithEdges
 70
     1
 71
     2
 72
     1
 73
     1
 90
        2
 40
-0.6
 41
30.0
 62
     5
 63
     7
 74
     1
 91
        4
 64
     7
 65
   257
 75
     1
175
     1
 42
1.0
 92
        0
 66
   257
 43
1.0
 76
     1
 77
     6
 78
     2
 67
     7
 79
     5
170
     0
171
     0
290
     0
174
     0
 93
       13
 44
0.0
173
     0
291
     1
 45
0.0
1001
ACAD
1000
AcDbSavedByObjectVersion
1070
     0
  0
VISUALSTYLE
  5
E3F2
102
{ACAD_REACTORS
330
E3EF
102
}
330
E3EF
100
AcDbVisualStyle
  2
Gouraud
 70
     2
 71
     2
 72
     2
 73
     1
 90
        2
 40
-0.6
 41
30.0
 62
     5
 63
     7
 74
     0
 91
        4
 64
     7
 65
   257
 75
     1
175
     1
 42
1.0
 92
        0
 66
     7
 43
1.0
 76
     1
 77
     6
 78
     2
 67
     7
 79
     5
170
     0
171
     0
290
     0
174
     0
 93
       13
 44
0.0
173
     0
291
     1
 45
0.0
1001
ACAD
1000
AcDbSavedByObjectVersion
1070
     0
  0
VISUALSTYLE
  5
E3F3
102
{ACAD_REACTORS
330
E3EF
102
}
330
E3EF
100
AcDbVisualStyle
  2
GouraudWithEdges
 70
     3
 71
     2
 72
     2
 73
     1
 90
        2
 40
-0.6
 41
30.0
 62
     5
 63
     7
 74
     1
 91
        4
 64
     7
 65
   257
 75
     1
175
     1
 42
1.0
 92
        0
 66
   257
 43
1.0
 76
     1
 77
     6
 78
     2
 67
     7
 79
     5
170
     0
171
     0
290
     0
174
     0
 93
       13
 44
0.0
173
     0
291
     1
 45
0.0
1001
ACAD
1000
AcDbSavedByObjectVersion
1070
     0
  0
VISUALSTYLE
  5
E3FD
102
{ACAD_REACTORS
330
E3EF
102
}
330
E3EF
100
AcDbVisualStyle
  2
Linepattern
 70
    14
 71
     2
 72
     2
 73
     0
 90
        0
 40
-0.6
 41
-30.0
 62
     5
 63
     7
 74
     1
 91
        4
 64
     7
 65
   257
 75
     7
175
     7
 42
1.0
 92
        8
 66
     7
 43
1.0
 76
     1
 77
     6
 78
     2
 67
     7
 79
     5
170
     0
171
     0
290
     0
174
     0
 93
        1
 44
0.0
173
     0
291
     1
 45
0.0
1001
ACAD
1000
AcDbSavedByObjectVersion
1070
     0
  0
VISUALSTYLE
  5
E3F9
102
{ACAD_REACTORS
330
E3EF
102
}
330
E3EF
100
AcDbVisualStyle
  2
Realistic
 70
     8
 71
     2
 72
     2
 73
     0
 90
        0
 40
-0.6
 41
-30.0
 62
     5
 63
     7
 74
     1
 91
        0
 64
     7
 65
   257
 75
     1
175
     1
 42
1.0
 92
        8
 66
     8
 43
1.0
 76
     1
 77
     6
 78
     2
 67
     7
 79
     5
170
     0
171
     0
290
     0
174
     0
 93
       13
 44
0.0
173
     0
291
     0
 45
0.0
1001
ACAD
1000
AcDbSavedByObjectVersion
1070
     0
  0
VISUALSTYLE
  5
E3FC
102
{ACAD_REACTORS
330
E3EF
102
}
330
E3EF
100
AcDbVisualStyle
  2
Thicken
 70
    13
 71
     2
 72
     2
 73
     0
 90
        0
 40
-0.6
 41
-30.0
 62
     5
 63
     7
 74
     1
 91
        4
 64
     7
 65
   257
 75
     1
175
     1
 42
1.0
 92
       12
 66
     7
 43
1.0
 76
     1
 77
     6
 78
     2
 67
     7
 79
     5
170
     0
171
     0
290
     0
174
     0
 93
        1
 44
0.0
173
     0
291
     1
 45
0.0
1001
ACAD
1000
AcDbSavedByObjectVersion
1070
     0
  0
DICTIONARYVAR
  5
103B0
102
{ACAD_REACTORS
330
103AC
102
}
330
103AC
100
DictionaryVariables
280
     0
  1
1:1
  0
DICTIONARYVAR
  5
103AE
102
{ACAD_REACTORS
330
103AC
102
}
330
103AC
100
DictionaryVariables
280
     0
  1
STANDARD
  0
DICTIONARYVAR
  5
103AD
102
{ACAD_REACTORS
330
103AC
102
}
330
103AC
100
DictionaryVariables
280
     0
  1
STANDARD
  0
DICTIONARYVAR
  5
18A5F
102
{ACAD_REACTORS
330
103AC
102
}
330
103AC
100
DictionaryVariables
280
     0
  1
1
  0
DICTIONARYVAR
  5
18A5E
102
{ACAD_REACTORS
330
103AC
102
}
330
103AC
100
DictionaryVariables
280
     0
  1
0
  0
DICTIONARYVAR
  5
103B1
102
{ACAD_REACTORS
330
103AC
102
}
330
103AC
100
DictionaryVariables
280
     0
  1
0
  0
DICTIONARYVAR
  5
103AF
102
{ACAD_REACTORS
330
103AC
102
}
330
103AC
100
DictionaryVariables
280
     0
  1
0
  0
DICTIONARYVAR
  5
18A5D
102
{ACAD_REACTORS
330
103AC
102
}
330
103AC
100
DictionaryVariables
280
     0
  1
127
  0
DICTIONARY
  5
1C91F
330
22
100
AcDbDictionary
280
     1
281
     1
  3
ACAD_XREC_ROUNDTRIP
360
1C920
  0
DICTIONARY
  5
1C91D
330
1E
100
AcDbDictionary
280
     1
281
     1
  3
ACAD_XREC_ROUNDTRIP
360
1C91E
  0
DICTIONARY
  5
1C921
330
26
100
AcDbDictionary
280
     1
281
     1
  3
ACAD_XREC_ROUNDTRIP
360
1C922
  0
DICTIONARY
  5
E3E0
330
E3DF
100
AcDbDictionary
280
     1
281
     1
  3
ACAD_XREC_ROUNDTRIP
360
1C924
  3
BUMPTILE
360
E3E2
  3
DIFFUSETILE
360
E3E1
  3
OPACITYTILE
360
E3E5
  3
REFLECTIONTILE
360
E3E4
  3
REFRACTIONTILE
360
E3E6
  3
SPECULARTILE
360
E3E3
  0
DICTIONARY
  5
E3D8
330
E3D7
100
AcDbDictionary
280
     1
281
     1
  3
ACAD_XREC_ROUNDTRIP
360
1C923
  3
BUMPTILE
360
E3DA
  3
DIFFUSETILE
360
E3D9
  3
OPACITYTILE
360
E3DD
  3
REFLECTIONTILE
360
E3DC
  3
REFRACTIONTILE
360
E3DE
  3
SPECULARTILE
360
E3DB
  0
DICTIONARY
  5
E3E8
330
E3E7
100
AcDbDictionary
280
     1
281
     1
  3
ACAD_XREC_ROUNDTRIP
360
1C925
  3
BUMPTILE
360
E3EA
  3
DIFFUSETILE
360
E3E9
  3
OPACITYTILE
360
E3ED
  3
REFLECTIONTILE
360
E3EC
  3
REFRACTIONTILE
360
E3EE
  3
SPECULARTILE
360
E3EB
  0
DICTIONARY
  5
103A9
330
E402
100
AcDbDictionary
280
     1
281
     1
  3
ACAD_ROUNDTRIP_2008_TABLESTYLE_CELLSTYLEMAP
360
1C91B
  3
ACAD_XREC_ROUNDTRIP
360
1C926
  0
XRECORD
  5
1C920
102
{ACAD_REACTORS
330
1C91F
102
}
330
1C91F
100
AcDbXrecord
280
     1
102
SHADEPLOT
 70
     0
102
SHADEPLOTRESLEVEL
 70
     2
102
SHADEPLOTCUSTOMDPI
 70
   300
  0
XRECORD
  5
1C91E
102
{ACAD_REACTORS
330
1C91D
102
}
330
1C91D
100
AcDbXrecord
280
     1
102
SHADEPLOT
 70
     0
102
SHADEPLOTRESLEVEL
 70
     2
102
SHADEPLOTCUSTOMDPI
 70
   300
  0
XRECORD
  5
1C922
102
{ACAD_REACTORS
330
1C921
102
}
330
1C921
100
AcDbXrecord
280
     1
102
SHADEPLOT
 70
     0
102
SHADEPLOTRESLEVEL
 70
     2
102
SHADEPLOTCUSTOMDPI
 70
   300
  0
XRECORD
  5
1C924
102
{ACAD_REACTORS
330
E3E0
102
}
330
E3E0
100
AcDbXrecord
280
     1
102
MATERIAL
148
0.0
149
0.0
149
0.0
 93
        0
 94
      127
282
     0
 72
     0
 77
     0
171
     0
175
     0
179
     0
273
     0
  0
XRECORD
  5
E3E2
102
{ACAD_REACTORS
330
E3E0
102
}
330
E3E0
100
AcDbXrecord
280
     1
270
     1
271
     1
  0
XRECORD
  5
E3E1
102
{ACAD_REACTORS
330
E3E0
102
}
330
E3E0
100
AcDbXrecord
280
     1
270
     1
271
     1
  0
XRECORD
  5
E3E5
102
{ACAD_REACTORS
330
E3E0
102
}
330
E3E0
100
AcDbXrecord
280
     1
270
     1
271
     1
  0
XRECORD
  5
E3E4
102
{ACAD_REACTORS
330
E3E0
102
}
330
E3E0
100
AcDbXrecord
280
     1
270
     1
271
     1
  0
XRECORD
  5
E3E6
102
{ACAD_REACTORS
330
E3E0
102
}
330
E3E0
100
AcDbXrecord
280
     1
270
     1
271
     1
  0
XRECORD
  5
E3E3
102
{ACAD_REACTORS
330
E3E0
102
}
330
E3E0
100
AcDbXrecord
280
     1
270
     1
271
     1
  0
XRECORD
  5
1C923
102
{ACAD_REACTORS
330
E3D8
102
}
330
E3D8
100
AcDbXrecord
280
     1
102
MATERIAL
148
0.0
149
0.0
149
0.0
 93
        0
 94
      127
282
     0
 72
     0
 77
     0
171
     0
175
     0
179
     0
273
     0
  0
XRECORD
  5
E3DA
102
{ACAD_REACTORS
330
E3D8
102
}
330
E3D8
100
AcDbXrecord
280
     1
270
     1
271
     1
  0
XRECORD
  5
E3D9
102
{ACAD_REACTORS
330
E3D8
102
}
330
E3D8
100
AcDbXrecord
280
     1
270
     1
271
     1
  0
XRECORD
  5
E3DD
102
{ACAD_REACTORS
330
E3D8
102
}
330
E3D8
100
AcDbXrecord
280
     1
270
     1
271
     1
  0
XRECORD
  5
E3DC
102
{ACAD_REACTORS
330
E3D8
102
}
330
E3D8
100
AcDbXrecord
280
     1
270
     1
271
     1
  0
XRECORD
  5
E3DE
102
{ACAD_REACTORS
330
E3D8
102
}
330
E3D8
100
AcDbXrecord
280
     1
270
     1
271
     1
  0
XRECORD
  5
E3DB
102
{ACAD_REACTORS
330
E3D8
102
}
330
E3D8
100
AcDbXrecord
280
     1
270
     1
271
     1
  0
XRECORD
  5
1C925
102
{ACAD_REACTORS
330
E3E8
102
}
330
E3E8
100
AcDbXrecord
280
     1
102
MATERIAL
148
0.0
149
0.0
149
0.0
 93
        0
 94
      127
282
     0
 72
     0
 77
     0
171
     0
175
     0
179
     0
273
     0
  0
XRECORD
  5
E3EA
102
{ACAD_REACTORS
330
E3E8
102
}
330
E3E8
100
AcDbXrecord
280
     1
270
     1
271
     1
  0
XRECORD
  5
E3E9
102
{ACAD_REACTORS
330
E3E8
102
}
330
E3E8
100
AcDbXrecord
280
     1
270
     1
271
     1
  0
XRECORD
  5
E3ED
102
{ACAD_REACTORS
330
E3E8
102
}
330
E3E8
100
AcDbXrecord
280
     1
270
     1
271
     1
  0
XRECORD
  5
E3EC
102
{ACAD_REACTORS
330
E3E8
102
}
330
E3E8
100
AcDbXrecord
280
     1
270
     1
271
     1
  0
XRECORD
  5
E3EE
102
{ACAD_REACTORS
330
E3E8
102
}
330
E3E8
100
AcDbXrecord
280
     1
270
     1
271
     1
  0
XRECORD
  5
E3EB
102
{ACAD_REACTORS
330
E3E8
102
}
330
E3E8
100
AcDbXrecord
280
     1
270
     1
271
     1
  0
CELLSTYLEMAP
  5
1C91B
102
{ACAD_REACTORS
330
103A9
102
}
330
103A9
100
AcDbCellStyleMap
 90
        3
300
CELLSTYLE
  1
TABLEFORMAT_BEGIN
 90
        5
170
     1
 91
        0
 92
    32768
 62
   257
 93
        1
300
CONTENTFORMAT
  1
CONTENTFORMAT_BEGIN
 90
        0
 91
        0
 92
      512
 93
        0
300

 40
0.0
140
1.0
 94
        5
 62
     0
340
11
144
0.25
309
CONTENTFORMAT_END
171
     0
 94
        0
309
TABLEFORMAT_END
  1
CELLSTYLE_BEGIN
 90
        1
 91
        1
300
_TITLE
309
CELLSTYLE_END
300
CELLSTYLE
  1
TABLEFORMAT_BEGIN
 90
        5
170
     1
 91
        0
 92
        0
 62
   257
 93
        1
300
CONTENTFORMAT
  1
CONTENTFORMAT_BEGIN
 90
        0
 91
        0
 92
      512
 93
        0
300

 40
0.0
140
1.0
 94
        5
 62
     0
340
11
144
0.18
309
CONTENTFORMAT_END
171
     0
 94
        0
309
TABLEFORMAT_END
  1
CELLSTYLE_BEGIN
 90
        2
 91
        1
300
_HEADER
309
CELLSTYLE_END
300
CELLSTYLE
  1
TABLEFORMAT_BEGIN
 90
        5
170
     1
 91
        0
 92
        0
 62
   257
 93
        1
300
CONTENTFORMAT
  1
CONTENTFORMAT_BEGIN
 90
        0
 91
        0
 92
      512
 93
        0
300

 40
0.0
140
1.0
 94
        2
 62
     0
340
11
144
0.18
309
CONTENTFORMAT_END
171
     0
 94
        0
309
TABLEFORMAT_END
  1
CELLSTYLE_BEGIN
 90
        3
 91
        2
300
_DATA
309
CELLSTYLE_END
  0
XRECORD
  5
1C926
102
{ACAD_REACTORS
330
103A9
102
}
330
103A9
100
AcDbXrecord
280
     1
102
ACAD_ROUNDTRIP_PRE2007_TABLESTYLE
 90
      512
 91
        0
  1

 92
      512
 93
        0
  2

 94
      512
 95
        0
  3

  0
ENDSEC
  0
EOF
