  0
SECTION
  2
HEADER
  9
$ACADVER
  1
AC1015
  9
$ACADMAINTVER
 70
    20
  9
$DWGCODEPAGE
  3
ANSI_932
  9
$INSBASE
 10
0.0
 20
0.0
 30
0.0
  9
$EXTMIN
 10
20.0000000000001
 20
21.0
 30
0.0
  9
$EXTMAX
 10
808.0000000000037
 20
558.0
 30
0.0
  9
$LIMMIN
 10
0.0
 20
0.0
  9
$LIMMAX
 10
840.0
 20
594.0
  9
$ORTHOMODE
 70
     0
  9
$REGENMODE
 70
     1
  9
$FILLMODE
 70
     1
  9
$QTEXTMODE
 70
     0
  9
$MIRRTEXT
 70
     0
  9
$LTSCALE
 40
1.0
  9
$ATTMODE
 70
     1
  9
$TEXTSIZE
 40
3.0
  9
$TRACEWID
 40
1.0
  9
$TEXTSTYLE
  7
AT_VECTOR
  9
$CLAYER
  8
003
  9
$CELTYPE
  6
ByLayer
  9
$CECOLOR
 62
   256
  9
$CELTSCALE
 40
1.0
  9
$DISPSILH
 70
     0
  9
$DIMSCALE
 40
2.0
  9
$DIMASZ
 40
1.5
  9
$DIMEXO
 40
1.5
  9
$DIMDLI
 40
7.0
  9
$DIMRND
 40
0.0
  9
$DIMDLE
 40
0.0
  9
$DIMEXE
 40
1.0
  9
$DIMTP
 40
0.0
  9
$DIMTM
 40
0.0
  9
$DIMTXT
 40
3.0
  9
$DIMCEN
 40
0.0
  9
$DIMTSZ
 40
0.0
  9
$DIMTOL
 70
     0
  9
$DIMLIM
 70
     0
  9
$DIMTIH
 70
     0
  9
$DIMTOH
 70
     0
  9
$DIMSE1
 70
     0
  9
$DIMSE2
 70
     0
  9
$DIMTAD
 70
     1
  9
$DIMZIN
 70
     8
  9
$DIMBLK
  1
Open30
  9
$DIMASO
 70
     1
  9
$DIMSHO
 70
     1
  9
$DIMPOST
  1

  9
$DIMAPOST
  1

  9
$DIMALT
 70
     0
  9
$DIMALTD
 70
     3
  9
$DIMALTF
 40
0.03937007874016
  9
$DIMLFAC
 40
1.0
  9
$DIMTOFL
 70
     1
  9
$DIMTVP
 40
0.0
  9
$DIMTIX
 70
     0
  9
$DIMSOXD
 70
     0
  9
$DIMSAH
 70
     0
  9
$DIMBLK1
  1

  9
$DIMBLK2
  1

  9
$DIMSTYLE
  2
DIM
  9
$DIMCLRD
 70
     4
  9
$DIMCLRE
 70
     4
  9
$DIMCLRT
 70
     7
  9
$DIMTFAC
 40
1.0
  9
$DIMGAP
 40
1.0
  9
$DIMJUST
 70
     0
  9
$DIMSD1
 70
     0
  9
$DIMSD2
 70
     0
  9
$DIMTOLJ
 70
     0
  9
$DIMTZIN
 70
     8
  9
$DIMALTZ
 70
     0
  9
$DIMALTTZ
 70
     0
  9
$DIMUPT
 70
     0
  9
$DIMDEC
 70
     2
  9
$DIMTDEC
 70
     2
  9
$DIMALTU
 70
     2
  9
$DIMALTTD
 70
     3
  9
$DIMTXSTY
  7
DIM
  9
$DIMAUNIT
 70
     0
  9
$DIMADEC
 70
     0
  9
$DIMALTRND
 40
0.0
  9
$DIMAZIN
 70
     0
  9
$DIMDSEP
 70
    46
  9
$DIMATFIT
 70
     3
  9
$DIMFRAC
 70
     0
  9
$DIMLDRBLK
  1
Open30
  9
$DIMLUNIT
 70
     2
  9
$DIMLWD
 70
    20
  9
$DIMLWE
 70
    20
  9
$DIMTMOVE
 70
     0
  9
$LUNITS
 70
     2
  9
$LUPREC
 70
     4
  9
$SKETCHINC
 40
1.0
  9
$FILLETRAD
 40
0.0
  9
$AUNITS
 70
     0
  9
$AUPREC
 70
     0
  9
$MENU
  1
.
  9
$ELEVATION
 40
0.0
  9
$PELEVATION
 40
0.0
  9
$THICKNESS
 40
0.0
  9
$LIMCHECK
 70
     0
  9
$CHAMFERA
 40
10.0
  9
$CHAMFERB
 40
10.0
  9
$CHAMFERC
 40
20.0
  9
$CHAMFERD
 40
0.0
  9
$SKPOLY
 70
     0
  9
$TDCREATE
 40
2452888.428849190
  9
$TDUCREATE
 40
2452888.053849190
  9
$TDUPDATE
 40
2455959.430708172
  9
$TDUUPDATE
 40
2455959.055708171
  9
$TDINDWG
 40
0.4663316898
  9
$TDUSRTIMER
 40
0.4663316898
  9
$USRTIMER
 70
     1
  9
$ANGBASE
 50
0.0
  9
$ANGDIR
 70
     0
  9
$PDMODE
 70
     0
  9
$PDSIZE
 40
0.0
  9
$PLINEWID
 40
0.0
  9
$SPLFRAME
 70
     0
  9
$SPLINETYPE
 70
     6
  9
$SPLINESEGS
 70
     8
  9
$HANDSEED
  5
1AB47
  9
$SURFTAB1
 70
     6
  9
$SURFTAB2
 70
     6
  9
$SURFTYPE
 70
     6
  9
$SURFU
 70
     6
  9
$SURFV
 70
     6
  9
$UCSBASE
  2

  9
$UCSNAME
  2

  9
$UCSORG
 10
0.0
 20
0.0
 30
0.0
  9
$UCSXDIR
 10
1.0
 20
0.0
 30
0.0
  9
$UCSYDIR
 10
0.0
 20
1.0
 30
0.0
  9
$UCSORTHOREF
  2

  9
$UCSORTHOVIEW
 70
     0
  9
$UCSORGTOP
 10
0.0
 20
0.0
 30
0.0
  9
$UCSORGBOTTOM
 10
0.0
 20
0.0
 30
0.0
  9
$UCSORGLEFT
 10
0.0
 20
0.0
 30
0.0
  9
$UCSORGRIGHT
 10
0.0
 20
0.0
 30
0.0
  9
$UCSORGFRONT
 10
0.0
 20
0.0
 30
0.0
  9
$UCSORGBACK
 10
0.0
 20
0.0
 30
0.0
  9
$PUCSBASE
  2

  9
$PUCSNAME
  2

  9
$PUCSORG
 10
0.0
 20
0.0
 30
0.0
  9
$PUCSXDIR
 10
1.0
 20
0.0
 30
0.0
  9
$PUCSYDIR
 10
0.0
 20
1.0
 30
0.0
  9
$PUCSORTHOREF
  2

  9
$PUCSORTHOVIEW
 70
     0
  9
$PUCSORGTOP
 10
0.0
 20
0.0
 30
0.0
  9
$PUCSORGBOTTOM
 10
0.0
 20
0.0
 30
0.0
  9
$PUCSORGLEFT
 10
0.0
 20
0.0
 30
0.0
  9
$PUCSORGRIGHT
 10
0.0
 20
0.0
 30
0.0
  9
$PUCSORGFRONT
 10
0.0
 20
0.0
 30
0.0
  9
$PUCSORGBACK
 10
0.0
 20
0.0
 30
0.0
  9
$USERI1
 70
     0
  9
$USERI2
 70
     0
  9
$USERI3
 70
     0
  9
$USERI4
 70
     0
  9
$USERI5
 70
     0
  9
$USERR1
 40
0.0
  9
$USERR2
 40
0.0
  9
$USERR3
 40
0.0
  9
$USERR4
 40
0.0
  9
$USERR5
 40
0.0
  9
$WORLDVIEW
 70
     1
  9
$SHADEDGE
 70
     3
  9
$SHADEDIF
 70
    70
  9
$TILEMODE
 70
     1
  9
$MAXACTVP
 70
    64
  9
$PINSBASE
 10
0.0
 20
0.0
 30
0.0
  9
$PLIMCHECK
 70
     0
  9
$PEXTMIN
 10
1.000000000000000E+20
 20
1.000000000000000E+20
 30
1.000000000000000E+20
  9
$PEXTMAX
 10
-1.000000000000000E+20
 20
-1.000000000000000E+20
 30
-1.000000000000000E+20
  9
$PLIMMIN
 10
0.0
 20
0.0
  9
$PLIMMAX
 10
420.0
 20
297.0
  9
$UNITMODE
 70
     0
  9
$VISRETAIN
 70
     1
  9
$PLINEGEN
 70
     0
  9
$PSLTSCALE
 70
     1
  9
$TREEDEPTH
 70
  3020
  9
$CMLSTYLE
  2
Standard
  9
$CMLJUST
 70
     0
  9
$CMLSCALE
 40
20.0
  9
$PROXYGRAPHICS
 70
     1
  9
$MEASUREMENT
 70
     0
  9
$CELWEIGHT
370
    -1
  9
$ENDCAPS
280
     0
  9
$JOINSTYLE
280
     0
  9
$LWDISPLAY
290
     0
  9
$INSUNITS
 70
     4
  9
$HYPERLINKBASE
  1

  9
$STYLESHEET
  1
EPSON.ctb
  9
$XEDIT
290
     1
  9
$CEPSNTYPE
380
     0
  9
$PSTYLEMODE
290
     1
  9
$FINGERPRINTGUID
  2
{9AEAB59C-DF80-11D7-8237-004026CDA8AB}
  9
$VERSIONGUID
  2
{0F9816E2-28A2-43DA-8B79-D6935C350952}
  9
$EXTNAMES
290
     1
  9
$PSVPSCALE
 40
0.0
  9
$OLESTARTUP
290
     0
  0
ENDSEC
  0
SECTION
  2
CLASSES
  0
CLASS
  1
ACDBDICTIONARYWDFLT
  2
AcDbDictionaryWithDefault
  3
ObjectDBX Classes
 90
        0
280
     0
281
     0
  0
CLASS
  1
ACDBPLACEHOLDER
  2
AcDbPlaceHolder
  3
ObjectDBX Classes
 90
        0
280
     0
281
     0
  0
CLASS
  1
LAYOUT
  2
AcDbLayout
  3
ObjectDBX Classes
 90
        0
280
     0
281
     0
  0
CLASS
  1
MATERIAL
  2
AcDbMaterial
  3
ObjectDBX Classes
 90
     1153
280
     0
281
     0
  0
CLASS
  1
VISUALSTYLE
  2
AcDbVisualStyle
  3
ObjectDBX Classes
 90
     4095
280
     0
281
     0
  0
CLASS
  1
TABLESTYLE
  2
AcDbTableStyle
  3
ObjectDBX Classes
 90
     4095
280
     0
281
     0
  0
CLASS
  1
SCALE
  2
AcDbScale
  3
ObjectDBX Classes
 90
     1153
280
     0
281
     0
  0
CLASS
  1
MLEADERSTYLE
  2
AcDbMLeaderStyle
  3
ACDB_MLEADERSTYLE_CLASS
 90
     4095
280
     0
281
     0
  0
CLASS
  1
SORTENTSTABLE
  2
AcDbSortentsTable
  3
ObjectDBX Classes
 90
        0
280
     0
281
     0
  0
CLASS
  1
CELLSTYLEMAP
  2
AcDbCellStyleMap
  3
ObjectDBX Classes
 90
     1152
280
     0
281
     0
  0
CLASS
  1
DICTIONARYVAR
  2
AcDbDictionaryVar
  3
ObjectDBX Classes
 90
        0
280
     0
281
     0
  0
CLASS
  1
MULTILEADER
  2
AcDbMLeader
  3
ACDB_MLEADER_CLASS
 90
    33793
280
     0
281
     1
  0
ENDSEC
  0
SECTION
  2
TABLES
  0
TABLE
  2
VPORT
  5
8
102
{ACAD_XDICTIONARY
360
18A0D
102
}
330
0
100
AcDbSymbolTable
 70
     1
  0
VPORT
  5
E3D4
330
8
100
AcDbSymbolTableRecord
100
AcDbViewportTableRecord
  2
*Active
 70
     0
 10
0.0
 20
0.0
 11
1.0
 21
1.0
 12
420.0
 22
297.0
 13
0.0
 23
0.0
 14
10.0
 24
10.0
 15
10.0
 25
10.0
 16
0.0
 26
0.0
 36
1.0
 17
0.0
 27
0.0
 37
0.0
 40
598.7208971518058
 41
1.590250329380764
 42
50.0
 43
0.0
 44
0.0
 50
0.0
 51
0.0
 71
     0
 72
   100
 73
     1
 74
     3
 75
     0
 76
     0
 77
     0
 78
     0
281
     0
 65
     1
110
0.0
120
0.0
130
0.0
111
1.0
121
0.0
131
0.0
112
0.0
122
1.0
132
0.0
 79
     0
146
0.0
  0
ENDTAB
  0
TABLE
  2
LTYPE
  5
5
330
0
100
AcDbSymbolTable
 70
     5
  0
LTYPE
  5
14
330
5
100
AcDbSymbolTableRecord
100
AcDbLinetypeTableRecord
  2
ByBlock
 70
     0
  3

 72
    65
 73
     0
 40
0.0
  0
LTYPE
  5
15
330
5
100
AcDbSymbolTableRecord
100
AcDbLinetypeTableRecord
  2
ByLayer
 70
     0
  3

 72
    65
 73
     0
 40
0.0
  0
LTYPE
  5
16
330
5
100
AcDbSymbolTableRecord
100
AcDbLinetypeTableRecord
  2
Continuous
 70
     0
  3
Solid line
 72
    65
 73
     0
 40
0.0
  0
LTYPE
  5
19D
330
5
100
AcDbSymbolTableRecord
100
AcDbLinetypeTableRecord
  2
ACAD_ISO04W100
 70
     0
  3
ISO long-dash dot ____ . ____ . ____ . ____ . _
 72
    65
 73
     4
 40
30.0
 49
24.0
 74
     0
 49
-3.0
 74
     0
 49
0.0
 74
     0
 49
-3.0
 74
     0
  0
LTYPE
  5
19E
330
5
100
AcDbSymbolTableRecord
100
AcDbLinetypeTableRecord
  2
ACAD_ISO02W100
 70
     0
  3
ISO dash __ __ __ __ __ __ __ __ __ __ __ __ __
 72
    65
 73
     2
 40
15.0
 49
12.0
 74
     0
 49
-3.0
 74
     0
  0
LTYPE
  5
3BD
330
5
100
AcDbSymbolTableRecord
100
AcDbLinetypeTableRecord
  2
DASHED
 70
     0
  3
__ __ __ __ __ __ __ __ __ __ __ __ __ __ __ __
 72
    65
 73
     2
 40
0.75
 49
0.5
 74
     0
 49
-0.25
 74
     0
  0
ENDTAB
  0
TABLE
  2
LAYER
  5
2
102
{ACAD_XDICTIONARY
360
2859
102
}
330
0
100
AcDbSymbolTable
 70
    14
  0
LAYER
  5
10
102
{ACAD_XDICTIONARY
360
F074
102
}
330
2
100
AcDbSymbolTableRecord
100
AcDbLayerTableRecord
  2
0
 70
     0
 62
     7
  6
Continuous
370
    25
390
F
  0
LAYER
  5
33
102
{ACAD_XDICTIONARY
360
F07A
102
}
330
2
100
AcDbSymbolTableRecord
100
AcDbLayerTableRecord
  2
003
 70
     0
 62
     2
  6
Continuous
370
    25
390
F
  0
LAYER
  5
1A4
102
{ACAD_XDICTIONARY
360
F080
102
}
330
2
100
AcDbSymbolTableRecord
100
AcDbLayerTableRecord
  2
006
 70
     0
 62
     4
  6
ACAD_ISO04W100
370
    20
390
F
  0
LAYER
  5
1A5
102
{ACAD_XDICTIONARY
360
F082
102
}
330
2
100
AcDbSymbolTableRecord
100
AcDbLayerTableRecord
  2
007
 70
     0
 62
     4
  6
ACAD_ISO02W100
370
    20
390
F
  0
LAYER
  5
1A8
330
2
100
AcDbSymbolTableRecord
100
AcDbLayerTableRecord
  2
Defpoints
 70
     0
 62
     7
  6
Continuous
290
     0
370
    25
390
F
  0
LAYER
  5
2B1
102
{ACAD_XDICTIONARY
360
F088
102
}
330
2
100
AcDbSymbolTableRecord
100
AcDbLayerTableRecord
  2
010
 70
     0
 62
     4
  6
Continuous
370
    20
390
F
  0
LAYER
  5
16250
330
2
100
AcDbSymbolTableRecord
100
AcDbLayerTableRecord
  2
_13極細線
 70
     0
 62
   181
  6
Continuous
370
     5
390
F
  0
LAYER
  5
168AB
330
2
100
AcDbSymbolTableRecord
100
AcDbLayerTableRecord
  2
KI
 70
     0
 62
     7
  6
Continuous
370
    -3
390
F
  0
LAYER
  5
168AD
330
2
100
AcDbSymbolTableRecord
100
AcDbLayerTableRecord
  2
OS
 70
     0
 62
     7
  6
Continuous
370
    -3
390
F
  0
LAYER
  5
18FBC
330
2
100
AcDbSymbolTableRecord
100
AcDbLayerTableRecord
  2
2
 70
     0
 62
     7
  6
Continuous
370
    -3
390
F
  0
ENDTAB
  0
TABLE
  2
STYLE
  5
3
330
0
100
AcDbSymbolTable
 70
     4
  0
STYLE
  5
11
330
3
100
AcDbSymbolTableRecord
100
AcDbTextStyleTableRecord
  2
Standard
 70
     0
 40
0.0
 41
1.0
 50
0.0
 71
     0
 42
2.5
  3
txt
  4

  0
STYLE
  5
34
330
3
100
AcDbSymbolTableRecord
100
AcDbTextStyleTableRecord
  2
DIM
 70
     0
 40
0.0
 41
0.75
 50
0.0
 71
     0
 42
60.0
  3
romans.shx
  4
extfont.shx
  0
STYLE
  5
35
330
3
100
AcDbSymbolTableRecord
100
AcDbTextStyleTableRecord
  2
AT_VECTOR
 70
     0
 40
0.0
 41
1.0
 50
0.0
 71
     0
 42
3.0
  3
romans.shx
  4
extfont.shx
  0
STYLE
  5
16252
330
3
100
AcDbSymbolTableRecord
100
AcDbTextStyleTableRecord
  2
ST_Design
 70
     0
 40
4.0
 41
0.8
 50
0.0
 71
     0
 42
4.0
  3
romans.shx
  4
extfont2.shx
  0
ENDTAB
  0
TABLE
  2
VIEW
  5
6
330
0
100
AcDbSymbolTable
 70
     0
  0
ENDTAB
  0
TABLE
  2
UCS
  5
7
330
0
100
AcDbSymbolTable
 70
     0
  0
ENDTAB
  0
TABLE
  2
APPID
  5
9
330
0
100
AcDbSymbolTable
 70
    14
  0
APPID
  5
12
330
9
100
AcDbSymbolTableRecord
100
AcDbRegAppTableRecord
  2
ACAD
 70
     0
  0
APPID
  5
3DA
330
9
100
AcDbSymbolTableRecord
100
AcDbRegAppTableRecord
  2
BS2_OSAMARI_KUTAI
 70
     0
  0
APPID
  5
3DB
330
9
100
AcDbSymbolTableRecord
100
AcDbRegAppTableRecord
  2
BS2_OSAMARI_ISIAGE
 70
     0
  0
APPID
  5
3DC
330
9
100
AcDbSymbolTableRecord
100
AcDbRegAppTableRecord
  2
BS2_OSAMARI_IMOKU
 70
     0
  0
APPID
  5
3DD
330
9
100
AcDbSymbolTableRecord
100
AcDbRegAppTableRecord
  2
BS2_OSAMARI_OSIAGE
 70
     0
  0
APPID
  5
3DE
330
9
100
AcDbSymbolTableRecord
100
AcDbRegAppTableRecord
  2
BS2_OSAMARI_OFZK
 70
     0
  0
APPID
  5
E427
330
9
100
AcDbSymbolTableRecord
100
AcDbRegAppTableRecord
  2
ACAD_MLEADERVER
 70
     0
  0
APPID
  5
F13C
330
9
100
AcDbSymbolTableRecord
100
AcDbRegAppTableRecord
  2
ACAD_EXEMPT_FROM_CAD_STANDARDS
 70
     0
  0
APPID
  5
F7FB
330
9
100
AcDbSymbolTableRecord
100
AcDbRegAppTableRecord
  2
ACAD_PSEXT
 70
     0
  0
APPID
  5
12721
330
9
100
AcDbSymbolTableRecord
100
AcDbRegAppTableRecord
  2
ACAD_DSTYLE_DIMJAG
 70
     0
  0
APPID
  5
12722
330
9
100
AcDbSymbolTableRecord
100
AcDbRegAppTableRecord
  2
ACAD_DSTYLE_DIMTALN
 70
     0
  0
APPID
  5
1393B
330
9
100
AcDbSymbolTableRecord
100
AcDbRegAppTableRecord
  2
YALIB
 70
     0
  0
APPID
  5
168AF
330
9
100
AcDbSymbolTableRecord
100
AcDbRegAppTableRecord
  2
GENIUS_GENODEF_13
 70
     0
  0
APPID
  5
168B0
330
9
100
AcDbSymbolTableRecord
100
AcDbRegAppTableRecord
  2
GENIUS_GENOBJ-N-FIL_13
 70
     0
  0
ENDTAB
  0
TABLE
  2
DIMSTYLE
  5
A
330
0
100
AcDbSymbolTable
 70
     2
100
AcDbDimStyleTable
 71
     2
340
38
340
1A9
  0
DIMSTYLE
105
38
102
{ACAD_REACTORS
330
19DFB
330
19DFC
330
19E1B
330
19ECF
330
19ED4
330
19F0B
330
19F0C
330
19C9B
330
19C9C
330
19D12
330
19D95
102
}
330
A
100
AcDbSymbolTableRecord
100
AcDbDimStyleTableRecord
  2
DIM
 70
     0
 40
2.0
 41
1.5
 42
1.5
 43
7.0
 44
1.0
 73
     0
 74
     0
 77
     1
 78
     8
140
3.0
141
0.0
143
0.03937007874016
147
1.0
171
     3
172
     1
176
     4
177
     4
178
     7
271
     2
272
     2
274
     3
283
     0
284
     8
340
34
341
2B
342
2B
371
    20
372
    20
  0
DIMSTYLE
105
1A9
330
A
100
AcDbSymbolTableRecord
100
AcDbDimStyleTableRecord
  2
Standard
 70
     0
340
11
  0
ENDTAB
  0
TABLE
  2
BLOCK_RECORD
  5
1
330
0
100
AcDbSymbolTable
 70
    26
  0
BLOCK_RECORD
  5
1F
102
{ACAD_XDICTIONARY
360
F144
102
}
330
1
100
AcDbSymbolTableRecord
100
AcDbBlockTableRecord
  2
*Model_Space
340
22
  0
BLOCK_RECORD
  5
1B
330
1
100
AcDbSymbolTableRecord
100
AcDbBlockTableRecord
  2
*Paper_Space
340
1E
  0
BLOCK_RECORD
  5
23
330
1
100
AcDbSymbolTableRecord
100
AcDbBlockTableRecord
  2
*Paper_Space0
340
26
  0
BLOCK_RECORD
  5
2B
330
1
100
AcDbSymbolTableRecord
100
AcDbBlockTableRecord
  2
_Open30
340
0
102
{BLKREFS
331
1A9CF
331
1A9D0
331
1A9D8
331
1A9D9
331
1A9E3
331
1A9E4
331
1A9EC
331
1A9ED
331
1A9F5
331
1A9F6
331
1AA00
331
1AA01
331
1AA09
331
1AA0A
331
1AA12
331
1AA13
331
1AA1B
331
1AA1C
331
1AA24
331
1AA25
331
1AA2D
331
1AA2E
331
1AA82
331
1AA83
331
1AA8B
331
1AA8C
331
1AA94
331
1AA95
331
1AA9D
331
1AA9E
331
1AAA6
331
1AAA7
331
1AAAF
331
1AAB0
331
1AAB8
331
1AAB9
331
1AAC1
331
1AAC2
331
1AACA
331
1AACB
331
1AAD3
331
1AAD4
331
1AADA
331
1AADB
331
1AAE5
331
1AAE6
102
}
  0
BLOCK_RECORD
  5
1A7A3
330
1
100
AcDbSymbolTableRecord
100
AcDbBlockTableRecord
  2
*D5
340
0
  0
BLOCK_RECORD
  5
1A7AF
330
1
100
AcDbSymbolTableRecord
100
AcDbBlockTableRecord
  2
*D6
340
0
  0
BLOCK_RECORD
  5
1A7BD
330
1
100
AcDbSymbolTableRecord
100
AcDbBlockTableRecord
  2
*D7
340
0
  0
BLOCK_RECORD
  5
1A7C9
330
1
100
AcDbSymbolTableRecord
100
AcDbBlockTableRecord
  2
*D8
340
0
  0
BLOCK_RECORD
  5
1A7D5
330
1
100
AcDbSymbolTableRecord
100
AcDbBlockTableRecord
  2
*D9
340
0
  0
BLOCK_RECORD
  5
1A7E1
330
1
100
AcDbSymbolTableRecord
100
AcDbBlockTableRecord
  2
*D10
340
0
  0
BLOCK_RECORD
  5
1A7ED
330
1
100
AcDbSymbolTableRecord
100
AcDbBlockTableRecord
  2
*D11
340
0
  0
BLOCK_RECORD
  5
1A841
330
1
100
AcDbSymbolTableRecord
100
AcDbBlockTableRecord
  2
*D18
340
0
  0
BLOCK_RECORD
  5
1A84D
330
1
100
AcDbSymbolTableRecord
100
AcDbBlockTableRecord
  2
*D19
340
0
  0
BLOCK_RECORD
  5
1A859
330
1
100
AcDbSymbolTableRecord
100
AcDbBlockTableRecord
  2
*D20
340
0
  0
BLOCK_RECORD
  5
1A867
330
1
100
AcDbSymbolTableRecord
100
AcDbBlockTableRecord
  2
*D21
340
0
  0
ENDTAB
  0
ENDSEC
  0
SECTION
  2
BLOCKS
  0
BLOCK
  5
20
330
1F
100
AcDbEntity
  8
0
100
AcDbBlockBegin
  2
*Model_Space
 70
     0
 10
0.0
 20
0.0
 30
0.0
  3
*Model_Space
  1

  0
ENDBLK
  5
21
330
1F
100
AcDbEntity
  8
0
100
AcDbBlockEnd
  0
BLOCK
  5
1C
330
1B
100
AcDbEntity
 67
     1
  8
0
100
AcDbBlockBegin
  2
*Paper_Space
 70
     0
 10
0.0
 20
0.0
 30
0.0
  3
*Paper_Space
  1

  0
ENDBLK
  5
1D
330
1B
100
AcDbEntity
 67
     1
  8
0
100
AcDbBlockEnd
  0
BLOCK
  5
24
330
23
100
AcDbEntity
 67
     1
  8
0
100
AcDbBlockBegin
  2
*Paper_Space0
 70
     0
 10
0.0
 20
0.0
 30
0.0
  3
*Paper_Space0
  1

  0
ENDBLK
  5
25
330
23
100
AcDbEntity
 67
     1
  8
0
100
AcDbBlockEnd
  0
BLOCK
  5
2F
330
2B
100
AcDbEntity
  8
0
100
AcDbBlockBegin
  2
_Open30
 70
     0
 10
0.0
 20
0.0
 30
0.0
  3
_Open30
  1

  0
LINE
  5
2C
330
2B
100
AcDbEntity
  8
0
  6
ByBlock
 62
     0
370
    -2
100
AcDbLine
 10
-1.0
 20
0.26794919
 30
0.0
 11
0.0
 21
0.0
 31
0.0
  0
LINE
  5
2D
330
2B
100
AcDbEntity
  8
0
  6
ByBlock
 62
     0
370
    -2
100
AcDbLine
 10
0.0
 20
0.0
 30
0.0
 11
-1.0
 21
-0.26794919
 31
0.0
  0
LINE
  5
2E
330
2B
100
AcDbEntity
  8
0
  6
ByBlock
 62
     0
370
    -2
100
AcDbLine
 10
0.0
 20
0.0
 30
0.0
 11
-1.0
 21
0.0
 31
0.0
  0
ENDBLK
  5
30
330
2B
100
AcDbEntity
  8
0
100
AcDbBlockEnd
  0
BLOCK
  5
1A7A4
330
1A7A3
100
AcDbEntity
  8
0
100
AcDbBlockBegin
  2
*D5
 70
     1
 10
0.0
 20
0.0
 30
0.0
  3
*D5
  1

  0
LINE
  5
1A9F2
330
1A7A3
100
AcDbEntity
  8
003
 62
     4
370
    20
100
AcDbLine
 10
559.0152399062664
 20
287.2827050314337
 30
0.0
 11
579.1920626975801
 21
287.2827050314337
 31
0.0
  0
LINE
  5
1A9F3
330
1A7A3
100
AcDbEntity
  8
003
 62
     4
370
    20
100
AcDbLine
 10
574.9582168559184
 20
227.7827050314337
 30
0.0
 11
579.19206269758
 21
227.7827050314336
 31
0.0
  0
LINE
  5
1A9F4
330
1A7A3
100
AcDbEntity
  8
003
 62
     4
370
    20
100
AcDbLine
 10
577.1920626975801
 20
284.2827050314337
 30
0.0
 11
577.1920626975799
 21
230.7827050314337
 31
0.0
  0
INSERT
  5
1A9F5
330
1A7A3
100
AcDbEntity
  8
003
 62
     4
370
    20
100
AcDbBlockReference
  2
_Open30
 10
577.1920626975801
 20
287.2827050314337
 30
0.0
 41
3.0
 42
3.0
 43
3.0
 50
90.0
  0
INSERT
  5
1A9F6
330
1A7A3
100
AcDbEntity
  8
003
 62
     4
370
    20
100
AcDbBlockReference
  2
_Open30
 10
577.1920626975799
 20
227.7827050314336
 30
0.0
 41
3.0
 42
3.0
 43
3.0
 50
270.0
  0
MTEXT
  5
1A9F7
330
1A7A3
100
AcDbEntity
  8
003
 62
     7
100
AcDbMText
 10
572.19206269758
 20
257.5327050314338
 30
0.0
 40
6.0
 41
0.0
 71
     5
 72
     1
  1
59.5
  7
DIM
 11
0.0000000000000001
 21
1.0
 31
0.0
 73
     1
 44
1.0
1001
ACAD
1000
MTEXTBEGIN
1070
    73
1070
     1
1070
    44
1040
1.0
1070
    74
1070
     0
1000
MTEXTEND
  0
POINT
  5
1A9F8
330
1A7A3
100
AcDbEntity
  8
Defpoints
 62
     0
100
AcDbPoint
 10
556.0152399062664
 20
287.2827050314337
 30
0.0
  0
POINT
  5
1A9F9
330
1A7A3
100
AcDbEntity
  8
Defpoints
 62
     0
100
AcDbPoint
 10
571.9582168559184
 20
227.7827050314337
 30
0.0
  0
POINT
  5
1A9FA
330
1A7A3
100
AcDbEntity
  8
Defpoints
 62
     0
100
AcDbPoint
 10
577.1920626975799
 20
227.7827050314336
 30
0.0
  0
ENDBLK
  5
1A7A5
330
1A7A3
100
AcDbEntity
  8
0
100
AcDbBlockEnd
  0
BLOCK
  5
1A7B0
330
1A7AF
100
AcDbEntity
  8
0
100
AcDbBlockBegin
  2
*D6
 70
     1
 10
0.0
 20
0.0
 30
0.0
  3
*D6
  1

  0
LINE
  5
1A9FB
330
1A7AF
100
AcDbEntity
  8
003
 62
     4
370
    20
100
AcDbLine
 10
565.0152399062664
 20
280.2827050314337
 30
0.0
 11
565.0152399062664
 21
324.6406588029396
 31
0.0
  0
LINE
  5
1A9FC
330
1A7AF
100
AcDbEntity
  8
003
 62
     4
370
    20
100
AcDbLine
 10
566.0152399062665
 20
230.2827049441672
 30
0.0
 11
566.0152399062665
 21
324.6406588029396
 31
0.0
  0
LINE
  5
1A9FD
330
1A7AF
100
AcDbEntity
  8
003
 62
     4
370
    20
100
AcDbLine
 10
562.0152399062665
 20
322.6406588029396
 30
0.0
 11
559.0152399062665
 21
322.6406588029396
 31
0.0
  0
LINE
  5
1A9FE
330
1A7AF
100
AcDbEntity
  8
003
 62
     4
370
    20
100
AcDbLine
 10
569.0152399062665
 20
322.6406588029396
 30
0.0
 11
577.086668477695
 21
322.6406588029396
 31
0.0
  0
LINE
  5
1A9FF
330
1A7AF
100
AcDbEntity
  8
003
 62
     4
370
    20
100
AcDbLine
 10
565.0152399062664
 20
322.6406588029396
 30
0.0
 11
566.0152399062665
 21
322.6406588029396
 31
0.0
  0
INSERT
  5
1AA00
330
1A7AF
100
AcDbEntity
  8
003
 62
     4
370
    20
100
AcDbBlockReference
  2
_Open30
 10
565.0152399062664
 20
322.6406588029396
 30
0.0
 41
3.0
 42
3.0
 43
3.0
  0
INSERT
  5
1AA01
330
1A7AF
100
AcDbEntity
  8
003
 62
     4
370
    20
100
AcDbBlockReference
  2
_Open30
 10
566.0152399062665
 20
322.6406588029396
 30
0.0
 41
3.0
 42
3.0
 43
3.0
 50
180.0
  0
MTEXT
  5
1AA02
330
1A7AF
100
AcDbEntity
  8
003
 62
     7
100
AcDbMText
 10
574.5509541919808
 20
327.6406588029396
 30
0.0
 40
6.0
 41
0.0
 71
     5
 72
     1
  1
1
  7
DIM
 73
     1
 44
1.0
1001
ACAD
1000
MTEXTBEGIN
1070
    73
1070
     1
1070
    44
1040
1.0
1070
    74
1070
     0
1000
MTEXTEND
  0
POINT
  5
1AA03
330
1A7AF
100
AcDbEntity
  8
Defpoints
 62
     0
100
AcDbPoint
 10
565.0152399062664
 20
277.2827050314337
 30
0.0
  0
POINT
  5
1AA04
330
1A7AF
100
AcDbEntity
  8
Defpoints
 62
     0
100
AcDbPoint
 10
566.0152399062665
 20
227.2827049441672
 30
0.0
  0
POINT
  5
1AA05
330
1A7AF
100
AcDbEntity
  8
Defpoints
 62
     0
100
AcDbPoint
 10
566.0152399062665
 20
322.6406588029396
 30
0.0
  0
ENDBLK
  5
1A7B1
330
1A7AF
100
AcDbEntity
  8
0
100
AcDbBlockEnd
  0
BLOCK
  5
1A7BE
330
1A7BD
100
AcDbEntity
  8
0
100
AcDbBlockBegin
  2
*D7
 70
     1
 10
0.0
 20
0.0
 30
0.0
  3
*D7
  1

  0
LINE
  5
1AA06
330
1A7BD
100
AcDbEntity
  8
003
 62
     4
370
    20
100
AcDbLine
 10
553.5902499062668
 20
222.2827050314337
 30
0.0
 11
552.5343847853664
 21
222.2827050314337
 31
0.0
  0
LINE
  5
1AA07
330
1A7BD
100
AcDbEntity
  8
003
 62
     4
370
    20
100
AcDbLine
 10
549.0152399062663
 20
287.2827050314337
 30
0.0
 11
556.5343847853665
 21
287.2827050314337
 31
0.0
  0
LINE
  5
1AA08
330
1A7BD
100
AcDbEntity
  8
003
 62
     4
370
    20
100
AcDbLine
 10
554.5343847853664
 20
225.2827050314337
 30
0.0
 11
554.5343847853665
 21
284.2827050314337
 31
0.0
  0
INSERT
  5
1AA09
330
1A7BD
100
AcDbEntity
  8
003
 62
     4
370
    20
100
AcDbBlockReference
  2
_Open30
 10
554.5343847853664
 20
222.2827050314337
 30
0.0
 41
3.0
 42
3.0
 43
3.0
 50
270.0
  0
INSERT
  5
1AA0A
330
1A7BD
100
AcDbEntity
  8
003
 62
     4
370
    20
100
AcDbBlockReference
  2
_Open30
 10
554.5343847853665
 20
287.2827050314337
 30
0.0
 41
3.0
 42
3.0
 43
3.0
 50
90.0
  0
MTEXT
  5
1AA0B
330
1A7BD
100
AcDbEntity
  8
003
 62
     7
100
AcDbMText
 10
549.5343847853664
 20
254.7827050314338
 30
0.0
 40
6.0
 41
0.0
 71
     5
 72
     1
  1
65
  7
DIM
 11
0.0000000000000001
 21
1.0
 31
0.0
 73
     1
 44
1.0
1001
ACAD
1000
MTEXTBEGIN
1070
    73
1070
     1
1070
    44
1040
1.0
1070
    74
1070
     0
1000
MTEXTEND
  0
POINT
  5
1AA0C
330
1A7BD
100
AcDbEntity
  8
Defpoints
 62
     0
100
AcDbPoint
 10
556.5902499062668
 20
222.2827050314337
 30
0.0
  0
POINT
  5
1AA0D
330
1A7BD
100
AcDbEntity
  8
Defpoints
 62
     0
100
AcDbPoint
 10
546.0152399062663
 20
287.2827050314337
 30
0.0
  0
POINT
  5
1AA0E
330
1A7BD
100
AcDbEntity
  8
Defpoints
 62
     0
100
AcDbPoint
 10
554.5343847853665
 20
287.2827050314337
 30
0.0
  0
ENDBLK
  5
1A7BF
330
1A7BD
100
AcDbEntity
  8
0
100
AcDbBlockEnd
  0
BLOCK
  5
1A7CA
330
1A7C9
100
AcDbEntity
  8
0
100
AcDbBlockBegin
  2
*D8
 70
     1
 10
0.0
 20
0.0
 30
0.0
  3
*D8
  1

  0
LINE
  5
1AA0F
330
1A7C9
100
AcDbEntity
  8
003
 62
     4
370
    20
100
AcDbLine
 10
683.790587796177
 20
418.2401181554427
 30
0.0
 11
721.5525996421706
 21
418.2401181554427
 31
0.0
  0
LINE
  5
1AA10
330
1A7C9
100
AcDbEntity
  8
003
 62
     4
370
    20
100
AcDbLine
 10
683.790587796177
 20
528.3401181554427
 30
0.0
 11
721.5525996421706
 21
528.3401181554427
 31
0.0
  0
LINE
  5
1AA11
330
1A7C9
100
AcDbEntity
  8
003
 62
     4
370
    20
100
AcDbLine
 10
719.5525996421706
 20
421.2401181554427
 30
0.0
 11
719.5525996421706
 21
525.3401181554427
 31
0.0
  0
INSERT
  5
1AA12
330
1A7C9
100
AcDbEntity
  8
003
 62
     4
370
    20
100
AcDbBlockReference
  2
_Open30
 10
719.5525996421706
 20
418.2401181554427
 30
0.0
 41
3.0
 42
3.0
 43
3.0
 50
270.0
  0
INSERT
  5
1AA13
330
1A7C9
100
AcDbEntity
  8
003
 62
     4
370
    20
100
AcDbBlockReference
  2
_Open30
 10
719.5525996421706
 20
528.3401181554427
 30
0.0
 41
3.0
 42
3.0
 43
3.0
 50
90.0
  0
MTEXT
  5
1AA14
330
1A7C9
100
AcDbEntity
  8
003
 62
     7
100
AcDbMText
 10
714.5525996421705
 20
473.2901181554428
 30
0.0
 40
6.0
 41
0.0
 71
     5
 72
     1
  1
製品H
  7
DIM
 11
0.0000000000000001
 21
1.0
 31
0.0
 73
     1
 44
1.0
1001
ACAD
1000
MTEXTBEGIN
1070
    73
1070
     1
1070
    44
1040
1.0
1070
    74
1070
     0
1000
MTEXTEND
  0
POINT
  5
1AA15
330
1A7C9
100
AcDbEntity
  8
Defpoints
 62
     0
100
AcDbPoint
 10
680.790587796177
 20
418.2401181554427
 30
0.0
  0
POINT
  5
1AA16
330
1A7C9
100
AcDbEntity
  8
Defpoints
 62
     0
100
AcDbPoint
 10
680.790587796177
 20
528.3401181554427
 30
0.0
  0
POINT
  5
1AA17
330
1A7C9
100
AcDbEntity
  8
Defpoints
 62
     0
100
AcDbPoint
 10
719.5525996421706
 20
528.3401181554427
 30
0.0
  0
ENDBLK
  5
1A7CB
330
1A7C9
100
AcDbEntity
  8
0
100
AcDbBlockEnd
  0
BLOCK
  5
1A7D6
330
1A7D5
100
AcDbEntity
  8
0
100
AcDbBlockBegin
  2
*D9
 70
     1
 10
0.0
 20
0.0
 30
0.0
  3
*D9
  1

  0
LINE
  5
1AA18
330
1A7D5
100
AcDbEntity
  8
003
 62
     4
370
    20
100
AcDbLine
 10
590.7905877961771
 20
415.2401181554426
 30
0.0
 11
590.7905877961771
 21
393.9218147561324
 31
0.0
  0
LINE
  5
1AA19
330
1A7D5
100
AcDbEntity
  8
003
 62
     4
370
    20
100
AcDbLine
 10
680.790587796177
 20
415.2401181554426
 30
0.0
 11
680.790587796177
 21
393.9218147561324
 31
0.0
  0
LINE
  5
1AA1A
330
1A7D5
100
AcDbEntity
  8
003
 62
     4
370
    20
100
AcDbLine
 10
593.790587796177
 20
395.9218147561324
 30
0.0
 11
677.7905877961771
 21
395.9218147561324
 31
0.0
  0
INSERT
  5
1AA1B
330
1A7D5
100
AcDbEntity
  8
003
 62
     4
370
    20
100
AcDbBlockReference
  2
_Open30
 10
590.7905877961771
 20
395.9218147561324
 30
0.0
 41
3.0
 42
3.0
 43
3.0
 50
180.0
  0
INSERT
  5
1AA1C
330
1A7D5
100
AcDbEntity
  8
003
 62
     4
370
    20
100
AcDbBlockReference
  2
_Open30
 10
680.790587796177
 20
395.9218147561324
 30
0.0
 41
3.0
 42
3.0
 43
3.0
  0
MTEXT
  5
1AA1D
330
1A7D5
100
AcDbEntity
  8
003
 62
     7
100
AcDbMText
 10
635.790587796177
 20
400.9218147561324
 30
0.0
 40
6.0
 41
0.0
 71
     5
 72
     1
  1
製品W
  7
DIM
 73
     1
 44
1.0
1001
ACAD
1000
MTEXTBEGIN
1070
    73
1070
     1
1070
    44
1040
1.0
1070
    74
1070
     0
1000
MTEXTEND
  0
POINT
  5
1AA1E
330
1A7D5
100
AcDbEntity
  8
Defpoints
 62
     0
100
AcDbPoint
 10
590.7905877961771
 20
418.2401181554427
 30
0.0
  0
POINT
  5
1AA1F
330
1A7D5
100
AcDbEntity
  8
Defpoints
 62
     0
100
AcDbPoint
 10
680.790587796177
 20
418.2401181554427
 30
0.0
  0
POINT
  5
1AA20
330
1A7D5
100
AcDbEntity
  8
Defpoints
 62
     0
100
AcDbPoint
 10
680.790587796177
 20
395.9218147561324
 30
0.0
  0
ENDBLK
  5
1A7D7
330
1A7D5
100
AcDbEntity
  8
0
100
AcDbBlockEnd
  0
BLOCK
  5
1A7E2
330
1A7E1
100
AcDbEntity
  8
0
100
AcDbBlockBegin
  2
*D10
 70
     1
 10
0.0
 20
0.0
 30
0.0
  3
*D10
  1

  0
LINE
  5
1AA21
330
1A7E1
100
AcDbEntity
  8
003
 62
     4
370
    20
100
AcDbLine
 10
299.0152399062667
 20
155.2827050314341
 30
0.0
 11
299.0152399062667
 21
132.6001278518658
 31
0.0
  0
LINE
  5
1AA22
330
1A7E1
100
AcDbEntity
  8
003
 62
     4
370
    20
100
AcDbLine
 10
319.0152399062668
 20
214.9827150314337
 30
0.0
 11
319.0152399062668
 21
132.6001278518658
 31
0.0
  0
LINE
  5
1AA23
330
1A7E1
100
AcDbEntity
  8
003
 62
     4
370
    20
100
AcDbLine
 10
302.0152399062667
 20
134.6001278518658
 30
0.0
 11
316.0152399062667
 21
134.6001278518658
 31
0.0
  0
INSERT
  5
1AA24
330
1A7E1
100
AcDbEntity
  8
003
 62
     4
370
    20
100
AcDbBlockReference
  2
_Open30
 10
299.0152399062667
 20
134.6001278518658
 30
0.0
 41
3.0
 42
3.0
 43
3.0
 50
180.0
  0
INSERT
  5
1AA25
330
1A7E1
100
AcDbEntity
  8
003
 62
     4
370
    20
100
AcDbBlockReference
  2
_Open30
 10
319.0152399062668
 20
134.6001278518658
 30
0.0
 41
3.0
 42
3.0
 43
3.0
  0
MTEXT
  5
1AA26
330
1A7E1
100
AcDbEntity
  8
003
 62
     7
100
AcDbMText
 10
309.0152399062668
 20
139.6001278518658
 30
0.0
 40
6.0
 41
0.0
 71
     5
 72
     1
  1
20
  7
DIM
 73
     1
 44
1.0
1001
ACAD
1000
MTEXTBEGIN
1070
    73
1070
     1
1070
    44
1040
1.0
1070
    74
1070
     0
1000
MTEXTEND
  0
POINT
  5
1AA27
330
1A7E1
100
AcDbEntity
  8
Defpoints
 62
     0
100
AcDbPoint
 10
299.0152399062667
 20
158.2827050314341
 30
0.0
  0
POINT
  5
1AA28
330
1A7E1
100
AcDbEntity
  8
Defpoints
 62
     0
100
AcDbPoint
 10
319.0152399062668
 20
217.9827150314337
 30
0.0
  0
POINT
  5
1AA29
330
1A7E1
100
AcDbEntity
  8
Defpoints
 62
     0
100
AcDbPoint
 10
319.0152399062668
 20
134.6001278518658
 30
0.0
  0
ENDBLK
  5
1A7E3
330
1A7E1
100
AcDbEntity
  8
0
100
AcDbBlockEnd
  0
BLOCK
  5
1A7EE
330
1A7ED
100
AcDbEntity
  8
0
100
AcDbBlockBegin
  2
*D11
 70
     1
 10
0.0
 20
0.0
 30
0.0
  3
*D11
  1

  0
LINE
  5
1AA2A
330
1A7ED
100
AcDbEntity
  8
003
 62
     4
370
    20
100
AcDbLine
 10
566.0152399062665
 20
155.2827050314341
 30
0.0
 11
566.0152399062665
 21
132.6001278518658
 31
0.0
  0
LINE
  5
1AA2B
330
1A7ED
100
AcDbEntity
  8
003
 62
     4
370
    20
100
AcDbLine
 10
546.0152399062665
 20
214.9827150314337
 30
0.0
 11
546.0152399062665
 21
132.6001278518658
 31
0.0
  0
LINE
  5
1AA2C
330
1A7ED
100
AcDbEntity
  8
003
 62
     4
370
    20
100
AcDbLine
 10
563.0152399062665
 20
134.6001278518658
 30
0.0
 11
549.0152399062664
 21
134.6001278518658
 31
0.0
  0
INSERT
  5
1AA2D
330
1A7ED
100
AcDbEntity
  8
003
 62
     4
370
    20
100
AcDbBlockReference
  2
_Open30
 10
566.0152399062665
 20
134.6001278518658
 30
0.0
 41
3.0
 42
3.0
 43
3.0
  0
INSERT
  5
1AA2E
330
1A7ED
100
AcDbEntity
  8
003
 62
     4
370
    20
100
AcDbBlockReference
  2
_Open30
 10
546.0152399062665
 20
134.6001278518658
 30
0.0
 41
3.0
 42
3.0
 43
3.0
 50
180.0
  0
MTEXT
  5
1AA2F
330
1A7ED
100
AcDbEntity
  8
003
 62
     7
100
AcDbMText
 10
556.0152399062665
 20
139.6001278518658
 30
0.0
 40
6.0
 41
0.0
 71
     5
 72
     1
  1
20
  7
DIM
 73
     1
 44
1.0
1001
ACAD
1000
MTEXTBEGIN
1070
    73
1070
     1
1070
    44
1040
1.0
1070
    74
1070
     0
1000
MTEXTEND
  0
POINT
  5
1AA30
330
1A7ED
100
AcDbEntity
  8
Defpoints
 62
     0
100
AcDbPoint
 10
566.0152399062665
 20
158.2827050314341
 30
0.0
  0
POINT
  5
1AA31
330
1A7ED
100
AcDbEntity
  8
Defpoints
 62
     0
100
AcDbPoint
 10
546.0152399062665
 20
217.9827150314337
 30
0.0
  0
POINT
  5
1AA32
330
1A7ED
100
AcDbEntity
  8
Defpoints
 62
     0
100
AcDbPoint
 10
546.0152399062665
 20
134.6001278518658
 30
0.0
  0
ENDBLK
  5
1A7EF
330
1A7ED
100
AcDbEntity
  8
0
100
AcDbBlockEnd
  0
BLOCK
  5
1A842
330
1A841
100
AcDbEntity
  8
0
100
AcDbBlockBegin
  2
*D18
 70
     1
 10
0.0
 20
0.0
 30
0.0
  3
*D18
  1

  0
LINE
  5
1A9CC
330
1A841
100
AcDbEntity
  8
003
 62
     4
370
    20
100
AcDbLine
 10
299.0152399062667
 20
155.2827051187006
 30
0.0
 11
299.0152399062667
 21
118.6001278518658
 31
0.0
  0
LINE
  5
1A9CD
330
1A841
100
AcDbEntity
  8
003
 62
     4
370
    20
100
AcDbLine
 10
566.0152399062665
 20
155.2827051187006
 30
0.0
 11
566.0152399062665
 21
118.6001278518658
 31
0.0
  0
LINE
  5
1A9CE
330
1A841
100
AcDbEntity
  8
003
 62
     4
370
    20
100
AcDbLine
 10
302.0152399062667
 20
120.6001278518658
 30
0.0
 11
563.0152399062665
 21
120.6001278518658
 31
0.0
  0
INSERT
  5
1A9CF
330
1A841
100
AcDbEntity
  8
003
 62
     4
370
    20
100
AcDbBlockReference
  2
_Open30
 10
299.0152399062667
 20
120.6001278518658
 30
0.0
 41
3.0
 42
3.0
 43
3.0
 50
180.0
  0
INSERT
  5
1A9D0
330
1A841
100
AcDbEntity
  8
003
 62
     4
370
    20
100
AcDbBlockReference
  2
_Open30
 10
566.0152399062665
 20
120.6001278518658
 30
0.0
 41
3.0
 42
3.0
 43
3.0
  0
MTEXT
  5
1A9D1
330
1A841
100
AcDbEntity
  8
003
 62
     7
100
AcDbMText
 10
432.5152399062665
 20
125.6001278518658
 30
0.0
 40
6.0
 41
0.0
 71
     5
 72
     1
  1
SW
  7
DIM
 73
     1
 44
1.0
1001
ACAD
1000
MTEXTBEGIN
1070
    73
1070
     1
1070
    44
1040
1.0
1070
    74
1070
     0
1000
MTEXTEND
  0
POINT
  5
1A9D2
330
1A841
100
AcDbEntity
  8
Defpoints
 62
     0
100
AcDbPoint
 10
299.0152399062667
 20
158.2827051187006
 30
0.0
  0
POINT
  5
1A9D3
330
1A841
100
AcDbEntity
  8
Defpoints
 62
     0
100
AcDbPoint
 10
566.0152399062665
 20
158.2827051187006
 30
0.0
  0
POINT
  5
1A9D4
330
1A841
100
AcDbEntity
  8
Defpoints
 62
     0
100
AcDbPoint
 10
566.0152399062665
 20
120.6001278518658
 30
0.0
  0
ENDBLK
  5
1A843
330
1A841
100
AcDbEntity
  8
0
100
AcDbBlockEnd
  0
BLOCK
  5
1A84E
330
1A84D
100
AcDbEntity
  8
0
100
AcDbBlockBegin
  2
*D19
 70
     1
 10
0.0
 20
0.0
 30
0.0
  3
*D19
  1

  0
LINE
  5
1A9D5
330
1A84D
100
AcDbEntity
  8
003
 62
     4
370
    20
100
AcDbLine
 10
300.0152399062667
 20
280.2827050314341
 30
0.0
 11
300.0152399062667
 21
324.6406588029396
 31
0.0
  0
LINE
  5
1A9D6
330
1A84D
100
AcDbEntity
  8
003
 62
     4
370
    20
100
AcDbLine
 10
565.0152399062664
 20
280.2827050314337
 30
0.0
 11
565.0152399062664
 21
324.6406588029396
 31
0.0
  0
LINE
  5
1A9D7
330
1A84D
100
AcDbEntity
  8
003
 62
     4
370
    20
100
AcDbLine
 10
303.0152399062667
 20
322.6406588029396
 30
0.0
 11
562.0152399062665
 21
322.6406588029396
 31
0.0
  0
INSERT
  5
1A9D8
330
1A84D
100
AcDbEntity
  8
003
 62
     4
370
    20
100
AcDbBlockReference
  2
_Open30
 10
300.0152399062667
 20
322.6406588029396
 30
0.0
 41
3.0
 42
3.0
 43
3.0
 50
180.0
  0
INSERT
  5
1A9D9
330
1A84D
100
AcDbEntity
  8
003
 62
     4
370
    20
100
AcDbBlockReference
  2
_Open30
 10
565.0152399062664
 20
322.6406588029396
 30
0.0
 41
3.0
 42
3.0
 43
3.0
  0
MTEXT
  5
1A9DA
330
1A84D
100
AcDbEntity
  8
003
 62
     7
100
AcDbMText
 10
432.5152399062665
 20
327.6406588029396
 30
0.0
 40
6.0
 41
0.0
 71
     5
 72
     1
  1
製品W=SW-2
  7
DIM
 73
     1
 44
1.0
1001
ACAD
1000
MTEXTBEGIN
1070
    73
1070
     1
1070
    44
1040
1.0
1070
    74
1070
     0
1000
MTEXTEND
  0
POINT
  5
1A9DB
330
1A84D
100
AcDbEntity
  8
Defpoints
 62
     0
100
AcDbPoint
 10
300.0152399062667
 20
277.2827050314341
 30
0.0
  0
POINT
  5
1A9DC
330
1A84D
100
AcDbEntity
  8
Defpoints
 62
     0
100
AcDbPoint
 10
565.0152399062664
 20
277.2827050314337
 30
0.0
  0
POINT
  5
1A9DD
330
1A84D
100
AcDbEntity
  8
Defpoints
 62
     0
100
AcDbPoint
 10
565.0152399062664
 20
322.6406588029396
 30
0.0
  0
ENDBLK
  5
1A84F
330
1A84D
100
AcDbEntity
  8
0
100
AcDbBlockEnd
  0
BLOCK
  5
1A85A
330
1A859
100
AcDbEntity
  8
0
100
AcDbBlockBegin
  2
*D20
 70
     1
 10
0.0
 20
0.0
 30
0.0
  3
*D20
  1

  0
LINE
  5
1A9DE
330
1A859
100
AcDbEntity
  8
003
 62
     4
370
    20
100
AcDbLine
 10
299.0152399062667
 20
230.2827049441672
 30
0.0
 11
299.0152399062667
 21
324.6406588029396
 31
0.0
  0
LINE
  5
1A9DF
330
1A859
100
AcDbEntity
  8
003
 62
     4
370
    20
100
AcDbLine
 10
300.0152399062667
 20
325.6406588029396
 30
0.0
 11
300.0152399062667
 21
324.6406588029396
 31
0.0
  0
LINE
  5
1A9E0
330
1A859
100
AcDbEntity
  8
003
 62
     4
370
    20
100
AcDbLine
 10
303.0152399062667
 20
322.6406588029396
 30
0.0
 11
306.0152399062667
 21
322.6406588029396
 31
0.0
  0
LINE
  5
1A9E1
330
1A859
100
AcDbEntity
  8
003
 62
     4
370
    20
100
AcDbLine
 10
296.0152399062668
 20
322.6406588029396
 30
0.0
 11
287.9438113348378
 21
322.6406588029396
 31
0.0
  0
LINE
  5
1A9E2
330
1A859
100
AcDbEntity
  8
003
 62
     4
370
    20
100
AcDbLine
 10
300.0152399062667
 20
322.6406588029396
 30
0.0
 11
299.0152399062667
 21
322.6406588029396
 31
0.0
  0
INSERT
  5
1A9E3
330
1A859
100
AcDbEntity
  8
003
 62
     4
370
    20
100
AcDbBlockReference
  2
_Open30
 10
300.0152399062667
 20
322.6406588029396
 30
0.0
 41
3.0
 42
3.0
 43
3.0
 50
180.0
  0
INSERT
  5
1A9E4
330
1A859
100
AcDbEntity
  8
003
 62
     4
370
    20
100
AcDbBlockReference
  2
_Open30
 10
299.0152399062667
 20
322.6406588029396
 30
0.0
 41
3.0
 42
3.0
 43
3.0
  0
MTEXT
  5
1A9E5
330
1A859
100
AcDbEntity
  8
003
 62
     7
100
AcDbMText
 10
290.4795256205521
 20
327.6406588029396
 30
0.0
 40
6.0
 41
0.0
 71
     5
 72
     1
  1
1
  7
DIM
 73
     1
 44
1.0
1001
ACAD
1000
MTEXTBEGIN
1070
    73
1070
     1
1070
    44
1040
1.0
1070
    74
1070
     0
1000
MTEXTEND
  0
POINT
  5
1A9E6
330
1A859
100
AcDbEntity
  8
Defpoints
 62
     0
100
AcDbPoint
 10
299.0152399062667
 20
227.2827049441672
 30
0.0
  0
POINT
  5
1A9E7
330
1A859
100
AcDbEntity
  8
Defpoints
 62
     0
100
AcDbPoint
 10
300.0152399062667
 20
322.6406588029396
 30
0.0
  0
POINT
  5
1A9E8
330
1A859
100
AcDbEntity
  8
Defpoints
 62
     0
100
AcDbPoint
 10
300.0152399062667
 20
322.6406588029396
 30
0.0
  0
ENDBLK
  5
1A85B
330
1A859
100
AcDbEntity
  8
0
100
AcDbBlockEnd
  0
BLOCK
  5
1A868
330
1A867
100
AcDbEntity
  8
0
100
AcDbBlockBegin
  2
*D21
 70
     1
 10
0.0
 20
0.0
 30
0.0
  3
*D21
  1

  0
LINE
  5
1A9E9
330
1A867
100
AcDbEntity
  8
003
 62
     4
370
    20
100
AcDbLine
 10
574.9582168559184
 20
227.7827050314337
 30
0.0
 11
579.19206269758
 21
227.7827050314336
 31
0.0
  0
LINE
  5
1A9EA
330
1A867
100
AcDbEntity
  8
003
 62
     4
370
    20
100
AcDbLine
 10
577.4330710027973
 20
157.7827050314341
 30
0.0
 11
579.19206269758
 21
157.7827050314341
 31
0.0
  0
LINE
  5
1A9EB
330
1A867
100
AcDbEntity
  8
003
 62
     4
370
    20
100
AcDbLine
 10
577.1920626975799
 20
224.7827050314337
 30
0.0
 11
577.1920626975799
 21
160.7827050314341
 31
0.0
  0
INSERT
  5
1A9EC
330
1A867
100
AcDbEntity
  8
003
 62
     4
370
    20
100
AcDbBlockReference
  2
_Open30
 10
577.1920626975799
 20
227.7827050314336
 30
0.0
 41
3.0
 42
3.0
 43
3.0
 50
90.0
  0
INSERT
  5
1A9ED
330
1A867
100
AcDbEntity
  8
003
 62
     4
370
    20
100
AcDbBlockReference
  2
_Open30
 10
577.1920626975799
 20
157.7827050314341
 30
0.0
 41
3.0
 42
3.0
 43
3.0
 50
270.0
  0
MTEXT
  5
1A9EE
330
1A867
100
AcDbEntity
  8
003
 62
     7
100
AcDbMText
 10
572.19206269758
 20
192.782705031434
 30
0.0
 40
6.0
 41
0.0
 71
     5
 72
     1
  1
70
  7
DIM
 11
0.0000000000000001
 21
1.0
 31
0.0
 73
     1
 44
1.0
1001
ACAD
1000
MTEXTBEGIN
1070
    73
1070
     1
1070
    44
1040
1.0
1070
    74
1070
     0
1000
MTEXTEND
  0
POINT
  5
1A9EF
330
1A867
100
AcDbEntity
  8
Defpoints
 62
     0
100
AcDbPoint
 10
571.9582168559184
 20
227.7827050314337
 30
0.0
  0
POINT
  5
1A9F0
330
1A867
100
AcDbEntity
  8
Defpoints
 62
     0
100
AcDbPoint
 10
574.4330710027973
 20
157.7827050314341
 30
0.0
  0
POINT
  5
1A9F1
330
1A867
100
AcDbEntity
  8
Defpoints
 62
     0
100
AcDbPoint
 10
577.1920626975799
 20
157.7827050314341
 30
0.0
  0
ENDBLK
  5
1A869
330
1A867
100
AcDbEntity
  8
0
100
AcDbBlockEnd
  0
ENDSEC
  0
SECTION
  2
ENTITIES
  0
POINT
  5
F7F2
330
1F
100
AcDbEntity
  8
0
100
AcDbPoint
 10
20.0000000000001
 20
558.0
 30
0.0
  0
LINE
  5
18763
330
1F
100
AcDbEntity
  8
0
  6
ByBlock
 62
     0
370
    -2
100
AcDbLine
 10
798.0
 20
558.0
 30
0.0
 11
40.00000000000011
 21
558.0
 31
0.0
  0
LINE
  5
18764
330
1F
100
AcDbEntity
  8
0
  6
ByBlock
 62
     0
370
    -2
100
AcDbLine
 10
40.00000000000034
 20
38.0
 30
0.0
 11
798.0000000000034
 21
38.00000000000011
 31
0.0
  0
LINE
  5
18765
330
1F
100
AcDbEntity
  8
0
  6
ByBlock
 62
     0
370
    -2
100
AcDbLine
 10
40.00000000000034
 20
58.0
 30
0.0
 11
798.0000000000034
 21
58.0
 31
0.0
  0
LINE
  5
18766
330
1F
100
AcDbEntity
  8
0
  6
ByBlock
 62
     0
370
    -2
100
AcDbLine
 10
579.0000000000002
 20
51.0
 30
0.0
 11
419.0000000000004
 21
51.0
 31
0.0
  0
LINE
  5
18767
330
1F
100
AcDbEntity
  8
0
  6
ByBlock
 62
     0
370
    -2
100
AcDbLine
 10
40.00000000000011
 20
558.0
 30
0.0
 11
40.00000000000011
 21
38.0
 31
0.0
  0
LINE
  5
18768
330
1F
100
AcDbEntity
  8
0
  6
ByBlock
 62
     0
370
    -2
100
AcDbLine
 10
145.0000000000004
 20
38.0
 30
0.0
 11
235.0000000000002
 21
38.0
 31
0.0
  0
LINE
  5
18769
330
1F
100
AcDbEntity
  8
0
  6
ByBlock
 62
     0
370
    -2
100
AcDbLine
 10
145.0000000000004
 20
48.07416123045095
 30
0.0
 11
235.0000000000002
 21
48.07416123045095
 31
0.0
  0
LINE
  5
1876A
330
1F
100
AcDbEntity
  8
0
  6
ByBlock
 62
     0
370
    -2
100
AcDbLine
 10
145.0000000000004
 20
53.07416123045095
 30
0.0
 11
235.0000000000002
 21
53.07416123045095
 31
0.0
  0
LINE
  5
1876B
330
1F
100
AcDbEntity
  8
0
  6
ByBlock
 62
     0
370
    -2
100
AcDbLine
 10
145.0000000000004
 20
43.07416123045095
 30
0.0
 11
235.0000000000002
 21
43.07416123045095
 31
0.0
  0
HATCH
  5
1876C
330
1F
100
AcDbEntity
  8
0
  6
ByBlock
 62
     0
100
AcDbHatch
 10
0.0
 20
0.0
 30
0.0
210
0.0
220
0.0
230
1.0
  2
ANSI31
 70
     0
 71
     0
 91
        1
 92
        1
 93
        1
 72
     4
 94
        3
 73
     0
 74
     0
 95
       53
 96
       49
 40
0.0
 40
0.0
 40
0.0
 40
0.0
 40
1.0
 40
1.0
 40
1.0
 40
2.0
 40
2.0
 40
2.0
 40
3.0
 40
3.0
 40
3.0
 40
4.0
 40
4.0
 40
4.0
 40
5.0
 40
5.0
 40
5.0
 40
6.0
 40
6.0
 40
6.0
 40
7.0
 40
7.0
 40
7.0
 40
8.0
 40
8.0
 40
8.0
 40
9.0
 40
9.0
 40
9.0
 40
10.0
 40
10.0
 40
10.0
 40
11.0
 40
11.0
 40
11.0
 40
12.0
 40
12.0
 40
12.0
 40
13.0
 40
13.0
 40
13.0
 40
14.0
 40
14.0
 40
14.0
 40
15.0
 40
15.0
 40
15.0
 40
16.0
 40
16.0
 40
16.0
 40
16.0
 10
92.27996644160327
 20
51.18337933628414
 10
92.20713712302687
 20
51.26742244066782
 10
92.09065844464147
 20
51.31010717374067
 10
91.93414775670737
 20
51.31010717374067
 10
91.93414775670737
 20
51.31010717374067
 10
86.12625075692438
 20
51.31010717374067
 10
86.12625075692438
 20
51.31010717374067
 10
86.12625075692438
 20
51.31010717374067
 10
86.12625075692438
 20
50.59061620694388
 10
86.12625075692438
 20
50.59061620694388
 10
86.12625075692438
 20
50.59061620694388
 10
91.33849074715874
 20
50.59061620694388
 10
91.43543573413797
 20
50.59061620694388
 10
91.40697924542269
 20
49.5122840943136
 10
90.40569669333933
 20
48.51944202617119
 10
89.38789490840008
 20
48.1675944241747
 10
89.39139168031852
 20
48.25947512078926
 10
89.39609423565707
 20
48.35063234735184
 10
89.39609423565707
 20
48.44540692417467
 10
89.39609423565707
 20
48.44540692417467
 10
89.39609423565707
 20
49.71003257521636
 10
89.39609423565707
 20
49.71003257521636
 10
89.39609423565707
 20
49.71003257521636
 10
88.53878222393836
 20
49.71003257521636
 10
88.53878222393836
 20
49.71003257521636
 10
88.53878222393836
 20
49.71003257521636
 10
88.53878222393836
 20
48.57442575012953
 10
88.53878222393836
 20
48.57442575012953
 10
88.53878222393836
 20
46.47395103224766
 10
87.77660652406849
 20
45.27491999926155
 10
86.13987610957201
 20
44.7993590183587
 10
86.13987610957201
 20
44.7993590183587
 10
86.10659648717614
 20
44.7899539076817
 10
86.10659648717614
 20
44.7899539076817
 10
86.10659648717614
 20
44.7899539076817
 10
86.10659648717614
 20
44.09349340420942
 10
86.10659648717614
 20
44.09349340420942
 10
86.10659648717614
 20
44.09349340420942
 10
86.16411235631677
 20
44.10796280525107
 10
86.16411235631677
 20
44.10796280525107
 10
87.94758661304422
 20
44.55458498407051
 10
88.99734165861719
 20
45.64099584561563
 10
89.30107850215007
 20
47.34018584127546
 10
91.16196405445043
 20
47.94934762512958
 10
92.35617195375608
 20
49.34287152378408
 10
92.35617195375608
 20
50.93366158997333
 10
92.35689542380805
 20
50.93257638489524
 10
92.37546448847821
 20
51.07256783997332
 10
92.27996644160327
 20
51.18337933628414
 97
        0
 75
     0
 76
     1
 52
0.0
 41
0.01
 77
     0
 78
     1
 53
45.0
 43
-0.9999983001881673
 44
21.50000079055394
 45
-0.0224506403026729
 46
0.0224506403026729
 79
     0
 98
        1
 10
95.92806417923339
 20
47.88960105666172
  0
HATCH
  5
1876D
330
1F
100
AcDbEntity
  8
0
  6
ByBlock
 62
     0
100
AcDbHatch
 10
0.0
 20
0.0
 30
0.0
210
0.0
220
0.0
230
1.0
  2
ANSI31
 70
     0
 71
     0
 91
        1
 92
        3
 72
     0
 73
     1
 93
        4
 10
56.65075447328729
 20
45.01398846714346
 10
56.65075447328729
 20
44.29510039205661
 10
63.26085918248873
 20
44.29510039205661
 10
63.26085918248873
 20
45.01398846714346
 97
        0
 75
     0
 76
     1
 52
0.0
 41
0.01
 77
     0
 78
     1
 53
45.0
 43
-0.9999983001881673
 44
21.50000079055394
 45
-0.0224506403026729
 46
0.0224506403026729
 79
     0
 98
        1
 10
59.95580682788795
 20
47.74948902324161
  0
HATCH
  5
1876E
330
1F
100
AcDbEntity
  8
0
  6
ByBlock
 62
     0
100
AcDbHatch
 10
0.0
 20
0.0
 30
0.0
210
0.0
220
0.0
230
1.0
  2
ANSI31
 70
     0
 71
     0
 91
        1
 92
        3
 72
     0
 73
     1
 93
        4
 10
62.63409296070051
 20
47.68140070925108
 10
62.63409296070051
 20
48.40077109770596
 10
57.27740011673347
 20
48.40077109770596
 10
57.27740011673347
 20
47.68140070925108
 97
        0
 75
     0
 76
     1
 52
0.0
 41
0.01
 77
     0
 78
     1
 53
45.0
 43
-0.9999983001881673
 44
21.32489919802617
 45
-0.0224506403026729
 46
0.0224506403026729
 79
     0
 98
        1
 10
59.95580682788795
 20
47.57438743071384
  0
HATCH
  5
1876F
330
1F
100
AcDbEntity
  8
0
  6
ByBlock
 62
     0
100
AcDbHatch
 10
0.0
 20
0.0
 30
0.0
210
0.0
220
0.0
230
1.0
  2
ANSI31
 70
     0
 71
     0
 91
        1
 92
        3
 72
     0
 73
     1
 93
        4
 10
62.88465475540533
 20
51.20387765442649
 10
57.02683832202865
 20
51.20387765442649
 10
57.02683832202865
 20
50.48438668762958
 10
62.88465475540533
 20
50.48438668762958
 97
        0
 75
     0
 76
     1
 52
0.0
 41
0.01
 77
     0
 78
     1
 53
45.0
 43
-0.9999983001881673
 44
21.50000079055394
 45
-0.0224506403026729
 46
0.0224506403026729
 79
     0
 98
        1
 10
59.95580682788795
 20
47.74948902324161
  0
HATCH
  5
18770
330
1F
100
AcDbEntity
  8
_13極細線
100
AcDbHatch
 10
0.0
 20
0.0
 30
0.0
210
0.0
220
0.0
230
1.0
  2
ANSI37
 70
     0
 71
     0
 91
        1
 92
        1
 93
        1
 72
     4
 94
        3
 73
     0
 74
     0
 95
      200
 96
      196
 40
0.0
 40
0.0
 40
0.0
 40
0.0
 40
1.0
 40
1.0
 40
1.0
 40
2.0
 40
2.0
 40
2.0
 40
3.0
 40
3.0
 40
3.0
 40
4.0
 40
4.0
 40
4.0
 40
5.0
 40
5.0
 40
5.0
 40
6.0
 40
6.0
 40
6.0
 40
7.0
 40
7.0
 40
7.0
 40
8.0
 40
8.0
 40
8.0
 40
9.0
 40
9.0
 40
9.0
 40
10.0
 40
10.0
 40
10.0
 40
11.0
 40
11.0
 40
11.0
 40
12.0
 40
12.0
 40
12.0
 40
13.0
 40
13.0
 40
13.0
 40
14.0
 40
14.0
 40
14.0
 40
15.0
 40
15.0
 40
15.0
 40
16.0
 40
16.0
 40
16.0
 40
17.0
 40
17.0
 40
17.0
 40
18.0
 40
18.0
 40
18.0
 40
19.0
 40
19.0
 40
19.0
 40
20.0
 40
20.0
 40
20.0
 40
21.0
 40
21.0
 40
21.0
 40
22.0
 40
22.0
 40
22.0
 40
23.0
 40
23.0
 40
23.0
 40
24.0
 40
24.0
 40
24.0
 40
25.0
 40
25.0
 40
25.0
 40
26.0
 40
26.0
 40
26.0
 40
27.0
 40
27.0
 40
27.0
 40
28.0
 40
28.0
 40
28.0
 40
29.0
 40
29.0
 40
29.0
 40
30.0
 40
30.0
 40
30.0
 40
31.0
 40
31.0
 40
31.0
 40
32.0
 40
32.0
 40
32.0
 40
33.0
 40
33.0
 40
33.0
 40
34.0
 40
34.0
 40
34.0
 40
35.0
 40
35.0
 40
35.0
 40
36.0
 40
36.0
 40
36.0
 40
37.0
 40
37.0
 40
37.0
 40
38.0
 40
38.0
 40
38.0
 40
39.0
 40
39.0
 40
39.0
 40
40.0
 40
40.0
 40
40.0
 40
41.0
 40
41.0
 40
41.0
 40
42.0
 40
42.0
 40
42.0
 40
43.0
 40
43.0
 40
43.0
 40
44.0
 40
44.0
 40
44.0
 40
45.0
 40
45.0
 40
45.0
 40
46.0
 40
46.0
 40
46.0
 40
47.0
 40
47.0
 40
47.0
 40
48.0
 40
48.0
 40
48.0
 40
49.0
 40
49.0
 40
49.0
 40
50.0
 40
50.0
 40
50.0
 40
51.0
 40
51.0
 40
51.0
 40
52.0
 40
52.0
 40
52.0
 40
53.0
 40
53.0
 40
53.0
 40
54.0
 40
54.0
 40
54.0
 40
55.0
 40
55.0
 40
55.0
 40
56.0
 40
56.0
 40
56.0
 40
57.0
 40
57.0
 40
57.0
 40
58.0
 40
58.0
 40
58.0
 40
59.0
 40
59.0
 40
59.0
 40
60.0
 40
60.0
 40
60.0
 40
61.0
 40
61.0
 40
61.0
 40
62.0
 40
62.0
 40
62.0
 40
63.0
 40
63.0
 40
63.0
 40
64.0
 40
64.0
 40
64.0
 40
65.0
 40
65.0
 40
65.0
 40
65.0
 10
47.33969490297477
 20
53.2898829712667
 10
46.75573399260156
 20
53.01436145976504
 10
46.34335606291403
 20
52.45101944587611
 10
46.23712654359974
 20
51.78313600946115
 10
46.23555902515363
 20
51.77373089878404
 10
46.23399150670741
 20
51.76589330655315
 10
46.23314745831328
 20
51.75684993090214
 10
46.18600132658594
 20
51.75974381111053
 10
46.14042271330458
 20
51.76275826966082
 10
46.08977980965881
 20
51.76275826966082
 10
45.45517599563971
 20
51.76275826966082
 10
45.01880297589138
 20
51.58599042026844
 10
44.58580614971959
 20
51.15227012404455
 10
44.32885370288795
 20
50.89495594218693
 10
44.19862909351297
 20
50.53020645759488
 10
44.19862909351297
 20
50.15569012729975
 10
44.19862909351297
 20
49.8247025784716
 10
44.3012412625668
 20
49.48611859409663
 10
44.50911832419876
 20
49.21083823927893
 10
44.97997674976295
 20
48.58624242764699
 10
45.79882427037932
 20
48.44854196106712
 10
46.39701342511023
 20
48.34773846714347
 10
46.39701342511023
 20
48.34773846714347
 10
46.50312236608238
 20
48.33037518589344
 10
46.50312236608238
 20
48.33037518589344
 10
47.11023431812236
 20
48.22571318502537
 10
48.82075867793139
 20
48.09548857565039
 10
49.22843405228036
 20
48.07716066766431
 10
49.29499329707198
 20
48.07474910082408
 10
49.33888381356507
 20
48.07016712382744
 10
49.36890782072646
 20
48.06582630351499
 10
49.37107823088275
 20
48.04508682868856
 10
49.37336921938106
 20
48.01952422018167
 10
49.3750573161692
 20
47.98238609084137
 10
49.38976787389492
 20
47.623544945008
 10
49.41424527732374
 20
46.51567113858448
 10
49.41424527732374
 20
46.09774660516428
 10
49.41424527732374
 20
44.60426326098025
 10
49.38410069182021
 20
44.57267173537263
 10
49.35889981833941
 20
44.28135446106705
 10
49.35781461326121
 20
44.26905547018168
 10
49.35733229989319
 20
44.25772110603236
 10
49.35733229989319
 20
44.24590442851502
 10
49.35733229989319
 20
44.04164471714352
 10
49.51456645787925
 20
43.86728843459138
 10
49.72244351951122
 20
43.84896052660531
 10
49.94201668031848
 20
43.82990914856714
 10
50.13590665427682
 20
43.99317222365391
 10
50.15471687563104
 20
44.21262480611915
 10
50.19318136673348
 20
44.65972929830662
 10
50.21283563648172
 20
44.8755645305115
 10
50.21283563648172
 20
46.09774660516428
 10
50.21283563648172
 20
46.52194121236914
 10
50.1876347630008
 20
47.65031333693514
 10
50.17280362693316
 20
48.01494224318514
 10
50.1485673801883
 20
48.60625843242122
 10
49.89342360848695
 20
48.84789742981706
 10
49.26376350649036
 20
48.8753892917963
 10
48.81497091751464
 20
48.89516413988656
 10
47.17739645462404
 20
49.02442412252537
 10
46.63804953079591
 20
49.1176311809022
 10
46.63804953079591
 20
49.1176311809022
 10
46.52916728795742
 20
49.13499446215212
 10
46.52916728795742
 20
49.13499446215212
 10
46.03720765254069
 20
49.21831409648371
 10
45.42563430184634
 20
49.32068510885358
 10
45.1461337050581
 20
49.69170466723028
 10
44.92668112259287
 20
49.98266020650977
 10
44.96743660219351
 20
50.40528729526852
 10
45.1502333686866
 20
50.58748117005143
 10
45.43491883418141
 20
50.87252837057224
 10
45.66341479229765
 20
50.96392675381878
 10
46.08977980965881
 20
50.96392675381878
 10
46.13994039993656
 20
50.96392675381878
 10
46.18153992793134
 20
50.96235923537268
 10
46.22012499737581
 20
50.95958593350633
 10
46.24412008743661
 20
50.86493193502542
 10
46.28149937346086
 20
50.78269750577192
 10
46.33431268726292
 20
50.7056479452251
 10
46.50481046287064
 20
50.45641251228232
 10
46.80890904142962
 20
50.37634849318511
 10
47.04174581985841
 20
50.51911325012963
 10
47.17655240623003
 20
50.60279461948721
 10
47.27410028491919
 20
50.75761721063305
 10
47.27410028491919
 20
50.94306670065043
 10
47.27410028491919
 20
51.03639433736919
 10
47.24950230314834
 20
51.13731840963476
 10
47.19258932571778
 20
51.24017173537265
 10
47.14001716859979
 20
51.33639325229967
 10
47.07611064733237
 20
51.41790421150108
 10
47.0014726536258
 20
51.48591039639689
 10
47.00762214906854
 20
51.53607098667476
 10
47.01461569290529
 20
51.59093413229107
 10
47.02498543031857
 20
51.65676990703059
 10
47.08889195158588
 20
52.05841636427885
 10
47.34005663800076
 20
52.40712892938302
 10
47.68056987584805
 20
52.56846275099769
 10
48.05231290427684
 20
52.74342192525978
 10
48.48591262215882
 20
52.57798844001673
 10
48.71127354338273
 20
52.17501562100631
 10
48.95652989103905
 20
51.73623103441776
 10
49.03165019811365
 20
50.60858237990385
 10
49.0727674127404
 20
50.00339968133619
 10
49.08952780228037
 20
49.74861764466083
 10
49.10230910653377
 20
49.56437393806357
 10
49.12099874954595
 20
49.44548369283791
 10
49.17537958179423
 20
49.1146167223518
 10
49.31959127884283
 20
48.91783286818508
 10
49.55086053882542
 20
48.86164336080662
 10
49.9180215902578
 20
48.77193307434834
 10
50.1744917237213
 20
49.11582250577191
 10
50.29699931920743
 20
49.28077367764695
 10
50.46797940818305
 20
49.51035484084139
 10
50.62424893943307
 20
49.84254817308965
 10
50.78968242467613
 20
50.19427519674412
 10
50.86612909351299
 20
50.35705595846287
 10
50.94522848587406
 20
50.52562448059837
 10
51.02384556486708
 20
50.67900013164001
 10
51.19410218379073
 20
51.01034941549414
 10
51.70656013734981
 20
51.73140790073728
 10
52.203704641473
 20
51.84583674730845
 10
52.36033590774912
 20
51.88140735820252
 10
52.49345439733247
 20
51.8505393026469
 10
52.63621915427688
 20
51.74346573493858
 10
52.73075257441576
 20
51.67244509149248
 10
52.77416077754072
 20
51.59913345954795
 10
52.78223952645567
 20
51.49784765225627
 10
52.81057543682891
 20
51.12441652703933
 10
52.36298863127331
 20
50.53792347148373
 10
52.14172737367789
 20
50.31280370694378
 10
52.00643847393826
 20
50.17450034865385
 10
51.98883403600428
 20
49.96011205655316
 10
52.10012784568312
 20
49.80263674188302
 10
52.21118049867789
 20
49.64516142721288
 10
52.41881640362578
 20
49.58897191983442
 10
52.59389615623002
 20
49.67012114400984
 10
52.93079204381683
 20
49.82530547018166
 10
53.77508159459807
 20
49.57353789205672
 10
54.0515677328359
 20
49.29717233216081
 10
54.16539368769702
 20
49.18322579895766
 10
54.23074714906852
 20
49.01911867547676
 10
54.23074714906852
 20
48.84645048971288
 10
54.23074714906852
 20
48.71743166375802
 10
54.19372959807026
 20
48.52667672669213
 10
54.01852926712411
 20
48.35135581740394
 10
53.74361064733239
 20
48.07643719761222
 10
52.7035018691206
 20
48.02892933085877
 10
50.96452102059629
 20
49.02623279765567
 10
50.77328377016226
 20
49.13620024557224
 10
50.52947436261013
 20
49.07012331414865
 10
50.41962749303547
 20
48.87876548537258
 10
50.30990120180286
 20
48.6872870782546
 10
50.37621928991052
 20
48.4432365140185
 10
50.56721538366059
 20
48.33399253615391
 10
52.35551277406853
 20
47.30787084561564
 10
53.89481588821786
 20
47.09878800056367
 10
54.58319764277508
 20
47.78704917677885
 10
54.87077698847826
 20
48.07474910082408
 10
55.02945808656853
 20
48.45095352790735
 10
55.02945808656853
 20
48.84645048971288
 10
55.02945808656853
 20
48.84645048971288
 10
55.02945808656853
 20
48.84645048971288
 10
55.02945808656853
 20
48.84645048971288
 10
55.02945808656853
 20
49.229166147265
 10
54.87825284568316
 20
49.59885934387955
 10
54.61611553014495
 20
49.86172012946986
 10
54.34674351408592
 20
50.13060983216087
 10
53.80956700041406
 20
50.38973268914867
 10
53.26648214798343
 20
50.48088991571114
 10
53.43734165861713
 20
50.77220719001672
 10
53.58167393400776
 20
51.11959339335874
 10
53.58167393400776
 20
51.46577381328063
 10
53.58167393400776
 20
51.49628013381016
 10
53.58058872892957
 20
51.52666587599765
 10
53.5784183187734
 20
51.55620756979101
 10
53.55406149368661
 20
51.88828032369724
 10
53.39357172046607
 20
52.17429215095421
 10
53.11503575041399
 20
52.38277210429624
 10
52.78597745505805
 20
52.62839018697855
 10
52.40917013626471
 20
52.71219213467816
 10
52.02452522524038
 20
52.62368763163999
 10
51.01673144268829
 20
52.39133316657921
 10
50.34149272741058
 20
51.09897449687434
 10
50.31400086543135
 20
51.04387019457409
 10
50.22851082094348
 20
50.87795439596288
 10
50.14651754837405
 20
50.70323637838476
 10
50.06741815601299
 20
50.53382380785524
 10
49.99929139277515
 20
50.39045615920077
 10
49.93152636456329
 20
50.24624446215216
 10
49.86508769811371
 20
50.11493464769898
 10
49.81396248109979
 20
50.87554282912265
 10
49.73245152189838
 20
51.98305490052018
 10
49.4084575169071
 20
52.56376019565914
 10
48.97919861933758
 20
53.33220596931358
 10
48.0900539253272
 20
53.64438329678762
 10
47.33969490297477
 20
53.2898829712667
 97
        0
 75
     0
 76
     1
 52
0.0
 41
0.1
 77
     0
 78
     2
 53
45.0
 43
-0.9999983001881673
 44
19.00000079055394
 45
-0.2245064030267288
 46
0.2245064030267288
 79
     0
 53
135.0
 43
-0.9999983001881673
 44
19.00000079055394
 45
-0.2245064030267288
 46
-0.2245064030267288
 79
     0
 98
        1
 10
89.70200148934623
 20
48.59842084019033
  0
HATCH
  5
18771
330
1F
100
AcDbEntity
  8
0
  6
ByBlock
 62
     0
100
AcDbHatch
 10
0.0
 20
0.0
 30
0.0
210
0.0
220
0.0
230
1.0
  2
ANSI31
 70
     0
 71
     0
 91
        1
 92
        3
 72
     0
 73
     1
 93
        8
 10
77.52817092294003
 20
51.13960939813307
 10
74.87749723044874
 20
51.13960939813307
 10
74.87749723044874
 20
51.71935006653587
 10
74.06974291729773
 20
51.71935006653587
 10
74.06974291729773
 20
51.13960939813307
 10
71.41906922480643
 20
51.13960939813307
 10
71.41906922480643
 20
50.42035958802023
 10
77.52817092294003
 20
50.42035958802023
 97
        0
 75
     0
 76
     1
 52
0.0
 41
0.01
 77
     0
 78
     1
 53
45.0
 43
-0.9999983001881673
 44
21.50000079055394
 45
-0.0224506403026729
 46
0.0224506403026729
 79
     0
 98
        1
 10
74.47362007387323
 20
48.00710465095426
  0
HATCH
  5
18772
330
1F
100
AcDbEntity
  8
0
  6
ByBlock
 62
     0
100
AcDbHatch
 10
0.0
 20
0.0
 30
0.0
210
0.0
220
0.0
230
1.0
  2
ANSI31
 70
     0
 71
     0
 91
        1
 92
        1
 93
        1
 72
     4
 94
        3
 73
     0
 74
     0
 95
       35
 96
       31
 40
0.0
 40
0.0
 40
0.0
 40
0.0
 40
1.0
 40
1.0
 40
1.0
 40
2.0
 40
2.0
 40
2.0
 40
3.0
 40
3.0
 40
3.0
 40
4.0
 40
4.0
 40
4.0
 40
5.0
 40
5.0
 40
5.0
 40
6.0
 40
6.0
 40
6.0
 40
7.0
 40
7.0
 40
7.0
 40
8.0
 40
8.0
 40
8.0
 40
9.0
 40
9.0
 40
9.0
 40
10.0
 40
10.0
 40
10.0
 40
10.0
 10
75.7466259196849
 20
45.01398846714346
 10
76.03010560175949
 20
45.62942032478235
 10
76.89501404902512
 20
47.67659941549413
 10
77.0053432319678
 20
49.98627755677023
 10
77.0053432319678
 20
49.98627755677023
 10
77.00751364212408
 20
50.03487062860177
 10
77.00751364212408
 20
50.03487062860177
 10
77.00751364212408
 20
50.03487062860177
 10
76.16274177797482
 20
50.03487062860177
 10
76.16274177797482
 20
50.03487062860177
 10
76.16274177797482
 20
50.03487062860177
 10
76.16069194616057
 20
49.99061837708268
 10
76.16069194616057
 20
49.99061837708268
 10
76.04879524477166
 20
47.61124595412264
 10
75.22789789234116
 20
45.56744305698726
 10
74.98734410002339
 20
45.01398846714346
 10
74.98734410002339
 20
45.01398846714346
 10
71.04298537606507
 20
45.01398846714346
 10
71.04298537606507
 20
45.01398846714346
 10
71.04298537606507
 20
45.01398846714346
 10
71.04298537606507
 20
44.29485923537265
 10
71.04298537606507
 20
44.29485923537265
 10
71.04298537606507
 20
44.29485923537265
 10
77.90425477168139
 20
44.29485923537265
 10
77.90425477168139
 20
44.29485923537265
 10
77.90425477168139
 20
44.29485923537265
 10
77.90425477168139
 20
45.01398846714346
 10
77.90425477168139
 20
45.01398846714346
 10
77.90425477168139
 20
45.01398846714346
 10
75.7466259196849
 20
45.01398846714346
 10
75.7466259196849
 20
45.01398846714346
 97
        0
 75
     0
 76
     1
 52
0.0
 41
0.01
 77
     0
 78
     1
 53
45.0
 43
-0.9999983001881673
 44
21.50000079055394
 45
-0.0224506403026729
 46
0.0224506403026729
 79
     0
 98
        1
 10
74.47362007387323
 20
48.00710465095426
  0
HATCH
  5
18773
330
1F
100
AcDbEntity
  8
0
  6
ByBlock
 62
     0
100
AcDbHatch
 10
0.0
 20
0.0
 30
0.0
210
0.0
220
0.0
230
1.0
  2
ANSI31
 70
     0
 71
     0
 91
        1
 92
        3
 72
     0
 73
     1
 93
       12
 10
65.53508729121268
 20
49.34600656067653
 10
65.53508729121268
 20
50.06537694913129
 10
64.8867375462039
 20
50.06537694913129
 10
64.8867375462039
 20
51.7194706448779
 10
64.1173271458133
 20
51.7194706448779
 10
64.1173271458133
 20
50.06537694913129
 10
63.57062494312231
 20
50.06537694913129
 10
63.57062494312231
 20
49.34600656067653
 10
64.1173271458133
 20
49.34600656067653
 10
64.1173271458133
 20
44.106515865147
 10
64.8867375462039
 20
44.106515865147
 10
64.8867375462039
 20
49.34600656067653
 97
        0
 75
     0
 76
     1
 52
0.0
 41
0.01
 77
     0
 78
     1
 53
45.0
 43
-0.9999983001881673
 44
21.50000079055394
 45
-0.0224506403026729
 46
0.0224506403026729
 79
     0
 98
        1
 10
67.00554017207196
 20
47.90973763977809
  0
HATCH
  5
18774
330
1F
100
AcDbEntity
  8
0
  6
ByBlock
 62
     0
100
AcDbHatch
 10
0.0
 20
0.0
 30
0.0
210
0.0
220
0.0
230
1.0
  2
ANSI31
 70
     0
 71
     0
 91
        1
 92
        1
 93
        1
 72
     4
 94
        3
 73
     0
 74
     0
 95
       71
 96
       67
 40
0.0
 40
0.0
 40
0.0
 40
0.0
 40
1.0
 40
1.0
 40
1.0
 40
2.0
 40
2.0
 40
2.0
 40
3.0
 40
3.0
 40
3.0
 40
4.0
 40
4.0
 40
4.0
 40
5.0
 40
5.0
 40
5.0
 40
6.0
 40
6.0
 40
6.0
 40
7.0
 40
7.0
 40
7.0
 40
8.0
 40
8.0
 40
8.0
 40
9.0
 40
9.0
 40
9.0
 40
10.0
 40
10.0
 40
10.0
 40
11.0
 40
11.0
 40
11.0
 40
12.0
 40
12.0
 40
12.0
 40
13.0
 40
13.0
 40
13.0
 40
14.0
 40
14.0
 40
14.0
 40
15.0
 40
15.0
 40
15.0
 40
16.0
 40
16.0
 40
16.0
 40
17.0
 40
17.0
 40
17.0
 40
18.0
 40
18.0
 40
18.0
 40
19.0
 40
19.0
 40
19.0
 40
20.0
 40
20.0
 40
20.0
 40
21.0
 40
21.0
 40
21.0
 40
22.0
 40
22.0
 40
22.0
 40
22.0
 10
65.83375984438101
 20
48.96582304830667
 10
65.83375984438101
 20
48.96582304830667
 10
65.79674229338275
 20
48.95810603441782
 10
65.79674229338275
 20
48.95810603441782
 10
65.79674229338275
 20
48.95810603441782
 10
65.79674229338275
 20
48.31060033780318
 10
65.79674229338275
 20
48.31060033780318
 10
65.79674229338275
 20
48.31060033780318
 10
65.84967618552685
 20
48.31807619500807
 10
65.84967618552685
 20
48.31807619500807
 10
67.15457500280115
 20
48.50280221497337
 10
67.89275561261013
 20
49.15898955221291
 10
68.16538324390354
 20
50.39600276293345
 10
68.89415874303551
 20
50.39600276293345
 10
69.50066780336533
 20
50.39600276293345
 10
69.53575610089138
 20
50.39600276293345
 10
69.53575610089138
 20
50.31220081523372
 10
69.53575610089138
 20
49.1405410658848
 10
69.53575610089138
 20
49.05661853984316
 10
69.45183357484973
 20
49.05661853984316
 10
68.58246372892961
 20
49.05661853984316
 10
68.58246372892961
 20
49.05661853984316
 10
68.58246372892961
 20
49.05661853984316
 10
68.58246372892961
 20
48.33712757304624
 10
68.58246372892961
 20
48.33712757304624
 10
68.58246372892961
 20
48.33712757304624
 10
69.83671964255814
 20
48.33712757304624
 10
69.83671964255814
 20
48.33712757304624
 10
70.02771573630809
 20
48.33712757304624
 10
70.25524706768829
 20
48.41767390551149
 10
70.25524706768829
 20
48.80063071974769
 10
70.25524706768829
 20
48.80063071974769
 10
70.25524706768829
 20
50.72699031176148
 10
70.25524706768829
 20
50.72699031176148
 10
70.25524706768829
 20
50.91376616354103
 10
70.10814149043131
 20
51.11561430807228
 10
69.87060215666407
 20
51.11561430807228
 10
69.87060215666407
 20
51.11561430807228
 10
68.26691020787928
 20
51.11561430807228
 10
68.26691020787928
 20
51.11561430807228
 10
68.28029440384284
 20
51.29322620585878
 10
68.28921720115181
 20
51.47710817742995
 10
68.28921720115181
 20
51.67304798320254
 10
68.28921720115181
 20
51.67304798320254
 10
68.28921720115181
 20
51.7194706448779
 10
68.28921720115181
 20
51.7194706448779
 10
68.28921720115181
 20
51.7194706448779
 10
67.4821863580529
 20
51.7194706448779
 10
67.4821863580529
 20
51.7194706448779
 10
67.4821863580529
 20
51.7194706448779
 10
67.4821863580529
 20
51.67304798320254
 10
67.4821863580529
 20
51.67304798320254
 10
67.4821863580529
 20
51.4765052857199
 10
67.47784553774045
 20
51.29093521736047
 10
67.46771695701125
 20
51.11561430807228
 10
67.46771695701125
 20
51.11561430807228
 10
65.56016758635156
 20
51.11561430807228
 10
65.56016758635156
 20
51.11561430807228
 10
65.56016758635156
 20
51.11561430807228
 10
65.56016758635156
 20
50.39600276293345
 10
65.56016758635156
 20
50.39600276293345
 10
65.56016758635156
 20
50.39600276293345
 10
66.44159526647309
 20
50.39600276293345
 10
67.37438932029249
 20
50.39600276293345
 10
67.20256518292263
 20
49.63394764140559
 10
66.78331428774038
 20
49.16188343242129
 10
65.83375984438101
 20
48.96582304830667
 97
        0
 75
     0
 76
     1
 52
0.0
 41
0.01
 77
     0
 78
     1
 53
45.0
 43
-0.9999983001881673
 44
21.50000079055394
 45
-0.0224506403026729
 46
0.0224506403026729
 79
     0
 98
        1
 10
67.00554017207196
 20
47.90973763977809
  0
HATCH
  5
18775
330
1F
100
AcDbEntity
  8
0
  6
ByBlock
 62
     0
100
AcDbHatch
 10
0.0
 20
0.0
 30
0.0
210
0.0
220
0.0
230
1.0
  2
ANSI31
 70
     0
 71
     0
 91
        1
 92
        1
 93
        1
 72
     4
 94
        3
 73
     0
 74
     0
 95
       29
 96
       25
 40
0.0
 40
0.0
 40
0.0
 40
0.0
 40
1.0
 40
1.0
 40
1.0
 40
2.0
 40
2.0
 40
2.0
 40
3.0
 40
3.0
 40
3.0
 40
4.0
 40
4.0
 40
4.0
 40
5.0
 40
5.0
 40
5.0
 40
6.0
 40
6.0
 40
6.0
 40
7.0
 40
7.0
 40
7.0
 40
8.0
 40
8.0
 40
8.0
 40
8.0
 10
72.63437833396437
 20
49.81397110603234
 10
72.63437833396437
 20
49.81397110603234
 10
71.92224264603033
 20
49.81397110603234
 10
71.92224264603033
 20
49.81397110603234
 10
71.92224264603033
 20
49.81397110603234
 10
71.93984708396442
 20
49.75440540507747
 10
71.93984708396442
 20
49.75440540507747
 10
72.59374343270565
 20
47.54034588901845
 10
72.67272224672479
 20
45.34340849752538
 10
72.67332513843484
 20
45.31953398580663
 10
72.67332513843484
 20
45.31953398580663
 10
72.67477207853904
 20
45.27491999926155
 10
72.67477207853904
 20
45.27491999926155
 10
72.67477207853904
 20
45.27491999926155
 10
73.52038799108242
 20
45.27491999926155
 10
73.52038799108242
 20
45.27491999926155
 10
73.52038799108242
 20
45.27491999926155
 10
73.51821758092615
 20
45.3231513360671
 10
73.51821758092615
 20
45.3231513360671
 10
73.51701179750603
 20
45.35016088467819
 10
73.39185147849559
 20
47.86301353224769
 10
72.64595385479765
 20
49.78430883389695
 10
72.64595385479765
 20
49.78430883389695
 10
72.63437833396437
 20
49.81397110603234
 10
72.63437833396437
 20
49.81397110603234
 97
        0
 75
     0
 76
     1
 52
0.0
 41
0.01
 77
     0
 78
     1
 53
45.0
 43
-0.9999983001881673
 44
21.50000079055394
 45
-0.0224506403026729
 46
0.0224506403026729
 79
     0
 98
        1
 10
74.47362007387323
 20
48.00710465095426
  0
HATCH
  5
18776
330
1F
100
AcDbEntity
  8
0
  6
ByBlock
 62
     0
100
AcDbHatch
 10
0.0
 20
0.0
 30
0.0
210
0.0
220
0.0
230
1.0
  2
ANSI31
 70
     0
 71
     0
 91
        1
 92
        1
 93
        1
 72
     4
 94
        3
 73
     0
 74
     0
 95
       71
 96
       67
 40
0.0
 40
0.0
 40
0.0
 40
0.0
 40
1.0
 40
1.0
 40
1.0
 40
2.0
 40
2.0
 40
2.0
 40
3.0
 40
3.0
 40
3.0
 40
4.0
 40
4.0
 40
4.0
 40
5.0
 40
5.0
 40
5.0
 40
6.0
 40
6.0
 40
6.0
 40
7.0
 40
7.0
 40
7.0
 40
8.0
 40
8.0
 40
8.0
 40
9.0
 40
9.0
 40
9.0
 40
10.0
 40
10.0
 40
10.0
 40
11.0
 40
11.0
 40
11.0
 40
12.0
 40
12.0
 40
12.0
 40
13.0
 40
13.0
 40
13.0
 40
14.0
 40
14.0
 40
14.0
 40
15.0
 40
15.0
 40
15.0
 40
16.0
 40
16.0
 40
16.0
 40
17.0
 40
17.0
 40
17.0
 40
18.0
 40
18.0
 40
18.0
 40
19.0
 40
19.0
 40
19.0
 40
20.0
 40
20.0
 40
20.0
 40
21.0
 40
21.0
 40
21.0
 40
22.0
 40
22.0
 40
22.0
 40
22.0
 10
67.24271777081333
 20
47.84323868415731
 10
67.24271777081333
 20
47.84323868415731
 10
66.45630582419869
 20
47.84323868415731
 10
66.45630582419869
 20
47.84323868415731
 10
66.45606466751473
 20
47.96574627964344
 10
66.45570293248863
 20
48.08777156176154
 10
66.45570293248863
 20
48.20834990377545
 10
66.45570293248863
 20
48.20834990377545
 10
66.45570293248863
 20
48.21534344761222
 10
66.45570293248863
 20
48.21534344761222
 10
66.45570293248863
 20
48.21534344761222
 10
65.79891270353903
 20
48.21534344761222
 10
65.79891270353903
 20
48.21534344761222
 10
65.79891270353903
 20
48.21534344761222
 10
65.79927443856502
 20
48.00143746887954
 10
65.79927443856502
 20
48.00143746887954
 10
65.79951559524909
 20
47.94886531176155
 10
65.79987733027508
 20
47.89605199795949
 10
65.80023906530119
 20
47.84323868415731
 10
65.80023906530119
 20
47.84323868415731
 10
65.08641528057887
 20
47.84323868415731
 10
65.08641528057887
 20
47.84323868415731
 10
65.08641528057887
 20
47.84323868415731
 10
65.08641528057887
 20
47.12410945238651
 10
65.08641528057887
 20
47.12410945238651
 10
65.08641528057887
 20
47.12410945238651
 10
65.41872919116918
 20
47.12410945238651
 10
65.80180658374729
 20
47.12410945238651
 10
65.79228089472827
 20
46.13054391419211
 10
65.69437128101299
 20
45.21993627530321
 10
65.04156013734974
 20
44.76993790290737
 10
65.04156013734974
 20
44.76993790290737
 10
65.02142355423348
 20
44.75595081523374
 10
65.02142355423348
 20
44.75595081523374
 10
65.02142355423348
 20
44.75595081523374
 10
65.02142355423348
 20
44.10434545499072
 10
65.02142355423348
 20
44.10434545499072
 10
65.02142355423348
 20
44.10434545499072
 10
65.08641528057887
 20
44.13280194370599
 10
65.08641528057887
 20
44.13280194370599
 10
66.21406393509278
 20
44.6254850491747
 10
66.41494745288799
 20
45.84573787035526
 10
66.4491917020199
 20
47.12410945238651
 10
66.70734993227165
 20
47.12410945238651
 10
66.90714824498866
 20
47.12410945238651
 10
66.93536357701987
 20
47.12410945238651
 10
66.93536357701987
 20
47.03681073276846
 10
66.93536357701987
 20
44.90691489943515
 10
66.93536357701987
 20
44.81913386644907
 10
66.85337030445044
 20
44.81913386644907
 10
66.30208612476292
 20
44.81913386644907
 10
66.30208612476292
 20
44.81913386644907
 10
66.30208612476292
 20
44.81913386644907
 10
66.30208612476292
 20
44.10000463467816
 10
66.30208612476292
 20
44.10000463467816
 10
66.30208612476292
 20
44.10000463467816
 10
67.16892382550077
 20
44.10000463467816
 10
67.16892382550077
 20
44.10000463467816
 10
67.46409960675078
 20
44.10000463467816
 10
67.65473396547474
 20
44.31801027703932
 10
67.65473396547474
 20
44.65466500794207
 10
67.65473396547474
 20
44.65466500794207
 10
67.65473396547474
 20
47.41084474969556
 10
67.65473396547474
 20
47.41084474969556
 10
67.65473396547474
 20
47.68986303311566
 10
67.50835185826986
 20
47.84323868415731
 10
67.24271777081333
 20
47.84323868415731
 97
        0
 75
     0
 76
     1
 52
0.0
 41
0.01
 77
     0
 78
     1
 53
45.0
 43
-0.9999983001881673
 44
21.50000079055394
 45
-0.0224506403026729
 46
0.0224506403026729
 79
     0
 98
        1
 10
67.00554017207196
 20
47.90973763977809
  0
HATCH
  5
18777
330
1F
100
AcDbEntity
  8
0
  6
ByBlock
 62
     0
100
AcDbHatch
 10
0.0
 20
0.0
 30
0.0
210
0.0
220
0.0
230
1.0
  2
ANSI31
 70
     0
 71
     0
 91
        1
 92
        1
 93
        1
 72
     4
 94
        3
 73
     0
 74
     0
 95
       71
 96
       67
 40
0.0
 40
0.0
 40
0.0
 40
0.0
 40
1.0
 40
1.0
 40
1.0
 40
2.0
 40
2.0
 40
2.0
 40
3.0
 40
3.0
 40
3.0
 40
4.0
 40
4.0
 40
4.0
 40
5.0
 40
5.0
 40
5.0
 40
6.0
 40
6.0
 40
6.0
 40
7.0
 40
7.0
 40
7.0
 40
8.0
 40
8.0
 40
8.0
 40
9.0
 40
9.0
 40
9.0
 40
10.0
 40
10.0
 40
10.0
 40
11.0
 40
11.0
 40
11.0
 40
12.0
 40
12.0
 40
12.0
 40
13.0
 40
13.0
 40
13.0
 40
14.0
 40
14.0
 40
14.0
 40
15.0
 40
15.0
 40
15.0
 40
16.0
 40
16.0
 40
16.0
 40
17.0
 40
17.0
 40
17.0
 40
18.0
 40
18.0
 40
18.0
 40
19.0
 40
19.0
 40
19.0
 40
20.0
 40
20.0
 40
20.0
 40
21.0
 40
21.0
 40
21.0
 40
22.0
 40
22.0
 40
22.0
 40
22.0
 10
70.02819804967612
 20
47.84323868415731
 10
70.02819804967612
 20
47.84323868415731
 10
69.24166552471956
 20
47.84323868415731
 10
69.24166552471956
 20
47.84323868415731
 10
69.24154494637753
 20
47.96574627964344
 10
69.24130378969346
 20
48.08777156176154
 10
69.24130378969346
 20
48.20834990377545
 10
69.24130378969346
 20
48.20834990377545
 10
69.24130378969346
 20
48.21534344761222
 10
69.24130378969346
 20
48.21534344761222
 10
69.24130378969346
 20
48.21534344761222
 10
68.58427240405979
 20
48.21534344761222
 10
68.58427240405979
 20
48.21534344761222
 10
68.58427240405979
 20
48.21534344761222
 10
68.58499587411188
 20
48.00119631219558
 10
68.58499587411188
 20
48.00119631219558
 10
68.58523703079595
 20
47.94862415507748
 10
68.58547818748002
 20
47.89605199795949
 10
68.58571934416398
 20
47.84323868415731
 10
68.58571934416398
 20
47.84323868415731
 10
67.87201613778382
 20
47.84323868415731
 10
67.87201613778382
 20
47.84323868415731
 10
67.87201613778382
 20
47.84323868415731
 10
67.87201613778382
 20
47.12410945238651
 10
67.87201613778382
 20
47.12410945238651
 10
67.87201613778382
 20
47.12410945238651
 10
68.20324484329592
 20
47.12410945238651
 10
68.58535760913799
 20
47.12410945238651
 10
68.57161167814843
 20
46.13054391419211
 10
68.46453811044
 20
45.21993627530321
 10
67.81172696677685
 20
44.76993790290737
 10
67.81172696677685
 20
44.76993790290737
 10
67.79159038366049
 20
44.75595081523374
 10
67.79159038366049
 20
44.75595081523374
 10
67.79159038366049
 20
44.75595081523374
 10
67.79159038366049
 20
44.10434545499072
 10
67.79159038366049
 20
44.10434545499072
 10
67.79159038366049
 20
44.10434545499072
 10
67.85670268834803
 20
44.13280194370599
 10
67.85670268834803
 20
44.13280194370599
 10
68.98435134286194
 20
44.6254850491747
 10
69.19451939299211
 20
45.84573787035526
 10
69.23274272741048
 20
47.12410945238651
 10
69.4918655843984
 20
47.12410945238651
 10
69.69262852385146
 20
47.12410945238651
 10
69.72084385588278
 20
47.12410945238651
 10
69.72084385588278
 20
47.03681073276846
 10
69.72084385588278
 20
44.90691489943515
 10
69.72084385588278
 20
44.81913386644907
 10
69.6390917399973
 20
44.81913386644907
 10
69.08756640362582
 20
44.81913386644907
 10
69.08756640362582
 20
44.81913386644907
 10
69.08756640362582
 20
44.81913386644907
 10
69.08756640362582
 20
44.10000463467816
 10
69.08756640362582
 20
44.10000463467816
 10
69.08756640362582
 20
44.10000463467816
 10
69.9545246827056
 20
44.10000463467816
 10
69.9545246827056
 20
44.10000463467816
 10
70.2497004639556
 20
44.10000463467816
 10
70.4404554010216
 20
44.31801027703932
 10
70.4404554010216
 20
44.65466500794207
 10
70.4404554010216
 20
44.65466500794207
 10
70.4404554010216
 20
47.41084474969556
 10
70.4404554010216
 20
47.41084474969556
 10
70.4404554010216
 20
47.68986303311566
 10
70.29407329381683
 20
47.84323868415731
 10
70.02819804967612
 20
47.84323868415731
 97
        0
 75
     0
 76
     1
 52
0.0
 41
0.01
 77
     0
 78
     1
 53
45.0
 43
-0.9999983001881673
 44
21.50000079055394
 45
-0.0224506403026729
 46
0.0224506403026729
 79
     0
 98
        1
 10
67.00554017207196
 20
47.90973763977809
  0
HATCH
  5
18778
330
1F
100
AcDbEntity
  8
0
  6
ByBlock
 62
     0
100
AcDbHatch
 10
0.0
 20
0.0
 30
0.0
210
0.0
220
0.0
230
1.0
  2
ANSI31
 70
     0
 71
     0
 91
        1
 92
        1
 93
        1
 72
     4
 94
        3
 73
     0
 74
     0
 95
       47
 96
       43
 40
0.0
 40
0.0
 40
0.0
 40
0.0
 40
1.0
 40
1.0
 40
1.0
 40
2.0
 40
2.0
 40
2.0
 40
3.0
 40
3.0
 40
3.0
 40
4.0
 40
4.0
 40
4.0
 40
5.0
 40
5.0
 40
5.0
 40
6.0
 40
6.0
 40
6.0
 40
7.0
 40
7.0
 40
7.0
 40
8.0
 40
8.0
 40
8.0
 40
9.0
 40
9.0
 40
9.0
 40
10.0
 40
10.0
 40
10.0
 40
11.0
 40
11.0
 40
11.0
 40
12.0
 40
12.0
 40
12.0
 40
13.0
 40
13.0
 40
13.0
 40
14.0
 40
14.0
 40
14.0
 40
14.0
 10
84.51267138409457
 20
50.78366213250808
 10
84.51267138409457
 20
50.78366213250808
 10
84.51267138409457
 20
45.10562800707407
 10
84.51267138409457
 20
45.01398846714346
 10
84.49157017424216
 20
45.01398846714346
 10
83.47702400453727
 20
45.01398846714346
 10
82.35673062888622
 20
45.01398846714346
 10
82.35673062888622
 20
45.01398846714346
 10
82.35673062888622
 20
51.71935006653587
 10
82.35673062888622
 20
51.71935006653587
 10
82.35673062888622
 20
51.71935006653587
 10
81.51207934307899
 20
51.71935006653587
 10
81.51207934307899
 20
51.71935006653587
 10
81.51207934307899
 20
51.71935006653587
 10
81.51207934307899
 20
45.01398846714346
 10
81.51207934307899
 20
45.01398846714346
 10
80.40649652515355
 20
45.01398846714346
 10
79.41377503535318
 20
45.01398846714346
 10
79.39303556052687
 20
45.01398846714346
 10
79.39303556052687
 20
45.10562800707407
 10
79.39303556052687
 20
50.78366213250808
 10
79.39303556052687
 20
50.78366213250808
 10
79.39303556052687
 20
50.78366213250808
 10
78.54838427471952
 20
50.78366213250808
 10
78.54838427471952
 20
50.78366213250808
 10
78.54838427471952
 20
50.78366213250808
 10
78.54838427471952
 20
44.95659317634488
 10
78.54838427471952
 20
44.95659317634488
 10
78.54838427471952
 20
44.53601591940037
 10
78.75807001148166
 20
44.29485923537265
 10
79.12342238778376
 20
44.29485923537265
 10
79.12342238778376
 20
44.29485923537265
 10
84.78216397849564
 20
44.29485923537265
 10
84.78216397849564
 20
44.29485923537265
 10
85.14763693313966
 20
44.29485923537265
 10
85.3573226699018
 20
44.53601591940037
 10
85.3573226699018
 20
44.95659317634488
 10
85.3573226699018
 20
44.95659317634488
 10
85.3573226699018
 20
50.78366213250808
 10
85.3573226699018
 20
50.78366213250808
 10
85.3573226699018
 20
50.78366213250808
 10
84.51267138409457
 20
50.78366213250808
 10
84.51267138409457
 20
50.78366213250808
 97
        0
 75
     0
 76
     1
 52
0.0
 41
0.01
 77
     0
 78
     1
 53
45.0
 43
-0.9999983001881673
 44
21.50000079055394
 45
-0.0224506403026729
 46
0.0224506403026729
 79
     0
 98
        1
 10
95.92806417923339
 20
47.88960105666172
  0
HATCH
  5
18779
330
1F
100
AcDbEntity
  8
0
  6
ByBlock
 62
     0
100
AcDbHatch
 10
0.0
 20
0.0
 30
0.0
210
0.0
220
0.0
230
1.0
  2
ANSI31
 70
     0
 71
     0
 91
        1
 92
        1
 93
        1
 72
     4
 94
        3
 73
     0
 74
     0
 95
       53
 96
       49
 40
0.0
 40
0.0
 40
0.0
 40
0.0
 40
1.0
 40
1.0
 40
1.0
 40
2.0
 40
2.0
 40
2.0
 40
3.0
 40
3.0
 40
3.0
 40
4.0
 40
4.0
 40
4.0
 40
5.0
 40
5.0
 40
5.0
 40
6.0
 40
6.0
 40
6.0
 40
7.0
 40
7.0
 40
7.0
 40
8.0
 40
8.0
 40
8.0
 40
9.0
 40
9.0
 40
9.0
 40
10.0
 40
10.0
 40
10.0
 40
11.0
 40
11.0
 40
11.0
 40
12.0
 40
12.0
 40
12.0
 40
13.0
 40
13.0
 40
13.0
 40
14.0
 40
14.0
 40
14.0
 40
15.0
 40
15.0
 40
15.0
 40
16.0
 40
16.0
 40
16.0
 40
16.0
 10
120.615876814867
 20
46.97652156176149
 10
120.615876814867
 20
46.97652156176149
 10
122.1720608968983
 20
46.97652156176149
 10
122.1720608968983
 20
46.97652156176149
 10
122.1720608968983
 20
46.97652156176149
 10
121.3576747749365
 20
44.86495363641426
 10
121.3576747749365
 20
44.86495363641426
 10
121.2696525852664
 20
44.62331463901853
 10
121.3140254151275
 20
44.48199682217818
 10
121.3670798856136
 20
44.40627362339353
 10
121.431951033617
 20
44.31366945672675
 10
121.5426419515859
 20
44.26447349318516
 10
121.6875771186864
 20
44.26447349318516
 10
121.6875771186864
 20
44.26447349318516
 10
126.8464009034087
 20
44.26447349318516
 10
126.8464009034087
 20
44.26447349318516
 10
126.9855483100928
 20
44.26447349318516
 10
127.0853871772803
 20
44.30956979309837
 10
127.1423001547108
 20
44.39783313945247
 10
127.2252580540163
 20
44.52588733867128
 10
127.1917372749365
 20
44.71206029874065
 10
127.1324127306657
 20
44.84397300490388
 10
127.1336185140858
 20
44.84035565464353
 10
126.5541190023671
 20
46.51494766853239
 10
126.5541190023671
 20
46.51494766853239
 10
126.5541190023671
 20
46.51494766853239
 10
125.7884465305789
 20
46.51494766853239
 10
125.7884465305789
 20
46.51494766853239
 10
125.7884465305789
 20
46.51494766853239
 10
126.2664190783219
 20
45.0959817397129
 10
126.3016279541899
 20
44.984085038324
 10
126.1810496121761
 20
44.984085038324
 10
122.3657097141727
 20
44.984085038324
 10
122.2354851047976
 20
44.984085038324
 10
122.2750348009782
 20
45.08344159214345
 10
122.8381356581831
 20
46.49252009691781
 10
123.0315433187734
 20
46.97652156176149
 10
123.0315433187734
 20
46.97652156176149
 10
127.6017036377838
 20
46.97652156176149
 10
127.6017036377838
 20
46.97652156176149
 10
127.6017036377838
 20
46.97652156176149
 10
127.6017036377838
 20
47.69613310690044
 10
127.6017036377838
 20
47.69613310690044
 10
127.6017036377838
 20
47.69613310690044
 10
120.615876814867
 20
47.69613310690044
 10
120.615876814867
 20
47.69613310690044
 10
120.615876814867
 20
47.69613310690044
 10
120.615876814867
 20
46.97652156176149
 10
120.615876814867
 20
46.97652156176149
 97
        0
 75
     0
 76
     1
 52
0.0
 41
0.01
 77
     0
 78
     1
 53
45.0
 43
-0.9999983001881673
 44
21.50000079055394
 45
-0.0224506403026729
 46
0.0224506403026729
 79
     0
 98
        1
 10
124.1165072402143
 20
47.99209264737351
  0
HATCH
  5
1877A
330
1F
100
AcDbEntity
  8
0
  6
ByBlock
 62
     0
100
AcDbHatch
 10
0.0
 20
0.0
 30
0.0
210
0.0
220
0.0
230
1.0
  2
ANSI31
 70
     0
 71
     0
 91
        2
 92
        1
 93
        1
 72
     4
 94
        3
 73
     0
 74
     0
 95
       14
 96
       10
 40
0.0
 40
0.0
 40
0.0
 40
0.0
 40
1.0
 40
1.0
 40
1.0
 40
2.0
 40
2.0
 40
2.0
 40
3.0
 40
3.0
 40
3.0
 40
3.0
 10
122.1443278782351
 20
49.31706775859311
 10
122.8422353218116
 20
49.60645577942648
 10
123.5606410835303
 20
50.05548952508616
 10
124.1162660835302
 20
50.69648399123207
 10
124.6718910835302
 20
50.05548952508616
 10
125.390779158617
 20
49.60645577942648
 10
126.0886866021934
 20
49.31706775859311
 10
126.0886866021934
 20
49.31706775859311
 10
122.1443278782351
 20
49.31706775859311
 10
122.1443278782351
 20
49.31706775859311
 97
        0
 92
       16
 93
        1
 72
     4
 94
        3
 73
     0
 74
     0
 95
       53
 96
       49
 40
0.0
 40
0.0
 40
0.0
 40
0.0
 40
1.0
 40
1.0
 40
1.0
 40
2.0
 40
2.0
 40
2.0
 40
3.0
 40
3.0
 40
3.0
 40
4.0
 40
4.0
 40
4.0
 40
5.0
 40
5.0
 40
5.0
 40
6.0
 40
6.0
 40
6.0
 40
7.0
 40
7.0
 40
7.0
 40
8.0
 40
8.0
 40
8.0
 40
9.0
 40
9.0
 40
9.0
 40
10.0
 40
10.0
 40
10.0
 40
11.0
 40
11.0
 40
11.0
 40
12.0
 40
12.0
 40
12.0
 40
13.0
 40
13.0
 40
13.0
 40
14.0
 40
14.0
 40
14.0
 40
15.0
 40
15.0
 40
15.0
 40
16.0
 40
16.0
 40
16.0
 40
16.0
 10
127.5799995362213
 20
49.60102975403583
 10
126.8341019125233
 20
49.72341677117992
 10
125.4356343018462
 20
50.14134130460002
 10
124.4459272705962
 20
51.56247764357579
 10
124.4275993626102
 20
51.58864314379275
 10
124.3125676243288
 20
51.71971180156186
 10
124.1220538439469
 20
51.71971180156186
 10
124.1220538439469
 20
51.71971180156186
 10
124.1003497423844
 20
51.71971180156186
 10
124.1003497423844
 20
51.71971180156186
 10
123.9079067085302
 20
51.71971180156186
 10
123.7972157905615
 20
51.57803224969552
 10
123.7863637397802
 20
51.56187475186573
 10
122.7973801785823
 20
50.14134130460002
 10
121.3986714112212
 20
49.72341677117992
 10
120.6525326308393
 20
49.60102975403583
 10
120.6525326308393
 20
49.60102975403583
 10
120.6141887180788
 20
49.59463910190914
 10
120.6141887180788
 20
49.59463910190914
 10
120.6141887180788
 20
49.59463910190914
 10
120.6141887180788
 20
48.91349204787264
 10
120.6141887180788
 20
48.91349204787264
 10
120.6141887180788
 20
48.91349204787264
 10
120.6655550917768
 20
48.91952096497334
 10
120.6655550917768
 20
48.91952096497334
 10
120.9667597901274
 20
48.95400637078933
 10
121.3149900418637
 20
49.02828262946991
 10
121.6810658882177
 20
49.14644940464348
 10
121.6810658882177
 20
49.14644940464348
 10
121.6810658882177
 20
48.59805910516434
 10
121.6810658882177
 20
48.59805910516434
 10
121.6810658882177
 20
48.59805910516434
 10
126.536755721117
 20
48.59805910516434
 10
126.536755721117
 20
48.59805910516434
 10
126.536755721117
 20
48.59805910516434
 10
126.536755721117
 20
49.15115195998203
 10
126.536755721117
 20
49.15115195998203
 10
126.9083781712039
 20
49.02997072625805
 10
127.2621550266726
 20
48.95448868415735
 10
127.5674593886518
 20
48.91952096497334
 10
127.5674593886518
 20
48.91952096497334
 10
127.6188257623497
 20
48.91349204787264
 10
127.6188257623497
 20
48.91349204787264
 10
127.6188257623497
 20
48.91349204787264
 10
127.6188257623497
 20
49.59463910190914
 10
127.6188257623497
 20
49.59463910190914
 10
127.6188257623497
 20
49.59463910190914
 10
127.5799995362213
 20
49.60102975403583
 10
127.5799995362213
 20
49.60102975403583
 97
        0
 75
     0
 76
     1
 52
0.0
 41
0.01
 77
     0
 78
     1
 53
45.0
 43
-0.9999983001881673
 44
21.50000079055394
 45
-0.0224506403026729
 46
0.0224506403026729
 79
     0
 98
        1
 10
124.1165072402143
 20
47.99209264737351
  0
HATCH
  5
1877B
330
1F
100
AcDbEntity
  8
0
  6
ByBlock
 62
     0
100
AcDbHatch
 10
0.0
 20
0.0
 30
0.0
210
0.0
220
0.0
230
1.0
  2
ANSI31
 70
     0
 71
     0
 91
        1
 92
        1
 93
        1
 72
     4
 94
        3
 73
     0
 74
     0
 95
      194
 96
      190
 40
0.0
 40
0.0
 40
0.0
 40
0.0
 40
1.0
 40
1.0
 40
1.0
 40
2.0
 40
2.0
 40
2.0
 40
3.0
 40
3.0
 40
3.0
 40
4.0
 40
4.0
 40
4.0
 40
5.0
 40
5.0
 40
5.0
 40
6.0
 40
6.0
 40
6.0
 40
7.0
 40
7.0
 40
7.0
 40
8.0
 40
8.0
 40
8.0
 40
9.0
 40
9.0
 40
9.0
 40
10.0
 40
10.0
 40
10.0
 40
11.0
 40
11.0
 40
11.0
 40
12.0
 40
12.0
 40
12.0
 40
13.0
 40
13.0
 40
13.0
 40
14.0
 40
14.0
 40
14.0
 40
15.0
 40
15.0
 40
15.0
 40
16.0
 40
16.0
 40
16.0
 40
17.0
 40
17.0
 40
17.0
 40
18.0
 40
18.0
 40
18.0
 40
19.0
 40
19.0
 40
19.0
 40
20.0
 40
20.0
 40
20.0
 40
21.0
 40
21.0
 40
21.0
 40
22.0
 40
22.0
 40
22.0
 40
23.0
 40
23.0
 40
23.0
 40
24.0
 40
24.0
 40
24.0
 40
25.0
 40
25.0
 40
25.0
 40
26.0
 40
26.0
 40
26.0
 40
27.0
 40
27.0
 40
27.0
 40
28.0
 40
28.0
 40
28.0
 40
29.0
 40
29.0
 40
29.0
 40
30.0
 40
30.0
 40
30.0
 40
31.0
 40
31.0
 40
31.0
 40
32.0
 40
32.0
 40
32.0
 40
33.0
 40
33.0
 40
33.0
 40
34.0
 40
34.0
 40
34.0
 40
35.0
 40
35.0
 40
35.0
 40
36.0
 40
36.0
 40
36.0
 40
37.0
 40
37.0
 40
37.0
 40
38.0
 40
38.0
 40
38.0
 40
39.0
 40
39.0
 40
39.0
 40
40.0
 40
40.0
 40
40.0
 40
41.0
 40
41.0
 40
41.0
 40
42.0
 40
42.0
 40
42.0
 40
43.0
 40
43.0
 40
43.0
 40
44.0
 40
44.0
 40
44.0
 40
45.0
 40
45.0
 40
45.0
 40
46.0
 40
46.0
 40
46.0
 40
47.0
 40
47.0
 40
47.0
 40
48.0
 40
48.0
 40
48.0
 40
49.0
 40
49.0
 40
49.0
 40
50.0
 40
50.0
 40
50.0
 40
51.0
 40
51.0
 40
51.0
 40
52.0
 40
52.0
 40
52.0
 40
53.0
 40
53.0
 40
53.0
 40
54.0
 40
54.0
 40
54.0
 40
55.0
 40
55.0
 40
55.0
 40
56.0
 40
56.0
 40
56.0
 40
57.0
 40
57.0
 40
57.0
 40
58.0
 40
58.0
 40
58.0
 40
59.0
 40
59.0
 40
59.0
 40
60.0
 40
60.0
 40
60.0
 40
61.0
 40
61.0
 40
61.0
 40
62.0
 40
62.0
 40
62.0
 40
63.0
 40
63.0
 40
63.0
 40
63.0
 10
113.3708065566205
 20
45.03834529223024
 10
112.359395423808
 20
45.70538468025108
 10
112.1001519884782
 20
46.94878854309831
 10
112.0191233426449
 20
47.93970135776851
 10
112.0191233426449
 20
47.93970135776851
 10
113.1265148357004
 20
47.93970135776851
 10
113.1265148357004
 20
47.93970135776851
 10
113.1265148357004
 20
47.93970135776851
 10
113.1265148357004
 20
48.65907174622339
 10
113.1265148357004
 20
48.65907174622339
 10
113.1265148357004
 20
48.65907174622339
 10
111.2052195340511
 20
48.65907174622339
 10
111.2052195340511
 20
48.65907174622339
 10
111.2052195340511
 20
48.65907174622339
 10
111.2052195340511
 20
49.92442086731705
 10
111.2052195340511
 20
49.92442086731705
 10
111.2052195340511
 20
49.92442086731705
 10
112.9222551243288
 20
49.92442086731705
 10
112.9222551243288
 20
49.92442086731705
 10
112.9222551243288
 20
49.92442086731705
 10
112.9222551243288
 20
50.64367067742989
 10
112.9222551243288
 20
50.64367067742989
 10
112.9222551243288
 20
50.64367067742989
 10
112.0473386746761
 20
50.64367067742989
 10
111.2052195340511
 20
50.64367067742989
 10
111.2052195340511
 20
50.64367067742989
 10
111.2052195340511
 20
51.71947064487778
 10
111.2052195340511
 20
51.71947064487778
 10
111.2052195340511
 20
51.71947064487778
 10
110.4858491455962
 20
51.71947064487778
 10
110.4858491455962
 20
51.71947064487778
 10
110.4858491455962
 20
51.71947064487778
 10
110.4858491455962
 20
50.64367067742989
 10
110.4858491455962
 20
50.64367067742989
 10
110.0471851373497
 20
50.64367067742989
 10
109.7146300700754
 20
50.64367067742989
 10
109.6758038439469
 20
50.64367067742989
 10
109.711977346551
 20
50.75038251011221
 10
109.9885840631309
 20
51.56826540399243
 10
109.9885840631309
 20
51.56826540399243
 10
109.9885840631309
 20
51.56826540399243
 10
109.9239540718115
 20
51.56838598233446
 10
109.9239540718115
 20
51.56838598233446
 10
109.9239540718115
 20
51.56838598233446
 10
109.2918824029747
 20
51.56838598233446
 10
109.2918824029747
 20
51.56838598233446
 10
109.2918824029747
 20
51.56838598233446
 10
109.2595674073149
 20
51.56838598233446
 10
109.2595674073149
 20
51.56838598233446
 10
109.2595674073149
 20
51.56838598233446
 10
108.8356139567941
 20
50.39877606479968
 10
108.8356139567941
 20
50.39877606479968
 10
108.8013697076622
 20
50.30134876445254
 10
108.7917234403011
 20
50.15858400750801
 10
108.8681701091379
 20
50.05066639140557
 10
108.9089255887386
 20
49.99302994392303
 10
108.990918861308
 20
49.92442086731705
 10
109.1503234294504
 20
49.92442086731705
 10
109.1503234294504
 20
49.92442086731705
 10
110.4858491455962
 20
49.92442086731705
 10
110.4858491455962
 20
49.92442086731705
 10
110.4858491455962
 20
49.92442086731705
 10
110.4858491455962
 20
48.65907174622339
 10
110.4858491455962
 20
48.65907174622339
 10
110.4858491455962
 20
48.65907174622339
 10
108.5459847792768
 20
48.65907174622339
 10
108.5459847792768
 20
48.65907174622339
 10
108.5459847792768
 20
48.65907174622339
 10
108.5459847792768
 20
47.98310956089347
 10
108.5459847792768
 20
47.98310956089347
 10
108.2604552653879
 20
48.36678984518164
 10
108.0342502957698
 20
48.8544086602858
 10
107.8767749810997
 20
49.42655289314178
 10
107.8767749810997
 20
49.42655289314178
 10
107.8767749810997
 20
49.81758845629281
 10
107.8767749810997
 20
49.81758845629281
 10
107.8767749810997
 20
49.81758845629281
 10
108.6458236464643
 20
49.81758845629281
 10
108.6458236464643
 20
49.81758845629281
 10
108.6458236464643
 20
49.81758845629281
 10
108.6458236464643
 20
50.5370794230896
 10
108.6458236464643
 20
50.5370794230896
 10
108.6458236464643
 20
50.5370794230896
 10
107.8767749810997
 20
50.5370794230896
 10
107.8767749810997
 20
50.5370794230896
 10
107.8767749810997
 20
50.5370794230896
 10
107.8767749810997
 20
51.71947064487778
 10
107.8767749810997
 20
51.71947064487778
 10
107.8767749810997
 20
51.71947064487778
 10
107.1571634359608
 20
51.71947064487778
 10
107.1571634359608
 20
51.71947064487778
 10
107.1571634359608
 20
51.71947064487778
 10
107.1571634359608
 20
50.5370794230896
 10
107.1571634359608
 20
50.5370794230896
 10
107.1571634359608
 20
50.5370794230896
 10
106.19494826669
 20
50.5370794230896
 10
106.19494826669
 20
50.5370794230896
 10
106.19494826669
 20
50.5370794230896
 10
106.19494826669
 20
49.81758845629281
 10
106.19494826669
 20
49.81758845629281
 10
106.19494826669
 20
49.81758845629281
 10
107.1571634359608
 20
49.81758845629281
 10
107.1571634359608
 20
49.81758845629281
 10
107.1571634359608
 20
49.81758845629281
 10
107.1571634359608
 20
49.33262236471296
 10
107.1571634359608
 20
49.33262236471296
 10
107.0127105822282
 20
48.71236737339348
 10
106.7187405843983
 20
48.11863961731706
 10
106.2757357558393
 20
47.56108536384488
 10
106.2757357558393
 20
47.56108536384488
 10
106.26560717511
 20
47.54830405959137
 10
106.26560717511
 20
47.54830405959137
 10
106.26560717511
 20
47.54830405959137
 10
106.26560717511
 20
46.48287382955664
 10
106.26560717511
 20
46.48287382955664
 10
106.26560717511
 20
46.48287382955664
 10
106.3456711942074
 20
46.56559057217816
 10
106.3456711942074
 20
46.56559057217816
 10
106.6787085748497
 20
46.91092694370593
 10
106.9475982775407
 20
47.26663305264696
 10
107.1571634359608
 20
47.60786976054624
 10
107.1571634359608
 20
47.60786976054624
 10
107.1571634359608
 20
44.10651586514688
 10
107.1571634359608
 20
44.10651586514688
 10
107.1571634359608
 20
44.10651586514688
 10
107.8767749810997
 20
44.10651586514688
 10
107.8767749810997
 20
44.10651586514688
 10
107.8767749810997
 20
44.10651586514688
 10
107.8767749810997
 20
47.77330324578929
 10
107.8767749810997
 20
47.77330324578929
 10
108.1362595731136
 20
47.39420493849763
 10
108.4410816217247
 20
47.05128013381011
 10
108.774119002367
 20
46.78359621453933
 10
108.774119002367
 20
46.78359621453933
 10
108.8496010444677
 20
46.72282473016434
 10
108.8496010444677
 20
46.72282473016434
 10
108.8496010444677
 20
46.72282473016434
 10
108.8496010444677
 20
47.63198542894906
 10
108.8496010444677
 20
47.63198542894906
 10
108.8496010444677
 20
47.63198542894906
 10
108.8353728001101
 20
47.64573135993862
 10
108.8353728001101
 20
47.64573135993862
 10
108.7449390435997
 20
47.73423586297679
 10
108.6605342041901
 20
47.83407473016427
 10
108.5790232449886
 20
47.93970135776851
 10
108.5790232449886
 20
47.93970135776851
 10
109.6492766087038
 20
47.93970135776851
 10
109.6492766087038
 20
47.93970135776851
 10
109.5687302762386
 20
46.94878854309831
 10
109.3094868409087
 20
45.70538468025108
 10
108.2978345514123
 20
45.03834529223024
 10
108.2978345514123
 20
45.03834529223024
 10
108.2768539199019
 20
45.02435820455661
 10
108.2768539199019
 20
45.02435820455661
 10
108.2768539199019
 20
45.02435820455661
 10
108.2768539199019
 20
44.34743139249064
 10
108.2768539199019
 20
44.34743139249064
 10
108.2768539199019
 20
44.34743139249064
 10
108.3446189481136
 20
44.38312258172686
 10
108.3446189481136
 20
44.38312258172686
 10
109.5846466173844
 20
45.04123917243862
 10
110.1979080648671
 20
46.20699058302887
 10
110.3611711399539
 20
47.93970135776851
 10
110.3611711399539
 20
47.93970135776851
 10
110.4858491455962
 20
47.93970135776851
 10
110.4858491455962
 20
47.93970135776851
 10
110.4858491455962
 20
47.93970135776851
 10
110.4858491455962
 20
44.10651586514688
 10
110.4858491455962
 20
44.10651586514688
 10
110.4858491455962
 20
44.10651586514688
 10
111.2052195340511
 20
44.10651586514688
 10
111.2052195340511
 20
44.10651586514688
 10
111.2052195340511
 20
44.10651586514688
 10
111.2052195340511
 20
47.93970135776851
 10
111.2052195340511
 20
47.93970135776851
 10
111.2052195340511
 20
47.93970135776851
 10
111.3077111247629
 20
47.93970135776851
 10
111.3077111247629
 20
47.93970135776851
 10
111.4709741998497
 20
46.20699058302887
 10
112.0837533339643
 20
45.04123917243862
 10
113.3235398465511
 20
44.38312258172686
 10
113.3235398465511
 20
44.38312258172686
 10
113.391546031447
 20
44.34743139249064
 10
113.391546031447
 20
44.34743139249064
 10
113.391546031447
 20
44.34743139249064
 10
113.391546031447
 20
45.02435820455661
 10
113.391546031447
 20
45.02435820455661
 10
113.391546031447
 20
45.02435820455661
 10
113.3708065566205
 20
45.03834529223024
 10
113.3708065566205
 20
45.03834529223024
 97
        0
 75
     0
 76
     1
 52
0.0
 41
0.01
 77
     0
 78
     1
 53
45.0
 43
-0.9999983001881673
 44
21.50000079055394
 45
-0.0224506403026729
 46
0.0224506403026729
 79
     0
 98
        1
 10
95.92806417923339
 20
47.88960105666172
  0
HATCH
  5
1877C
330
1F
100
AcDbEntity
  8
0
  6
ByBlock
 62
     0
100
AcDbHatch
 10
0.0
 20
0.0
 30
0.0
210
0.0
220
0.0
230
1.0
  2
ANSI31
 70
     0
 71
     0
 91
        1
 92
        1
 93
        1
 72
     4
 94
        3
 73
     0
 74
     0
 95
       29
 96
       25
 40
0.0
 40
0.0
 40
0.0
 40
0.0
 40
1.0
 40
1.0
 40
1.0
 40
2.0
 40
2.0
 40
2.0
 40
3.0
 40
3.0
 40
3.0
 40
4.0
 40
4.0
 40
4.0
 40
5.0
 40
5.0
 40
5.0
 40
6.0
 40
6.0
 40
6.0
 40
7.0
 40
7.0
 40
7.0
 40
8.0
 40
8.0
 40
8.0
 40
8.0
 10
93.44451206877341
 20
47.87892987339342
 10
93.44451206877341
 20
46.26028621019907
 10
93.07385424542269
 20
45.30000029440043
 10
92.3108344971588
 20
44.94453534214346
 10
92.3108344971588
 20
44.94453534214346
 10
92.28406610523165
 20
44.93199519457403
 10
92.28406610523165
 20
44.93199519457403
 10
92.28406610523165
 20
44.93199519457403
 10
92.28406610523165
 20
44.08408829353231
 10
92.28406610523165
 20
44.08408829353231
 10
92.28406610523165
 20
44.08408829353231
 10
92.34797262649909
 20
44.10989205872328
 10
92.34797262649909
 20
44.10989205872328
 10
93.6885626330095
 20
44.65466500794207
 10
94.27264412172474
 20
45.71141359735179
 10
94.3018240804921
 20
47.64307863641431
 10
94.3018240804921
 20
47.64307863641431
 10
94.3018240804921
 20
51.3503803399733
 10
94.3018240804921
 20
51.3503803399733
 10
94.3018240804921
 20
51.3503803399733
 10
93.44451206877341
 20
51.3503803399733
 10
93.44451206877341
 20
51.3503803399733
 10
93.44451206877341
 20
51.3503803399733
 10
93.44451206877341
 20
47.87892987339342
 10
93.44451206877341
 20
47.87892987339342
 97
        0
 75
     0
 76
     1
 52
0.0
 41
0.01
 77
     0
 78
     1
 53
45.0
 43
-0.9999983001881673
 44
21.50000079055394
 45
-0.0224506403026729
 46
0.0224506403026729
 79
     0
 98
        1
 10
95.75925450041404
 20
47.71723431675286
  0
HATCH
  5
1877D
330
1F
100
AcDbEntity
  8
0
  6
ByBlock
 62
     0
100
AcDbHatch
 10
0.0
 20
0.0
 30
0.0
210
0.0
220
0.0
230
1.0
  2
ANSI31
 70
     0
 71
     0
 91
        1
 92
        1
 93
        1
 72
     4
 94
        3
 73
     0
 74
     0
 95
       35
 96
       31
 40
0.0
 40
0.0
 40
0.0
 40
0.0
 40
1.0
 40
1.0
 40
1.0
 40
2.0
 40
2.0
 40
2.0
 40
3.0
 40
3.0
 40
3.0
 40
4.0
 40
4.0
 40
4.0
 40
5.0
 40
5.0
 40
5.0
 40
6.0
 40
6.0
 40
6.0
 40
7.0
 40
7.0
 40
7.0
 40
8.0
 40
8.0
 40
8.0
 40
9.0
 40
9.0
 40
9.0
 40
10.0
 40
10.0
 40
10.0
 40
10.0
 10
98.53098884828728
 20
48.75915177009483
 10
98.53098884828728
 20
48.75915177009483
 10
98.53098884828728
 20
48.7128496867615
 10
98.53098884828728
 20
48.7128496867615
 10
98.53098884828728
 20
46.36012507738655
 10
97.31652378752336
 20
45.15820016419207
 10
96.16861797155117
 20
45.01929391419207
 10
96.16861797155117
 20
45.12540285516434
 10
96.16861797155117
 20
51.3503803399733
 10
96.16861797155117
 20
51.3503803399733
 10
96.16861797155117
 20
51.3503803399733
 10
95.31154711651641
 20
51.3503803399733
 10
95.31154711651641
 20
51.3503803399733
 10
95.31154711651641
 20
51.3503803399733
 10
95.31154711651641
 20
44.56181968459134
 10
95.31154711651641
 20
44.56181968459134
 10
95.31154711651641
 20
44.41133791375807
 10
95.35302606616927
 20
44.29461807868858
 10
95.43477818205463
 20
44.21383058953927
 10
95.54643372675945
 20
44.10434545499072
 10
95.69088658049214
 20
44.10651586514688
 10
95.69715665427692
 20
44.10651586514688
 10
97.4571181343116
 20
44.10651586514688
 10
99.2344428955962
 20
45.53054608433092
 10
99.2344428955962
 20
48.7128496867615
 10
99.2344428955962
 20
48.7128496867615
 10
99.2344428955962
 20
48.75915177009483
 10
99.2344428955962
 20
48.75915177009483
 10
99.2344428955962
 20
48.75915177009483
 10
98.53098884828728
 20
48.75915177009483
 10
98.53098884828728
 20
48.75915177009483
 97
        0
 75
     0
 76
     1
 52
0.0
 41
0.01
 77
     0
 78
     1
 53
45.0
 43
-0.9999983001881673
 44
21.50000079055394
 45
-0.0224506403026729
 46
0.0224506403026729
 79
     0
 98
        1
 10
95.75925450041404
 20
47.71723431675286
  0
HATCH
  5
1877E
330
1F
100
AcDbEntity
  8
0
  6
ByBlock
 62
     0
100
AcDbHatch
 10
0.0
 20
0.0
 30
0.0
210
0.0
220
0.0
230
1.0
  2
ANSI31
 70
     0
 71
     0
 91
        1
 92
        1
 93
        1
 72
     4
 94
        3
 73
     0
 74
     0
 95
       35
 96
       31
 40
0.0
 40
0.0
 40
0.0
 40
0.0
 40
1.0
 40
1.0
 40
1.0
 40
2.0
 40
2.0
 40
2.0
 40
3.0
 40
3.0
 40
3.0
 40
4.0
 40
4.0
 40
4.0
 40
5.0
 40
5.0
 40
5.0
 40
6.0
 40
6.0
 40
6.0
 40
7.0
 40
7.0
 40
7.0
 40
8.0
 40
8.0
 40
8.0
 40
9.0
 40
9.0
 40
9.0
 40
10.0
 40
10.0
 40
10.0
 40
10.0
 10
105.3564464763254
 20
44.8890693048171
 10
105.3434240153878
 20
44.89630400533792
 10
104.0406956082698
 20
45.61253935690035
 10
101.3655445123497
 20
45.61253935690035
 10
101.3655445123497
 20
45.61253935690035
 10
99.78500360523163
 20
45.61253935690035
 10
99.78500360523163
 20
45.61253935690035
 10
99.78500360523163
 20
45.61253935690035
 10
99.7387015218983
 20
45.61253935690035
 10
99.7387015218983
 20
45.61253935690035
 10
99.7387015218983
 20
45.61253935690035
 10
99.7387015218983
 20
44.7805487970046
 10
99.7387015218983
 20
44.7805487970046
 10
99.7387015218983
 20
44.7805487970046
 10
101.4506728218115
 20
44.7805487970046
 10
101.4506728218115
 20
44.7805487970046
 10
103.6268707384782
 20
44.7805487970046
 10
105.2469613417768
 20
44.13786623407054
 10
105.3149675266726
 20
44.11061552877538
 10
105.3149675266726
 20
44.11061552877538
 10
105.3783917345719
 20
44.08505292026847
 10
105.3783917345719
 20
44.08505292026847
 10
105.3783917345719
 20
44.08505292026847
 10
105.3800798313601
 20
44.15305910516429
 10
105.3800798313601
 20
44.15305910516429
 10
105.3800798313601
 20
44.15305910516429
 10
105.3800798313601
 20
44.8755645305115
 10
105.3800798313601
 20
44.8755645305115
 10
105.3800798313601
 20
44.8755645305115
 10
105.3564464763254
 20
44.8890693048171
 10
105.3564464763254
 20
44.8890693048171
 97
        0
 75
     0
 76
     1
 52
0.0
 41
0.01
 77
     0
 78
     1
 53
45.0
 43
-0.9999983001881673
 44
21.50000079055394
 45
-0.0224506403026729
 46
0.0224506403026729
 79
     0
 98
        1
 10
102.5593906766292
 20
47.70372954244726
  0
HATCH
  5
1877F
330
1F
100
AcDbEntity
  8
0
  6
ByBlock
 62
     0
100
AcDbHatch
 10
0.0
 20
0.0
 30
0.0
210
0.0
220
0.0
230
1.0
  2
ANSI31
 70
     0
 71
     0
 91
        1
 92
        1
 93
        1
 72
     4
 94
        3
 73
     0
 74
     0
 95
       35
 96
       31
 40
0.0
 40
0.0
 40
0.0
 40
0.0
 40
1.0
 40
1.0
 40
1.0
 40
2.0
 40
2.0
 40
2.0
 40
3.0
 40
3.0
 40
3.0
 40
4.0
 40
4.0
 40
4.0
 40
5.0
 40
5.0
 40
5.0
 40
6.0
 40
6.0
 40
6.0
 40
7.0
 40
7.0
 40
7.0
 40
8.0
 40
8.0
 40
8.0
 40
9.0
 40
9.0
 40
9.0
 40
10.0
 40
10.0
 40
10.0
 40
10.0
 10
100.1718189264122
 20
48.77217423103241
 10
100.1718189264122
 20
48.77217423103241
 10
100.1255168430788
 20
48.77217423103241
 10
100.1255168430788
 20
48.77217423103241
 10
100.1255168430788
 20
48.77217423103241
 10
100.1255168430788
 20
47.99034426141429
 10
100.1255168430788
 20
47.99034426141429
 10
100.1255168430788
 20
47.99034426141429
 10
101.1412687962038
 20
47.99034426141429
 10
101.1412687962038
 20
47.99034426141429
 10
103.2632064589643
 20
47.99034426141429
 10
104.6491339220719
 20
47.39251684170949
 10
104.8005803196413
 20
47.32426950012961
 10
104.8005803196413
 20
47.32426950012961
 10
104.8659337810129
 20
47.29508954136224
 10
104.8659337810129
 20
47.29508954136224
 10
104.8659337810129
 20
47.29508954136224
 10
104.8681041911691
 20
47.36574844978235
 10
104.8681041911691
 20
47.36574844978235
 10
104.8681041911691
 20
47.36574844978235
 10
104.8681041911691
 20
48.02700007738656
 10
104.8681041911691
 20
48.02700007738656
 10
104.8681041911691
 20
48.02700007738656
 10
104.8512232232872
 20
48.04098716506018
 10
104.8512232232872
 20
48.04098716506018
 10
104.815049720683
 20
48.07089059387954
 10
103.9316927870893
 20
48.77217423103241
 10
100.9789703478532
 20
48.77217423103241
 10
100.9789703478532
 20
48.77217423103241
 10
100.1718189264122
 20
48.77217423103241
 10
100.1718189264122
 20
48.77217423103241
 97
        0
 75
     0
 76
     1
 52
0.0
 41
0.01
 77
     0
 78
     1
 53
45.0
 43
-0.9999983001881673
 44
21.50000079055394
 45
-0.0224506403026729
 46
0.0224506403026729
 79
     0
 98
        1
 10
102.5593906766292
 20
47.70372954244726
  0
HATCH
  5
18780
330
1F
100
AcDbEntity
  8
0
  6
ByBlock
 62
     0
100
AcDbHatch
 10
0.0
 20
0.0
 30
0.0
210
0.0
220
0.0
230
1.0
  2
ANSI31
 70
     0
 71
     0
 91
        1
 92
        1
 93
        1
 72
     4
 94
        3
 73
     0
 74
     0
 95
       35
 96
       31
 40
0.0
 40
0.0
 40
0.0
 40
0.0
 40
1.0
 40
1.0
 40
1.0
 40
2.0
 40
2.0
 40
2.0
 40
3.0
 40
3.0
 40
3.0
 40
4.0
 40
4.0
 40
4.0
 40
5.0
 40
5.0
 40
5.0
 40
6.0
 40
6.0
 40
6.0
 40
7.0
 40
7.0
 40
7.0
 40
8.0
 40
8.0
 40
8.0
 40
9.0
 40
9.0
 40
9.0
 40
10.0
 40
10.0
 40
10.0
 40
10.0
 10
104.9862709663427
 20
49.83796619609313
 10
104.9862709663427
 20
49.83796619609313
 10
105.0523478977663
 20
49.80733929722157
 10
105.0523478977663
 20
49.80733929722157
 10
105.0523478977663
 20
49.80733929722157
 10
105.0559652480268
 20
49.87848051900982
 10
105.0559652480268
 20
49.87848051900982
 10
105.0559652480268
 20
49.87848051900982
 10
105.0559652480268
 20
50.58205514466078
 10
105.0559652480268
 20
50.58205514466078
 10
105.0559652480268
 20
50.58205514466078
 10
105.0328142063601
 20
50.59555991896639
 10
105.0328142063601
 20
50.59555991896639
 10
105.0202740587907
 20
50.60291519782925
 10
103.7546837810129
 20
51.32240616462604
 10
101.1668314047108
 20
51.32240616462604
 10
101.1668314047108
 20
51.32240616462604
 10
99.9839578695545
 20
51.32240616462604
 10
99.9839578695545
 20
51.32240616462604
 10
99.9839578695545
 20
51.32240616462604
 10
99.93765578622129
 20
51.32240616462604
 10
99.93765578622129
 20
51.32240616462604
 10
99.93765578622129
 20
51.32240616462604
 10
99.93765578622129
 20
50.51525474318509
 10
99.93765578622129
 20
50.51525474318509
 10
99.93765578622129
 20
50.51525474318509
 10
101.3624094754573
 20
50.51525474318509
 10
101.3624094754573
 20
50.51525474318509
 10
103.4710835205962
 20
50.51525474318509
 10
104.8374772922976
 20
49.90741932109313
 10
104.9862709663427
 20
49.83796619609313
 97
        0
 75
     0
 76
     1
 52
0.0
 41
0.01
 77
     0
 78
     1
 53
45.0
 43
-0.9999983001881673
 44
21.50000079055394
 45
-0.0224506403026729
 46
0.0224506403026729
 79
     0
 98
        1
 10
102.5593906766292
 20
47.70372954244726
  0
HATCH
  5
18781
330
1F
100
AcDbEntity
  8
0
  6
ByBlock
 62
     0
100
AcDbHatch
 10
0.0
 20
0.0
 30
0.0
210
0.0
220
0.0
230
1.0
  2
ANSI31
 70
     0
 71
     0
 91
        1
 92
        1
 93
        1
 72
     4
 94
        3
 73
     0
 74
     0
 95
       77
 96
       73
 40
0.0
 40
0.0
 40
0.0
 40
0.0
 40
1.0
 40
1.0
 40
1.0
 40
2.0
 40
2.0
 40
2.0
 40
3.0
 40
3.0
 40
3.0
 40
4.0
 40
4.0
 40
4.0
 40
5.0
 40
5.0
 40
5.0
 40
6.0
 40
6.0
 40
6.0
 40
7.0
 40
7.0
 40
7.0
 40
8.0
 40
8.0
 40
8.0
 40
9.0
 40
9.0
 40
9.0
 40
10.0
 40
10.0
 40
10.0
 40
11.0
 40
11.0
 40
11.0
 40
12.0
 40
12.0
 40
12.0
 40
13.0
 40
13.0
 40
13.0
 40
14.0
 40
14.0
 40
14.0
 40
15.0
 40
15.0
 40
15.0
 40
16.0
 40
16.0
 40
16.0
 40
17.0
 40
17.0
 40
17.0
 40
18.0
 40
18.0
 40
18.0
 40
19.0
 40
19.0
 40
19.0
 40
20.0
 40
20.0
 40
20.0
 40
21.0
 40
21.0
 40
21.0
 40
22.0
 40
22.0
 40
22.0
 40
23.0
 40
23.0
 40
23.0
 40
24.0
 40
24.0
 40
24.0
 40
24.0
 10
120.3414405084433
 20
44.91897273363656
 10
119.0951427653879
 20
46.05867922235177
 10
118.6774593886518
 20
47.57748401835875
 10
118.5650803738948
 20
49.92442086731705
 10
118.5650803738948
 20
49.92442086731705
 10
119.9090465739816
 20
49.92442086731705
 10
119.9090465739816
 20
49.92442086731705
 10
120.0493997640858
 20
49.92442086731705
 10
120.1603318387386
 20
49.97108468567649
 10
120.2297849637386
 20
50.05934803203058
 10
120.3050258491553
 20
50.15508723558969
 10
120.3245595405615
 20
50.29049671367125
 10
120.285733314433
 20
50.45038359518162
 10
120.2324376872629
 20
50.67128311775116
 10
119.9934514133913
 20
51.48566923971293
 10
119.9830816759782
 20
51.52015464552892
 10
119.9830816759782
 20
51.52015464552892
 10
119.9736765653011
 20
51.55343426792478
 10
119.9736765653011
 20
51.55343426792478
 10
119.9736765653011
 20
51.55343426792478
 10
119.939191159485
 20
51.55343426792478
 10
119.939191159485
 20
51.55343426792478
 10
119.939191159485
 20
51.55343426792478
 10
119.2335667020198
 20
51.55343426792478
 10
119.2335667020198
 20
51.55343426792478
 10
119.2335667020198
 20
51.55343426792478
 10
119.2473126330094
 20
51.49615955546813
 10
119.2473126330094
 20
51.49615955546813
 10
119.2487595731136
 20
51.49109526510358
 10
119.3659617215511
 20
51.01083172886228
 10
119.5017329346588
 20
50.64367067742989
 10
119.4694179389991
 20
50.64367067742989
 10
119.0912842584434
 20
50.64367067742989
 10
118.5412058621762
 20
50.64367067742989
 10
118.5337300049712
 20
50.9726083944438
 10
118.5296303413428
 20
51.31324221063301
 10
118.5296303413428
 20
51.67304798320254
 10
118.5296303413428
 20
51.67304798320254
 10
118.5296303413428
 20
51.7194706448779
 10
118.5296303413428
 20
51.7194706448779
 10
118.5296303413428
 20
51.7194706448779
 10
118.4833282580094
 20
51.7194706448779
 10
118.4833282580094
 20
51.7194706448779
 10
118.4833282580094
 20
51.7194706448779
 10
117.7610639893462
 20
51.7194706448779
 10
117.7610639893462
 20
51.7194706448779
 10
117.7610639893462
 20
51.7194706448779
 10
117.7610639893462
 20
51.67304798320254
 10
117.7610639893462
 20
51.67304798320254
 10
117.7610639893462
 20
51.31432741571121
 10
117.7666105930789
 20
50.97200550273374
 10
117.7772214871761
 20
50.64367067742989
 10
116.0464399659087
 20
50.64367067742989
 10
113.6372846924712
 20
50.64367067742989
 10
113.6372846924712
 20
50.64367067742989
 10
113.6372846924712
 20
50.64367067742989
 10
113.6372846924712
 20
49.92442086731705
 10
113.6372846924712
 20
49.92442086731705
 10
113.6372846924712
 20
49.92442086731705
 10
117.81098342294
 20
49.92442086731705
 10
117.81098342294
 20
49.92442086731705
 10
117.9973975396934
 20
46.9475827596782
 10
118.7254495687733
 20
45.29710641419206
 10
120.2821159641726
 20
44.11592097582399
 10
120.2821159641726
 20
44.11592097582399
 10
120.3566333795372
 20
44.05949031176158
 10
120.3566333795372
 20
44.05949031176158
 10
120.3566333795372
 20
44.05949031176158
 10
120.3566333795372
 20
44.90498564596293
 10
120.3566333795372
 20
44.90498564596293
 10
120.3566333795372
 20
44.90498564596293
 10
120.3414405084433
 20
44.91897273363656
 10
120.3414405084433
 20
44.91897273363656
 97
        0
 75
     0
 76
     1
 52
0.0
 41
0.01
 77
     0
 78
     1
 53
45.0
 43
-0.9999983001881673
 44
21.50000079055394
 45
-0.0224506403026729
 46
0.0224506403026729
 79
     0
 98
        1
 10
116.9969590360042
 20
47.88948047831968
  0
HATCH
  5
18782
330
1F
100
AcDbEntity
  8
0
  6
ByBlock
 62
     0
100
AcDbHatch
 10
0.0
 20
0.0
 30
0.0
210
0.0
220
0.0
230
1.0
  2
ANSI31
 70
     0
 71
     0
 91
        1
 92
        1
 93
        1
 72
     4
 94
        3
 73
     0
 74
     0
 95
       53
 96
       49
 40
0.0
 40
0.0
 40
0.0
 40
0.0
 40
1.0
 40
1.0
 40
1.0
 40
2.0
 40
2.0
 40
2.0
 40
3.0
 40
3.0
 40
3.0
 40
4.0
 40
4.0
 40
4.0
 40
5.0
 40
5.0
 40
5.0
 40
6.0
 40
6.0
 40
6.0
 40
7.0
 40
7.0
 40
7.0
 40
8.0
 40
8.0
 40
8.0
 40
9.0
 40
9.0
 40
9.0
 40
10.0
 40
10.0
 40
10.0
 40
11.0
 40
11.0
 40
11.0
 40
12.0
 40
12.0
 40
12.0
 40
13.0
 40
13.0
 40
13.0
 40
14.0
 40
14.0
 40
14.0
 40
15.0
 40
15.0
 40
15.0
 40
16.0
 40
16.0
 40
16.0
 40
16.0
 10
116.0529511963775
 20
45.10803957391431
 10
116.0529511963775
 20
45.10803957391431
 10
116.0529511963775
 20
47.93970135776851
 10
116.0529511963775
 20
47.93970135776851
 10
116.0529511963775
 20
47.93970135776851
 10
117.656160831794
 20
47.93970135776851
 10
117.656160831794
 20
47.93970135776851
 10
117.656160831794
 20
47.93970135776851
 10
117.656160831794
 20
48.65907174622339
 10
117.656160831794
 20
48.65907174622339
 10
117.656160831794
 20
48.65907174622339
 10
113.9613992758046
 20
48.65907174622339
 10
113.9613992758046
 20
48.65907174622339
 10
113.9613992758046
 20
48.65907174622339
 10
113.9613992758046
 20
47.93970135776851
 10
113.9613992758046
 20
47.93970135776851
 10
113.9613992758046
 20
47.93970135776851
 10
115.3338219646066
 20
47.93970135776851
 10
115.3338219646066
 20
47.93970135776851
 10
115.3338219646066
 20
47.93970135776851
 10
115.3338219646066
 20
45.08006539856705
 10
115.3338219646066
 20
45.08006539856705
 10
114.8951579563601
 20
45.06897219110181
 10
114.3986163439469
 20
45.06390790073726
 10
113.8212872423844
 20
45.06390790073726
 10
113.8212872423844
 20
45.06390790073726
 10
113.7749851590511
 20
45.06390790073726
 10
113.7749851590511
 20
45.06390790073726
 10
113.7749851590511
 20
45.06390790073726
 10
113.7749851590511
 20
44.33247967808097
 10
113.7749851590511
 20
44.33247967808097
 10
113.7749851590511
 20
44.33247967808097
 10
113.8212872423844
 20
44.33247967808097
 10
113.8212872423844
 20
44.33247967808097
 10
115.5096251872629
 20
44.33247967808097
 10
117.2703101373497
 20
44.41616104743866
 10
118.3854186442941
 20
44.84831382521645
 10
118.3854186442941
 20
44.84831382521645
 10
118.4136339763254
 20
44.86013050273379
 10
118.4136339763254
 20
44.86013050273379
 10
118.4136339763254
 20
44.86013050273379
 10
118.4136339763254
 20
45.56792537035528
 10
118.4136339763254
 20
45.56792537035528
 10
118.4136339763254
 20
45.56792537035528
 10
118.34924514169
 20
45.54091582174419
 10
118.34924514169
 20
45.54091582174419
 10
117.7569643257178
 20
45.29155981045948
 10
117.1150052328358
 20
45.16591717808103
 10
116.0529511963775
 20
45.10803957391431
 97
        0
 75
     0
 76
     1
 52
0.0
 41
0.01
 77
     0
 78
     1
 53
45.0
 43
-0.9999983001881673
 44
21.50000079055394
 45
-0.0224506403026729
 46
0.0224506403026729
 79
     0
 98
        1
 10
116.9969590360042
 20
47.88948047831968
  0
LINE
  5
18783
330
1F
100
AcDbEntity
  8
0
  6
ByBlock
 62
     0
370
    -2
100
AcDbLine
 10
140.0000000000004
 20
38.0
 30
0.0
 11
140.0000000000004
 21
58.0
 31
0.0
  0
HATCH
  5
18784
330
1F
100
AcDbEntity
  8
0
  6
ByBlock
 62
     0
100
AcDbHatch
 10
0.0
 20
0.0
 30
0.0
210
0.0
220
0.0
230
1.0
  2
ANSI31
 70
     0
 71
     0
 91
        1
 92
        3
 72
     0
 73
     1
 93
       16
 10
133.4234671468985
 20
44.984085038324
 10
133.4234671468985
 20
49.35553224969556
 10
135.0474162571413
 20
49.35553224969556
 10
135.0474162571413
 20
50.0747820598084
 10
133.4234671468985
 20
50.0747820598084
 10
133.4234671468985
 20
51.71585329461743
 10
132.7045790718115
 20
51.71585329461743
 10
132.7045790718115
 20
50.0747820598084
 10
131.2959828804053
 20
50.0747820598084
 10
131.2959828804053
 20
49.35553224969556
 10
132.7045790718115
 20
49.35553224969556
 10
132.7045790718115
 20
44.984085038324
 10
130.8971097250233
 20
44.984085038324
 10
130.8971097250233
 20
44.26447349318516
 10
135.2053738851796
 20
44.26447349318516
 10
135.2053738851796
 20
44.984085038324
 97
        0
 75
     0
 76
     1
 52
0.0
 41
0.01
 77
     0
 78
     1
 53
45.0
 43
-0.9999983001881673
 44
21.50000079055394
 45
-0.0224506403026729
 46
0.0224506403026729
 79
     0
 98
        1
 10
131.6469864340078
 20
47.90370872267738
  0
HATCH
  5
18785
330
1F
100
AcDbEntity
  8
0
  6
ByBlock
 62
     0
100
AcDbHatch
 10
0.0
 20
0.0
 30
0.0
210
0.0
220
0.0
230
1.0
  2
ANSI31
 70
     0
 71
     0
 91
        1
 92
        1
 93
        1
 72
     4
 94
        3
 73
     0
 74
     0
 95
       77
 96
       73
 40
0.0
 40
0.0
 40
0.0
 40
0.0
 40
1.0
 40
1.0
 40
1.0
 40
2.0
 40
2.0
 40
2.0
 40
3.0
 40
3.0
 40
3.0
 40
4.0
 40
4.0
 40
4.0
 40
5.0
 40
5.0
 40
5.0
 40
6.0
 40
6.0
 40
6.0
 40
7.0
 40
7.0
 40
7.0
 40
8.0
 40
8.0
 40
8.0
 40
9.0
 40
9.0
 40
9.0
 40
10.0
 40
10.0
 40
10.0
 40
11.0
 40
11.0
 40
11.0
 40
12.0
 40
12.0
 40
12.0
 40
13.0
 40
13.0
 40
13.0
 40
14.0
 40
14.0
 40
14.0
 40
15.0
 40
15.0
 40
15.0
 40
16.0
 40
16.0
 40
16.0
 40
17.0
 40
17.0
 40
17.0
 40
18.0
 40
18.0
 40
18.0
 40
19.0
 40
19.0
 40
19.0
 40
20.0
 40
20.0
 40
20.0
 40
21.0
 40
21.0
 40
21.0
 40
22.0
 40
22.0
 40
22.0
 40
23.0
 40
23.0
 40
23.0
 40
24.0
 40
24.0
 40
24.0
 40
24.0
 10
131.3299859728531
 20
46.65819473884482
 10
131.3299859728531
 20
46.65819473884482
 10
131.4016095080094
 20
46.6104457154073
 10
131.4016095080094
 20
46.6104457154073
 10
131.4016095080094
 20
46.6104457154073
 10
131.4016095080094
 20
47.43327232131014
 10
131.4016095080094
 20
47.43327232131014
 10
131.4016095080094
 20
47.43327232131014
 10
131.3842462267594
 20
47.44725940898376
 10
131.3842462267594
 20
47.44725940898376
 10
131.042527205492
 20
47.71518448493861
 10
130.6805510227664
 20
48.17579375143168
 10
130.4270953478531
 20
48.57297881002546
 10
130.8216276829225
 20
49.18792835429622
 10
131.1083629802316
 20
49.84242759474762
 10
131.2296647922976
 20
50.46581762295943
 10
131.2311117324018
 20
50.47172596171811
 10
131.2713848986344
 20
50.64921728116257
 10
131.1715460314469
 20
50.77570396193516
 10
131.1093276069678
 20
50.85456219761226
 10
131.0092475830962
 20
50.89435305047686
 10
130.8744409967247
 20
50.89435305047686
 10
130.8744409967247
 20
50.89435305047686
 10
130.5428505561865
 20
50.89435305047686
 10
130.5428505561865
 20
50.89435305047686
 10
130.5428505561865
 20
50.89435305047686
 10
130.0373861464643
 20
50.89435305047686
 10
130.0373861464643
 20
50.89435305047686
 10
130.0373861464643
 20
50.89435305047686
 10
130.0373861464643
 20
51.7194706448779
 10
130.0373861464643
 20
51.7194706448779
 10
130.0373861464643
 20
51.7194706448779
 10
129.3180157580094
 20
51.7194706448779
 10
129.3180157580094
 20
51.7194706448779
 10
129.3180157580094
 20
51.7194706448779
 10
129.3180157580094
 20
50.89435305047686
 10
129.3180157580094
 20
50.89435305047686
 10
129.3180157580094
 20
50.89435305047686
 10
128.1635987115684
 20
50.89435305047686
 10
128.1635987115684
 20
50.89435305047686
 10
128.1635987115684
 20
50.89435305047686
 10
128.1635987115684
 20
50.17486208367995
 10
128.1635987115684
 20
50.17486208367995
 10
128.1635987115684
 20
50.17486208367995
 10
130.2725139133914
 20
50.17486208367995
 10
130.4017738960302
 20
50.17486208367995
 10
130.0067592475927
 20
49.15754261210873
 10
129.4209896620893
 20
48.01470108650107
 10
128.1095796143462
 20
47.16221220846295
 10
128.1095796143462
 20
47.16221220846295
 10
128.0885989828358
 20
47.14846627747329
 10
128.0885989828358
 20
47.14846627747329
 10
128.0885989828358
 20
47.14846627747329
 10
128.0885989828358
 20
46.31406415073718
 10
128.0885989828358
 20
46.31406415073718
 10
128.0885989828358
 20
46.31406415073718
 10
128.1580521078358
 20
46.35361384691782
 10
128.1580521078358
 20
46.35361384691782
 10
128.5648834337906
 20
46.58608889032052
 10
128.9565218886518
 20
46.88705243198717
 10
129.3180157580094
 20
47.23070070672679
 10
129.3180157580094
 20
47.23070070672679
 10
129.3180157580094
 20
44.08794680047686
 10
129.3180157580094
 20
44.08794680047686
 10
129.3180157580094
 20
44.08794680047686
 10
130.0373861464643
 20
44.08794680047686
 10
130.0373861464643
 20
44.08794680047686
 10
130.0373861464643
 20
44.08794680047686
 10
130.0373861464643
 20
47.87410673971294
 10
130.0373861464643
 20
47.87410673971294
 10
130.3959861356136
 20
47.40288657912265
 10
130.8423671577491
 20
46.9798977553379
 10
131.3299859728531
 20
46.65819473884482
 97
        0
 75
     0
 76
     1
 52
0.0
 41
0.01
 77
     0
 78
     1
 53
45.0
 43
-0.9999983001881673
 44
21.50000079055394
 45
-0.0224506403026729
 46
0.0224506403026729
 79
     0
 98
        1
 10
131.6469864340078
 20
47.90370872267738
  0
LINE
  5
18786
330
1F
100
AcDbEntity
  8
0
  6
ByBlock
 62
     0
370
    -2
100
AcDbLine
 10
240.0000000000005
 20
48.0
 30
0.0
 11
340.0000000000005
 21
48.0
 31
0.0
  0
LINE
  5
18787
330
1F
100
AcDbEntity
  8
0
  6
ByBlock
 62
     0
370
    -2
100
AcDbLine
 10
240.0000000000005
 20
38.0
 30
0.0
 11
240.0000000000005
 21
58.0
 31
0.0
  0
MTEXT
  5
18788
330
1F
100
AcDbEntity
  8
0
100
AcDbMText
 10
242.0000000000005
 20
43.0
 30
0.0
 40
4.0
 41
12.208605964787
 71
     4
 72
     5
  1
御施工
  7
ST_Design
 73
     1
 44
1.0
1001
ACAD
1000
MTEXTBEGIN
1070
    73
1070
     1
1070
    44
1040
1.0
1070
    74
1070
     0
1000
MTEXTEND
  0
MTEXT
  5
18789
330
1F
100
AcDbEntity
  8
0
100
AcDbMText
 10
242.0000000000005
 20
53.0
 30
0.0
 40
4.0
 41
13.91
 71
     4
 72
     5
  1
御設計
  7
ST_Design
 73
     1
 44
1.0
1001
ACAD
1000
MTEXTBEGIN
1070
    73
1070
     1
1070
    44
1040
1.0
1070
    74
1070
     0
1000
MTEXTEND
  0
MTEXT
  5
1878A
330
1F
100
AcDbEntity
  8
0
100
AcDbMText
 10
335.7714923696954
 20
43.0
 30
0.0
 40
4.0
 41
3.089999999999998
 71
     4
 72
     5
  1
殿
  7
ST_Design
 73
     1
 44
1.0
1001
ACAD
1000
MTEXTBEGIN
1070
    73
1070
     1
1070
    44
1040
1.0
1070
    74
1070
     0
1000
MTEXTEND
  0
MTEXT
  5
1878B
330
1F
100
AcDbEntity
  8
0
100
AcDbMText
 10
335.8944653645499
 20
53.0
 30
0.0
 40
4.0
 41
3.089999999999998
 71
     4
 72
     5
  1
殿
  7
ST_Design
 73
     1
 44
1.0
1001
ACAD
1000
MTEXTBEGIN
1070
    73
1070
     1
1070
    44
1040
1.0
1070
    74
1070
     0
1000
MTEXTEND
  0
MTEXT
  5
1878C
330
1F
100
AcDbEntity
  8
0
100
AcDbMText
 10
341.0193080318454
 20
55.20513729706067
 30
0.0
 40
3.5
 41
5.0
 71
     1
 72
     5
  1
受\P{\H0.7143x;　\P}領
  7
ST_Design
 73
     1
 44
1.0
1001
ACAD
1000
MTEXTBEGIN
1070
    73
1070
     1
1070
    44
1040
1.0
1070
    74
1070
     0
1000
MTEXTEND
  0
LINE
  5
1878D
330
1F
100
AcDbEntity
  8
0
  6
ByBlock
 62
     0
370
    -2
100
AcDbLine
 10
340.0000000000005
 20
38.0
 30
0.0
 11
340.0000000000005
 21
58.0
 31
0.0
  0
LINE
  5
1878E
330
1F
100
AcDbEntity
  8
0
  6
ByBlock
 62
     0
370
    -2
100
AcDbLine
 10
345.0
 20
38.0
 30
0.0
 11
344.9999999999984
 21
58.0
 31
0.0
  0
LINE
  5
1878F
330
1F
100
AcDbEntity
  8
0
  6
ByBlock
 62
     0
370
    -2
100
AcDbLine
 10
410.0000000000004
 20
38.0
 30
0.0
 11
410.0000000000004
 21
58.0
 31
0.0
  0
MTEXT
  5
18790
330
1F
100
AcDbEntity
  8
0
100
AcDbMText
 10
411.9101362171959
 20
55.32828371120036
 30
0.0
 40
3.5
 41
5.0
 71
     1
 72
     5
  1
工\P事\P名
  7
ST_Design
 73
     1
 44
1.0
1001
ACAD
1000
MTEXTBEGIN
1070
    73
1070
     1
1070
    44
1040
1.0
1070
    74
1070
     0
1000
MTEXTEND
  0
LINE
  5
18791
330
1F
100
AcDbEntity
  8
0
  6
ByBlock
 62
     0
370
    -2
100
AcDbLine
 10
798.0000000000036
 20
38.0
 30
0.0
 11
798.0
 21
558.0
 31
0.0
  0
MTEXT
  5
18792
330
1F
100
AcDbEntity
  8
0
100
AcDbMText
 10
663.0000000000043
 20
53.5
 30
0.0
 40
3.5
 41
13.59593930004324
 71
     8
 72
     5
  1
尺　　度
  7
ST_Design
 73
     1
 44
1.0
1001
ACAD
1000
MTEXTBEGIN
1070
    73
1070
     1
1070
    44
1040
1.0
1070
    74
1070
     0
1000
MTEXTEND
  0
LINE
  5
18793
330
1F
100
AcDbEntity
  8
0
  6
ByBlock
 62
     0
370
    -2
100
AcDbLine
 10
678.0
 20
53.0
 30
0.0
 11
588.0000000000002
 21
53.0
 31
0.0
  0
LINE
  5
18794
330
1F
100
AcDbEntity
  8
0
  6
ByBlock
 62
     0
370
    -2
100
AcDbLine
 10
588.0000000000004
 20
38.0
 30
0.0
 11
588.0000000000004
 21
58.0
 31
0.0
  0
MTEXT
  5
18795
330
1F
100
AcDbEntity
  8
0
100
AcDbMText
 10
625.5000000000043
 20
53.5
 30
0.0
 40
3.5
 41
13.5959
 71
     8
 72
     5
  1
打　合
  7
ST_Design
 73
     1
 44
1.0
1001
ACAD
1000
MTEXTBEGIN
1070
    73
1070
     1
1070
    44
1040
1.0
1070
    74
1070
     0
1000
MTEXTEND
  0
MTEXT
  5
18796
330
1F
100
AcDbEntity
  8
0
100
AcDbMText
 10
603.0000000000004
 20
53.5
 30
0.0
 40
3.5
 41
13.5959
 71
     8
 72
     5
  1
照　　査
  7
ST_Design
 73
     1
 44
1.0
1001
ACAD
1000
MTEXTBEGIN
1070
    73
1070
     1
1070
    44
1040
1.0
1070
    74
1070
     0
1000
MTEXTEND
  0
LINE
  5
18797
330
1F
100
AcDbEntity
  8
0
  6
ByBlock
 62
     0
370
    -2
100
AcDbLine
 10
618.0000000000041
 20
38.0
 30
0.0
 11
618.0000000000041
 21
58.0
 31
0.0
  0
MTEXT
  5
18798
330
1F
100
AcDbEntity
  8
0
100
AcDbMText
 10
640.5000000000043
 20
53.5
 30
0.0
 40
3.5
 41
13.5959
 71
     8
 72
     5
  1
作　図
  7
ST_Design
 73
     1
 44
1.0
1001
ACAD
1000
MTEXTBEGIN
1070
    73
1070
     1
1070
    44
1040
1.0
1070
    74
1070
     0
1000
MTEXTEND
  0
LINE
  5
18799
330
1F
100
AcDbEntity
  8
0
  6
ByBlock
 62
     0
370
    -2
100
AcDbLine
 10
633.0000000000004
 20
38.0
 30
0.0
 11
633.000000000004
 21
58.0
 31
0.0
  0
LINE
  5
1879A
330
1F
100
AcDbEntity
  8
0
  6
ByBlock
 62
     0
370
    -2
100
AcDbLine
 10
648.0000000000041
 20
38.0
 30
0.0
 11
648.0000000000041
 21
58.0
 31
0.0
  0
LINE
  5
1879B
330
1F
100
AcDbEntity
  8
0
  6
ByBlock
 62
     0
370
    -2
100
AcDbLine
 10
652.0000000000041
 20
45.49999999999999
 30
0.0
 11
660.0000000000041
 21
45.49999999999999
 31
0.0
  0
LINE
  5
1879C
330
1F
100
AcDbEntity
  8
0
  6
ByBlock
 62
     0
370
    -2
100
AcDbLine
 10
798.0000000000041
 20
53.0
 30
0.0
 11
768.0000000000041
 21
53.0
 31
0.0
  0
LINE
  5
1879D
330
1F
100
AcDbEntity
  8
0
  6
ByBlock
 62
     0
370
    -2
100
AcDbLine
 10
768.0000000000041
 20
48.0
 30
0.0
 11
678.0000000000041
 21
48.0
 31
0.0
  0
LINE
  5
1879E
330
1F
100
AcDbEntity
  8
0
  6
ByBlock
 62
     0
370
    -2
100
AcDbLine
 10
666.000000000008
 20
45.49999999999999
 30
0.0
 11
674.000000000008
 21
45.49999999999999
 31
0.0
  0
LINE
  5
1879F
330
1F
100
AcDbEntity
  8
0
  6
ByBlock
 62
     0
370
    -2
100
AcDbLine
 10
678.0000000000041
 20
38.0
 30
0.0
 11
678.0000000000041
 21
58.0
 31
0.0
  0
LINE
  5
187A0
330
1F
100
AcDbEntity
  8
0
  6
ByBlock
 62
     0
370
    -2
100
AcDbLine
 10
678.0000000000041
 20
38.0
 30
0.0
 11
678.0000000000041
 21
58.0
 31
0.0
  0
LINE
  5
187A1
330
1F
100
AcDbEntity
  8
0
  6
ByBlock
 62
     0
370
    -2
100
AcDbLine
 10
768.0000000000041
 20
38.0
 30
0.0
 11
768.0000000000041
 21
58.0
 31
0.0
  0
MTEXT
  5
187A2
330
1F
100
AcDbEntity
  8
0
100
AcDbMText
 10
783.000000000004
 20
53.5
 30
0.0
 40
3.5
 41
13.5959
 71
     8
 72
     5
  1
図　　番
  7
ST_Design
 73
     1
 44
1.0
1001
ACAD
1000
MTEXTBEGIN
1070
    73
1070
     1
1070
    44
1040
1.0
1070
    74
1070
     0
1000
MTEXTEND
  0
LINE
  5
187A3
330
1F
100
AcDbEntity
  8
0
  6
ByBlock
 62
     0
370
    -2
100
AcDbLine
 10
776.0
 20
522.0
 30
0.0
 11
798.0
 21
522.0
 31
0.0
  0
LINE
  5
187A4
330
1F
100
AcDbEntity
  8
0
  6
ByBlock
 62
     0
370
    -2
100
AcDbLine
 10
776.0
 20
549.0
 30
0.0
 11
798.0
 21
549.0
 31
0.0
  0
LINE
  5
187A5
330
1F
100
AcDbEntity
  8
0
  6
ByBlock
 62
     0
370
    -2
100
AcDbLine
 10
776.0
 20
531.0
 30
0.0
 11
798.0
 21
531.0
 31
0.0
  0
LINE
  5
187A6
330
1F
100
AcDbEntity
  8
0
  6
ByBlock
 62
     0
370
    -2
100
AcDbLine
 10
776.0
 20
540.0
 30
0.0
 11
798.0
 21
540.0
 31
0.0
  0
LINE
  5
187A7
330
1F
100
AcDbEntity
  8
0
  6
ByBlock
 62
     0
370
    -2
100
AcDbLine
 10
776.0
 20
513.0
 30
0.0
 11
798.0
 21
513.0
 31
0.0
  0
LINE
  5
187A8
330
1F
100
AcDbEntity
  8
0
  6
ByBlock
 62
     0
370
    -2
100
AcDbLine
 10
776.0
 20
495.0
 30
0.0
 11
798.0
 21
495.0
 31
0.0
  0
LINE
  5
187A9
330
1F
100
AcDbEntity
  8
0
  6
ByBlock
 62
     0
370
    -2
100
AcDbLine
 10
776.0
 20
504.0
 30
0.0
 11
798.0
 21
504.0
 31
0.0
  0
LINE
  5
187AA
330
1F
100
AcDbEntity
  8
0
  6
ByBlock
 62
     0
370
    -2
100
AcDbLine
 10
776.0
 20
558.0
 30
0.0
 11
776.0
 21
495.0
 31
0.0
  0
TEXT
  5
187AB
330
1F
100
AcDbEntity
  8
0
100
AcDbText
 10
730.4146959686858
 20
23.25114259729503
 30
0.0
 40
10.0
  1
-Ａｓ６-
  7
AT_VECTOR
 72
     1
 11
760.7956483496382
 21
28.25114259729503
 31
0.0
100
AcDbText
 73
     2
  0
POINT
  5
187AC
330
1F
100
AcDbEntity
  8
0
100
AcDbPoint
 10
808.0000000000037
 20
21.0
 30
0.0
  0
TEXT
  5
187AD
330
1F
100
AcDbEntity
  8
0
100
AcDbText
 10
40.45819394134276
 20
32.38714182789852
 30
0.0
 40
4.0
  1
12.02.01　作成
  7
AT_VECTOR
 11
40.45819394134276
 21
32.38714182789852
 31
0.0
100
AcDbText
 73
     1
  0
TEXT
  5
19BF0
330
1F
100
AcDbEntity
  8
0
100
AcDbText
 10
44.00000000000022
 20
537.0
 30
0.0
 40
6.0
  1
名称
  7
AT_VECTOR
 11
44.00000000000022
 21
540.0
 31
0.0
100
AcDbText
 73
     2
  0
TEXT
  5
19BF1
330
1F
100
AcDbEntity
  8
0
100
AcDbText
 10
44.00000000000022
 20
549.0
 30
0.0
 40
6.0
  1
形式
  7
AT_VECTOR
 11
44.00000000000022
 21
552.0
 31
0.0
100
AcDbText
 73
     2
  0
LINE
  5
19BF2
330
1F
100
AcDbEntity
  8
003
100
AcDbLine
 10
40.00000000000023
 20
546.0
 30
0.0
 11
175.0000000000002
 21
546.0
 31
0.0
  0
LINE
  5
19BF3
330
1F
100
AcDbEntity
  8
003
100
AcDbLine
 10
40.00000000000023
 20
534.0
 30
0.0
 11
175.0000000000002
 21
534.0
 31
0.0
  0
TEXT
  5
19BF4
330
1F
100
AcDbEntity
  8
0
100
AcDbText
 10
44.00000000000022
 20
501.0
 30
0.0
 40
6.0
  1
付属品
  7
AT_VECTOR
 11
44.00000000000022
 21
504.0
 31
0.0
100
AcDbText
 73
     2
  0
LINE
  5
19BF5
330
1F
100
AcDbEntity
  8
003
100
AcDbLine
 10
40.00000000000023
 20
510.0
 30
0.0
 11
175.0000000000002
 21
510.0
 31
0.0
  0
LINE
  5
19BF6
330
1F
100
AcDbEntity
  8
003
100
AcDbLine
 10
40.00000000000023
 20
498.0
 30
0.0
 11
175.0000000000002
 21
498.0
 31
0.0
  0
LINE
  5
19BF7
330
1F
100
AcDbEntity
  8
003
100
AcDbLine
 10
40.00000000000023
 20
438.0000000000001
 30
0.0
 11
175.0000000000002
 21
438.0000000000001
 31
0.0
  0
TEXT
  5
19BF8
330
1F
100
AcDbEntity
  8
0
100
AcDbText
 10
44.00000000000022
 20
489.0
 30
0.0
 40
6.0
  1
備考
  7
AT_VECTOR
 11
44.00000000000022
 21
492.0
 31
0.0
100
AcDbText
 73
     2
  0
TEXT
  5
19BF9
330
1F
100
AcDbEntity
  8
0
100
AcDbText
 10
44.00000000000022
 20
513.0
 30
0.0
 40
6.0
  1
製品色
  7
AT_VECTOR
 11
44.00000000000022
 21
516.0
 31
0.0
100
AcDbText
 73
     2
  0
LINE
  5
19BFA
330
1F
100
AcDbEntity
  8
003
100
AcDbLine
 10
40.00000000000023
 20
522.0
 30
0.0
 11
175.0000000000002
 21
522.0
 31
0.0
  0
TEXT
  5
19BFB
330
1F
100
AcDbEntity
  8
0
100
AcDbText
 10
44.00000000000022
 20
525.0
 30
0.0
 40
6.0
  1
ｻｯｼﾒｰｶｰ
  7
AT_VECTOR
 11
44.00000000000022
 21
528.0
 31
0.0
100
AcDbText
 73
     2
  0
LINE
  5
19BFC
330
1F
100
AcDbEntity
  8
003
100
AcDbLine
 10
175.0000000000002
 20
558.0
 30
0.0
 11
175.0000000000002
 21
438.0000000000001
 31
0.0
  0
LINE
  5
19BFD
330
1F
100
AcDbEntity
  8
003
100
AcDbLine
 10
75.00000000000023
 20
558.0
 30
0.0
 11
75.00000000000023
 21
498.0
 31
0.0
  0
TEXT
  5
19BFE
330
1F
100
AcDbEntity
  8
0
100
AcDbText
 10
93.40000000000022
 20
537.0
 30
0.0
 40
6.0
  1
みらんちゃんＳＰ型
  7
AT_VECTOR
 72
     1
 11
125.0000000000002
 21
540.0
 31
0.0
100
AcDbText
 73
     2
  0
TEXT
  5
19BFF
330
1F
100
AcDbEntity
  8
0
100
AcDbText
 10
79.00000000000023
 20
501.0
 30
0.0
 40
6.0
  1
取付金具
  7
AT_VECTOR
 11
79.00000000000023
 21
504.0
 31
0.0
100
AcDbText
 73
     2
  0
TEXT
  5
19C00
330
1F
100
AcDbEntity
  8
0
100
AcDbText
 10
79.00000000000023
 20
525.0
 30
0.0
 40
6.0
  1
三協立山アルミ
  7
AT_VECTOR
 11
79.00000000000023
 21
528.0
 31
0.0
100
AcDbText
 73
     2
  0
TEXT
  5
19C01
330
1F
100
AcDbEntity
  8
0
100
AcDbText
 10
78.80000000000025
 20
549.0
 30
0.0
 40
6.0
  1
内倒し窓専用自動可変面格子
  7
AT_VECTOR
 72
     1
 11
125.0000000000002
 21
552.0
 31
0.0
100
AcDbText
 73
     2
  0
LINE
  5
19C02
330
1F
100
AcDbEntity
  8
003
100
AcDbLine
 10
199.0212626666846
 20
515.4661076327388
 30
0.0
 11
199.0212626666846
 21
481.708116720541
 31
0.0
  0
LINE
  5
19C03
330
1F
100
AcDbEntity
  8
0
100
AcDbLine
 10
437.5152399062669
 20
339.7827050314339
 30
0.0
 11
596.0152399062665
 21
339.7827050314339
 31
0.0
  0
LINE
  5
19C04
330
1F
100
AcDbEntity
  8
0
100
AcDbLine
 10
596.0152399062665
 20
339.7827050314339
 30
0.0
 11
596.0152399062665
 21
327.7827050314339
 31
0.0
  0
LINE
  5
19C05
330
1F
100
AcDbEntity
  8
0
100
AcDbLine
 10
581.0152399062665
 20
317.7827050314339
 30
0.0
 11
581.0152399062665
 21
242.7827050314339
 31
0.0
  0
LINE
  5
19C06
330
1F
100
AcDbEntity
  8
0
100
AcDbLine
 10
613.1852399062661
 20
299.4039010216446
 30
0.0
 11
581.0152399062665
 21
267.2339010216443
 31
0.0
  0
LINE
  5
19C07
330
1F
100
AcDbEntity
  8
0
100
AcDbLine
 10
613.1852399062661
 20
302.2239010216444
 30
0.0
 11
581.0152399062665
 21
270.0539010216443
 31
0.0
  0
LINE
  5
19C08
330
1F
100
AcDbEntity
  8
0
100
AcDbLine
 10
613.1852399062661
 20
305.0439010216445
 30
0.0
 11
581.0152399062665
 21
272.8739010216442
 31
0.0
  0
LINE
  5
19C09
330
1F
100
AcDbEntity
  8
0
100
AcDbLine
 10
591.0152399062665
 20
327.7827050314339
 30
0.0
 11
613.1852399062661
 21
327.782705031434
 31
0.0
  0
LINE
  5
19C0A
330
1F
100
AcDbEntity
  8
0
100
AcDbLine
 10
591.0152399062665
 20
327.7827050314339
 30
0.0
 11
581.0152399062665
 21
317.7827050314339
 31
0.0
  0
LINE
  5
19C0B
330
1F
100
AcDbEntity
  8
0
100
AcDbLine
 10
581.0152399062665
 20
242.7827050314339
 30
0.0
 11
613.1852399062661
 21
242.7827050314339
 31
0.0
  0
LINE
  5
19C0C
330
1F
100
AcDbEntity
  8
0
100
AcDbLine
 10
582.0152399062664
 20
241.7827050314339
 30
0.0
 11
582.0152399062664
 21
228.7827050314337
 31
0.0
  0
LINE
  5
19C0D
330
1F
100
AcDbEntity
  8
0
100
AcDbLine
 10
582.0152399062664
 20
232.4542779066877
 30
0.0
 11
591.0152399062665
 21
241.4542779066875
 31
0.0
  0
LINE
  5
19C0E
330
1F
100
AcDbEntity
  8
0
100
AcDbLine
 10
582.0152399062664
 20
235.2827050314337
 30
0.0
 11
589.5152399062665
 21
242.7827050314337
 31
0.0
  0
LINE
  5
19C0F
330
1F
100
AcDbEntity
  8
0
100
AcDbLine
 10
582.0152399062664
 20
238.1111321561799
 30
0.0
 11
586.6868127815205
 21
242.7827050314337
 31
0.0
  0
LINE
  5
19C10
330
1F
100
AcDbEntity
  8
0
100
AcDbLine
 10
585.8289484052513
 20
242.7827050314339
 30
0.0
 11
591.0152399062665
 21
237.5964135304188
 31
0.0
  0
LINE
  5
19C11
330
1F
100
AcDbEntity
  8
0
100
AcDbLine
 10
583.0005212805049
 20
242.7827050314339
 30
0.0
 11
591.0152399062665
 21
234.7679864056726
 31
0.0
  0
LINE
  5
19C12
330
1F
100
AcDbEntity
  8
0
100
AcDbLine
 10
582.0152399062664
 20
240.9395592809261
 30
0.0
 11
591.0152399062665
 21
231.9395592809263
 31
0.0
  0
LINE
  5
19C13
330
1F
100
AcDbEntity
  8
0
100
AcDbLine
 10
582.0152399062664
 20
240.9395592809261
 30
0.0
 11
583.8583856567743
 21
242.7827050314337
 31
0.0
  0
LINE
  5
19C14
330
1F
100
AcDbEntity
  8
0
100
AcDbLine
 10
588.6573755299975
 20
242.7827050314339
 30
0.0
 11
591.0152399062665
 21
240.424840655165
 31
0.0
  0
LINE
  5
19C15
330
1F
100
AcDbEntity
  8
0
100
AcDbLine
 10
582.0152399062664
 20
241.7827050314339
 30
0.0
 11
581.0152399062665
 21
242.7827050314339
 31
0.0
  0
LINE
  5
19C16
330
1F
100
AcDbEntity
  8
0
100
AcDbLine
 10
582.0152399062664
 20
229.6258507819415
 30
0.0
 11
591.0152399062665
 21
238.6258507819412
 31
0.0
  0
LINE
  5
19C17
330
1F
100
AcDbEntity
  8
0
100
AcDbLine
 10
582.0152399062664
 20
238.1111321561799
 30
0.0
 11
591.0152399062665
 21
229.1111321561801
 31
0.0
  0
LINE
  5
19C18
330
1F
100
AcDbEntity
  8
0
100
AcDbLine
 10
582.0152399062664
 20
228.7827050314337
 30
0.0
 11
581.0152399062665
 21
227.7827050314339
 31
0.0
  0
LINE
  5
19C19
330
1F
100
AcDbEntity
  8
0
100
AcDbLine
 10
588.6573755299975
 20
227.7827050314337
 30
0.0
 11
591.0152399062665
 21
230.1405694077026
 31
0.0
  0
LINE
  5
19C1A
330
1F
100
AcDbEntity
  8
0
100
AcDbLine
 10
583.0005212805049
 20
227.7827050314337
 30
0.0
 11
591.0152399062665
 21
235.797423657195
 31
0.0
  0
LINE
  5
19C1B
330
1F
100
AcDbEntity
  8
0
100
AcDbLine
 10
585.8289484052513
 20
227.7827050314337
 30
0.0
 11
591.0152399062665
 21
232.9689965324488
 31
0.0
  0
LINE
  5
19C1C
330
1F
100
AcDbEntity
  8
0
100
AcDbLine
 10
582.0152399062664
 20
232.4542779066877
 30
0.0
 11
586.6868127815205
 21
227.7827050314339
 31
0.0
  0
LINE
  5
19C1D
330
1F
100
AcDbEntity
  8
0
100
AcDbLine
 10
582.0152399062664
 20
229.6258507819415
 30
0.0
 11
583.8583856567743
 21
227.7827050314339
 31
0.0
  0
LINE
  5
19C1E
330
1F
100
AcDbEntity
  8
0
100
AcDbLine
 10
582.0152399062664
 20
235.2827050314339
 30
0.0
 11
589.5152399062665
 21
227.7827050314339
 31
0.0
  0
TEXT
  5
19C1F
330
1F
100
AcDbEntity
  8
0
100
AcDbText
 10
67.81722297933971
 20
489.0
 30
0.0
 40
6.0
  1
内・外網戸（網色：ブラック・グレー）
 41
0.85
  7
AT_VECTOR
 11
67.81722297933971
 21
492.0
 31
0.0
100
AcDbText
 73
     2
  0
TEXT
  5
19C20
330
1F
100
AcDbEntity
  8
0
100
AcDbText
 10
205.357123632162
 20
443.4647244922421
 30
0.0
 40
8.0
  1
特記事項
  7
AT_VECTOR
100
AcDbText
  0
TEXT
  5
19C21
330
1F
100
AcDbEntity
  8
0
100
AcDbText
 10
219.9982392998786
 20
430.5147298961652
 30
0.0
 40
6.0
  1
ご注文の際には網戸の仕様（内・外）及び網色（ブラック・グレー）のご指示お願いします
 41
0.9
  7
AT_VECTOR
 11
219.9982392998786
 21
433.5147298961652
 31
0.0
100
AcDbText
 73
     2
  0
TEXT
  5
19C22
330
1F
100
AcDbEntity
  8
0
100
AcDbText
 10
219.9982392998786
 20
418.5147298961652
 30
0.0
 40
6.0
  1
本図以外のサッシの場合、納まりが変更となる場合ありますのでご確認お願いします
 41
0.9
  7
AT_VECTOR
 11
219.9982392998786
 21
421.5147298961652
 31
0.0
100
AcDbText
 73
     2
  0
TEXT
  5
19C23
330
1F
100
AcDbEntity
  8
0
100
AcDbText
 10
207.9361824660775
 20
430.5147298961652
 30
0.0
 40
6.0
  1
1
 41
0.9
  7
AT_VECTOR
 11
207.9361824660775
 21
433.5147298961652
 31
0.0
100
AcDbText
 73
     2
  0
TEXT
  5
19C24
330
1F
100
AcDbEntity
  8
0
100
AcDbText
 10
207.9361824660775
 20
418.5147298961652
 30
0.0
 40
6.0
  1
2
 41
0.9
  7
AT_VECTOR
 11
207.9361824660775
 21
421.5147298961652
 31
0.0
100
AcDbText
 73
     2
  0
CIRCLE
  5
19C25
330
1F
100
AcDbEntity
  8
010
100
AcDbCircle
 10
210.9181020216272
 20
421.4966494517149
 30
0.0
 40
4.410730708366473
  0
CIRCLE
  5
19C26
330
1F
100
AcDbEntity
  8
010
100
AcDbCircle
 10
210.9181020216272
 20
433.4966494517149
 30
0.0
 40
4.410730708366473
  0
LINE
  5
19C27
330
1F
100
AcDbEntity
  8
003
100
AcDbLine
 10
202.4421484457528
 20
447.0430615799791
 30
0.0
 11
199.0212626666846
 21
447.0430615799791
 31
0.0
  0
LINE
  5
19C28
330
1F
100
AcDbEntity
  8
003
100
AcDbLine
 10
199.0212626666846
 20
447.0430615799791
 30
0.0
 11
199.0212626666846
 21
411.5372569385796
 31
0.0
  0
LINE
  5
19C29
330
1F
100
AcDbEntity
  8
003
100
AcDbLine
 10
199.0212626666846
 20
411.5372569385796
 30
0.0
 11
491.7351060924868
 21
411.5372569385796
 31
0.0
  0
LINE
  5
19C2A
330
1F
100
AcDbEntity
  8
003
100
AcDbLine
 10
491.7351060924868
 20
411.5372569385796
 30
0.0
 11
491.7351060924868
 21
446.8840717029689
 31
0.0
  0
LINE
  5
19C2B
330
1F
100
AcDbEntity
  8
003
100
AcDbLine
 10
491.7351060924868
 20
447.0430615799791
 30
0.0
 11
245.1658153724036
 21
447.0430615799791
 31
0.0
  0
LINE
  5
19C2D
330
1F
100
AcDbEntity
  8
003
100
AcDbLine
 10
392.5152399062665
 20
86.92875121012196
 30
0.0
 11
472.5152399062665
 21
86.92875121012196
 31
0.0
  0
LINE
  5
19C2E
330
1F
100
AcDbEntity
  8
003
100
AcDbLine
 10
392.5152399062665
 20
73.59541787678847
 30
0.0
 11
472.515239906266
 21
73.59541787678847
 31
0.0
  0
LINE
  5
19C2F
330
1F
100
AcDbEntity
  8
003
100
AcDbLine
 10
392.5152399062665
 20
73.59541787678847
 30
0.0
 11
392.5152399062665
 21
86.92875121012196
 31
0.0
  0
TEXT
  5
19C30
330
1F
100
AcDbEntity
  8
0
100
AcDbText
 10
414.6485732395998
 20
76.26208454345499
 30
0.0
 40
7.999999999999998
  1
横断面図
  7
AT_VECTOR
 72
     1
 11
432.5152399062665
 21
80.26208454345498
 31
0.0
100
AcDbText
 73
     2
  0
LINE
  5
19C31
330
1F
100
AcDbEntity
  8
003
100
AcDbLine
 10
472.515239906266
 20
73.59541787678847
 30
0.0
 11
472.5152399062665
 21
86.92875121012196
 31
0.0
  0
LINE
  5
19C32
330
1F
100
AcDbEntity
  8
003
100
AcDbLine
 10
417.5152399062665
 20
101.3936021851001
 30
0.0
 11
447.5152399062665
 21
101.3936021851001
 31
0.0
  0
LINE
  5
19C33
330
1F
100
AcDbEntity
  8
003
100
AcDbLine
 10
417.5152399062665
 20
110.3936021851001
 30
0.0
 11
447.5152399062665
 21
110.3936021851001
 31
0.0
  0
LINE
  5
19C34
330
1F
100
AcDbEntity
  8
003
100
AcDbLine
 10
417.5152399062665
 20
110.3936021851001
 30
0.0
 11
417.5152399062665
 21
101.3936021851001
 31
0.0
  0
TEXT
  5
19C35
330
1F
100
AcDbEntity
  8
0
100
AcDbText
 10
422.3152399062665
 20
102.8936021851001
 30
0.0
 40
6.0
  1
内　部
  7
AT_VECTOR
 72
     1
 11
432.5152399062665
 21
105.8936021851001
 31
0.0
100
AcDbText
 73
     2
  0
LINE
  5
19C36
330
1F
100
AcDbEntity
  8
003
100
AcDbLine
 10
447.5152399062665
 20
110.3936021851001
 30
0.0
 11
447.5152399062665
 21
101.3936021851001
 31
0.0
  0
LINE
  5
19C37
330
1F
100
AcDbEntity
  8
003
100
AcDbLine
 10
417.5152399062665
 20
359.0611052134256
 30
0.0
 11
447.5152399062665
 21
359.0611052134256
 31
0.0
  0
LINE
  5
19C38
330
1F
100
AcDbEntity
  8
003
100
AcDbLine
 10
417.5152399062665
 20
350.0611052134256
 30
0.0
 11
447.5152399062665
 21
350.0611052134256
 31
0.0
  0
LINE
  5
19C39
330
1F
100
AcDbEntity
  8
003
100
AcDbLine
 10
417.5152399062665
 20
359.0611052134256
 30
0.0
 11
417.5152399062665
 21
350.0611052134256
 31
0.0
  0
TEXT
  5
19C3A
330
1F
100
AcDbEntity
  8
0
100
AcDbText
 10
422.5152399062665
 20
351.5611052134255
 30
0.0
 40
6.0
  1
外　部
  7
AT_VECTOR
 72
     1
 11
432.5152399062665
 21
354.5611052134256
 31
0.0
100
AcDbText
 73
     2
  0
LINE
  5
19C3B
330
1F
100
AcDbEntity
  8
003
100
AcDbLine
 10
447.5152399062665
 20
359.0611052134256
 30
0.0
 11
447.5152399062665
 21
350.0611052134256
 31
0.0
  0
LINE
  5
19C3C
330
1F
100
AcDbEntity
  8
007
100
AcDbLine
 10
437.5152399062665
 20
235.682718317749
 30
0.0
 11
485.415521906267
 21
235.682718317749
 31
0.0
  0
LINE
  5
19C3D
330
1F
100
AcDbEntity
  8
007
100
AcDbLine
 10
485.415521906267
 20
245.1827183177489
 30
0.0
 11
437.5152399062665
 21
245.1827183177489
 31
0.0
  0
LINE
  5
19C3E
330
1F
100
AcDbEntity
  8
007
100
AcDbLine
 10
485.415521906267
 20
248.4826183177489
 30
0.0
 11
437.5152399062665
 21
248.4826183177489
 31
0.0
  0
LINE
  5
19C3F
330
1F
100
AcDbEntity
  8
007
100
AcDbLine
 10
485.415521906267
 20
249.3827183177487
 30
0.0
 11
437.5152399062665
 21
249.3827183177487
 31
0.0
  0
LINE
  5
19C40
330
1F
100
AcDbEntity
  8
007
100
AcDbLine
 10
508.6155219062671
 20
283.4826917451175
 30
0.0
 11
437.5152399062665
 21
283.4826917451175
 31
0.0
  0
LINE
  5
19C41
330
1F
100
AcDbEntity
  8
007
100
AcDbLine
 10
508.6155219062671
 20
284.3827917451177
 30
0.0
 11
437.5152399062665
 21
284.3827917451177
 31
0.0
  0
LINE
  5
19C42
330
1F
100
AcDbEntity
  8
007
100
AcDbLine
 10
508.6155219062671
 20
287.6826917451177
 30
0.0
 11
437.5152399062665
 21
287.6826917451177
 31
0.0
  0
LINE
  5
19C43
330
1F
100
AcDbEntity
  8
007
100
AcDbLine
 10
437.5152399062665
 20
297.1826917451177
 30
0.0
 11
508.6155219062671
 21
297.1826917451177
 31
0.0
  0
MTEXT
  5
19C44
102
{ACAD_REACTORS
330
19C64
102
}
330
1F
100
AcDbEntity
  8
003
 62
     7
100
AcDbMText
 10
382.6118276748398
 20
307.9196415634739
 30
0.0
 40
6.0
 41
0.0
 71
     9
 72
     1
  1
外網戸
  7
DIM
 73
     1
 44
1.0
1001
ACAD
1000
MTEXTBEGIN
1070
    73
1070
     1
1070
    44
1040
1.0
1070
    74
1070
     0
1000
MTEXTEND
  0
LINE
  5
19C45
330
1F
100
AcDbEntity
  8
007
100
AcDbLine
 10
356.4149579062655
 20
297.6826917451177
 30
0.0
 11
331.1149579062655
 21
297.6826917451177
 31
0.0
  0
LINE
  5
19C46
330
1F
100
AcDbEntity
  8
007
100
AcDbLine
 10
356.4149579062655
 20
287.6826917451177
 30
0.0
 11
328.1149579062656
 21
287.6826917451177
 31
0.0
  0
LINE
  5
19C47
330
1F
100
AcDbEntity
  8
007
100
AcDbLine
 10
354.9149579062655
 20
287.3826917451175
 30
0.0
 11
333.6149579062655
 21
287.3826917451175
 31
0.0
  0
LINE
  5
19C48
330
1F
100
AcDbEntity
  8
007
100
AcDbLine
 10
354.9149579062655
 20
282.8826917451175
 30
0.0
 11
333.6149579062655
 21
282.8826917451175
 31
0.0
  0
LINE
  5
19C49
330
1F
100
AcDbEntity
  8
007
100
AcDbLine
 10
355.4149579062655
 20
284.3826917451175
 30
0.0
 11
333.1149579062655
 21
284.3826917451175
 31
0.0
  0
ARC
  5
19C4A
330
1F
100
AcDbEntity
  8
007
100
AcDbCircle
 10
331.1149579062655
 20
294.6826917451177
 30
0.0
 40
3.0
100
AcDbArc
 50
90.0
 51
180.0
  0
ARC
  5
19C4B
330
1F
100
AcDbEntity
  8
007
100
AcDbCircle
 10
333.6149579062655
 20
286.8826917451175
 30
0.0
 40
0.5
100
AcDbArc
 50
90.0
 51
180.0
  0
LINE
  5
19C4C
330
1F
100
AcDbEntity
  8
007
100
AcDbLine
 10
333.1149579062655
 20
283.3826917451176
 30
0.0
 11
333.1149579062655
 21
286.8826917451175
 31
0.0
  0
ARC
  5
19C4D
330
1F
100
AcDbEntity
  8
007
100
AcDbCircle
 10
333.6149579062655
 20
283.3826917451176
 30
0.0
 40
0.5
100
AcDbArc
 50
180.0
 51
270.0
  0
LINE
  5
19C4E
330
1F
100
AcDbEntity
  8
007
100
AcDbLine
 10
328.1149579062656
 20
287.6826917451177
 30
0.0
 11
328.1149579062656
 21
294.6826917451177
 31
0.0
  0
MTEXT
  5
19C4F
102
{ACAD_REACTORS
330
19C50
102
}
330
1F
100
AcDbEntity
  8
003
 62
     7
100
AcDbMText
 10
383.7588010393742
 20
227.9359252924429
 30
0.0
 40
6.0
 41
0.0
 71
     7
 72
     1
  1
内網戸
  7
DIM
 73
     1
 44
1.0
1001
ACAD
1000
MTEXTBEGIN
1070
    73
1070
     1
1070
    44
1040
1.0
1070
    74
1070
     0
1000
MTEXTEND
  0
LEADER
  5
19C50
330
1F
100
AcDbEntity
  8
003
100
AcDbLeader
  3
DIM
 73
     0
 74
     0
 40
6.000000000000002
 41
14.7
 76
     3
 10
370.5763303874655
 20
237.7081765417635
 30
0.0
 10
377.3730428152287
 20
225.9359252924429
 30
0.0
 10
381.7588010393743
 20
225.9359252924429
 30
0.0
340
19C4F
1001
ACAD
1000
DSTYLE
1002
{
1070
   147
1040
1.0
1070
    77
1070
     1
1002
}
  0
LINE
  5
19C51
330
1F
100
AcDbEntity
  8
007
100
AcDbLine
 10
427.5152399062664
 20
235.682718317749
 30
0.0
 11
379.614957906266
 21
235.682718317749
 31
0.0
  0
LINE
  5
19C52
330
1F
100
AcDbEntity
  8
007
100
AcDbLine
 10
379.614957906266
 20
245.1827183177489
 30
0.0
 11
427.5152399062664
 21
245.1827183177489
 31
0.0
  0
LINE
  5
19C53
330
1F
100
AcDbEntity
  8
007
100
AcDbLine
 10
379.614957906266
 20
248.4826183177489
 30
0.0
 11
427.5152399062664
 21
248.4826183177489
 31
0.0
  0
LINE
  5
19C54
330
1F
100
AcDbEntity
  8
007
100
AcDbLine
 10
379.614957906266
 20
249.3827183177487
 30
0.0
 11
427.5152399062664
 21
249.3827183177487
 31
0.0
  0
LINE
  5
19C55
330
1F
100
AcDbEntity
  8
007
100
AcDbLine
 10
378.114957906266
 20
245.4827183177491
 30
0.0
 11
356.814957906266
 21
245.4827183177491
 31
0.0
  0
LINE
  5
19C56
330
1F
100
AcDbEntity
  8
007
100
AcDbLine
 10
379.614957906266
 20
235.1827183177489
 30
0.0
 11
354.3149579062661
 21
235.1827183177489
 31
0.0
  0
LINE
  5
19C57
330
1F
100
AcDbEntity
  8
007
100
AcDbLine
 10
378.614957906266
 20
248.4827183177491
 30
0.0
 11
356.3149579062661
 21
248.4827183177491
 31
0.0
  0
LINE
  5
19C58
330
1F
100
AcDbEntity
  8
007
100
AcDbLine
 10
378.114957906266
 20
249.9827183177491
 30
0.0
 11
356.814957906266
 21
249.9827183177491
 31
0.0
  0
LINE
  5
19C59
330
1F
100
AcDbEntity
  8
007
100
AcDbLine
 10
379.614957906266
 20
245.1827183177489
 30
0.0
 11
351.314957906266
 21
245.1827183177489
 31
0.0
  0
ARC
  5
19C5A
330
1F
100
AcDbEntity
  8
007
100
AcDbCircle
 10
356.814957906266
 20
249.4827183177491
 30
0.0
 40
0.5
100
AcDbArc
 50
90.0
 51
180.0
  0
ARC
  5
19C5B
330
1F
100
AcDbEntity
  8
007
100
AcDbCircle
 10
356.814957906266
 20
245.9827183177491
 30
0.0
 40
0.5
100
AcDbArc
 50
180.0
 51
270.0
  0
LINE
  5
19C5C
330
1F
100
AcDbEntity
  8
007
100
AcDbLine
 10
356.3149579062661
 20
249.4827183177491
 30
0.0
 11
356.3149579062661
 21
245.9827183177491
 31
0.0
  0
ARC
  5
19C5D
330
1F
100
AcDbEntity
  8
007
100
AcDbCircle
 10
354.3149579062661
 20
238.1827183177489
 30
0.0
 40
3.0
100
AcDbArc
 50
180.0
 51
270.0
  0
LINE
  5
19C5E
330
1F
100
AcDbEntity
  8
007
100
AcDbLine
 10
351.314957906266
 20
245.1827183177489
 30
0.0
 11
351.314957906266
 21
238.1827183177489
 31
0.0
  0
ARC
  5
19C5F
330
1F
100
AcDbEntity
  8
007
100
AcDbCircle
 10
378.114957906266
 20
249.4827183177491
 30
0.0
 40
0.5
100
AcDbArc
 50
0.0
 51
90.0
  0
LINE
  5
19C60
330
1F
100
AcDbEntity
  8
007
100
AcDbLine
 10
379.614957906266
 20
246.3827183177488
 30
0.0
 11
378.614957906266
 21
246.3827183177488
 31
0.0
  0
ARC
  5
19C61
330
1F
100
AcDbEntity
  8
007
100
AcDbCircle
 10
378.114957906266
 20
245.9827183177491
 30
0.0
 40
0.5
100
AcDbArc
 50
270.0
 51
0.0
  0
LINE
  5
19C62
330
1F
100
AcDbEntity
  8
007
100
AcDbLine
 10
378.614957906266
 20
249.4827183177491
 30
0.0
 11
378.614957906266
 21
245.9827183177491
 31
0.0
  0
LINE
  5
19C63
330
1F
100
AcDbEntity
  8
007
100
AcDbLine
 10
379.614957906266
 20
249.3827183177487
 30
0.0
 11
379.614957906266
 21
235.1827183177489
 31
0.0
  0
LEADER
  5
19C64
330
1F
100
AcDbEntity
  8
003
100
AcDbLeader
  3
DIM
 73
     0
 40
6.0
 41
15.0
 76
     3
 10
396.8761698342448
 20
292.2512478615187
 30
0.0
 10
388.9847190510313
 20
305.9196415634739
 30
0.0
 10
384.6118276748398
 20
305.9196415634739
 30
0.0
1001
ACAD
1000
DSTYLE
1002
{
1070
   147
1040
1.0
1070
    77
1070
     1
1002
}
  0
LINE
  5
19C65
330
1F
100
AcDbEntity
  8
007
100
AcDbLine
 10
427.5152399062664
 20
297.1826917451177
 30
0.0
 11
356.4149579062655
 21
297.1826917451177
 31
0.0
  0
LINE
  5
19C66
330
1F
100
AcDbEntity
  8
007
100
AcDbLine
 10
356.4149579062655
 20
287.6826917451177
 30
0.0
 11
427.5152399062664
 21
287.6826917451177
 31
0.0
  0
LINE
  5
19C67
330
1F
100
AcDbEntity
  8
007
100
AcDbLine
 10
356.4149579062655
 20
284.3827917451177
 30
0.0
 11
427.5152399062664
 21
284.3827917451177
 31
0.0
  0
LINE
  5
19C68
330
1F
100
AcDbEntity
  8
007
100
AcDbLine
 10
356.4149579062655
 20
283.4826917451175
 30
0.0
 11
427.5152399062664
 21
283.4826917451175
 31
0.0
  0
LEADER
  5
19C69
330
1F
100
AcDbEntity
  8
003
100
AcDbLeader
  3
DIM
 73
     0
 74
     0
 40
6.000000000000001
 41
9.600000000000001
 76
     3
 10
393.1621742749621
 20
259.0398540646489
 30
0.0
 10
397.4317443227962
 20
266.4349663139716
 30
0.0
 10
400.3564677395497
 20
266.4349663139716
 30
0.0
340
19C6A
1001
ACAD
1000
DSTYLE
1002
{
1070
   147
1040
1.0
1070
    77
1070
     1
1002
}
  0
MTEXT
  5
19C6A
102
{ACAD_REACTORS
330
19C69
102
}
330
1F
100
AcDbEntity
  8
003
 62
     7
100
AcDbMText
 10
402.3564677395497
 20
268.4349663139716
 30
0.0
 40
6.0
 41
0.0
 71
     7
 72
     1
  1
羽根
  7
DIM
 73
     1
 44
1.0
1001
ACAD
1000
MTEXTBEGIN
1070
    73
1070
     1
1070
    44
1040
1.0
1070
    74
1070
     0
1000
MTEXTEND
  0
ARC
  5
19C6B
330
1F
100
AcDbEntity
  8
007
100
AcDbCircle
 10
354.9149579062655
 20
286.8826917451175
 30
0.0
 40
0.5
100
AcDbArc
 50
0.0
 51
90.0
  0
LINE
  5
19C6C
330
1F
100
AcDbEntity
  8
007
100
AcDbLine
 10
355.4149579062655
 20
283.3826917451176
 30
0.0
 11
355.4149579062655
 21
286.8826917451175
 31
0.0
  0
ARC
  5
19C6D
330
1F
100
AcDbEntity
  8
007
100
AcDbCircle
 10
354.9149579062655
 20
283.3826917451176
 30
0.0
 40
0.5
100
AcDbArc
 50
270.0
 51
0.0
  0
LINE
  5
19C6E
330
1F
100
AcDbEntity
  8
007
100
AcDbLine
 10
356.4149579062655
 20
286.4826917451174
 30
0.0
 11
355.4149579062655
 21
286.4826917451174
 31
0.0
  0
LINE
  5
19C6F
330
1F
100
AcDbEntity
  8
007
100
AcDbLine
 10
356.4149579062655
 20
283.4826917451175
 30
0.0
 11
356.4149579062655
 21
297.6826917451177
 31
0.0
  0
LINE
  5
19C70
330
1F
100
AcDbEntity
  8
007
100
AcDbLine
 10
486.915521906267
 20
245.4827183177491
 30
0.0
 11
508.2155219062666
 21
245.4827183177491
 31
0.0
  0
LINE
  5
19C71
330
1F
100
AcDbEntity
  8
007
100
AcDbLine
 10
485.415521906267
 20
235.1827183177489
 30
0.0
 11
510.7155219062666
 21
235.1827183177489
 31
0.0
  0
LINE
  5
19C72
330
1F
100
AcDbEntity
  8
007
100
AcDbLine
 10
485.415521906267
 20
245.1827183177489
 30
0.0
 11
513.7155219062666
 21
245.1827183177489
 31
0.0
  0
LINE
  5
19C73
330
1F
100
AcDbEntity
  8
007
100
AcDbLine
 10
486.915521906267
 20
249.9827183177491
 30
0.0
 11
508.2155219062666
 21
249.9827183177491
 31
0.0
  0
LINE
  5
19C74
330
1F
100
AcDbEntity
  8
007
100
AcDbLine
 10
486.415521906267
 20
248.4827183177491
 30
0.0
 11
508.7155219062666
 21
248.4827183177491
 31
0.0
  0
ARC
  5
19C75
330
1F
100
AcDbEntity
  8
007
100
AcDbCircle
 10
486.915521906267
 20
249.4827183177491
 30
0.0
 40
0.5
100
AcDbArc
 50
90.0
 51
180.0
  0
LINE
  5
19C76
330
1F
100
AcDbEntity
  8
007
100
AcDbLine
 10
485.415521906267
 20
246.3827183177488
 30
0.0
 11
486.415521906267
 21
246.3827183177488
 31
0.0
  0
ARC
  5
19C77
330
1F
100
AcDbEntity
  8
007
100
AcDbCircle
 10
486.915521906267
 20
245.9827183177491
 30
0.0
 40
0.5
100
AcDbArc
 50
180.0
 51
270.0
  0
LINE
  5
19C78
330
1F
100
AcDbEntity
  8
007
100
AcDbLine
 10
486.415521906267
 20
249.4827183177491
 30
0.0
 11
486.415521906267
 21
245.9827183177491
 31
0.0
  0
LINE
  5
19C79
330
1F
100
AcDbEntity
  8
007
100
AcDbLine
 10
485.415521906267
 20
249.3827183177487
 30
0.0
 11
485.415521906267
 21
235.1827183177489
 31
0.0
  0
ARC
  5
19C7A
330
1F
100
AcDbEntity
  8
007
100
AcDbCircle
 10
508.2155219062666
 20
249.4827183177491
 30
0.0
 40
0.5
100
AcDbArc
 50
0.0
 51
90.0
  0
ARC
  5
19C7B
330
1F
100
AcDbEntity
  8
007
100
AcDbCircle
 10
508.2155219062666
 20
245.9827183177491
 30
0.0
 40
0.5
100
AcDbArc
 50
270.0
 51
0.0
  0
LINE
  5
19C7C
330
1F
100
AcDbEntity
  8
007
100
AcDbLine
 10
508.7155219062666
 20
249.4827183177491
 30
0.0
 11
508.7155219062666
 21
245.9827183177491
 31
0.0
  0
ARC
  5
19C7D
330
1F
100
AcDbEntity
  8
007
100
AcDbCircle
 10
510.7155219062666
 20
238.1827183177489
 30
0.0
 40
3.0
100
AcDbArc
 50
270.0
 51
0.0
  0
LINE
  5
19C7E
330
1F
100
AcDbEntity
  8
007
100
AcDbLine
 10
513.7155219062666
 20
245.1827183177489
 30
0.0
 11
513.7155219062666
 21
238.1827183177489
 31
0.0
  0
LINE
  5
19C7F
330
1F
100
AcDbEntity
  8
007
100
AcDbLine
 10
509.6155219062672
 20
284.3826917451175
 30
0.0
 11
531.9155219062669
 21
284.3826917451175
 31
0.0
  0
LINE
  5
19C80
330
1F
100
AcDbEntity
  8
007
100
AcDbLine
 10
510.1155219062672
 20
282.8826917451175
 30
0.0
 11
531.4155219062668
 21
282.8826917451175
 31
0.0
  0
LINE
  5
19C81
330
1F
100
AcDbEntity
  8
007
100
AcDbLine
 10
508.6155219062671
 20
287.6826917451177
 30
0.0
 11
536.9155219062669
 21
287.6826917451177
 31
0.0
  0
LINE
  5
19C82
330
1F
100
AcDbEntity
  8
007
100
AcDbLine
 10
508.6155219062671
 20
297.6826917451177
 30
0.0
 11
533.9155219062669
 21
297.6826917451177
 31
0.0
  0
LINE
  5
19C83
330
1F
100
AcDbEntity
  8
007
100
AcDbLine
 10
510.1155219062672
 20
287.3826917451175
 30
0.0
 11
531.4155219062668
 21
287.3826917451175
 31
0.0
  0
LINE
  5
19C84
330
1F
100
AcDbEntity
  8
007
100
AcDbLine
 10
509.6155219062672
 20
283.3826917451176
 30
0.0
 11
509.6155219062672
 21
286.8826917451175
 31
0.0
  0
ARC
  5
19C85
330
1F
100
AcDbEntity
  8
007
100
AcDbCircle
 10
510.1155219062672
 20
286.8826917451175
 30
0.0
 40
0.5
100
AcDbArc
 50
90.0
 51
180.0
  0
LINE
  5
19C86
330
1F
100
AcDbEntity
  8
007
100
AcDbLine
 10
508.6155219062671
 20
286.4826917451174
 30
0.0
 11
509.6155219062672
 21
286.4826917451174
 31
0.0
  0
ARC
  5
19C87
330
1F
100
AcDbEntity
  8
007
100
AcDbCircle
 10
510.1155219062672
 20
283.3826917451176
 30
0.0
 40
0.5
100
AcDbArc
 50
180.0
 51
270.0
  0
LINE
  5
19C88
330
1F
100
AcDbEntity
  8
007
100
AcDbLine
 10
508.6155219062671
 20
283.4826917451175
 30
0.0
 11
508.6155219062671
 21
297.6826917451177
 31
0.0
  0
ARC
  5
19C89
330
1F
100
AcDbEntity
  8
007
100
AcDbCircle
 10
533.9155219062669
 20
294.6826917451177
 30
0.0
 40
3.0
100
AcDbArc
 50
0.0
 51
90.0
  0
LINE
  5
19C8A
330
1F
100
AcDbEntity
  8
007
100
AcDbLine
 10
531.9155219062669
 20
283.3826917451176
 30
0.0
 11
531.9155219062669
 21
286.8826917451175
 31
0.0
  0
ARC
  5
19C8B
330
1F
100
AcDbEntity
  8
007
100
AcDbCircle
 10
531.4155219062668
 20
286.8826917451175
 30
0.0
 40
0.5
100
AcDbArc
 50
0.0
 51
90.0
  0
ARC
  5
19C8C
330
1F
100
AcDbEntity
  8
007
100
AcDbCircle
 10
531.4155219062668
 20
283.3826917451176
 30
0.0
 40
0.5
100
AcDbArc
 50
270.0
 51
0.0
  0
LINE
  5
19C8D
330
1F
100
AcDbEntity
  8
007
100
AcDbLine
 10
536.9155219062669
 20
287.6826917451177
 30
0.0
 11
536.9155219062669
 21
294.6826917451177
 31
0.0
  0
LINE
  5
19C8E
330
1F
100
AcDbEntity
  8
KI
  6
Continuous
 62
     7
100
AcDbLine
 10
437.5152399062669
 20
170.8326350314338
 30
0.0
 11
536.0156099062661
 21
170.8326350314338
 31
0.0
  0
LINE
  5
19C8F
330
1F
100
AcDbEntity
  8
KI
  6
Continuous
 62
     7
100
AcDbLine
 10
437.5152399062669
 20
180.2826450314338
 30
0.0
 11
516.0156699062664
 21
180.2826450314338
 31
0.0
  0
LINE
  5
19C90
330
1F
100
AcDbEntity
  8
KI
  6
Continuous
 62
     7
100
AcDbLine
 10
437.5152399062669
 20
177.7826450314338
 30
0.0
 11
517.7858099062669
 21
177.7826450314338
 31
0.0
  0
LINE
  5
19C91
330
1F
100
AcDbEntity
  8
KI
  6
Continuous
 62
     7
100
AcDbLine
 10
437.5152399062669
 20
215.2823950314338
 30
0.0
 11
516.0156699062664
 21
215.2823950314338
 31
0.0
  0
LINE
  5
19C92
330
1F
100
AcDbEntity
  8
KI
  6
Continuous
 62
     7
100
AcDbLine
 10
437.5152399062669
 20
211.2823950314338
 30
0.0
 11
516.8033299062663
 21
211.2823950314338
 31
0.0
  0
LINE
  5
19C93
330
1F
100
AcDbEntity
  8
KI
  6
Continuous
 62
     7
100
AcDbLine
 10
437.5152399062669
 20
204.7823350314339
 30
0.0
 11
523.0156099062661
 21
204.7823350314339
 31
0.0
  0
LINE
  5
19C94
330
1F
100
AcDbEntity
  8
KI
  6
Continuous
 62
     7
100
AcDbLine
 10
437.5152399062669
 20
201.782335031434
 30
0.0
 11
523.0156099062661
 21
201.782335031434
 31
0.0
  0
LINE
  5
19C95
330
1F
100
AcDbEntity
  8
KI
  6
Continuous
 62
     7
100
AcDbLine
 10
437.5152399062669
 20
195.2823950314338
 30
0.0
 11
517.1308399062665
 21
195.2823950314338
 31
0.0
  0
LINE
  5
19C96
330
1F
100
AcDbEntity
  8
KI
  6
Continuous
 62
     7
100
AcDbLine
 10
437.5152399062669
 20
200.7823350314339
 30
0.0
 11
523.0156099062661
 21
200.7823350314339
 31
0.0
  0
LINE
  5
19C97
330
1F
100
AcDbEntity
  8
KI
  6
Continuous
 62
     7
100
AcDbLine
 10
437.5152399062669
 20
205.7823350314339
 30
0.0
 11
523.0156099062661
 21
205.7823350314339
 31
0.0
  0
LINE
  5
19C98
330
1F
100
AcDbEntity
  8
003
100
AcDbLine
 10
535.0152399062664
 20
286.0827050314339
 30
0.0
 11
437.5152399062669
 21
286.0827050314334
 31
0.0
  0
LINE
  5
19C99
330
1F
100
AcDbEntity
  8
003
100
AcDbLine
 10
537.0152399062663
 20
284.7827050314337
 30
0.0
 11
437.5152399062669
 21
284.7827050314337
 31
0.0
  0
LINE
  5
19C9A
330
1F
100
AcDbEntity
  8
003
100
AcDbLine
 10
535.0152399062664
 20
287.2827050314337
 30
0.0
 11
437.5152399062669
 21
287.2827050314342
 31
0.0
  0
DIMENSION
  5
19C9B
330
1F
100
AcDbEntity
  8
003
100
AcDbDimension
  2
*D18
 10
566.0152399062665
 20
120.6001278518658
 30
0.0
 11
432.5152399062665
 21
120.6001278518658
 31
0.0
 70
   160
  1
SW
 71
     5
 42
266.9999999999998
  3
DIM
100
AcDbAlignedDimension
 13
299.0152399062667
 23
158.2827051187006
 33
0.0
 14
566.0152399062665
 24
158.2827051187006
 34
0.0
100
AcDbRotatedDimension
  0
DIMENSION
  5
19C9C
330
1F
100
AcDbEntity
  8
003
100
AcDbDimension
  2
*D19
 10
565.0152399062664
 20
322.6406588029396
 30
0.0
 11
432.5152399062665
 21
322.6406588029396
 31
0.0
 70
   160
  1
製品W=SW-2
 71
     5
 42
264.9999999999998
  3
DIM
100
AcDbAlignedDimension
 13
300.0152399062667
 23
277.2827050314341
 33
0.0
 14
565.0152399062664
 24
277.2827050314337
 34
0.0
100
AcDbRotatedDimension
  0
LINE
  5
19C9D
330
1F
100
AcDbEntity
  8
KI
  6
Continuous
 62
     7
100
AcDbLine
 10
437.5152399062669
 20
159.7826450314338
 30
0.0
 11
566.0151799062671
 21
159.7826450314338
 31
0.0
  0
LINE
  5
19C9E
330
1F
100
AcDbEntity
  8
KI
  6
Continuous
 62
     7
100
AcDbLine
 10
437.5152399062669
 20
157.7826450314338
 30
0.0
 11
566.8425699062665
 21
157.7826450314338
 31
0.0
  0
LINE
  5
19C9F
330
1F
100
AcDbEntity
  8
KI
  6
Continuous
 62
     7
100
AcDbLine
 10
329.014869906267
 20
215.8324450314341
 30
0.0
 11
329.014869906267
 21
179.1826350314342
 31
0.0
  0
LINE
  5
19CA0
330
1F
100
AcDbEntity
  8
KI
  6
Continuous
 62
     7
100
AcDbLine
 10
342.014869906267
 20
205.7823350314339
 30
0.0
 11
342.014869906267
 21
200.7823350314339
 31
0.0
  0
LINE
  5
19CA1
330
1F
100
AcDbEntity
  8
KI
  6
Continuous
 62
     7
100
AcDbLine
 10
326.014869906267
 20
213.2823950314338
 30
0.0
 11
326.014869906267
 21
198.2826450314338
 31
0.0
  0
LINE
  5
19CA2
330
1F
100
AcDbEntity
  8
KI
  6
Continuous
 62
     7
100
AcDbLine
 10
297.3652199062667
 20
218.0327050314337
 30
0.0
 11
297.3652199062667
 21
200.0327050314337
 31
0.0
  0
LINE
  5
19CA3
330
1F
100
AcDbEntity
  8
KI
  6
Continuous
 62
     7
100
AcDbLine
 10
299.0152399062667
 20
221.1326850314336
 30
0.0
 11
299.0152399062667
 21
189.7827050314337
 31
0.0
  0
LINE
  5
19CA4
330
1F
100
AcDbEntity
  8
KI
  6
Continuous
 62
     7
100
AcDbLine
 10
427.5152399062669
 20
170.8326350314338
 30
0.0
 11
329.014869906267
 21
170.8326350314338
 31
0.0
  0
LINE
  5
19CA5
330
1F
100
AcDbEntity
  8
KI
  6
Continuous
 62
     7
100
AcDbLine
 10
427.5152399062669
 20
201.782335031434
 30
0.0
 11
342.014869906267
 21
201.782335031434
 31
0.0
  0
LINE
  5
19CA6
330
1F
100
AcDbEntity
  8
KI
  6
Continuous
 62
     7
100
AcDbLine
 10
427.5152399062669
 20
195.2823950314338
 30
0.0
 11
347.8996399062676
 21
195.2823950314338
 31
0.0
  0
LINE
  5
19CA7
330
1F
100
AcDbEntity
  8
KI
  6
Continuous
 62
     7
100
AcDbLine
 10
427.5152399062669
 20
180.2826450314338
 30
0.0
 11
349.0148099062676
 21
180.2826450314338
 31
0.0
  0
LINE
  5
19CA8
330
1F
100
AcDbEntity
  8
KI
  6
Continuous
 62
     7
100
AcDbLine
 10
427.5152399062669
 20
177.7826450314338
 30
0.0
 11
347.2446699062671
 21
177.7826450314338
 31
0.0
  0
LINE
  5
19CA9
330
1F
100
AcDbEntity
  8
KI
  6
Continuous
 62
     7
100
AcDbLine
 10
427.5152399062669
 20
200.7823350314339
 30
0.0
 11
342.014869906267
 21
200.7823350314339
 31
0.0
  0
LINE
  5
19CAA
330
1F
100
AcDbEntity
  8
KI
  6
Continuous
 62
     7
100
AcDbLine
 10
427.5152399062669
 20
159.7826450314338
 30
0.0
 11
299.015299906267
 21
159.7826450314338
 31
0.0
  0
LINE
  5
19CAB
330
1F
100
AcDbEntity
  8
KI
  6
Continuous
 62
     7
100
AcDbLine
 10
427.5152399062669
 20
157.7826450314338
 30
0.0
 11
298.1879099062676
 21
157.7826450314338
 31
0.0
  0
LINE
  5
19CAC
330
1F
100
AcDbEntity
  8
KI
  6
Continuous
 62
     7
100
AcDbLine
 10
284.7152499062672
 20
158.9827150314341
 30
0.0
 11
297.8652199062667
 21
158.9827150314341
 31
0.0
  0
LINE
  5
19CAD
330
1F
100
AcDbEntity
  8
KI
  6
Continuous
 62
     7
100
AcDbLine
 10
275.2152499062672
 20
157.7827050314341
 30
0.0
 11
298.5152399062668
 21
157.7827050314341
 31
0.0
  0
LINE
  5
19CAE
330
1F
100
AcDbEntity
  8
KI
  6
Continuous
 62
     7
100
AcDbLine
 10
284.0152399062668
 20
159.0827050314338
 30
0.0
 11
284.0152399062668
 21
158.9827150314341
 31
0.0
  0
LINE
  5
19CAF
330
1F
100
AcDbEntity
  8
KI
  6
Continuous
 62
     7
100
AcDbLine
 10
284.7152499062672
 20
159.0827050314338
 30
0.0
 11
284.7152499062672
 21
158.9827150314341
 31
0.0
  0
ARC
  5
19CB0
330
1F
100
AcDbEntity
  8
KI
  6
Continuous
 62
     7
100
AcDbCircle
 10
284.3652199062667
 20
159.0827050314338
 30
0.0
 40
0.34999999
100
AcDbArc
 50
359.999989999999
 51
180.000010000001
  0
LINE
  5
19CB1
330
1F
100
AcDbEntity
  8
KI
  6
Continuous
 62
     7
100
AcDbLine
 10
275.0152399062667
 20
161.5827050314338
 30
0.0
 11
275.0152399062667
 21
158.9827150314341
 31
0.0
  0
LINE
  5
19CB2
330
1F
100
AcDbEntity
  8
KI
  6
Continuous
 62
     7
100
AcDbLine
 10
274.0152399062667
 20
162.0827050314338
 30
0.0
 11
274.0152399062667
 21
158.9827150314341
 31
0.0
  0
ARC
  5
19CB3
330
1F
100
AcDbEntity
  8
KI
  6
Continuous
 62
     7
100
AcDbCircle
 10
275.2152499062672
 20
158.9827150314341
 30
0.0
 40
1.1999998
100
AcDbArc
 50
180.000040000004
 51
270.000020000002
  0
ARC
  5
19CB4
330
1F
100
AcDbEntity
  8
KI
  6
Continuous
 62
     7
100
AcDbCircle
 10
274.7152499062672
 20
162.0827050314338
 30
0.0
 40
0.6999999900000001
100
AcDbArc
 50
359.999989999999
 51
179.9999640278154
  0
LINE
  5
19CB5
330
1F
100
AcDbEntity
  8
KI
  6
Continuous
 62
     7
100
AcDbLine
 10
275.4152599062668
 20
162.0827050314338
 30
0.0
 11
275.4152599062668
 21
161.5827050314338
 31
0.0
  0
LINE
  5
19CB6
330
1F
100
AcDbEntity
  8
KI
  6
Continuous
 62
     7
100
AcDbLine
 10
275.0152399062667
 20
161.5827050314338
 30
0.0
 11
275.4152599062668
 21
161.5827050314338
 31
0.0
  0
LINE
  5
19CB7
330
1F
100
AcDbEntity
  8
KI
  6
Continuous
 62
     7
100
AcDbLine
 10
275.0152399062667
 20
158.9827150314341
 30
0.0
 11
284.0152399062668
 21
158.9827150314341
 31
0.0
  0
ARC
  5
19CB8
330
1F
100
AcDbEntity
  8
KI
  6
Continuous
 62
     7
100
AcDbCircle
 10
343.0149299062673
 20
194.2823350314339
 30
0.0
 40
0.8000000099999999
100
AcDbArc
 50
270.0
 51
0.0000100000010064
  0
ARC
  5
19CB9
330
1F
100
AcDbEntity
  8
KI
  6
Continuous
 62
     7
100
AcDbCircle
 10
343.5149299062673
 20
194.7823350314339
 30
0.0
 40
0.5
100
AcDbArc
 50
89.99998399997755
 51
179.9999640278154
  0
LINE
  5
19CBA
330
1F
100
AcDbEntity
  8
KI
  6
Continuous
 62
     7
100
AcDbLine
 10
335.014869906267
 20
179.119475031434
 30
0.0
 11
348.0149499062668
 21
178.9826350314339
 31
0.0
  0
LINE
  5
19CBB
330
1F
100
AcDbEntity
  8
KI
  6
Continuous
 62
     7
100
AcDbLine
 10
305.0149999062674
 20
177.7826450314338
 30
0.0
 11
348.2149499062675
 21
177.7826450314338
 31
0.0
  0
LINE
  5
19CBC
330
1F
100
AcDbEntity
  8
KI
  6
Continuous
 62
     7
100
AcDbLine
 10
325.9094099062672
 20
182.782585031434
 30
0.0
 11
313.6962699062674
 21
182.782585031434
 31
0.0
  0
LINE
  5
19CBD
330
1F
100
AcDbEntity
  8
KI
  6
Continuous
 62
     7
100
AcDbLine
 10
326.014869906267
 20
187.782585031434
 30
0.0
 11
314.0149999062674
 21
187.782585031434
 31
0.0
  0
LINE
  5
19CBE
330
1F
100
AcDbEntity
  8
KI
  6
Continuous
 62
     7
100
AcDbLine
 10
305.0149999062674
 20
179.7826450314338
 30
0.0
 11
326.014869906267
 21
179.7826450314338
 31
0.0
  0
LINE
  5
19CBF
330
1F
100
AcDbEntity
  8
KI
  6
Continuous
 62
     7
100
AcDbLine
 10
299.0152399062667
 20
188.1327150314338
 30
0.0
 11
299.0152399062667
 21
158.2827050314341
 31
0.0
  0
LINE
  5
19CC0
330
1F
100
AcDbEntity
  8
KI
  6
Continuous
 62
     7
100
AcDbLine
 10
297.3652199062667
 20
180.0327050314341
 30
0.0
 11
297.3652199062667
 21
167.5327050314341
 31
0.0
  0
LINE
  5
19CC1
330
1F
100
AcDbEntity
  8
KI
  6
Continuous
 62
     7
100
AcDbLine
 10
297.8652199062667
 20
167.0327050314341
 30
0.0
 11
297.8652199062667
 21
158.9827150314341
 31
0.0
  0
ARC
  5
19CC2
330
1F
100
AcDbEntity
  8
KI
  6
Continuous
 62
     7
100
AcDbCircle
 10
298.5152399062668
 20
158.2827050314341
 30
0.0
 40
0.5
100
AcDbArc
 50
270.000020000002
 51
0.0000100000010064
  0
ARC
  5
19CC3
330
1F
100
AcDbEntity
  8
KI
  6
Continuous
 62
     7
100
AcDbCircle
 10
297.3652199062667
 20
167.0327050314341
 30
0.0
 40
0.5
100
AcDbArc
 50
359.999989999999
 51
89.99998399997755
  0
LINE
  5
19CC4
330
1F
100
AcDbEntity
  8
KI
  6
Continuous
 62
     7
100
AcDbLine
 10
308.7653999062673
 20
180.616165031434
 30
0.0
 11
307.6409599062667
 21
179.8665350314342
 31
0.0
  0
LINE
  5
19CC5
330
1F
100
AcDbEntity
  8
KI
  6
Continuous
 62
     7
100
AcDbLine
 10
313.5152399062667
 20
189.7827050314337
 30
0.0
 11
299.0152399062667
 21
189.7827050314337
 31
0.0
  0
LINE
  5
19CC6
330
1F
100
AcDbEntity
  8
KI
  6
Continuous
 62
     7
100
AcDbLine
 10
313.2151899062669
 20
188.1327150314338
 30
0.0
 11
304.8152299062672
 21
188.1327150314338
 31
0.0
  0
LINE
  5
19CC7
330
1F
100
AcDbEntity
  8
KI
  6
Continuous
 62
     7
100
AcDbLine
 10
307.0152399062668
 20
183.2827050314341
 30
0.0
 11
307.0152399062668
 21
183.7827050314341
 31
0.0
  0
ARC
  5
19CC8
330
1F
100
AcDbEntity
  8
KI
  6
Continuous
 62
     7
100
AcDbCircle
 10
307.3636299062668
 20
180.282585031434
 30
0.0
 40
0.5
100
AcDbArc
 50
270.000040000004
 51
303.6900800000011
  0
LINE
  5
19CC9
330
1F
100
AcDbEntity
  8
KI
  6
Continuous
 62
     7
100
AcDbLine
 10
304.3698499062671
 20
182.782585031434
 30
0.0
 11
299.015299906267
 21
182.782585031434
 31
0.0
  0
LINE
  5
19CCA
330
1F
100
AcDbEntity
  8
KI
  6
Continuous
 62
     7
100
AcDbLine
 10
304.0150599062668
 20
187.782585031434
 30
0.0
 11
299.015299906267
 21
187.782585031434
 31
0.0
  0
LINE
  5
19CCB
330
1F
100
AcDbEntity
  8
KI
  6
Continuous
 62
     7
100
AcDbLine
 10
304.0152399062667
 20
188.1327150314338
 30
0.0
 11
299.0152399062667
 21
188.1327150314338
 31
0.0
  0
LINE
  5
19CCC
330
1F
100
AcDbEntity
  8
KI
  6
Continuous
 62
     7
100
AcDbLine
 10
297.8652199062667
 20
187.0327050314337
 30
0.0
 11
297.8652199062667
 21
180.5327050314341
 31
0.0
  0
ARC
  5
19CCD
330
1F
100
AcDbEntity
  8
KI
  6
Continuous
 62
     7
100
AcDbCircle
 10
297.3652199062667
 20
180.5327050314341
 30
0.0
 40
0.5
100
AcDbArc
 50
270.000020000002
 51
0.0000100000010064
  0
LINE
  5
19CCE
330
1F
100
AcDbEntity
  8
KI
  6
Continuous
 62
     7
100
AcDbLine
 10
297.8652199062667
 20
199.5327050314337
 30
0.0
 11
297.8652199062667
 21
196.5327050314337
 31
0.0
  0
LINE
  5
19CCF
330
1F
100
AcDbEntity
  8
KI
  6
Continuous
 62
     7
100
AcDbLine
 10
297.3652199062667
 20
196.0327050314337
 30
0.0
 11
297.3652199062667
 21
192.7827050314337
 31
0.0
  0
ARC
  5
19CD0
330
1F
100
AcDbEntity
  8
KI
  6
Continuous
 62
     7
100
AcDbCircle
 10
297.3652199062667
 20
196.5327050314337
 30
0.0
 40
0.5
100
AcDbArc
 50
270.000020000002
 51
0.0000100000010064
  0
LINE
  5
19CD1
330
1F
100
AcDbEntity
  8
KI
  6
Continuous
 62
     7
100
AcDbLine
 10
297.3652199062667
 20
192.7827050314337
 30
0.0
 11
297.8652199062667
 21
192.7827050314337
 31
0.0
  0
LINE
  5
19CD2
330
1F
100
AcDbEntity
  8
KI
  6
Continuous
 62
     7
100
AcDbLine
 10
297.3652199062667
 20
190.7827050314337
 30
0.0
 11
297.3652199062667
 21
187.5327050314337
 31
0.0
  0
LINE
  5
19CD3
330
1F
100
AcDbEntity
  8
KI
  6
Continuous
 62
     7
100
AcDbLine
 10
297.3652199062667
 20
190.7827050314337
 30
0.0
 11
297.8652199062667
 21
190.7827050314337
 31
0.0
  0
ARC
  5
19CD4
330
1F
100
AcDbEntity
  8
KI
  6
Continuous
 62
     7
100
AcDbCircle
 10
297.3652199062667
 20
187.0327050314337
 30
0.0
 40
0.5
100
AcDbArc
 50
359.999989999999
 51
89.99998399997755
  0
LINE
  5
19CD5
330
1F
100
AcDbEntity
  8
KI
  6
Continuous
 62
     7
100
AcDbLine
 10
297.8652199062667
 20
192.7827050314337
 30
0.0
 11
297.8652199062667
 21
190.7827050314337
 31
0.0
  0
ARC
  5
19CD6
330
1F
100
AcDbEntity
  8
KI
  6
Continuous
 62
     7
100
AcDbCircle
 10
297.3652199062667
 20
199.5327050314337
 30
0.0
 40
0.5
100
AcDbArc
 50
359.999989999999
 51
89.99998399997755
  0
LINE
  5
19CD7
330
1F
100
AcDbEntity
  8
KI
  6
Continuous
 62
     7
100
AcDbLine
 10
304.0152399062667
 20
183.5826950314341
 30
0.0
 11
304.0152399062667
 21
188.1327150314338
 31
0.0
  0
LINE
  5
19CD8
330
1F
100
AcDbEntity
  8
KI
  6
Continuous
 62
     7
100
AcDbLine
 10
304.8152299062672
 20
183.5826950314341
 30
0.0
 11
304.8152299062672
 21
188.1327150314338
 31
0.0
  0
LINE
  5
19CD9
330
1F
100
AcDbEntity
  8
KI
  6
Continuous
 62
     7
100
AcDbLine
 10
306.5152399062668
 20
182.7827050314341
 30
0.0
 11
304.8152299062672
 21
182.7827050314341
 31
0.0
  0
ARC
  5
19CDA
330
1F
100
AcDbEntity
  8
KI
  6
Continuous
 62
     7
100
AcDbCircle
 10
304.8152299062672
 20
183.5826950314341
 30
0.0
 40
0.8000000099999999
100
AcDbArc
 50
179.999991348572
 51
270.0
  0
LINE
  5
19CDB
330
1F
100
AcDbEntity
  8
KI
  6
Continuous
 62
     7
100
AcDbLine
 10
304.0149999062673
 20
179.782585031434
 30
0.0
 11
304.0149999062673
 21
182.782585031434
 31
0.0
  0
LINE
  5
19CDC
330
1F
100
AcDbEntity
  8
KI
  6
Continuous
 62
     7
100
AcDbLine
 10
306.2152499062672
 20
183.5826950314341
 30
0.0
 11
306.2152499062672
 21
183.7827050314341
 31
0.0
  0
LINE
  5
19CDD
330
1F
100
AcDbEntity
  8
KI
  6
Continuous
 62
     7
100
AcDbLine
 10
306.2152499062672
 20
183.5826950314341
 30
0.0
 11
304.8152299062672
 21
183.5826950314341
 31
0.0
  0
ARC
  5
19CDE
330
1F
100
AcDbEntity
  8
KI
  6
Continuous
 62
     7
100
AcDbCircle
 10
305.0149999062674
 20
178.7826450314338
 30
0.0
 40
1.0
100
AcDbArc
 50
89.99998399997755
 51
270.0
  0
LINE
  5
19CDF
330
1F
100
AcDbEntity
  8
KI
  6
Continuous
 62
     7
100
AcDbLine
 10
307.0152399062668
 20
183.7827050314341
 30
0.0
 11
306.2152499062672
 21
183.7827050314341
 31
0.0
  0
LINE
  5
19CE0
330
1F
100
AcDbEntity
  8
KI
  6
Continuous
 62
     7
100
AcDbLine
 10
304.0149999062673
 20
179.782585031434
 30
0.0
 11
307.3636299062668
 21
179.782585031434
 31
0.0
  0
LINE
  5
19CE1
330
1F
100
AcDbEntity
  8
KI
  6
Continuous
 62
     7
100
AcDbLine
 10
306.5149999062673
 20
182.782585031434
 30
0.0
 11
307.5149999062674
 21
182.782585031434
 31
0.0
  0
ARC
  5
19CE2
330
1F
100
AcDbEntity
  8
KI
  6
Continuous
 62
     7
100
AcDbCircle
 10
306.5152399062668
 20
183.2827050314341
 30
0.0
 40
0.5
100
AcDbArc
 50
270.0
 51
0.0000100000010064
  0
LINE
  5
19CE3
330
1F
100
AcDbEntity
  8
KI
  6
Continuous
 62
     7
100
AcDbLine
 10
313.2152499062672
 20
183.5826950314341
 30
0.0
 11
311.8152299062672
 21
183.5826950314341
 31
0.0
  0
LINE
  5
19CE4
330
1F
100
AcDbEntity
  8
KI
  6
Continuous
 62
     7
100
AcDbLine
 10
313.5152399062667
 20
182.7827050314341
 30
0.0
 11
311.5152399062667
 21
182.7827050314341
 31
0.0
  0
LINE
  5
19CE5
330
1F
100
AcDbEntity
  8
KI
  6
Continuous
 62
     7
100
AcDbLine
 10
310.6663599062672
 20
179.782585031434
 30
0.0
 11
314.0149999062674
 21
179.782585031434
 31
0.0
  0
LINE
  5
19CE6
330
1F
100
AcDbEntity
  8
KI
  6
Continuous
 62
     7
100
AcDbLine
 10
311.8152299062672
 20
183.7827050314341
 30
0.0
 11
311.0152399062668
 21
183.7827050314341
 31
0.0
  0
LINE
  5
19CE7
330
1F
100
AcDbEntity
  8
KI
  6
Continuous
 62
     7
100
AcDbLine
 10
311.0152399062668
 20
183.2827050314341
 30
0.0
 11
311.0152399062668
 21
183.7827050314341
 31
0.0
  0
LINE
  5
19CE8
330
1F
100
AcDbEntity
  8
KI
  6
Continuous
 62
     7
100
AcDbLine
 10
311.8152299062672
 20
183.5826950314341
 30
0.0
 11
311.8152299062672
 21
183.7827050314341
 31
0.0
  0
LINE
  5
19CE9
330
1F
100
AcDbEntity
  8
KI
  6
Continuous
 62
     7
100
AcDbLine
 10
310.5149999062673
 20
182.782585031434
 30
0.0
 11
311.5149999062674
 21
182.782585031434
 31
0.0
  0
ARC
  5
19CEA
330
1F
100
AcDbEntity
  8
KI
  6
Continuous
 62
     7
100
AcDbCircle
 10
311.5152399062667
 20
183.2827050314341
 30
0.0
 40
0.5
100
AcDbArc
 50
179.999991348572
 51
270.0
  0
ARC
  5
19CEB
330
1F
100
AcDbEntity
  8
KI
  6
Continuous
 62
     7
100
AcDbCircle
 10
309.0149999062674
 20
180.782585031434
 30
0.0
 40
0.29999995
100
AcDbArc
 50
326.3100900000117
 51
0.0000200000020129
  0
ARC
  5
19CEC
330
1F
100
AcDbEntity
  8
KI
  6
Continuous
 62
     7
100
AcDbCircle
 10
309.0149999062674
 20
180.782585031434
 30
0.0
 40
0.29999995
100
AcDbArc
 50
0.0000200000020129
 51
213.6899200000171
  0
ARC
  5
19CED
330
1F
100
AcDbEntity
  8
KI
  6
Continuous
 62
     7
100
AcDbCircle
 10
310.6663599062672
 20
180.282585031434
 30
0.0
 40
0.5
100
AcDbArc
 50
236.3099900000258
 51
270.000040000004
  0
LINE
  5
19CEE
330
1F
100
AcDbEntity
  8
KI
  6
Continuous
 62
     7
100
AcDbLine
 10
309.2645899062668
 20
180.6161750314342
 30
0.0
 11
310.3890099062669
 21
179.8665650314339
 31
0.0
  0
LINE
  5
19CEF
330
1F
100
AcDbEntity
  8
KI
  6
Continuous
 62
     7
100
AcDbLine
 10
313.2153099062675
 20
183.5826950314341
 30
0.0
 11
313.2153099062675
 21
188.1327150314338
 31
0.0
  0
LINE
  5
19CF0
330
1F
100
AcDbEntity
  8
KI
  6
Continuous
 62
     7
100
AcDbLine
 10
314.015299906267
 20
183.2827050314341
 30
0.0
 11
314.015299906267
 21
189.2827050314337
 31
0.0
  0
ARC
  5
19CF1
330
1F
100
AcDbEntity
  8
KI
  6
Continuous
 62
     7
100
AcDbCircle
 10
313.5152399062667
 20
183.2827050314341
 30
0.0
 40
0.5
100
AcDbArc
 50
270.000030000003
 51
0.0001999999940739
  0
LINE
  5
19CF2
330
1F
100
AcDbEntity
  8
KI
  6
Continuous
 62
     7
100
AcDbLine
 10
314.0149999062674
 20
179.782585031434
 30
0.0
 11
314.0149999062674
 21
182.782585031434
 31
0.0
  0
ARC
  5
19CF3
330
1F
100
AcDbEntity
  8
KI
  6
Continuous
 62
     7
100
AcDbCircle
 10
313.5152399062667
 20
189.2827050314337
 30
0.0
 40
0.5
100
AcDbArc
 50
0.0001999999940739
 51
89.99998399997755
  0
LINE
  5
19CF4
330
1F
100
AcDbEntity
  8
KI
  6
Continuous
 62
     7
100
AcDbLine
 10
329.0148999062671
 20
179.1826350314342
 30
0.0
 11
334.3148999062673
 21
179.1268450314338
 31
0.0
  0
LINE
  5
19CF5
330
1F
100
AcDbEntity
  8
KI
  6
Continuous
 62
     7
100
AcDbLine
 10
329.014869906267
 20
177.7826450314338
 30
0.0
 11
329.014869906267
 21
170.8326350314338
 31
0.0
  0
LINE
  5
19CF6
330
1F
100
AcDbEntity
  8
KI
  6
Continuous
 62
     7
100
AcDbLine
 10
326.014869906267
 20
197.2826450314338
 30
0.0
 11
326.014869906267
 21
179.7826450314338
 31
0.0
  0
ARC
  5
19CF7
330
1F
100
AcDbEntity
  8
KI
  6
Continuous
 62
     7
100
AcDbCircle
 10
326.014869906267
 20
197.7826450314338
 30
0.0
 40
0.5
100
AcDbArc
 50
270.000030000003
 51
89.99998399997755
  0
LINE
  5
19CF8
330
1F
100
AcDbEntity
  8
KI
  6
Continuous
 62
     7
100
AcDbLine
 10
343.0149299062673
 20
194.7823350314339
 30
0.0
 11
343.0149299062673
 21
194.2823350314339
 31
0.0
  0
LINE
  5
19CF9
330
1F
100
AcDbEntity
  8
KI
  6
Continuous
 62
     7
100
AcDbLine
 10
335.014869906267
 20
179.382615031434
 30
0.0
 11
335.014869906267
 21
179.1194650314338
 31
0.0
  0
LINE
  5
19CFA
330
1F
100
AcDbEntity
  8
KI
  6
Continuous
 62
     7
100
AcDbLine
 10
334.3148599062674
 20
179.382615031434
 30
0.0
 11
334.3148599062674
 21
179.126855031434
 31
0.0
  0
ARC
  5
19CFB
330
1F
100
AcDbEntity
  8
KI
  6
Continuous
 62
     7
100
AcDbCircle
 10
334.6648999062668
 20
179.382615031434
 30
0.0
 40
0.34999999
100
AcDbArc
 50
359.999989999999
 51
180.000010000001
  0
ARC
  5
19CFC
330
1F
100
AcDbEntity
  8
KI
  6
Continuous
 62
     7
100
AcDbCircle
 10
338.6149099062673
 20
195.8823150314339
 30
0.0
 40
0.4000000100000001
100
AcDbArc
 50
359.999989999999
 51
180.000010000001
  0
ARC
  5
19CFD
330
1F
100
AcDbEntity
  8
KI
  6
Continuous
 62
     7
100
AcDbCircle
 10
339.0149299062673
 20
194.2823350314339
 30
0.0
 40
0.8000000099999999
100
AcDbArc
 50
179.999991348572
 51
270.0
  0
LINE
  5
19CFE
330
1F
100
AcDbEntity
  8
KI
  6
Continuous
 62
     7
100
AcDbLine
 10
339.0149299062673
 20
195.8823150314339
 30
0.0
 11
339.0149299062673
 21
194.2823350314339
 31
0.0
  0
LINE
  5
19CFF
330
1F
100
AcDbEntity
  8
KI
  6
Continuous
 62
     7
100
AcDbLine
 10
338.2149499062675
 20
195.8823150314339
 30
0.0
 11
338.2149499062675
 21
194.2823350314339
 31
0.0
  0
LINE
  5
19D00
330
1F
100
AcDbEntity
  8
KI
  6
Continuous
 62
     7
100
AcDbLine
 10
343.0149299062673
 20
194.2823350314339
 30
0.0
 11
339.0149299062673
 21
194.2823350314339
 31
0.0
  0
LINE
  5
19D01
330
1F
100
AcDbEntity
  8
KI
  6
Continuous
 62
     7
100
AcDbLine
 10
343.0149299062673
 20
193.482325031434
 30
0.0
 11
339.0149299062673
 21
193.482325031434
 31
0.0
  0
LINE
  5
19D02
330
1F
100
AcDbEntity
  8
KI
  6
Continuous
 62
     7
100
AcDbLine
 10
349.0149299062673
 20
194.7823650314341
 30
0.0
 11
349.0149299062673
 21
178.5826350314338
 31
0.0
  0
LINE
  5
19D03
330
1F
100
AcDbEntity
  8
KI
  6
Continuous
 62
     7
100
AcDbLine
 10
348.0149299062673
 20
194.482325031434
 30
0.0
 11
348.0149299062673
 21
178.9826250314341
 31
0.0
  0
ARC
  5
19D04
330
1F
100
AcDbEntity
  8
KI
  6
Continuous
 62
     7
100
AcDbCircle
 10
348.2149499062675
 20
178.5826350314338
 30
0.0
 40
0.8000000099999999
100
AcDbArc
 50
270.000020000002
 51
0.0000100000010064
  0
LINE
  5
19D05
330
1F
100
AcDbEntity
  8
KI
  6
Continuous
 62
     7
100
AcDbLine
 10
349.9846099062675
 20
200.7824650314339
 30
0.0
 11
349.0148099062676
 21
195.2824650314338
 31
0.0
  0
LINE
  5
19D06
330
1F
100
AcDbEntity
  8
KI
  6
Continuous
 62
     7
100
AcDbLine
 10
343.8149199062668
 20
194.482325031434
 30
0.0
 11
343.8149199062668
 21
194.2823350314339
 31
0.0
  0
ARC
  5
19D07
330
1F
100
AcDbEntity
  8
KI
  6
Continuous
 62
     7
100
AcDbCircle
 10
348.5149299062673
 20
194.7823650314341
 30
0.0
 40
0.5
100
AcDbArc
 50
0.0000400000040257
 51
90.00173199998176
  0
LINE
  5
19D08
330
1F
100
AcDbEntity
  8
KI
  6
Continuous
 62
     7
100
AcDbLine
 10
348.514869906267
 20
195.2823350314339
 30
0.0
 11
343.5149299062673
 21
195.2823350314339
 31
0.0
  0
LINE
  5
19D09
330
1F
100
AcDbEntity
  8
KI
  6
Continuous
 62
     7
100
AcDbLine
 10
348.0149299062673
 20
194.482325031434
 30
0.0
 11
343.8149199062668
 21
194.482325031434
 31
0.0
  0
LINE
  5
19D0A
330
1F
100
AcDbEntity
  8
KI
  6
Continuous
 62
     7
100
AcDbLine
 10
427.5152399062669
 20
215.2823950314338
 30
0.0
 11
349.0148099062676
 21
215.2823950314338
 31
0.0
  0
LINE
  5
19D0B
330
1F
100
AcDbEntity
  8
KI
  6
Continuous
 62
     7
100
AcDbLine
 10
427.5152399062669
 20
204.7823350314339
 30
0.0
 11
342.014869906267
 21
204.7823350314339
 31
0.0
  0
LINE
  5
19D0C
330
1F
100
AcDbEntity
  8
KI
  6
Continuous
 62
     7
100
AcDbLine
 10
427.5152399062669
 20
205.7823350314339
 30
0.0
 11
342.014869906267
 21
205.7823350314339
 31
0.0
  0
LINE
  5
19D0D
330
1F
100
AcDbEntity
  8
003
100
AcDbLine
 10
330.0152399062667
 20
286.0827050314339
 30
0.0
 11
427.5152399062669
 21
286.0827050314339
 31
0.0
  0
LINE
  5
19D0E
330
1F
100
AcDbEntity
  8
003
100
AcDbLine
 10
330.0152399062667
 20
287.2827050314342
 30
0.0
 11
427.5152399062669
 21
287.2827050314342
 31
0.0
  0
LINE
  5
19D0F
330
1F
100
AcDbEntity
  8
003
100
AcDbLine
 10
328.0152399062667
 20
284.7827050314342
 30
0.0
 11
427.5152399062669
 21
284.7827050314342
 31
0.0
  0
LINE
  5
19D10
330
1F
100
AcDbEntity
  8
KI
  6
Continuous
 62
     7
100
AcDbLine
 10
284.7152499062672
 20
226.5826950314337
 30
0.0
 11
297.8652199062667
 21
226.5826950314337
 31
0.0
  0
LINE
  5
19D11
330
1F
100
AcDbEntity
  8
KI
  6
Continuous
 62
     7
100
AcDbLine
 10
275.2152499062672
 20
227.7827050314337
 30
0.0
 11
298.5152399062668
 21
227.7827050314337
 31
0.0
  0
DIMENSION
  5
19D12
330
1F
100
AcDbEntity
  8
003
100
AcDbDimension
  2
*D20
 10
300.0152399062667
 20
322.6406588029396
 30
0.0
 11
290.4795256205521
 21
322.6406588029396
 31
0.0
 70
   160
 71
     5
  3
DIM
100
AcDbAlignedDimension
 13
299.0152399062667
 23
227.2827049441672
 33
0.0
 14
300.0152399062667
 24
322.6406588029396
 34
0.0
100
AcDbRotatedDimension
  0
LINE
  5
19D13
330
1F
100
AcDbEntity
  8
KI
  6
Continuous
 62
     7
100
AcDbLine
 10
284.0152399062668
 20
226.5826950314337
 30
0.0
 11
284.0152399062668
 21
226.4827150314337
 31
0.0
  0
LINE
  5
19D14
330
1F
100
AcDbEntity
  8
KI
  6
Continuous
 62
     7
100
AcDbLine
 10
284.7152499062672
 20
226.5826950314337
 30
0.0
 11
284.7152499062672
 21
226.4827150314337
 31
0.0
  0
ARC
  5
19D15
330
1F
100
AcDbEntity
  8
KI
  6
Continuous
 62
     7
100
AcDbCircle
 10
284.3652199062667
 20
226.4827150314337
 30
0.0
 40
0.34999999
100
AcDbArc
 50
179.999991348572
 51
0.0000100000010064
  0
ARC
  5
19D16
330
1F
100
AcDbEntity
  8
KI
  6
Continuous
 62
     7
100
AcDbCircle
 10
275.2152499062672
 20
226.5826950314337
 30
0.0
 40
1.1999998
100
AcDbArc
 50
89.99998399997755
 51
179.9999640278154
  0
ARC
  5
19D17
330
1F
100
AcDbEntity
  8
KI
  6
Continuous
 62
     7
100
AcDbCircle
 10
274.7152499062672
 20
223.4827150314337
 30
0.0
 40
0.6999999900000001
100
AcDbArc
 50
179.9999640278154
 51
0.0000100000010064
  0
LINE
  5
19D18
330
1F
100
AcDbEntity
  8
KI
  6
Continuous
 62
     7
100
AcDbLine
 10
275.4152599062668
 20
223.9827150314337
 30
0.0
 11
275.4152599062668
 21
223.4827150314337
 31
0.0
  0
LINE
  5
19D19
330
1F
100
AcDbEntity
  8
KI
  6
Continuous
 62
     7
100
AcDbLine
 10
275.0152399062667
 20
223.9827150314337
 30
0.0
 11
275.4152599062668
 21
223.9827150314337
 31
0.0
  0
LINE
  5
19D1A
330
1F
100
AcDbEntity
  8
KI
  6
Continuous
 62
     7
100
AcDbLine
 10
275.0152399062667
 20
226.5826950314337
 30
0.0
 11
275.0152399062667
 21
223.9827150314337
 31
0.0
  0
LINE
  5
19D1B
330
1F
100
AcDbEntity
  8
KI
  6
Continuous
 62
     7
100
AcDbLine
 10
274.0152399062667
 20
226.5826950314337
 30
0.0
 11
274.0152399062667
 21
223.4827150314337
 31
0.0
  0
LINE
  5
19D1C
330
1F
100
AcDbEntity
  8
KI
  6
Continuous
 62
     7
100
AcDbLine
 10
275.0152399062667
 20
226.5826950314337
 30
0.0
 11
284.0152399062668
 21
226.5826950314337
 31
0.0
  0
ARC
  5
19D1D
330
1F
100
AcDbEntity
  8
KI
  6
Continuous
 62
     7
100
AcDbCircle
 10
343.4148999062668
 20
211.6824850314339
 30
0.0
 40
0.4000000100000001
100
AcDbArc
 50
92.48486800001613
 51
270.0
  0
LINE
  5
19D1E
330
1F
100
AcDbEntity
  8
003
100
AcDbLine
 10
344.2152399062675
 20
247.2827050314337
 30
0.0
 11
308.3152399062669
 21
247.2827050314337
 31
0.0
  0
LINE
  5
19D1F
330
1F
100
AcDbEntity
  8
KI
  6
Continuous
 62
     7
100
AcDbLine
 10
344.014869906267
 20
215.8324750314338
 30
0.0
 11
339.014869906267
 21
215.8324750314338
 31
0.0
  0
LINE
  5
19D20
330
1F
100
AcDbEntity
  8
003
100
AcDbLine
 10
328.0152399062667
 20
249.7827050314342
 30
0.0
 11
427.5152399062669
 21
249.7827050314337
 31
0.0
  0
LINE
  5
19D21
330
1F
100
AcDbEntity
  8
003
100
AcDbLine
 10
353.2152399062675
 20
248.482705031434
 30
0.0
 11
327.0152399062667
 21
248.482705031434
 31
0.0
  0
LINE
  5
19D22
330
1F
100
AcDbEntity
  8
KI
  6
Continuous
 62
     7
100
AcDbLine
 10
324.514869906267
 20
217.7823950314338
 30
0.0
 11
348.7148899062672
 21
217.7823950314338
 31
0.0
  0
LINE
  5
19D23
330
1F
100
AcDbEntity
  8
003
100
AcDbLine
 10
301.2152399062675
 20
253.7988410598597
 30
0.0
 11
301.2152399062675
 21
277.2827050314341
 31
0.0
  0
LINE
  5
19D24
330
1F
100
AcDbEntity
  8
003
100
AcDbLine
 10
327.0152399062667
 20
248.482705031434
 30
0.0
 11
327.0152399062667
 21
272.2827050314337
 31
0.0
  0
LINE
  5
19D25
330
1F
100
AcDbEntity
  8
003
100
AcDbLine
 10
330.0152399062667
 20
249.7827050314342
 30
0.0
 11
330.0152399062667
 21
284.7827050314342
 31
0.0
  0
LINE
  5
19D26
330
1F
100
AcDbEntity
  8
003
100
AcDbLine
 10
328.0152399062667
 20
249.7827050314342
 30
0.0
 11
328.0152399062667
 21
284.7827050314342
 31
0.0
  0
LINE
  5
19D27
330
1F
100
AcDbEntity
  8
003
100
AcDbLine
 10
324.1152399062671
 20
272.2827050314342
 30
0.0
 11
324.1152399062671
 21
252.2827050314341
 31
0.0
  0
LINE
  5
19D28
330
1F
100
AcDbEntity
  8
003
100
AcDbLine
 10
319.1152399062671
 20
272.2827050314342
 30
0.0
 11
319.1152399062671
 21
252.2827050314341
 31
0.0
  0
LINE
  5
19D29
330
1F
100
AcDbEntity
  8
003
100
AcDbLine
 10
300.0152399062667
 20
222.2827050314337
 30
0.0
 11
300.0152399062667
 21
277.2827050314341
 31
0.0
  0
LINE
  5
19D2A
330
1F
100
AcDbEntity
  8
003
100
AcDbLine
 10
325.8152399062669
 20
248.482705031434
 30
0.0
 11
325.8152399062669
 21
271.0827050314339
 31
0.0
  0
LINE
  5
19D2B
330
1F
100
AcDbEntity
  8
003
100
AcDbLine
 10
324.1152399062671
 20
252.2827050314341
 30
0.0
 11
319.1152399062671
 21
252.2827050314341
 31
0.0
  0
LINE
  5
19D2C
330
1F
100
AcDbEntity
  8
KI
  6
Continuous
 62
     7
100
AcDbLine
 10
323.4147499062669
 20
217.3284650314341
 30
0.0
 11
317.6460699062668
 21
217.0001850314339
 31
0.0
  0
LINE
  5
19D2D
330
1F
100
AcDbEntity
  8
KI
  6
Continuous
 62
     7
100
AcDbLine
 10
324.014579906267
 20
217.7823450314337
 30
0.0
 11
317.6309799062669
 21
217.2021350314341
 31
0.0
  0
LINE
  5
19D2E
330
1F
100
AcDbEntity
  8
003
100
AcDbLine
 10
325.7952399062674
 20
248.482705031434
 30
0.0
 11
301.2152399062675
 21
248.482705031434
 31
0.0
  0
LINE
  5
19D2F
330
1F
100
AcDbEntity
  8
003
100
AcDbLine
 10
301.2152399062675
 20
222.2827050314342
 30
0.0
 11
301.2152399062675
 21
245.5827050314339
 31
0.0
  0
LINE
  5
19D30
330
1F
100
AcDbEntity
  8
KI
  6
Continuous
 62
     7
100
AcDbLine
 10
299.0152399062667
 20
222.2827050314337
 30
0.0
 11
317.8652199062667
 21
222.2827050314337
 31
0.0
  0
LINE
  5
19D31
330
1F
100
AcDbEntity
  8
KI
  6
Continuous
 62
     7
100
AcDbLine
 10
299.0152399062667
 20
221.1326850314336
 30
0.0
 11
318.2152499062672
 21
221.1326850314336
 31
0.0
  0
ARC
  5
19D32
330
1F
100
AcDbEntity
  8
KI
  6
Continuous
 62
     7
100
AcDbCircle
 10
298.5152399062668
 20
227.2827050314337
 30
0.0
 40
0.5
100
AcDbArc
 50
359.999989999999
 51
89.99998399997755
  0
LINE
  5
19D33
330
1F
100
AcDbEntity
  8
KI
  6
Continuous
 62
     7
100
AcDbLine
 10
299.0152399062667
 20
227.2827050314337
 30
0.0
 11
299.0152399062667
 21
222.2827050314337
 31
0.0
  0
LINE
  5
19D34
330
1F
100
AcDbEntity
  8
003
100
AcDbLine
 10
301.2152399062675
 20
222.2827050314342
 30
0.0
 11
300.0152399062667
 21
222.2827050314337
 31
0.0
  0
LINE
  5
19D35
330
1F
100
AcDbEntity
  8
003
100
AcDbLine
 10
301.2152399062675
 20
222.2827050314342
 30
0.0
 11
300.0152399062667
 21
222.2827050314342
 31
0.0
  0
ARC
  5
19D36
330
1F
100
AcDbEntity
  8
KI
  6
Continuous
 62
     7
100
AcDbCircle
 10
297.3652199062667
 20
218.5327050314337
 30
0.0
 40
0.5
100
AcDbArc
 50
270.000020000002
 51
0.0000100000010064
  0
LINE
  5
19D37
330
1F
100
AcDbEntity
  8
KI
  6
Continuous
 62
     7
100
AcDbLine
 10
297.8652199062667
 20
226.5826950314337
 30
0.0
 11
297.8652199062667
 21
218.5327050314337
 31
0.0
  0
ARC
  5
19D38
330
1F
100
AcDbEntity
  8
KI
  6
Continuous
 62
     7
100
AcDbCircle
 10
317.8652199062667
 20
221.1326850314336
 30
0.0
 40
1.1499996
100
AcDbArc
 50
359.999989999999
 51
89.99998399997755
  0
LINE
  5
19D39
330
1F
100
AcDbEntity
  8
KI
  6
Continuous
 62
     7
100
AcDbLine
 10
317.6152199062667
 20
218.2827050314337
 30
0.0
 11
318.2152499062672
 21
218.2827050314337
 31
0.0
  0
ARC
  5
19D3A
330
1F
100
AcDbEntity
  8
KI
  6
Continuous
 62
     7
100
AcDbCircle
 10
318.3152299062672
 20
217.9827150314337
 30
0.0
 40
0.6999999900000001
100
AcDbArc
 50
180.000040000004
 51
0.0000100000010064
  0
ARC
  5
19D3B
330
1F
100
AcDbEntity
  8
KI
  6
Continuous
 62
     7
100
AcDbCircle
 10
317.640299906267
 20
217.1013050314337
 30
0.0
 40
0.10126525
100
AcDbArc
 50
95.19353000000009
 51
279.591860000008
  0
LINE
  5
19D3C
330
1F
100
AcDbEntity
  8
KI
  6
Continuous
 62
     7
100
AcDbLine
 10
317.6152199062667
 20
218.2827050314337
 30
0.0
 11
317.6152199062667
 21
217.9827150314337
 31
0.0
  0
LINE
  5
19D3D
330
1F
100
AcDbEntity
  8
KI
  6
Continuous
 62
     7
100
AcDbLine
 10
318.2152499062672
 20
221.1326850314336
 30
0.0
 11
318.2152499062672
 21
218.2827050314337
 31
0.0
  0
LINE
  5
19D3E
330
1F
100
AcDbEntity
  8
KI
  6
Continuous
 62
     7
100
AcDbLine
 10
319.0152399062668
 20
221.1326850314336
 30
0.0
 11
319.0152399062668
 21
217.9827150314337
 31
0.0
  0
LINE
  5
19D3F
330
1F
100
AcDbEntity
  8
003
100
AcDbLine
 10
313.0152399062668
 20
248.482705031434
 30
0.0
 11
308.3152399062669
 21
248.482705031434
 31
0.0
  0
LINE
  5
19D40
330
1F
100
AcDbEntity
  8
003
100
AcDbLine
 10
313.0152399062668
 20
249.6827050314338
 30
0.0
 11
305.5655813412482
 21
249.6827050314338
 31
0.0
  0
ARC
  5
19D41
330
1F
100
AcDbEntity
  8
003
100
AcDbCircle
 10
303.5152399062667
 20
251.8727050314343
 30
0.0
 40
3.0
100
AcDbArc
 50
29.98163936884621
 51
140.055494810202
  0
ARC
  5
19D42
330
1F
100
AcDbEntity
  8
003
100
AcDbCircle
 10
308.0152399062667
 20
247.2827050314342
 30
0.0
 40
0.2999999999999829
100
AcDbArc
 50
0.0
 51
180.0
  0
ARC
  5
19D43
330
1F
100
AcDbEntity
  8
003
100
AcDbCircle
 10
308.0152399062667
 20
248.482705031434
 30
0.0
 40
0.3000000000000682
100
AcDbArc
 50
0.0000000000260551
 51
179.999999999987
  0
LINE
  5
19D44
330
1F
100
AcDbEntity
  8
003
100
AcDbLine
 10
304.2152399062675
 20
245.5827050314339
 30
0.0
 11
301.2152399062675
 21
245.5827050314339
 31
0.0
  0
LINE
  5
19D45
330
1F
100
AcDbEntity
  8
003
100
AcDbLine
 10
304.2152399062675
 20
246.7827050314341
 30
0.0
 11
301.2152399062675
 21
246.7827050314341
 31
0.0
  0
LINE
  5
19D46
330
1F
100
AcDbEntity
  8
003
100
AcDbLine
 10
301.2152399062675
 20
247.2827050314337
 30
0.0
 11
301.2152399062675
 21
248.482705031434
 31
0.0
  0
LINE
  5
19D47
330
1F
100
AcDbEntity
  8
003
100
AcDbLine
 10
301.2152399062675
 20
246.7827050314341
 30
0.0
 11
301.2152399062675
 21
248.482705031434
 31
0.0
  0
LINE
  5
19D48
330
1F
100
AcDbEntity
  8
003
100
AcDbLine
 10
306.1137997159662
 20
250.3735429603363
 30
0.0
 11
305.0765700881361
 21
250.9770220165284
 31
0.0
  0
ARC
  5
19D49
330
1F
100
AcDbEntity
  8
003
100
AcDbCircle
 10
303.5152399062667
 20
251.8727050314343
 30
0.0
 40
3.0
100
AcDbArc
 50
313.1136059459143
 51
330.0184772568382
  0
LINE
  5
19D4A
330
1F
100
AcDbEntity
  8
003
100
AcDbLine
 10
304.2152399062675
 20
245.5827050314339
 30
0.0
 11
304.2152399062675
 21
247.2827050314337
 31
0.0
  0
LINE
  5
19D4B
330
1F
100
AcDbEntity
  8
006
100
AcDbLine
 10
307.5152399062667
 20
251.8727050314339
 30
0.0
 11
299.5152399062667
 21
251.8727050314339
 31
0.0
  0
LINE
  5
19D4C
330
1F
100
AcDbEntity
  8
003
100
AcDbLine
 10
307.7152399062675
 20
247.2827050314337
 30
0.0
 11
301.2152399062675
 21
247.2827050314337
 31
0.0
  0
LINE
  5
19D4D
330
1F
100
AcDbEntity
  8
003
100
AcDbLine
 10
307.7152399062675
 20
248.482705031434
 30
0.0
 11
301.2152399062675
 21
248.482705031434
 31
0.0
  0
ARC
  5
19D4E
330
1F
100
AcDbEntity
  8
003
100
AcDbCircle
 10
303.5152399062667
 20
251.8727050314343
 30
0.0
 40
1.8
100
AcDbArc
 50
29.98163936884621
 51
330.1585454638472
  0
LINE
  5
19D4F
330
1F
100
AcDbEntity
  8
003
100
AcDbLine
 10
306.1137966644133
 20
253.3718723919029
 30
0.0
 11
305.0743739611557
 21
252.7722054477159
 31
0.0
  0
LINE
  5
19D50
330
1F
100
AcDbEntity
  8
006
100
AcDbLine
 10
303.5152399062667
 20
247.8727050314339
 30
0.0
 11
303.5152399062667
 21
255.8727050314338
 31
0.0
  0
LINE
  5
19D51
330
1F
100
AcDbEntity
  8
003
100
AcDbLine
 10
313.0152399062668
 20
248.482705031434
 30
0.0
 11
313.0152399062668
 21
249.6827050314338
 31
0.0
  0
LINE
  5
19D52
330
1F
100
AcDbEntity
  8
KI
  6
Continuous
 62
     7
100
AcDbLine
 10
338.2148899062672
 20
215.8324450314341
 30
0.0
 11
329.014869906267
 21
215.8324450314341
 31
0.0
  0
LINE
  5
19D53
330
1F
100
AcDbEntity
  8
KI
  6
Continuous
 62
     7
100
AcDbLine
 10
327.014869906267
 20
215.2823950314338
 30
0.0
 11
327.014869906267
 21
215.0823850314338
 31
0.0
  0
ARC
  5
19D54
330
1F
100
AcDbEntity
  8
KI
  6
Continuous
 62
     7
100
AcDbCircle
 10
325.9946699062671
 20
215.0823850314338
 30
0.0
 40
1.799999199999999
100
AcDbArc
 50
213.7491500000057
 51
270.000020000002
  0
LINE
  5
19D55
330
1F
100
AcDbEntity
  8
KI
  6
Continuous
 62
     7
100
AcDbLine
 10
325.9946699062671
 20
213.2823950314338
 30
0.0
 11
326.014869906267
 21
213.2823950314338
 31
0.0
  0
LINE
  5
19D56
330
1F
100
AcDbEntity
  8
KI
  6
Continuous
 62
     7
100
AcDbLine
 10
324.014869906267
 20
216.2823950314338
 30
0.0
 11
326.014869906267
 21
216.2823950314338
 31
0.0
  0
LINE
  5
19D57
330
1F
100
AcDbEntity
  8
KI
  6
Continuous
 62
     7
100
AcDbLine
 10
324.014869906267
 20
214.8823750314337
 30
0.0
 11
325.014869906267
 21
214.8823750314337
 31
0.0
  0
LINE
  5
19D58
330
1F
100
AcDbEntity
  8
KI
  6
Continuous
 62
     7
100
AcDbLine
 10
326.014869906267
 20
216.1823950314339
 30
0.0
 11
324.014869906267
 21
216.1823950314339
 31
0.0
  0
LINE
  5
19D59
330
1F
100
AcDbEntity
  8
KI
  6
Continuous
 62
     7
100
AcDbLine
 10
325.0350799062676
 20
214.982415031434
 30
0.0
 11
323.9147799062671
 21
214.982415031434
 31
0.0
  0
LINE
  5
19D5A
330
1F
100
AcDbEntity
  8
KI
  6
Continuous
 62
     7
100
AcDbLine
 10
323.4147799062671
 20
215.482415031434
 30
0.0
 11
323.4147799062671
 21
217.3284550314339
 31
0.0
  0
LINE
  5
19D5B
330
1F
100
AcDbEntity
  8
KI
  6
Continuous
 62
     7
100
AcDbLine
 10
324.014869906267
 20
217.2823950314338
 30
0.0
 11
324.014869906267
 21
216.2823950314338
 31
0.0
  0
LINE
  5
19D5C
330
1F
100
AcDbEntity
  8
KI
  6
Continuous
 62
     7
100
AcDbLine
 10
324.0145199062667
 20
217.782385031434
 30
0.0
 11
324.0145299062674
 21
216.182375031434
 31
0.0
  0
ARC
  5
19D5D
330
1F
100
AcDbEntity
  8
KI
  6
Continuous
 62
     7
100
AcDbCircle
 10
324.514869906267
 20
217.2823950314338
 30
0.0
 40
0.5
100
AcDbArc
 50
89.99998399997755
 51
179.9999640278154
  0
ARC
  5
19D5E
330
1F
100
AcDbEntity
  8
KI
  6
Continuous
 62
     7
100
AcDbCircle
 10
323.9147799062671
 20
215.482415031434
 30
0.0
 40
0.49999994
100
AcDbArc
 50
179.9996901370707
 51
269.999979999998
  0
LINE
  5
19D5F
330
1F
100
AcDbEntity
  8
KI
  6
Continuous
 62
     7
100
AcDbLine
 10
324.014869906267
 20
214.0823850314338
 30
0.0
 11
324.4980299062668
 21
214.0823850314338
 31
0.0
  0
LINE
  5
19D60
330
1F
100
AcDbEntity
  8
KI
  6
Continuous
 62
     7
100
AcDbLine
 10
324.014869906267
 20
214.8824050314339
 30
0.0
 11
324.014869906267
 21
214.0823850314338
 31
0.0
  0
LINE
  5
19D61
330
1F
100
AcDbEntity
  8
KI
  6
Continuous
 62
     7
100
AcDbLine
 10
325.9946699062671
 20
214.0823850314338
 30
0.0
 11
326.014869906267
 21
214.0823850314338
 31
0.0
  0
ARC
  5
19D62
330
1F
100
AcDbEntity
  8
KI
  6
Continuous
 62
     7
100
AcDbCircle
 10
325.9946699062671
 20
215.0823850314338
 30
0.0
 40
1.0
100
AcDbArc
 50
191.5369900000043
 51
270.000020000002
  0
ARC
  5
19D63
330
1F
100
AcDbEntity
  8
KI
  6
Continuous
 62
     7
100
AcDbCircle
 10
326.014869906267
 20
215.2823950314338
 30
0.0
 40
1.0
100
AcDbArc
 50
0.0000400000040257
 51
89.99998399997755
  0
ARC
  5
19D64
330
1F
100
AcDbEntity
  8
KI
  6
Continuous
 62
     7
100
AcDbCircle
 10
326.014869906267
 20
215.0823850314338
 30
0.0
 40
1.0
100
AcDbArc
 50
270.000020000002
 51
0.0000100000010064
  0
LINE
  5
19D65
330
1F
100
AcDbEntity
  8
KI
  6
Continuous
 62
     7
100
AcDbLine
 10
339.014869906267
 20
215.8324750314338
 30
0.0
 11
339.014869906267
 21
210.6823950314339
 31
0.0
  0
LINE
  5
19D66
330
1F
100
AcDbEntity
  8
KI
  6
Continuous
 62
     7
100
AcDbLine
 10
338.2148899062672
 20
215.8324450314341
 30
0.0
 11
338.2148899062672
 21
210.6823950314339
 31
0.0
  0
ARC
  5
19D67
330
1F
100
AcDbEntity
  8
KI
  6
Continuous
 62
     7
100
AcDbCircle
 10
338.614849906267
 20
210.6823950314339
 30
0.0
 40
0.4000000100000001
100
AcDbArc
 50
179.999991348572
 51
0.0000100000010064
  0
LINE
  5
19D68
330
1F
100
AcDbEntity
  8
003
100
AcDbLine
 10
325.8152399062669
 20
263.7827050314342
 30
0.0
 11
324.1152399062671
 21
263.7827050314342
 31
0.0
  0
LINE
  5
19D69
330
1F
100
AcDbEntity
  8
003
100
AcDbLine
 10
321.5891038778413
 20
286.0827050314339
 30
0.0
 11
310.0152399062667
 21
286.0827050314339
 31
0.0
  0
LINE
  5
19D6A
330
1F
100
AcDbEntity
  8
003
100
AcDbLine
 10
330.0152399062667
 20
287.2827050314342
 30
0.0
 11
310.0152399062667
 21
287.2827050314342
 31
0.0
  0
LINE
  5
19D6B
330
1F
100
AcDbEntity
  8
003
100
AcDbLine
 10
324.1152399062671
 20
272.2827050314342
 30
0.0
 11
319.1152399062671
 21
272.2827050314342
 31
0.0
  0
ARC
  5
19D6C
330
1F
100
AcDbEntity
  8
003
100
AcDbCircle
 10
310.0152399062667
 20
277.2827050314341
 30
0.0
 40
10.0
100
AcDbArc
 50
90.0
 51
180.0
  0
ARC
  5
19D6D
330
1F
100
AcDbEntity
  8
003
100
AcDbCircle
 10
310.0152399062667
 20
277.2827050314341
 30
0.0
 40
8.8
100
AcDbArc
 50
90.0
 51
180.0
  0
LINE
  5
19D6E
330
1F
100
AcDbEntity
  8
003
100
AcDbLine
 10
330.0152399062667
 20
286.0827050314339
 30
0.0
 11
330.0152399062667
 21
287.2827050314342
 31
0.0
  0
LINE
  5
19D6F
330
1F
100
AcDbEntity
  8
003
100
AcDbLine
 10
327.0152399062667
 20
272.2827050314342
 30
0.0
 11
327.0152399062667
 21
286.0827050314339
 31
0.0
  0
ARC
  5
19D70
330
1F
100
AcDbEntity
  8
003
100
AcDbCircle
 10
323.5152399062668
 20
283.7827050314341
 30
0.0
 40
1.8
100
AcDbArc
 50
254.8414545361882
 51
195.0183606311526
  0
LINE
  5
19D71
330
1F
100
AcDbEntity
  8
003
100
AcDbLine
 10
320.6177113945628
 20
283.005319333172
 30
0.0
 11
321.7767227992431
 21
283.3162736124765
 31
0.0
  0
ARC
  5
19D72
330
1F
100
AcDbEntity
  8
003
100
AcDbCircle
 10
323.5152399062668
 20
283.7827050314341
 30
0.0
 40
3.0
100
AcDbArc
 50
129.9445051898157
 51
195.0183606311526
  0
LINE
  5
19D73
330
1F
100
AcDbEntity
  8
003
100
AcDbLine
 10
323.3152399062669
 20
278.482705031434
 30
0.0
 11
323.3152399062669
 21
280.789379122015
 31
0.0
  0
LINE
  5
19D74
330
1F
100
AcDbEntity
  8
003
100
AcDbLine
 10
325.8152399062669
 20
272.2827050314337
 30
0.0
 11
325.8152399062669
 21
277.2827050314337
 31
0.0
  0
LINE
  5
19D75
330
1F
100
AcDbEntity
  8
003
100
AcDbLine
 10
324.6152399062671
 20
271.0827050314339
 30
0.0
 11
324.6152399062671
 21
277.2827050314337
 31
0.0
  0
LINE
  5
19D76
330
1F
100
AcDbEntity
  8
003
100
AcDbLine
 10
325.8152399062669
 20
272.2827050314342
 30
0.0
 11
325.8152399062669
 21
277.2827050314341
 31
0.0
  0
LINE
  5
19D77
330
1F
100
AcDbEntity
  8
003
100
AcDbLine
 10
325.8152399062669
 20
271.0827050314339
 30
0.0
 11
324.6152399062671
 21
271.0827050314339
 31
0.0
  0
LINE
  5
19D78
330
1F
100
AcDbEntity
  8
003
100
AcDbLine
 10
325.8152399062669
 20
277.2827050314337
 30
0.0
 11
324.6152399062671
 21
277.2827050314337
 31
0.0
  0
LINE
  5
19D79
330
1F
100
AcDbEntity
  8
003
100
AcDbLine
 10
325.8152399062669
 20
277.2827050314341
 30
0.0
 11
324.1152399062671
 21
277.2827050314341
 31
0.0
  0
LINE
  5
19D7A
330
1F
100
AcDbEntity
  8
003
100
AcDbLine
 10
324.1152399062671
 20
274.2827050314342
 30
0.0
 11
322.9152399062673
 21
274.2827050314342
 31
0.0
  0
LINE
  5
19D7B
330
1F
100
AcDbEntity
  8
003
100
AcDbLine
 10
324.1152399062671
 20
274.2827050314342
 30
0.0
 11
324.1152399062671
 21
277.2827050314341
 31
0.0
  0
LINE
  5
19D7C
330
1F
100
AcDbEntity
  8
003
100
AcDbLine
 10
325.8152399062669
 20
270.7827050314342
 30
0.0
 11
324.1152399062671
 21
270.7827050314342
 31
0.0
  0
LINE
  5
19D7D
330
1F
100
AcDbEntity
  8
003
100
AcDbLine
 10
323.3152399062669
 20
278.482705031434
 30
0.0
 11
322.9152399062673
 21
278.482705031434
 31
0.0
  0
LINE
  5
19D7E
330
1F
100
AcDbEntity
  8
003
100
AcDbLine
 10
322.9152399062673
 20
274.2827050314342
 30
0.0
 11
322.9152399062673
 21
278.482705031434
 31
0.0
  0
ARC
  5
19D7F
330
1F
100
AcDbEntity
  8
003
100
AcDbCircle
 10
323.5152399062668
 20
283.7827050314341
 30
0.0
 40
3.0
100
AcDbArc
 50
254.9815227431649
 51
266.1774462707292
  0
LINE
  5
19D80
330
1F
100
AcDbEntity
  8
006
100
AcDbLine
 10
326.3436670310134
 20
280.9542779066879
 30
0.0
 11
320.686812781521
 21
286.6111321561803
 31
0.0
  0
LINE
  5
19D81
330
1F
100
AcDbEntity
  8
006
100
AcDbLine
 10
320.686812781521
 20
280.9542779066879
 30
0.0
 11
326.3436670310134
 21
286.6111321561799
 31
0.0
  0
LINE
  5
19D82
330
1F
100
AcDbEntity
  8
003
100
AcDbLine
 10
322.7378483100806
 20
280.8851781021063
 30
0.0
 11
323.0445562806294
 21
282.0453343385299
 31
0.0
  0
LINE
  5
19D83
330
1F
100
AcDbEntity
  8
003
100
AcDbLine
 10
327.0152399062667
 20
272.2827050314337
 30
0.0
 11
325.8152399062669
 21
272.2827050314337
 31
0.0
  0
LINE
  5
19D84
330
1F
100
AcDbEntity
  8
003
100
AcDbLine
 10
327.0152399062667
 20
272.2827050314342
 30
0.0
 11
325.8152399062669
 21
272.2827050314342
 31
0.0
  0
LINE
  5
19D85
330
1F
100
AcDbEntity
  8
003
100
AcDbLine
 10
330.0152399062667
 20
286.0827050314339
 30
0.0
 11
327.0152399062667
 21
286.0827050314339
 31
0.0
  0
LINE
  5
19D86
330
1F
100
AcDbEntity
  8
KI
  6
Continuous
 62
     7
100
AcDbLine
 10
349.014869906267
 20
217.482415031434
 30
0.0
 11
349.014869906267
 21
211.7824650314338
 31
0.0
  0
LINE
  5
19D87
330
1F
100
AcDbEntity
  8
KI
  6
Continuous
 62
     7
100
AcDbLine
 10
348.014869906267
 20
216.5823850314338
 30
0.0
 11
348.014869906267
 21
212.2824650314338
 31
0.0
  0
LINE
  5
19D88
330
1F
100
AcDbEntity
  8
KI
  6
Continuous
 62
     7
100
AcDbLine
 10
349.9846599062671
 20
205.7824850314338
 30
0.0
 11
349.0148599062672
 21
211.2824750314341
 31
0.0
  0
ARC
  5
19D89
330
1F
100
AcDbEntity
  8
KI
  6
Continuous
 62
     7
100
AcDbCircle
 10
348.514869906267
 20
211.7824650314338
 30
0.0
 40
0.5
100
AcDbArc
 50
270.000030000003
 51
0.0000400000040257
  0
LINE
  5
19D8A
330
1F
100
AcDbEntity
  8
KI
  6
Continuous
 62
     7
100
AcDbLine
 10
348.514869906267
 20
211.2824650314339
 30
0.0
 11
343.4148999062668
 21
211.2824650314339
 31
0.0
  0
LINE
  5
19D8B
330
1F
100
AcDbEntity
  8
KI
  6
Continuous
 62
     7
100
AcDbLine
 10
348.0148999062671
 20
212.2824650314338
 30
0.0
 11
343.3975499062667
 21
212.0820950314338
 31
0.0
  0
LINE
  5
19D8C
330
1F
100
AcDbEntity
  8
KI
  6
Continuous
 62
     7
100
AcDbLine
 10
345.3137899062672
 20
216.582375031434
 30
0.0
 11
344.0148899062674
 21
215.8324550314338
 31
0.0
  0
ARC
  5
19D8D
330
1F
100
AcDbEntity
  8
KI
  6
Continuous
 62
     7
100
AcDbCircle
 10
348.7148899062672
 20
217.482415031434
 30
0.0
 40
0.30000001
100
AcDbArc
 50
359.999989999999
 51
89.99998399997755
  0
LINE
  5
19D8E
330
1F
100
AcDbEntity
  8
KI
  6
Continuous
 62
     7
100
AcDbLine
 10
345.313759906267
 20
216.5823850314338
 30
0.0
 11
348.014869906267
 21
216.5823850314338
 31
0.0
  0
LINE
  5
19D8F
330
1F
100
AcDbEntity
  8
003
100
AcDbLine
 10
427.5152399062669
 20
245.5827050314339
 30
0.0
 11
345.4152399062673
 21
245.5827050314339
 31
0.0
  0
LINE
  5
19D90
330
1F
100
AcDbEntity
  8
003
100
AcDbLine
 10
427.5152399062669
 20
246.7827050314269
 30
0.0
 11
345.4152399062673
 21
246.7827050314341
 31
0.0
  0
LINE
  5
19D91
330
1F
100
AcDbEntity
  8
003
100
AcDbLine
 10
345.4152399062673
 20
242.2827050314337
 30
0.0
 11
345.4152399062673
 21
247.2827050314337
 31
0.0
  0
LINE
  5
19D92
330
1F
100
AcDbEntity
  8
003
100
AcDbLine
 10
344.2152399062675
 20
242.2827050314337
 30
0.0
 11
344.2152399062675
 21
247.2827050314337
 31
0.0
  0
LINE
  5
19D93
330
1F
100
AcDbEntity
  8
003
100
AcDbLine
 10
345.4152399062673
 20
242.2827050314337
 30
0.0
 11
344.2152399062675
 21
242.2827050314337
 31
0.0
  0
LINE
  5
19D94
330
1F
100
AcDbEntity
  8
003
100
AcDbLine
 10
353.2152399062675
 20
247.2827050314337
 30
0.0
 11
345.4152399062673
 21
247.2827050314337
 31
0.0
  0
DIMENSION
  5
19D95
330
1F
100
AcDbEntity
  8
003
100
AcDbDimension
  2
*D21
 10
577.1920626975799
 20
157.7827050314341
 30
0.0
 11
572.19206269758
 21
192.782705031434
 31
0.0
 70
    32
 71
     5
 42
69.99999999999954
  3
DIM
100
AcDbAlignedDimension
 13
571.9582168559184
 23
227.7827050314337
 33
0.0
 14
574.4330710027973
 24
157.7827050314341
 34
0.0
 50
90.0
100
AcDbRotatedDimension
1001
ACAD
1000
DSTYLE
1002
{
1070
   279
1070
     1
1002
}
  0
LINE
  5
19D96
330
1F
100
AcDbEntity
  8
KI
  6
Continuous
 62
     7
100
AcDbLine
 10
567.6652599062665
 20
218.0327050314337
 30
0.0
 11
567.6652599062665
 21
200.0327050314337
 31
0.0
  0
LINE
  5
19D97
330
1F
100
AcDbEntity
  8
KI
  6
Continuous
 62
     7
100
AcDbLine
 10
566.0152399062665
 20
221.1326850314336
 30
0.0
 11
566.0152399062665
 21
189.7827050314337
 31
0.0
  0
LINE
  5
19D98
330
1F
100
AcDbEntity
  8
KI
  6
Continuous
 62
     7
100
AcDbLine
 10
536.0156099062661
 20
215.8324450314341
 30
0.0
 11
536.0156099062661
 21
179.1826350314342
 31
0.0
  0
LINE
  5
19D99
330
1F
100
AcDbEntity
  8
KI
  6
Continuous
 62
     7
100
AcDbLine
 10
539.0156099062661
 20
213.2823950314338
 30
0.0
 11
539.0156099062661
 21
198.2826450314338
 31
0.0
  0
LINE
  5
19D9A
330
1F
100
AcDbEntity
  8
KI
  6
Continuous
 62
     7
100
AcDbLine
 10
523.0156099062661
 20
205.7823350314339
 30
0.0
 11
523.0156099062661
 21
200.7823350314339
 31
0.0
  0
LINE
  5
19D9B
330
1F
100
AcDbEntity
  8
KI
  6
Continuous
 62
     7
100
AcDbLine
 10
580.3152299062669
 20
158.9827150314341
 30
0.0
 11
567.1652599062666
 21
158.9827150314341
 31
0.0
  0
LINE
  5
19D9C
330
1F
100
AcDbEntity
  8
KI
  6
Continuous
 62
     7
100
AcDbLine
 10
589.8152299062669
 20
157.7827050314341
 30
0.0
 11
566.5152399062665
 21
157.7827050314341
 31
0.0
  0
LINE
  5
19D9D
330
1F
100
AcDbEntity
  8
KI
  6
Continuous
 62
     7
100
AcDbLine
 10
522.0155499062667
 20
194.2823350314339
 30
0.0
 11
526.0155499062667
 21
194.2823350314339
 31
0.0
  0
LINE
  5
19D9E
330
1F
100
AcDbEntity
  8
KI
  6
Continuous
 62
     7
100
AcDbLine
 10
522.0155499062667
 20
193.482325031434
 30
0.0
 11
526.0155499062667
 21
193.482325031434
 31
0.0
  0
LINE
  5
19D9F
330
1F
100
AcDbEntity
  8
KI
  6
Continuous
 62
     7
100
AcDbLine
 10
530.0156099062661
 20
179.119475031434
 30
0.0
 11
517.0155299062663
 21
178.9826350314339
 31
0.0
  0
LINE
  5
19DA0
330
1F
100
AcDbEntity
  8
KI
  6
Continuous
 62
     7
100
AcDbLine
 10
560.0154799062668
 20
177.7826450314338
 30
0.0
 11
516.8155299062665
 21
177.7826450314338
 31
0.0
  0
LINE
  5
19DA1
330
1F
100
AcDbEntity
  8
KI
  6
Continuous
 62
     7
100
AcDbLine
 10
522.0155499062667
 20
194.7823350314339
 30
0.0
 11
522.0155499062667
 21
194.2823350314339
 31
0.0
  0
LINE
  5
19DA2
330
1F
100
AcDbEntity
  8
KI
  6
Continuous
 62
     7
100
AcDbLine
 10
521.2155599062663
 20
194.482325031434
 30
0.0
 11
521.2155599062663
 21
194.2823350314339
 31
0.0
  0
ARC
  5
19DA3
330
1F
100
AcDbEntity
  8
KI
  6
Continuous
 62
     7
100
AcDbCircle
 10
521.5155499062667
 20
194.7823350314339
 30
0.0
 40
0.5
100
AcDbArc
 50
0.0000359721715611
 51
90.0000159999964
  0
ARC
  5
19DA4
330
1F
100
AcDbEntity
  8
KI
  6
Continuous
 62
     7
100
AcDbCircle
 10
522.0155499062667
 20
194.2823350314339
 30
0.0
 40
0.8000000099999999
100
AcDbArc
 50
179.999989999999
 51
270.0
  0
LINE
  5
19DA5
330
1F
100
AcDbEntity
  8
KI
  6
Continuous
 62
     7
100
AcDbLine
 10
516.0155499062667
 20
194.7823650314341
 30
0.0
 11
516.0155499062667
 21
178.5826350314338
 31
0.0
  0
LINE
  5
19DA6
330
1F
100
AcDbEntity
  8
KI
  6
Continuous
 62
     7
100
AcDbLine
 10
517.0155499062667
 20
194.482325031434
 30
0.0
 11
517.0155499062667
 21
178.9826250314341
 31
0.0
  0
ARC
  5
19DA7
330
1F
100
AcDbEntity
  8
KI
  6
Continuous
 62
     7
100
AcDbCircle
 10
516.8155299062665
 20
178.5826350314338
 30
0.0
 40
0.8000000099999999
100
AcDbArc
 50
179.999989999999
 51
269.999979999998
  0
LINE
  5
19DA8
330
1F
100
AcDbEntity
  8
KI
  6
Continuous
 62
     7
100
AcDbLine
 10
515.0458699062665
 20
200.7824650314339
 30
0.0
 11
516.0156699062664
 21
195.2824650314338
 31
0.0
  0
ARC
  5
19DA9
330
1F
100
AcDbEntity
  8
KI
  6
Continuous
 62
     7
100
AcDbCircle
 10
516.5155499062668
 20
194.7823650314341
 30
0.0
 40
0.5
100
AcDbArc
 50
89.99826800001825
 51
179.999959999996
  0
LINE
  5
19DAA
330
1F
100
AcDbEntity
  8
KI
  6
Continuous
 62
     7
100
AcDbLine
 10
516.5156099062661
 20
195.2823350314339
 30
0.0
 11
521.5155499062667
 21
195.2823350314339
 31
0.0
  0
LINE
  5
19DAB
330
1F
100
AcDbEntity
  8
KI
  6
Continuous
 62
     7
100
AcDbLine
 10
517.0155499062667
 20
194.482325031434
 30
0.0
 11
521.2155599062663
 21
194.482325031434
 31
0.0
  0
LINE
  5
19DAC
330
1F
100
AcDbEntity
  8
KI
  6
Continuous
 62
     7
100
AcDbLine
 10
539.1210699062668
 20
182.782585031434
 30
0.0
 11
551.3342099062667
 21
182.782585031434
 31
0.0
  0
LINE
  5
19DAD
330
1F
100
AcDbEntity
  8
KI
  6
Continuous
 62
     7
100
AcDbLine
 10
539.0156099062661
 20
187.782585031434
 30
0.0
 11
551.0154799062667
 21
187.782585031434
 31
0.0
  0
LINE
  5
19DAE
330
1F
100
AcDbEntity
  8
KI
  6
Continuous
 62
     7
100
AcDbLine
 10
560.0154799062668
 20
179.7826450314338
 30
0.0
 11
539.0156099062661
 21
179.7826450314338
 31
0.0
  0
ARC
  5
19DAF
330
1F
100
AcDbEntity
  8
KI
  6
Continuous
 62
     7
100
AcDbCircle
 10
530.3655799062664
 20
179.382615031434
 30
0.0
 40
0.34999999
100
AcDbArc
 50
359.999989999999
 51
180.000010000001
  0
LINE
  5
19DB0
330
1F
100
AcDbEntity
  8
KI
  6
Continuous
 62
     7
100
AcDbLine
 10
526.8155299062665
 20
195.8823150314339
 30
0.0
 11
526.8155299062665
 21
194.2823350314339
 31
0.0
  0
LINE
  5
19DB1
330
1F
100
AcDbEntity
  8
KI
  6
Continuous
 62
     7
100
AcDbLine
 10
530.0156099062661
 20
179.382615031434
 30
0.0
 11
530.0156099062661
 21
179.1194650314338
 31
0.0
  0
LINE
  5
19DB2
330
1F
100
AcDbEntity
  8
KI
  6
Continuous
 62
     7
100
AcDbLine
 10
526.0155499062667
 20
195.8823150314339
 30
0.0
 11
526.0155499062667
 21
194.2823350314339
 31
0.0
  0
ARC
  5
19DB3
330
1F
100
AcDbEntity
  8
KI
  6
Continuous
 62
     7
100
AcDbCircle
 10
526.4155699062667
 20
195.8823150314339
 30
0.0
 40
0.4000000100000001
100
AcDbArc
 50
359.999989999999
 51
180.000010000001
  0
ARC
  5
19DB4
330
1F
100
AcDbEntity
  8
KI
  6
Continuous
 62
     7
100
AcDbCircle
 10
526.0155499062667
 20
194.2823350314339
 30
0.0
 40
0.8000000099999999
100
AcDbArc
 50
270.0
 51
0.0000086514148811
  0
LINE
  5
19DB5
330
1F
100
AcDbEntity
  8
KI
  6
Continuous
 62
     7
100
AcDbLine
 10
536.0156099062661
 20
177.7826450314338
 30
0.0
 11
536.0156099062661
 21
170.8326350314338
 31
0.0
  0
LINE
  5
19DB6
330
1F
100
AcDbEntity
  8
KI
  6
Continuous
 62
     7
100
AcDbLine
 10
536.0155799062669
 20
179.1826350314342
 30
0.0
 11
530.7155799062667
 21
179.1268450314338
 31
0.0
  0
LINE
  5
19DB7
330
1F
100
AcDbEntity
  8
KI
  6
Continuous
 62
     7
100
AcDbLine
 10
530.7156199062666
 20
179.382615031434
 30
0.0
 11
530.7156199062666
 21
179.126855031434
 31
0.0
  0
LINE
  5
19DB8
330
1F
100
AcDbEntity
  8
KI
  6
Continuous
 62
     7
100
AcDbLine
 10
539.0156099062661
 20
197.2826450314338
 30
0.0
 11
539.0156099062661
 21
179.7826450314338
 31
0.0
  0
ARC
  5
19DB9
330
1F
100
AcDbEntity
  8
KI
  6
Continuous
 62
     7
100
AcDbCircle
 10
539.0156099062661
 20
197.7826450314338
 30
0.0
 40
0.5
100
AcDbArc
 50
90.0000159999964
 51
269.999969999997
  0
LINE
  5
19DBA
330
1F
100
AcDbEntity
  8
KI
  6
Continuous
 62
     7
100
AcDbLine
 10
566.0152399062665
 20
188.1327150314338
 30
0.0
 11
566.0152399062665
 21
158.2827050314341
 31
0.0
  0
LINE
  5
19DBB
330
1F
100
AcDbEntity
  8
KI
  6
Continuous
 62
     7
100
AcDbLine
 10
567.6652599062665
 20
180.0327050314341
 30
0.0
 11
567.6652599062665
 21
167.5327050314341
 31
0.0
  0
LINE
  5
19DBC
330
1F
100
AcDbEntity
  8
KI
  6
Continuous
 62
     7
100
AcDbLine
 10
567.1652599062666
 20
167.0327050314341
 30
0.0
 11
567.1652599062666
 21
158.9827150314341
 31
0.0
  0
ARC
  5
19DBD
330
1F
100
AcDbEntity
  8
KI
  6
Continuous
 62
     7
100
AcDbCircle
 10
566.5152399062665
 20
158.2827050314341
 30
0.0
 40
0.5
100
AcDbArc
 50
179.999989999999
 51
269.999979999998
  0
ARC
  5
19DBE
330
1F
100
AcDbEntity
  8
KI
  6
Continuous
 62
     7
100
AcDbCircle
 10
567.6652599062665
 20
167.0327050314341
 30
0.0
 40
0.5
100
AcDbArc
 50
90.0000159999964
 51
180.000010000001
  0
LINE
  5
19DBF
330
1F
100
AcDbEntity
  8
KI
  6
Continuous
 62
     7
100
AcDbLine
 10
561.0154799062668
 20
179.782585031434
 30
0.0
 11
557.6668499062662
 21
179.782585031434
 31
0.0
  0
LINE
  5
19DC0
330
1F
100
AcDbEntity
  8
KI
  6
Continuous
 62
     7
100
AcDbLine
 10
558.5152399062665
 20
182.7827050314341
 30
0.0
 11
560.2152499062669
 21
182.7827050314341
 31
0.0
  0
LINE
  5
19DC1
330
1F
100
AcDbEntity
  8
KI
  6
Continuous
 62
     7
100
AcDbLine
 10
558.8152299062669
 20
183.5826950314341
 30
0.0
 11
560.2152499062669
 21
183.5826950314341
 31
0.0
  0
ARC
  5
19DC2
330
1F
100
AcDbEntity
  8
KI
  6
Continuous
 62
     7
100
AcDbCircle
 10
560.0154799062668
 20
178.7826450314338
 30
0.0
 40
1.0
100
AcDbArc
 50
270.0
 51
90.0000159999964
  0
LINE
  5
19DC3
330
1F
100
AcDbEntity
  8
KI
  6
Continuous
 62
     7
100
AcDbLine
 10
551.8152899062662
 20
188.1327150314338
 30
0.0
 11
560.2152499062669
 21
188.1327150314338
 31
0.0
  0
LINE
  5
19DC4
330
1F
100
AcDbEntity
  8
KI
  6
Continuous
 62
     7
100
AcDbLine
 10
551.5152399062664
 20
189.7827050314337
 30
0.0
 11
566.0152399062665
 21
189.7827050314337
 31
0.0
  0
LINE
  5
19DC5
330
1F
100
AcDbEntity
  8
KI
  6
Continuous
 62
     7
100
AcDbLine
 10
558.0152399062663
 20
183.7827050314341
 30
0.0
 11
558.8152299062669
 21
183.7827050314341
 31
0.0
  0
LINE
  5
19DC6
330
1F
100
AcDbEntity
  8
KI
  6
Continuous
 62
     7
100
AcDbLine
 10
558.5154799062668
 20
182.782585031434
 30
0.0
 11
557.5154799062667
 21
182.782585031434
 31
0.0
  0
ARC
  5
19DC7
330
1F
100
AcDbEntity
  8
KI
  6
Continuous
 62
     7
100
AcDbCircle
 10
558.5152399062665
 20
183.2827050314341
 30
0.0
 40
0.5
100
AcDbArc
 50
179.999989999999
 51
270.0
  0
LINE
  5
19DC8
330
1F
100
AcDbEntity
  8
KI
  6
Continuous
 62
     7
100
AcDbLine
 10
558.0152399062663
 20
183.2827050314341
 30
0.0
 11
558.0152399062663
 21
183.7827050314341
 31
0.0
  0
ARC
  5
19DC9
330
1F
100
AcDbEntity
  8
KI
  6
Continuous
 62
     7
100
AcDbCircle
 10
557.6668499062662
 20
180.282585031434
 30
0.0
 40
0.5
100
AcDbArc
 50
236.3099199999989
 51
269.9999599999959
  0
LINE
  5
19DCA
330
1F
100
AcDbEntity
  8
KI
  6
Continuous
 62
     7
100
AcDbLine
 10
554.0152399062663
 20
183.2827050314341
 30
0.0
 11
554.0152399062663
 21
183.7827050314341
 31
0.0
  0
LINE
  5
19DCB
330
1F
100
AcDbEntity
  8
KI
  6
Continuous
 62
     7
100
AcDbLine
 10
555.7658899062663
 20
180.6161750314342
 30
0.0
 11
554.6414699062662
 21
179.8665650314339
 31
0.0
  0
ARC
  5
19DCC
330
1F
100
AcDbEntity
  8
KI
  6
Continuous
 62
     7
100
AcDbCircle
 10
554.3641199062668
 20
180.282585031434
 30
0.0
 40
0.5
100
AcDbArc
 50
269.9999599999959
 51
303.6900099999735
  0
ARC
  5
19DCD
330
1F
100
AcDbEntity
  8
KI
  6
Continuous
 62
     7
100
AcDbCircle
 10
556.0154799062667
 20
180.782585031434
 30
0.0
 40
0.29999995
100
AcDbArc
 50
179.9999799999979
 51
213.6899099999884
  0
ARC
  5
19DCE
330
1F
100
AcDbEntity
  8
KI
  6
Continuous
 62
     7
100
AcDbCircle
 10
556.0154799062667
 20
180.782585031434
 30
0.0
 40
0.29999995
100
AcDbArc
 50
326.3100799999825
 51
179.9999799999979
  0
LINE
  5
19DCF
330
1F
100
AcDbEntity
  8
KI
  6
Continuous
 62
     7
100
AcDbLine
 10
556.2650799062668
 20
180.616165031434
 30
0.0
 11
557.3895199062664
 21
179.8665350314342
 31
0.0
  0
LINE
  5
19DD0
330
1F
100
AcDbEntity
  8
KI
  6
Continuous
 62
     7
100
AcDbLine
 10
558.8152299062669
 20
183.5826950314341
 30
0.0
 11
558.8152299062669
 21
183.7827050314341
 31
0.0
  0
LINE
  5
19DD1
330
1F
100
AcDbEntity
  8
KI
  6
Continuous
 62
     7
100
AcDbLine
 10
551.8151699062665
 20
183.5826950314341
 30
0.0
 11
551.8151699062665
 21
188.1327150314338
 31
0.0
  0
LINE
  5
19DD2
330
1F
100
AcDbEntity
  8
KI
  6
Continuous
 62
     7
100
AcDbLine
 10
551.8152299062668
 20
183.5826950314341
 30
0.0
 11
553.2152499062668
 21
183.5826950314341
 31
0.0
  0
LINE
  5
19DD3
330
1F
100
AcDbEntity
  8
KI
  6
Continuous
 62
     7
100
AcDbLine
 10
553.2152499062668
 20
183.5826950314341
 30
0.0
 11
553.2152499062668
 21
183.7827050314341
 31
0.0
  0
LINE
  5
19DD4
330
1F
100
AcDbEntity
  8
KI
  6
Continuous
 62
     7
100
AcDbLine
 10
553.2152499062668
 20
183.7827050314341
 30
0.0
 11
554.0152399062663
 21
183.7827050314341
 31
0.0
  0
LINE
  5
19DD5
330
1F
100
AcDbEntity
  8
KI
  6
Continuous
 62
     7
100
AcDbLine
 10
554.5154799062666
 20
182.782585031434
 30
0.0
 11
553.5154799062667
 21
182.782585031434
 31
0.0
  0
ARC
  5
19DD6
330
1F
100
AcDbEntity
  8
KI
  6
Continuous
 62
     7
100
AcDbCircle
 10
553.5152399062663
 20
183.2827050314341
 30
0.0
 40
0.5
100
AcDbArc
 50
270.0
 51
0.0000086514148811
  0
LINE
  5
19DD7
330
1F
100
AcDbEntity
  8
KI
  6
Continuous
 62
     7
100
AcDbLine
 10
551.0151799062669
 20
183.2827050314341
 30
0.0
 11
551.0151799062669
 21
189.2827050314337
 31
0.0
  0
LINE
  5
19DD8
330
1F
100
AcDbEntity
  8
KI
  6
Continuous
 62
     7
100
AcDbLine
 10
551.0154799062667
 20
179.782585031434
 30
0.0
 11
551.0154799062667
 21
182.782585031434
 31
0.0
  0
ARC
  5
19DD9
330
1F
100
AcDbEntity
  8
KI
  6
Continuous
 62
     7
100
AcDbCircle
 10
551.5152399062664
 20
183.2827050314341
 30
0.0
 40
0.5
100
AcDbArc
 50
179.9997999999929
 51
269.999969999997
  0
ARC
  5
19DDA
330
1F
100
AcDbEntity
  8
KI
  6
Continuous
 62
     7
100
AcDbCircle
 10
551.5152399062664
 20
189.2827050314337
 30
0.0
 40
0.5
100
AcDbArc
 50
90.0000159999964
 51
179.9997999999929
  0
LINE
  5
19DDB
330
1F
100
AcDbEntity
  8
KI
  6
Continuous
 62
     7
100
AcDbLine
 10
551.5152399062664
 20
182.7827050314341
 30
0.0
 11
553.5152399062663
 21
182.7827050314341
 31
0.0
  0
LINE
  5
19DDC
330
1F
100
AcDbEntity
  8
KI
  6
Continuous
 62
     7
100
AcDbLine
 10
554.3641199062668
 20
179.782585031434
 30
0.0
 11
551.0154799062667
 21
179.782585031434
 31
0.0
  0
LINE
  5
19DDD
330
1F
100
AcDbEntity
  8
KI
  6
Continuous
 62
     7
100
AcDbLine
 10
567.1652599062666
 20
187.0327050314337
 30
0.0
 11
567.1652599062666
 21
180.5327050314341
 31
0.0
  0
LINE
  5
19DDE
330
1F
100
AcDbEntity
  8
KI
  6
Continuous
 62
     7
100
AcDbLine
 10
561.0152399062664
 20
183.5826950314341
 30
0.0
 11
561.0152399062664
 21
188.1327150314338
 31
0.0
  0
LINE
  5
19DDF
330
1F
100
AcDbEntity
  8
KI
  6
Continuous
 62
     7
100
AcDbLine
 10
560.2152499062669
 20
183.5826950314341
 30
0.0
 11
560.2152499062669
 21
188.1327150314338
 31
0.0
  0
LINE
  5
19DE0
330
1F
100
AcDbEntity
  8
KI
  6
Continuous
 62
     7
100
AcDbLine
 10
560.660629906267
 20
182.782585031434
 30
0.0
 11
566.0151799062671
 21
182.782585031434
 31
0.0
  0
LINE
  5
19DE1
330
1F
100
AcDbEntity
  8
KI
  6
Continuous
 62
     7
100
AcDbLine
 10
561.0154799062668
 20
179.782585031434
 30
0.0
 11
561.0154799062668
 21
182.782585031434
 31
0.0
  0
ARC
  5
19DE2
330
1F
100
AcDbEntity
  8
KI
  6
Continuous
 62
     7
100
AcDbCircle
 10
560.2152499062669
 20
183.5826950314341
 30
0.0
 40
0.8000000099999999
100
AcDbArc
 50
270.0
 51
0.0000086514148811
  0
ARC
  5
19DE3
330
1F
100
AcDbEntity
  8
KI
  6
Continuous
 62
     7
100
AcDbCircle
 10
567.6652599062665
 20
180.5327050314341
 30
0.0
 40
0.5
100
AcDbArc
 50
179.999989999999
 51
269.999979999998
  0
LINE
  5
19DE4
330
1F
100
AcDbEntity
  8
KI
  6
Continuous
 62
     7
100
AcDbLine
 10
561.0154199062665
 20
187.782585031434
 30
0.0
 11
566.0151799062671
 21
187.782585031434
 31
0.0
  0
LINE
  5
19DE5
330
1F
100
AcDbEntity
  8
KI
  6
Continuous
 62
     7
100
AcDbLine
 10
561.0152399062664
 20
188.1327150314338
 30
0.0
 11
566.0152399062665
 21
188.1327150314338
 31
0.0
  0
LINE
  5
19DE6
330
1F
100
AcDbEntity
  8
KI
  6
Continuous
 62
     7
100
AcDbLine
 10
567.1652599062666
 20
199.5327050314337
 30
0.0
 11
567.1652599062666
 21
196.5327050314337
 31
0.0
  0
LINE
  5
19DE7
330
1F
100
AcDbEntity
  8
KI
  6
Continuous
 62
     7
100
AcDbLine
 10
567.6652599062665
 20
190.7827050314337
 30
0.0
 11
567.1652599062666
 21
190.7827050314337
 31
0.0
  0
LINE
  5
19DE8
330
1F
100
AcDbEntity
  8
KI
  6
Continuous
 62
     7
100
AcDbLine
 10
567.6652599062665
 20
192.7827050314337
 30
0.0
 11
567.1652599062666
 21
192.7827050314337
 31
0.0
  0
LINE
  5
19DE9
330
1F
100
AcDbEntity
  8
KI
  6
Continuous
 62
     7
100
AcDbLine
 10
567.6652599062665
 20
190.7827050314337
 30
0.0
 11
567.6652599062665
 21
187.5327050314337
 31
0.0
  0
LINE
  5
19DEA
330
1F
100
AcDbEntity
  8
KI
  6
Continuous
 62
     7
100
AcDbLine
 10
567.1652599062666
 20
192.7827050314337
 30
0.0
 11
567.1652599062666
 21
190.7827050314337
 31
0.0
  0
LINE
  5
19DEB
330
1F
100
AcDbEntity
  8
KI
  6
Continuous
 62
     7
100
AcDbLine
 10
567.6652599062665
 20
196.0327050314337
 30
0.0
 11
567.6652599062665
 21
192.7827050314337
 31
0.0
  0
ARC
  5
19DEC
330
1F
100
AcDbEntity
  8
KI
  6
Continuous
 62
     7
100
AcDbCircle
 10
567.6652599062665
 20
196.5327050314337
 30
0.0
 40
0.5
100
AcDbArc
 50
179.999989999999
 51
269.999979999998
  0
ARC
  5
19DED
330
1F
100
AcDbEntity
  8
KI
  6
Continuous
 62
     7
100
AcDbCircle
 10
567.6652599062665
 20
187.0327050314337
 30
0.0
 40
0.5
100
AcDbArc
 50
90.0000159999964
 51
180.000010000001
  0
ARC
  5
19DEE
330
1F
100
AcDbEntity
  8
KI
  6
Continuous
 62
     7
100
AcDbCircle
 10
567.6652599062665
 20
199.5327050314337
 30
0.0
 40
0.5
100
AcDbArc
 50
90.0000159999964
 51
180.000010000001
  0
LINE
  5
19DEF
330
1F
100
AcDbEntity
  8
KI
  6
Continuous
 62
     7
100
AcDbLine
 10
590.0152399062664
 20
158.9827150314341
 30
0.0
 11
581.0152399062665
 21
158.9827150314341
 31
0.0
  0
ARC
  5
19DF0
330
1F
100
AcDbEntity
  8
KI
  6
Continuous
 62
     7
100
AcDbCircle
 10
580.6652599062665
 20
159.0827050314338
 30
0.0
 40
0.34999999
100
AcDbArc
 50
359.999989999999
 51
180.000010000001
  0
LINE
  5
19DF1
330
1F
100
AcDbEntity
  8
KI
  6
Continuous
 62
     7
100
AcDbLine
 10
580.3152299062669
 20
159.0827050314338
 30
0.0
 11
580.3152299062669
 21
158.9827150314341
 31
0.0
  0
LINE
  5
19DF2
330
1F
100
AcDbEntity
  8
KI
  6
Continuous
 62
     7
100
AcDbLine
 10
581.0152399062665
 20
159.0827050314338
 30
0.0
 11
581.0152399062665
 21
158.9827150314341
 31
0.0
  0
LINE
  5
19DF3
330
1F
100
AcDbEntity
  8
KI
  6
Continuous
 62
     7
100
AcDbLine
 10
591.0152399062665
 20
162.0827050314338
 30
0.0
 11
591.0152399062665
 21
158.9827150314341
 31
0.0
  0
LINE
  5
19DF4
330
1F
100
AcDbEntity
  8
KI
  6
Continuous
 62
     7
100
AcDbLine
 10
590.0152399062664
 20
161.5827050314338
 30
0.0
 11
590.0152399062664
 21
158.9827150314341
 31
0.0
  0
ARC
  5
19DF5
330
1F
100
AcDbEntity
  8
KI
  6
Continuous
 62
     7
100
AcDbCircle
 10
589.8152299062669
 20
158.9827150314341
 30
0.0
 40
1.1999998
100
AcDbArc
 50
269.999979999998
 51
359.9999599999959
  0
LINE
  5
19DF6
330
1F
100
AcDbEntity
  8
KI
  6
Continuous
 62
     7
100
AcDbLine
 10
589.6152199062664
 20
162.0827050314338
 30
0.0
 11
589.6152199062664
 21
161.5827050314338
 31
0.0
  0
LINE
  5
19DF7
330
1F
100
AcDbEntity
  8
KI
  6
Continuous
 62
     7
100
AcDbLine
 10
590.0152399062664
 20
161.5827050314338
 30
0.0
 11
589.6152199062664
 21
161.5827050314338
 31
0.0
  0
ARC
  5
19DF8
330
1F
100
AcDbEntity
  8
KI
  6
Continuous
 62
     7
100
AcDbCircle
 10
590.3152299062669
 20
162.0827050314338
 30
0.0
 40
0.6999999900000001
100
AcDbArc
 50
0.0000359721715611
 51
180.000010000001
  0
LINE
  5
19DF9
330
1F
100
AcDbEntity
  8
KI
  6
Continuous
 62
     7
100
AcDbLine
 10
580.3152299062669
 20
226.5826950314337
 30
0.0
 11
567.1652599062666
 21
226.5826950314337
 31
0.0
  0
LINE
  5
19DFA
330
1F
100
AcDbEntity
  8
KI
  6
Continuous
 62
     7
100
AcDbLine
 10
589.8152299062669
 20
227.7827050314337
 30
0.0
 11
566.5152399062665
 21
227.7827050314337
 31
0.0
  0
DIMENSION
  5
19DFB
330
1F
100
AcDbEntity
  8
003
100
AcDbDimension
  2
*D5
 10
577.1920626975799
 20
227.7827050314336
 30
0.0
 11
572.19206269758
 21
257.5327050314338
 31
0.0
 70
    32
 71
     5
 42
59.5
  3
DIM
100
AcDbAlignedDimension
 13
556.0152399062664
 23
287.2827050314337
 33
0.0
 14
571.9582168559184
 24
227.7827050314337
 34
0.0
 50
90.0
100
AcDbRotatedDimension
  0
DIMENSION
  5
19DFC
330
1F
100
AcDbEntity
  8
003
100
AcDbDimension
  2
*D6
 10
566.0152399062665
 20
322.6406588029396
 30
0.0
 11
574.5509541919808
 21
327.6406588029396
 31
0.0
 70
    32
 71
     5
  3
DIM
100
AcDbAlignedDimension
 13
565.0152399062664
 23
277.2827050314337
 33
0.0
 14
566.0152399062665
 24
227.2827049441672
 34
0.0
100
AcDbRotatedDimension
  0
LINE
  5
19DFD
330
1F
100
AcDbEntity
  8
KI
  6
Continuous
 62
     7
100
AcDbLine
 10
521.0156099062661
 20
215.8324750314338
 30
0.0
 11
526.0156099062661
 21
215.8324750314338
 31
0.0
  0
LINE
  5
19DFE
330
1F
100
AcDbEntity
  8
003
100
AcDbLine
 10
511.8152399062665
 20
248.4827050314335
 30
0.0
 11
538.0152399062664
 21
248.4827050314335
 31
0.0
  0
LINE
  5
19DFF
330
1F
100
AcDbEntity
  8
003
100
AcDbLine
 10
537.0152399062663
 20
249.7827050314337
 30
0.0
 11
437.5152399062669
 21
249.7827050314364
 31
0.0
  0
LINE
  5
19E00
330
1F
100
AcDbEntity
  8
KI
  6
Continuous
 62
     7
100
AcDbLine
 10
540.5156099062661
 20
217.7823950314338
 30
0.0
 11
516.3155899062668
 21
217.7823950314338
 31
0.0
  0
LINE
  5
19E01
330
1F
100
AcDbEntity
  8
003
100
AcDbLine
 10
520.8152399062665
 20
247.2827050314337
 30
0.0
 11
556.7152399062671
 21
247.2827050314337
 31
0.0
  0
ARC
  5
19E02
330
1F
100
AcDbEntity
  8
KI
  6
Continuous
 62
     7
100
AcDbCircle
 10
521.6155799062663
 20
211.6824850314339
 30
0.0
 40
0.4000000100000001
100
AcDbArc
 50
270.0
 51
87.51513199998386
  0
LINE
  5
19E03
330
1F
100
AcDbEntity
  8
KI
  6
Continuous
 62
     7
100
AcDbLine
 10
519.7166899062668
 20
216.582375031434
 30
0.0
 11
521.0155899062666
 21
215.8324550314338
 31
0.0
  0
LINE
  5
19E04
330
1F
100
AcDbEntity
  8
KI
  6
Continuous
 62
     7
100
AcDbLine
 10
516.0156099062661
 20
217.482415031434
 30
0.0
 11
516.0156099062661
 21
211.7824650314338
 31
0.0
  0
LINE
  5
19E05
330
1F
100
AcDbEntity
  8
KI
  6
Continuous
 62
     7
100
AcDbLine
 10
517.0156099062661
 20
216.5823850314338
 30
0.0
 11
517.0156099062661
 21
212.2824650314338
 31
0.0
  0
LINE
  5
19E06
330
1F
100
AcDbEntity
  8
KI
  6
Continuous
 62
     7
100
AcDbLine
 10
515.0458199062669
 20
205.7824850314338
 30
0.0
 11
516.0156199062668
 21
211.2824750314341
 31
0.0
  0
ARC
  5
19E07
330
1F
100
AcDbEntity
  8
KI
  6
Continuous
 62
     7
100
AcDbCircle
 10
516.5156099062661
 20
211.7824650314338
 30
0.0
 40
0.5
100
AcDbArc
 50
179.999959999996
 51
269.999969999997
  0
ARC
  5
19E08
330
1F
100
AcDbEntity
  8
KI
  6
Continuous
 62
     7
100
AcDbCircle
 10
516.3155899062668
 20
217.482415031434
 30
0.0
 40
0.30000001
100
AcDbArc
 50
90.0000159999964
 51
180.000010000001
  0
LINE
  5
19E09
330
1F
100
AcDbEntity
  8
KI
  6
Continuous
 62
     7
100
AcDbLine
 10
516.5156099062661
 20
211.2824650314339
 30
0.0
 11
521.6155799062663
 21
211.2824650314339
 31
0.0
  0
LINE
  5
19E0A
330
1F
100
AcDbEntity
  8
KI
  6
Continuous
 62
     7
100
AcDbLine
 10
517.0155799062668
 20
212.2824650314338
 30
0.0
 11
521.6329299062664
 21
212.0820950314338
 31
0.0
  0
LINE
  5
19E0B
330
1F
100
AcDbEntity
  8
KI
  6
Continuous
 62
     7
100
AcDbLine
 10
519.716719906266
 20
216.5823850314338
 30
0.0
 11
517.0156099062661
 21
216.5823850314338
 31
0.0
  0
LINE
  5
19E0C
330
1F
100
AcDbEntity
  8
003
100
AcDbLine
 10
511.8152399062665
 20
247.2827050314337
 30
0.0
 11
519.6152399062667
 21
247.2827050314337
 31
0.0
  0
LINE
  5
19E0D
330
1F
100
AcDbEntity
  8
003
100
AcDbLine
 10
437.5152399062669
 20
246.7827050314341
 30
0.0
 11
519.6152399062667
 21
246.7827050314337
 31
0.0
  0
LINE
  5
19E0E
330
1F
100
AcDbEntity
  8
003
100
AcDbLine
 10
437.5152399062669
 20
245.5827050314266
 30
0.0
 11
519.6152399062667
 21
245.5827050314339
 31
0.0
  0
LINE
  5
19E0F
330
1F
100
AcDbEntity
  8
003
100
AcDbLine
 10
511.8152399062665
 20
248.4827050314335
 30
0.0
 11
511.8152399062665
 21
247.2827050314337
 31
0.0
  0
LINE
  5
19E10
330
1F
100
AcDbEntity
  8
003
100
AcDbLine
 10
519.6152399062667
 20
242.2827050314337
 30
0.0
 11
520.8152399062665
 21
242.2827050314337
 31
0.0
  0
LINE
  5
19E11
330
1F
100
AcDbEntity
  8
003
100
AcDbLine
 10
519.6152399062667
 20
242.2827050314337
 30
0.0
 11
519.6152399062667
 21
247.2827050314337
 31
0.0
  0
LINE
  5
19E12
330
1F
100
AcDbEntity
  8
003
100
AcDbLine
 10
520.8152399062665
 20
242.2827050314337
 30
0.0
 11
520.8152399062665
 21
247.2827050314337
 31
0.0
  0
LINE
  5
19E13
330
1F
100
AcDbEntity
  8
003
100
AcDbLine
 10
563.8152399062667
 20
253.7988410598597
 30
0.0
 11
563.8152399062667
 21
277.2827050314337
 31
0.0
  0
LINE
  5
19E14
330
1F
100
AcDbEntity
  8
003
100
AcDbLine
 10
565.0152399062664
 20
222.2827050314337
 30
0.0
 11
565.0152399062664
 21
277.2827050314337
 31
0.0
  0
LINE
  5
19E15
330
1F
100
AcDbEntity
  8
003
100
AcDbLine
 10
545.9152399062669
 20
272.2827050314337
 30
0.0
 11
545.9152399062669
 21
262.2827050314337
 31
0.0
  0
LINE
  5
19E16
330
1F
100
AcDbEntity
  8
003
100
AcDbLine
 10
540.9152399062669
 20
272.2827050314337
 30
0.0
 11
540.9152399062669
 21
252.2827050314337
 31
0.0
  0
LINE
  5
19E17
330
1F
100
AcDbEntity
  8
003
100
AcDbLine
 10
539.2152399062671
 20
248.4827050314335
 30
0.0
 11
539.2152399062671
 21
271.0827050314339
 31
0.0
  0
LINE
  5
19E18
330
1F
100
AcDbEntity
  8
003
100
AcDbLine
 10
538.0152399062664
 20
248.4827050314335
 30
0.0
 11
538.0152399062664
 21
272.2827050314337
 31
0.0
  0
LINE
  5
19E19
330
1F
100
AcDbEntity
  8
003
100
AcDbLine
 10
537.0152399062663
 20
249.7827050314337
 30
0.0
 11
537.0152399062663
 21
284.7827050314337
 31
0.0
  0
LINE
  5
19E1A
330
1F
100
AcDbEntity
  8
003
100
AcDbLine
 10
535.0152399062664
 20
249.7827050314337
 30
0.0
 11
535.0152399062664
 21
284.7827050314337
 31
0.0
  0
DIMENSION
  5
19E1B
330
1F
100
AcDbEntity
  8
003
100
AcDbDimension
  2
*D7
 10
554.5343847853665
 20
287.2827050314337
 30
0.0
 11
549.5343847853664
 21
254.7827050314338
 31
0.0
 70
    32
 71
     5
 42
65.0
  3
DIM
100
AcDbAlignedDimension
 13
556.5902499062668
 23
222.2827050314337
 33
0.0
 14
546.0152399062663
 24
287.2827050314337
 34
0.0
 50
90.0
100
AcDbRotatedDimension
  0
LINE
  5
19E1C
330
1F
100
AcDbEntity
  8
KI
  6
Continuous
 62
     7
100
AcDbLine
 10
566.0152399062665
 20
222.2827050314337
 30
0.0
 11
547.1652599062664
 21
222.2827050314337
 31
0.0
  0
LINE
  5
19E1D
330
1F
100
AcDbEntity
  8
KI
  6
Continuous
 62
     7
100
AcDbLine
 10
566.0152399062665
 20
221.1326850314336
 30
0.0
 11
546.8152299062668
 21
221.1326850314336
 31
0.0
  0
LINE
  5
19E1E
330
1F
100
AcDbEntity
  8
003
100
AcDbLine
 10
539.2352399062666
 20
248.4827050314335
 30
0.0
 11
563.8152399062667
 21
248.4827050314335
 31
0.0
  0
LINE
  5
19E1F
330
1F
100
AcDbEntity
  8
KI
  6
Continuous
 62
     7
100
AcDbLine
 10
526.8155899062668
 20
215.8324450314341
 30
0.0
 11
536.0156099062661
 21
215.8324450314341
 31
0.0
  0
LINE
  5
19E20
330
1F
100
AcDbEntity
  8
KI
  6
Continuous
 62
     7
100
AcDbLine
 10
526.8155899062668
 20
215.8324450314341
 30
0.0
 11
526.8155899062668
 21
210.6823950314339
 31
0.0
  0
LINE
  5
19E21
330
1F
100
AcDbEntity
  8
KI
  6
Continuous
 62
     7
100
AcDbLine
 10
526.0156099062661
 20
215.8324750314338
 30
0.0
 11
526.0156099062661
 21
210.6823950314339
 31
0.0
  0
ARC
  5
19E22
330
1F
100
AcDbEntity
  8
KI
  6
Continuous
 62
     7
100
AcDbCircle
 10
526.4156299062661
 20
210.6823950314339
 30
0.0
 40
0.4000000100000001
100
AcDbArc
 50
179.999989999999
 51
0.0000086514279086
  0
ARC
  5
19E23
330
1F
100
AcDbEntity
  8
KI
  6
Continuous
 62
     7
100
AcDbCircle
 10
547.1652599062664
 20
221.1326850314336
 30
0.0
 40
1.1499996
100
AcDbArc
 50
90.0000159999964
 51
180.000010000001
  0
ARC
  5
19E24
330
1F
100
AcDbEntity
  8
KI
  6
Continuous
 62
     7
100
AcDbCircle
 10
539.035809906267
 20
215.0823850314338
 30
0.0
 40
1.799999199999999
100
AcDbArc
 50
269.999979999998
 51
326.2508499999943
  0
LINE
  5
19E25
330
1F
100
AcDbEntity
  8
KI
  6
Continuous
 62
     7
100
AcDbLine
 10
539.035809906267
 20
213.2823950314338
 30
0.0
 11
539.0156099062661
 21
213.2823950314338
 31
0.0
  0
LINE
  5
19E26
330
1F
100
AcDbEntity
  8
KI
  6
Continuous
 62
     7
100
AcDbLine
 10
541.6157299062661
 20
217.3284650314341
 30
0.0
 11
547.3844099062663
 21
217.0001850314339
 31
0.0
  0
LINE
  5
19E27
330
1F
100
AcDbEntity
  8
KI
  6
Continuous
 62
     7
100
AcDbLine
 10
541.0158999062661
 20
217.7823450314337
 30
0.0
 11
547.3994999062662
 21
217.2021350314341
 31
0.0
  0
LINE
  5
19E28
330
1F
100
AcDbEntity
  8
KI
  6
Continuous
 62
     7
100
AcDbLine
 10
541.6156999062669
 20
215.482415031434
 30
0.0
 11
541.6156999062669
 21
217.3284550314339
 31
0.0
  0
LINE
  5
19E29
330
1F
100
AcDbEntity
  8
KI
  6
Continuous
 62
     7
100
AcDbLine
 10
541.0156099062661
 20
217.2823950314338
 30
0.0
 11
541.0156099062661
 21
216.2823950314338
 31
0.0
  0
LINE
  5
19E2A
330
1F
100
AcDbEntity
  8
KI
  6
Continuous
 62
     7
100
AcDbLine
 10
541.0156099062661
 20
216.2823950314338
 30
0.0
 11
539.0156099062661
 21
216.2823950314338
 31
0.0
  0
LINE
  5
19E2B
330
1F
100
AcDbEntity
  8
KI
  6
Continuous
 62
     7
100
AcDbLine
 10
541.0156099062661
 20
214.8823750314337
 30
0.0
 11
540.0156099062662
 21
214.8823750314337
 31
0.0
  0
LINE
  5
19E2C
330
1F
100
AcDbEntity
  8
KI
  6
Continuous
 62
     7
100
AcDbLine
 10
541.0156099062661
 20
214.8824050314339
 30
0.0
 11
541.0156099062661
 21
214.0823850314338
 31
0.0
  0
LINE
  5
19E2D
330
1F
100
AcDbEntity
  8
KI
  6
Continuous
 62
     7
100
AcDbLine
 10
541.0156099062661
 20
214.0823850314338
 30
0.0
 11
540.5324499062664
 21
214.0823850314338
 31
0.0
  0
LINE
  5
19E2E
330
1F
100
AcDbEntity
  8
KI
  6
Continuous
 62
     7
100
AcDbLine
 10
539.035809906267
 20
214.0823850314338
 30
0.0
 11
539.0156099062661
 21
214.0823850314338
 31
0.0
  0
LINE
  5
19E2F
330
1F
100
AcDbEntity
  8
KI
  6
Continuous
 62
     7
100
AcDbLine
 10
539.0156099062661
 20
216.1823950314339
 30
0.0
 11
541.0156099062661
 21
216.1823950314339
 31
0.0
  0
LINE
  5
19E30
330
1F
100
AcDbEntity
  8
KI
  6
Continuous
 62
     7
100
AcDbLine
 10
539.9953999062664
 20
214.982415031434
 30
0.0
 11
541.115699906267
 21
214.982415031434
 31
0.0
  0
LINE
  5
19E31
330
1F
100
AcDbEntity
  8
KI
  6
Continuous
 62
     7
100
AcDbLine
 10
541.0159599062664
 20
217.782385031434
 30
0.0
 11
541.0159499062666
 21
216.182375031434
 31
0.0
  0
ARC
  5
19E32
330
1F
100
AcDbEntity
  8
KI
  6
Continuous
 62
     7
100
AcDbCircle
 10
540.5156099062661
 20
217.2823950314338
 30
0.0
 40
0.5
100
AcDbArc
 50
0.0000359721715611
 51
90.0000159999964
  0
ARC
  5
19E33
330
1F
100
AcDbEntity
  8
KI
  6
Continuous
 62
     7
100
AcDbCircle
 10
539.035809906267
 20
215.0823850314338
 30
0.0
 40
1.0
100
AcDbArc
 50
269.999979999998
 51
348.4630099999957
  0
ARC
  5
19E34
330
1F
100
AcDbEntity
  8
KI
  6
Continuous
 62
     7
100
AcDbCircle
 10
541.115699906267
 20
215.482415031434
 30
0.0
 40
0.49999994
100
AcDbArc
 50
270.000019999976
 51
0.0003098629292438
  0
LINE
  5
19E35
330
1F
100
AcDbEntity
  8
KI
  6
Continuous
 62
     7
100
AcDbLine
 10
547.4152599062664
 20
218.2827050314337
 30
0.0
 11
547.4152599062664
 21
217.9827150314337
 31
0.0
  0
LINE
  5
19E36
330
1F
100
AcDbEntity
  8
KI
  6
Continuous
 62
     7
100
AcDbLine
 10
547.4152599062664
 20
218.2827050314337
 30
0.0
 11
546.8152299062668
 21
218.2827050314337
 31
0.0
  0
ARC
  5
19E37
330
1F
100
AcDbEntity
  8
KI
  6
Continuous
 62
     7
100
AcDbCircle
 10
546.7152499062668
 20
217.9827150314337
 30
0.0
 40
0.6999999900000001
100
AcDbArc
 50
179.999989999999
 51
359.9999599999959
  0
ARC
  5
19E38
330
1F
100
AcDbEntity
  8
KI
  6
Continuous
 62
     7
100
AcDbCircle
 10
547.3901799062669
 20
217.1013050314337
 30
0.0
 40
0.10126525
100
AcDbArc
 50
260.4081399999921
 51
84.80646999999992
  0
LINE
  5
19E39
330
1F
100
AcDbEntity
  8
KI
  6
Continuous
 62
     7
100
AcDbLine
 10
538.0156099062661
 20
215.2823950314338
 30
0.0
 11
538.0156099062661
 21
215.0823850314338
 31
0.0
  0
ARC
  5
19E3A
330
1F
100
AcDbEntity
  8
KI
  6
Continuous
 62
     7
100
AcDbCircle
 10
539.0156099062661
 20
215.2823950314338
 30
0.0
 40
1.0
100
AcDbArc
 50
90.0000159999964
 51
179.999959999996
  0
ARC
  5
19E3B
330
1F
100
AcDbEntity
  8
KI
  6
Continuous
 62
     7
100
AcDbCircle
 10
539.0156099062661
 20
215.0823850314338
 30
0.0
 40
1.0
100
AcDbArc
 50
179.999989999999
 51
269.999979999998
  0
LINE
  5
19E3C
330
1F
100
AcDbEntity
  8
KI
  6
Continuous
 62
     7
100
AcDbLine
 10
546.0152399062663
 20
221.1326850314336
 30
0.0
 11
546.0152399062663
 21
217.9827150314337
 31
0.0
  0
LINE
  5
19E3D
330
1F
100
AcDbEntity
  8
KI
  6
Continuous
 62
     7
100
AcDbLine
 10
546.8152299062668
 20
221.1326850314336
 30
0.0
 11
546.8152299062668
 21
218.2827050314337
 31
0.0
  0
LINE
  5
19E3E
330
1F
100
AcDbEntity
  8
003
100
AcDbLine
 10
539.2152399062662
 20
263.7827050314337
 30
0.0
 11
540.9152399062669
 21
263.7827050314337
 31
0.0
  0
LINE
  5
19E3F
330
1F
100
AcDbEntity
  8
003
100
AcDbLine
 10
563.8152399062667
 20
222.2827050314337
 30
0.0
 11
563.8152399062667
 21
245.5827050314339
 31
0.0
  0
LINE
  5
19E40
330
1F
100
AcDbEntity
  8
KI
  6
Continuous
 62
     7
100
AcDbLine
 10
566.0152399062665
 20
227.2827050314337
 30
0.0
 11
566.0152399062665
 21
222.2827050314337
 31
0.0
  0
ARC
  5
19E41
330
1F
100
AcDbEntity
  8
KI
  6
Continuous
 62
     7
100
AcDbCircle
 10
566.5152399062665
 20
227.2827050314337
 30
0.0
 40
0.5
100
AcDbArc
 50
90.0000159999964
 51
180.000010000001
  0
ARC
  5
19E42
330
1F
100
AcDbEntity
  8
KI
  6
Continuous
 62
     7
100
AcDbCircle
 10
567.6652599062665
 20
218.5327050314337
 30
0.0
 40
0.5
100
AcDbArc
 50
179.999989999999
 51
269.999979999998
  0
LINE
  5
19E43
330
1F
100
AcDbEntity
  8
KI
  6
Continuous
 62
     7
100
AcDbLine
 10
567.1652599062666
 20
226.5826950314337
 30
0.0
 11
567.1652599062666
 21
218.5327050314337
 31
0.0
  0
ARC
  5
19E44
330
1F
100
AcDbEntity
  8
003
100
AcDbCircle
 10
561.5152399062664
 20
251.8727050314339
 30
0.0
 40
3.0
100
AcDbArc
 50
39.94450518979794
 51
150.0183606311538
  0
LINE
  5
19E45
330
1F
100
AcDbEntity
  8
006
100
AcDbLine
 10
557.5152399062663
 20
251.8727050314339
 30
0.0
 11
565.5152399062664
 21
251.8727050314339
 31
0.0
  0
LINE
  5
19E46
330
1F
100
AcDbEntity
  8
003
100
AcDbLine
 10
557.3152399062665
 20
247.2827050314337
 30
0.0
 11
563.8152399062667
 21
247.2827050314337
 31
0.0
  0
LINE
  5
19E47
330
1F
100
AcDbEntity
  8
003
100
AcDbLine
 10
557.3152399062665
 20
248.4827050314335
 30
0.0
 11
563.8152399062667
 21
248.4827050314335
 31
0.0
  0
LINE
  5
19E48
330
1F
100
AcDbEntity
  8
003
100
AcDbLine
 10
558.9166800965679
 20
250.3735429603363
 30
0.0
 11
559.953909724398
 21
250.9770220165284
 31
0.0
  0
LINE
  5
19E49
330
1F
100
AcDbEntity
  8
003
100
AcDbLine
 10
558.9166831481208
 20
253.3718723919025
 30
0.0
 11
559.9561058513784
 21
252.7722054477159
 31
0.0
  0
ARC
  5
19E4A
330
1F
100
AcDbEntity
  8
003
100
AcDbCircle
 10
557.0152399062672
 20
248.4827050314335
 30
0.0
 40
0.3000000000000682
100
AcDbArc
 50
0.0000000000130276
 51
179.9999999999739
  0
ARC
  5
19E4B
330
1F
100
AcDbEntity
  8
003
100
AcDbCircle
 10
557.0152399062664
 20
247.2827050314337
 30
0.0
 40
0.2999999999999829
100
AcDbArc
 50
0.0
 51
180.0
  0
ARC
  5
19E4C
330
1F
100
AcDbEntity
  8
003
100
AcDbCircle
 10
561.5152399062664
 20
251.8727050314339
 30
0.0
 40
3.0
100
AcDbArc
 50
209.9815227431618
 51
226.8863940540856
  0
LINE
  5
19E4D
330
1F
100
AcDbEntity
  8
003
100
AcDbLine
 10
552.0152399062664
 20
248.4827050314335
 30
0.0
 11
552.0152399062664
 21
249.6827050314338
 31
0.0
  0
LINE
  5
19E4E
330
1F
100
AcDbEntity
  8
003
100
AcDbLine
 10
552.0152399062664
 20
249.6827050314338
 30
0.0
 11
559.4648984712859
 21
249.6827050314338
 31
0.0
  0
LINE
  5
19E4F
330
1F
100
AcDbEntity
  8
003
100
AcDbLine
 10
552.0152399062664
 20
248.4827050314335
 30
0.0
 11
556.7152399062671
 21
248.4827050314335
 31
0.0
  0
LINE
  5
19E50
330
1F
100
AcDbEntity
  8
003
100
AcDbLine
 10
560.8152399062666
 20
245.5827050314339
 30
0.0
 11
560.8152399062666
 21
247.2827050314337
 31
0.0
  0
LINE
  5
19E51
330
1F
100
AcDbEntity
  8
003
100
AcDbLine
 10
560.8152399062666
 20
245.5827050314339
 30
0.0
 11
563.8152399062667
 21
245.5827050314339
 31
0.0
  0
LINE
  5
19E52
330
1F
100
AcDbEntity
  8
003
100
AcDbLine
 10
560.8152399062666
 20
246.7827050314337
 30
0.0
 11
563.8152399062667
 21
246.7827050314337
 31
0.0
  0
LINE
  5
19E53
330
1F
100
AcDbEntity
  8
003
100
AcDbLine
 10
563.8152399062667
 20
246.7827050314337
 30
0.0
 11
563.8152399062667
 21
248.4827050314335
 31
0.0
  0
LINE
  5
19E54
330
1F
100
AcDbEntity
  8
003
100
AcDbLine
 10
563.8152399062667
 20
247.2827050314337
 30
0.0
 11
563.8152399062667
 21
248.4827050314335
 31
0.0
  0
ARC
  5
19E55
330
1F
100
AcDbEntity
  8
003
100
AcDbCircle
 10
561.5152399062664
 20
251.8727050314339
 30
0.0
 40
1.8
100
AcDbArc
 50
209.8414545361528
 51
150.0183606311538
  0
LINE
  5
19E56
330
1F
100
AcDbEntity
  8
006
100
AcDbLine
 10
561.5152399062664
 20
247.8727050314339
 30
0.0
 11
561.5152399062664
 21
255.8727050314338
 31
0.0
  0
LINE
  5
19E57
330
1F
100
AcDbEntity
  8
003
100
AcDbLine
 10
543.4413759346926
 20
286.0827050314339
 30
0.0
 11
555.0152399062664
 21
286.0827050314339
 31
0.0
  0
LINE
  5
19E58
330
1F
100
AcDbEntity
  8
003
100
AcDbLine
 10
535.0152399062664
 20
287.2827050314337
 30
0.0
 11
555.0152399062664
 21
287.2827050314337
 31
0.0
  0
LINE
  5
19E59
330
1F
100
AcDbEntity
  8
003
100
AcDbLine
 10
535.0152399062664
 20
286.0827050314339
 30
0.0
 11
538.0152399062664
 21
286.0827050314339
 31
0.0
  0
LINE
  5
19E5A
330
1F
100
AcDbEntity
  8
003
100
AcDbLine
 10
535.0152399062664
 20
286.0827050314339
 30
0.0
 11
535.0152399062664
 21
287.2827050314337
 31
0.0
  0
LINE
  5
19E5B
330
1F
100
AcDbEntity
  8
003
100
AcDbLine
 10
540.9152399062669
 20
272.2827050314337
 30
0.0
 11
545.9152399062669
 21
272.2827050314337
 31
0.0
  0
ARC
  5
19E5C
330
1F
100
AcDbEntity
  8
003
100
AcDbCircle
 10
541.5152399062673
 20
283.7827050314337
 30
0.0
 40
3.0
100
AcDbArc
 50
344.9816393688474
 51
50.05549481018423
  0
LINE
  5
19E5D
330
1F
100
AcDbEntity
  8
003
100
AcDbLine
 10
544.4127684179703
 20
283.005319333172
 30
0.0
 11
543.2537570132909
 21
283.316273612476
 31
0.0
  0
ARC
  5
19E5E
330
1F
100
AcDbEntity
  8
003
100
AcDbCircle
 10
541.5152399062673
 20
283.7827050314337
 30
0.0
 40
1.8
100
AcDbArc
 50
344.9816393688474
 51
285.1585454638118
  0
LINE
  5
19E5F
330
1F
100
AcDbEntity
  8
003
100
AcDbLine
 10
541.7152399062671
 20
278.4827050314335
 30
0.0
 11
541.7152399062671
 21
280.7893791220146
 31
0.0
  0
LINE
  5
19E60
330
1F
100
AcDbEntity
  8
003
100
AcDbLine
 10
542.1152399062667
 20
274.2827050314337
 30
0.0
 11
542.1152399062667
 21
278.4827050314335
 31
0.0
  0
LINE
  5
19E61
330
1F
100
AcDbEntity
  8
003
100
AcDbLine
 10
540.9152399062669
 20
274.2827050314337
 30
0.0
 11
540.9152399062669
 21
277.2827050314337
 31
0.0
  0
LINE
  5
19E62
330
1F
100
AcDbEntity
  8
003
100
AcDbLine
 10
539.2152399062662
 20
272.2827050314337
 30
0.0
 11
539.2152399062662
 21
277.2827050314337
 31
0.0
  0
LINE
  5
19E63
330
1F
100
AcDbEntity
  8
003
100
AcDbLine
 10
539.2152399062671
 20
272.2827050314337
 30
0.0
 11
539.2152399062671
 21
277.2827050314337
 31
0.0
  0
LINE
  5
19E64
330
1F
100
AcDbEntity
  8
003
100
AcDbLine
 10
540.4152399062669
 20
271.0827050314339
 30
0.0
 11
540.4152399062669
 21
277.2827050314337
 31
0.0
  0
LINE
  5
19E65
330
1F
100
AcDbEntity
  8
003
100
AcDbLine
 10
540.9152399062669
 20
274.2827050314337
 30
0.0
 11
542.1152399062667
 21
274.2827050314337
 31
0.0
  0
LINE
  5
19E66
330
1F
100
AcDbEntity
  8
003
100
AcDbLine
 10
539.2152399062662
 20
270.7827050314337
 30
0.0
 11
540.9152399062669
 21
270.7827050314337
 31
0.0
  0
LINE
  5
19E67
330
1F
100
AcDbEntity
  8
003
100
AcDbLine
 10
539.2152399062671
 20
271.0827050314339
 30
0.0
 11
540.4152399062669
 21
271.0827050314339
 31
0.0
  0
LINE
  5
19E68
330
1F
100
AcDbEntity
  8
003
100
AcDbLine
 10
539.2152399062662
 20
277.2827050314337
 30
0.0
 11
540.9152399062669
 21
277.2827050314337
 31
0.0
  0
LINE
  5
19E69
330
1F
100
AcDbEntity
  8
003
100
AcDbLine
 10
539.2152399062671
 20
277.2827050314337
 30
0.0
 11
540.4152399062669
 21
277.2827050314337
 31
0.0
  0
LINE
  5
19E6A
330
1F
100
AcDbEntity
  8
003
100
AcDbLine
 10
541.7152399062671
 20
278.4827050314335
 30
0.0
 11
542.1152399062667
 21
278.4827050314335
 31
0.0
  0
ARC
  5
19E6B
330
1F
100
AcDbEntity
  8
003
100
AcDbCircle
 10
541.5152399062673
 20
283.7827050314337
 30
0.0
 40
3.0
100
AcDbArc
 50
273.8225537292708
 51
285.0184772568351
  0
LINE
  5
19E6C
330
1F
100
AcDbEntity
  8
003
100
AcDbLine
 10
542.2926315024534
 20
280.8851781021059
 30
0.0
 11
541.9859235319036
 21
282.0453343385299
 31
0.0
  0
LINE
  5
19E6D
330
1F
100
AcDbEntity
  8
003
100
AcDbLine
 10
538.0152399062664
 20
272.2827050314337
 30
0.0
 11
538.0152399062664
 21
286.0827050314339
 31
0.0
  0
LINE
  5
19E6E
330
1F
100
AcDbEntity
  8
003
100
AcDbLine
 10
538.0152399062664
 20
272.2827050314337
 30
0.0
 11
539.2152399062662
 21
272.2827050314337
 31
0.0
  0
LINE
  5
19E6F
330
1F
100
AcDbEntity
  8
003
100
AcDbLine
 10
538.0152399062664
 20
272.2827050314337
 30
0.0
 11
539.2152399062671
 21
272.2827050314337
 31
0.0
  0
LINE
  5
19E70
330
1F
100
AcDbEntity
  8
006
100
AcDbLine
 10
544.3436670310131
 20
280.9542779066875
 30
0.0
 11
538.6868127815206
 21
286.6111321561799
 31
0.0
  0
LINE
  5
19E71
330
1F
100
AcDbEntity
  8
006
100
AcDbLine
 10
538.6868127815206
 20
280.9542779066875
 30
0.0
 11
544.3436670310131
 21
286.6111321561799
 31
0.0
  0
ARC
  5
19E72
330
1F
100
AcDbEntity
  8
003
100
AcDbCircle
 10
555.0152399062664
 20
277.2827050314337
 30
0.0
 40
10.0
100
AcDbArc
 50
0.0
 51
90.0
  0
ARC
  5
19E73
330
1F
100
AcDbEntity
  8
003
100
AcDbCircle
 10
555.0152399062664
 20
277.2827050314337
 30
0.0
 40
8.8
100
AcDbArc
 50
0.0
 51
90.0
  0
LINE
  5
19E74
330
1F
100
AcDbEntity
  8
KI
  6
Continuous
 62
     7
100
AcDbLine
 10
590.0152399062664
 20
226.5826950314337
 30
0.0
 11
581.0152399062665
 21
226.5826950314337
 31
0.0
  0
ARC
  5
19E75
330
1F
100
AcDbEntity
  8
KI
  6
Continuous
 62
     7
100
AcDbCircle
 10
580.6652599062665
 20
226.4827150314337
 30
0.0
 40
0.34999999
100
AcDbArc
 50
179.999989999999
 51
0.0000086514148811
  0
LINE
  5
19E76
330
1F
100
AcDbEntity
  8
KI
  6
Continuous
 62
     7
100
AcDbLine
 10
580.3152299062669
 20
226.5826950314337
 30
0.0
 11
580.3152299062669
 21
226.4827150314337
 31
0.0
  0
LINE
  5
19E77
330
1F
100
AcDbEntity
  8
KI
  6
Continuous
 62
     7
100
AcDbLine
 10
581.0152399062665
 20
226.5826950314337
 30
0.0
 11
581.0152399062665
 21
226.4827150314337
 31
0.0
  0
LINE
  5
19E78
330
1F
100
AcDbEntity
  8
KI
  6
Continuous
 62
     7
100
AcDbLine
 10
591.0152399062665
 20
226.5826950314337
 30
0.0
 11
591.0152399062665
 21
223.4827150314337
 31
0.0
  0
LINE
  5
19E79
330
1F
100
AcDbEntity
  8
KI
  6
Continuous
 62
     7
100
AcDbLine
 10
590.0152399062664
 20
226.5826950314337
 30
0.0
 11
590.0152399062664
 21
223.9827150314337
 31
0.0
  0
ARC
  5
19E7A
330
1F
100
AcDbEntity
  8
KI
  6
Continuous
 62
     7
100
AcDbCircle
 10
589.8152299062669
 20
226.5826950314337
 30
0.0
 40
1.1999998
100
AcDbArc
 50
0.0000359721715611
 51
90.0000159999964
  0
LINE
  5
19E7B
330
1F
100
AcDbEntity
  8
KI
  6
Continuous
 62
     7
100
AcDbLine
 10
589.6152199062664
 20
223.9827150314337
 30
0.0
 11
589.6152199062664
 21
223.4827150314337
 31
0.0
  0
LINE
  5
19E7C
330
1F
100
AcDbEntity
  8
KI
  6
Continuous
 62
     7
100
AcDbLine
 10
590.0152399062664
 20
223.9827150314337
 30
0.0
 11
589.6152199062664
 21
223.9827150314337
 31
0.0
  0
ARC
  5
19E7D
330
1F
100
AcDbEntity
  8
KI
  6
Continuous
 62
     7
100
AcDbCircle
 10
590.3152299062669
 20
223.4827150314337
 30
0.0
 40
0.6999999900000001
100
AcDbArc
 50
179.999989999999
 51
0.0000359721715611
  0
LINE
  5
19E7E
330
1F
100
AcDbEntity
  8
OS
  6
DASHED
 62
     3
100
AcDbLine
 10
613.185239906266
 20
184.6618250314336
 30
0.0
 11
596.3312799062666
 21
184.6618250314337
 31
0.0
  0
LINE
  5
19E7F
330
1F
100
AcDbEntity
  8
OS
  6
DASHED
 62
     3
100
AcDbLine
 10
613.1852399062662
 20
193.6618450314337
 30
0.0
 11
608.3113199062665
 21
193.6618450314337
 31
0.0
  0
LINE
  5
19E80
330
1F
100
AcDbEntity
  8
OS
  6
DASHED
 62
     3
100
AcDbLine
 10
608.3151699062661
 20
193.6826850314338
 30
0.0
 11
593.3151699062661
 21
193.6826850314338
 31
0.0
  0
LINE
  5
19E81
330
1F
100
AcDbEntity
  8
OS
  6
DASHED
 62
     3
100
AcDbLine
 10
608.3151699062661
 20
195.9826850314335
 30
0.0
 11
593.3151699062661
 21
195.9826850314335
 31
0.0
  0
ARC
  5
19E82
330
1F
100
AcDbEntity
  8
OS
  6
DASHED
 62
     3
100
AcDbCircle
 10
593.3151699062661
 20
195.9826850314335
 30
0.0
 40
2.2999992
100
AcDbArc
 50
180.000020000002
 51
270.0
  0
LINE
  5
19E83
330
1F
100
AcDbEntity
  8
OS
  6
DASHED
 62
     3
100
AcDbLine
 10
596.3312799062666
 20
193.6618450314337
 30
0.0
 11
596.3312799062666
 21
184.6618250314337
 31
0.0
  0
LINE
  5
19E84
330
1F
100
AcDbEntity
  8
OS
  6
DASHED
 62
     3
100
AcDbLine
 10
608.3151699062661
 20
195.9826850314335
 30
0.0
 11
608.3151699062661
 21
193.6826850314338
 31
0.0
  0
LINE
  5
19E85
330
1F
100
AcDbEntity
  8
OS
  6
DASHED
 62
     3
100
AcDbLine
 10
593.3151699062661
 20
224.9826850314335
 30
0.0
 11
593.3151699062661
 21
160.4827150314337
 31
0.0
  0
LINE
  5
19E86
330
1F
100
AcDbEntity
  8
OS
  6
DASHED
 62
     3
100
AcDbLine
 10
591.0151799062666
 20
216.1826650314334
 30
0.0
 11
591.0151799062666
 21
160.4827150314337
 31
0.0
  0
LINE
  5
19E87
330
1F
100
AcDbEntity
  8
OS
  6
DASHED
 62
     3
100
AcDbLine
 10
593.3151599062664
 20
208.9826350314335
 30
0.0
 11
591.0151899062664
 21
211.5962550314335
 31
0.0
  0
LINE
  5
19E88
330
1F
100
AcDbEntity
  8
OS
  6
DASHED
 62
     3
100
AcDbLine
 10
591.0151899062664
 20
211.5962550314335
 30
0.0
 11
589.7151699062662
 21
213.0735550314335
 31
0.0
  0
LINE
  5
19E89
330
1F
100
AcDbEntity
  8
OS
  6
DASHED
 62
     3
100
AcDbLine
 10
591.0151999062666
 20
208.1147150314338
 30
0.0
 11
587.4151999062662
 21
212.2056450314336
 31
0.0
  0
LINE
  5
19E8A
330
1F
100
AcDbEntity
  8
OS
  6
DASHED
 62
     3
100
AcDbLine
 10
589.7151899062662
 20
222.9826650314336
 30
0.0
 11
589.7151899062662
 21
213.0735450314338
 31
0.0
  0
LINE
  5
19E8B
330
1F
100
AcDbEntity
  8
OS
  6
DASHED
 62
     3
100
AcDbLine
 10
587.4152099062664
 20
222.9826650314336
 30
0.0
 11
587.4152099062664
 21
212.2056250314336
 31
0.0
  0
LINE
  5
19E8C
330
1F
100
AcDbEntity
  8
OS
  6
DASHED
 62
     3
100
AcDbLine
 10
593.3151699062661
 20
224.9826850314335
 30
0.0
 11
591.0151799062666
 21
224.9826850314335
 31
0.0
  0
LINE
  5
19E8D
330
1F
100
AcDbEntity
  8
OS
  6
DASHED
 62
     3
100
AcDbLine
 10
589.6186399062664
 20
225.9826550314339
 30
0.0
 11
589.6186399062664
 21
222.9826650314336
 31
0.0
  0
LINE
  5
19E8E
330
1F
100
AcDbEntity
  8
OS
  6
DASHED
 62
     3
100
AcDbLine
 10
587.3151699062661
 20
225.9826550314339
 30
0.0
 11
587.3151699062661
 21
222.9826650314336
 31
0.0
  0
LINE
  5
19E8F
330
1F
100
AcDbEntity
  8
OS
  6
DASHED
 62
     3
100
AcDbLine
 10
589.6186399062664
 20
225.9826850314336
 30
0.0
 11
587.3151699062661
 21
225.9826850314336
 31
0.0
  0
LINE
  5
19E90
330
1F
100
AcDbEntity
  8
OS
  6
DASHED
 62
     3
100
AcDbLine
 10
587.4152099062664
 20
222.9826650314336
 30
0.0
 11
587.3151699062661
 21
222.9826650314336
 31
0.0
  0
LINE
  5
19E91
330
1F
100
AcDbEntity
  8
OS
  6
DASHED
 62
     3
100
AcDbLine
 10
591.0151799062666
 20
224.9826850314335
 30
0.0
 11
591.0151799062666
 21
216.6834750314334
 31
0.0
  0
LINE
  5
19E92
330
1F
100
AcDbEntity
  8
OS
  6
DASHED
 62
     3
100
AcDbLine
 10
589.7151899062662
 20
172.3918750314334
 30
0.0
 11
589.7151899062662
 21
162.4827150314337
 31
0.0
  0
LINE
  5
19E93
330
1F
100
AcDbEntity
  8
OS
  6
DASHED
 62
     3
100
AcDbLine
 10
587.4152099062664
 20
173.2597650314338
 30
0.0
 11
587.4152099062664
 21
162.4827150314337
 31
0.0
  0
LINE
  5
19E94
330
1F
100
AcDbEntity
  8
OS
  6
DASHED
 62
     3
100
AcDbLine
 10
589.7151899062662
 20
172.3918850314336
 30
0.0
 11
591.0151499062664
 21
173.8691250314338
 31
0.0
  0
LINE
  5
19E95
330
1F
100
AcDbEntity
  8
OS
  6
DASHED
 62
     3
100
AcDbLine
 10
591.0151499062664
 20
173.8691250314338
 30
0.0
 11
593.3151299062663
 21
176.4827350314336
 31
0.0
  0
LINE
  5
19E96
330
1F
100
AcDbEntity
  8
OS
  6
DASHED
 62
     3
100
AcDbLine
 10
587.4151799062663
 20
173.2597650314338
 30
0.0
 11
591.0151699062664
 21
177.3506550314338
 31
0.0
  0
LINE
  5
19E97
330
1F
100
AcDbEntity
  8
OS
  6
DASHED
 62
     3
100
AcDbLine
 10
589.6186399062664
 20
162.4827150314337
 30
0.0
 11
589.6186399062664
 21
159.4827150314337
 31
0.0
  0
LINE
  5
19E98
330
1F
100
AcDbEntity
  8
OS
  6
DASHED
 62
     3
100
AcDbLine
 10
589.6171699062663
 20
159.4827150314337
 30
0.0
 11
587.3137099062662
 21
159.4827150314337
 31
0.0
  0
LINE
  5
19E99
330
1F
100
AcDbEntity
  8
OS
  6
DASHED
 62
     3
100
AcDbLine
 10
587.3151699062661
 20
162.4827150314337
 30
0.0
 11
587.3151699062661
 21
159.4827150314337
 31
0.0
  0
LINE
  5
19E9A
330
1F
100
AcDbEntity
  8
OS
  6
DASHED
 62
     3
100
AcDbLine
 10
593.3151699062661
 20
160.4827150314337
 30
0.0
 11
591.0151799062666
 21
160.4827150314337
 31
0.0
  0
LINE
  5
19E9B
330
1F
100
AcDbEntity
  8
003
100
AcDbLine
 10
316.9152399062675
 20
272.2827050314339
 30
0.0
 11
318.1152399062678
 21
272.2827050314339
 31
0.0
  0
LINE
  5
19E9C
330
1F
100
AcDbEntity
  8
003
100
AcDbLine
 10
316.9152399062675
 20
272.2827050314339
 30
0.0
 11
316.9152399062675
 21
244.7930110518795
 31
0.0
  0
LINE
  5
19E9D
330
1F
100
AcDbEntity
  8
003
100
AcDbLine
 10
318.1152399062678
 20
272.2827050314339
 30
0.0
 11
318.1152399062678
 21
245.9930110518795
 31
0.0
  0
LINE
  5
19E9E
330
1F
100
AcDbEntity
  8
003
100
AcDbLine
 10
353.2152399062675
 20
248.482705031434
 30
0.0
 11
353.2152399062675
 21
247.2827050314337
 31
0.0
  0
LINE
  5
19E9F
330
1F
100
AcDbEntity
  8
0
100
AcDbLine
 10
427.5152399062664
 20
339.7827050314339
 30
0.0
 11
269.0152399062668
 21
339.7827050314339
 31
0.0
  0
LINE
  5
19EA0
330
1F
100
AcDbEntity
  8
0
100
AcDbLine
 10
269.0152399062668
 20
339.7827050314339
 30
0.0
 11
269.0152399062668
 21
327.7827050314339
 31
0.0
  0
LINE
  5
19EA1
330
1F
100
AcDbEntity
  8
0
100
AcDbLine
 10
284.0152399062668
 20
317.7827050314339
 30
0.0
 11
284.0152399062668
 21
242.7827050314339
 31
0.0
  0
LINE
  5
19EA2
330
1F
100
AcDbEntity
  8
0
100
AcDbLine
 10
274.0152399062667
 20
327.7827050314339
 30
0.0
 11
251.8452399062671
 21
327.782705031434
 31
0.0
  0
LINE
  5
19EA3
330
1F
100
AcDbEntity
  8
0
100
AcDbLine
 10
274.0152399062667
 20
327.7827050314339
 30
0.0
 11
284.0152399062668
 21
317.7827050314339
 31
0.0
  0
LINE
  5
19EA4
330
1F
100
AcDbEntity
  8
0
100
AcDbLine
 10
284.0152399062668
 20
242.7827050314339
 30
0.0
 11
251.8452399062671
 21
242.7827050314339
 31
0.0
  0
LINE
  5
19EA5
330
1F
100
AcDbEntity
  8
0
100
AcDbLine
 10
283.0152399062667
 20
241.7827050314339
 30
0.0
 11
283.0152399062667
 21
228.7827050314337
 31
0.0
  0
LINE
  5
19EA6
330
1F
100
AcDbEntity
  8
0
100
AcDbLine
 10
283.0152399062667
 20
232.4542779066877
 30
0.0
 11
274.0152399062667
 21
241.4542779066875
 31
0.0
  0
LINE
  5
19EA7
330
1F
100
AcDbEntity
  8
0
100
AcDbLine
 10
283.0152399062667
 20
235.2827050314337
 30
0.0
 11
275.5152399062668
 21
242.7827050314337
 31
0.0
  0
LINE
  5
19EA8
330
1F
100
AcDbEntity
  8
0
100
AcDbLine
 10
283.0152399062667
 20
238.1111321561799
 30
0.0
 11
278.3436670310127
 21
242.7827050314337
 31
0.0
  0
LINE
  5
19EA9
330
1F
100
AcDbEntity
  8
0
100
AcDbLine
 10
279.2015314072819
 20
242.7827050314339
 30
0.0
 11
274.0152399062667
 21
237.5964135304188
 31
0.0
  0
LINE
  5
19EAA
330
1F
100
AcDbEntity
  8
0
100
AcDbLine
 10
282.0299585320283
 20
242.7827050314339
 30
0.0
 11
274.0152399062667
 21
234.7679864056726
 31
0.0
  0
LINE
  5
19EAB
330
1F
100
AcDbEntity
  8
0
100
AcDbLine
 10
283.0152399062667
 20
240.9395592809261
 30
0.0
 11
274.0152399062667
 21
231.9395592809263
 31
0.0
  0
LINE
  5
19EAC
330
1F
100
AcDbEntity
  8
0
100
AcDbLine
 10
283.0152399062667
 20
240.9395592809261
 30
0.0
 11
281.1720941557589
 21
242.7827050314337
 31
0.0
  0
LINE
  5
19EAD
330
1F
100
AcDbEntity
  8
0
100
AcDbLine
 10
276.3731042825357
 20
242.7827050314339
 30
0.0
 11
274.0152399062667
 21
240.424840655165
 31
0.0
  0
LINE
  5
19EAE
330
1F
100
AcDbEntity
  8
0
100
AcDbLine
 10
283.0152399062667
 20
241.7827050314339
 30
0.0
 11
284.0152399062668
 21
242.7827050314339
 31
0.0
  0
LINE
  5
19EAF
330
1F
100
AcDbEntity
  8
0
100
AcDbLine
 10
283.0152399062667
 20
229.6258507819415
 30
0.0
 11
274.0152399062667
 21
238.6258507819412
 31
0.0
  0
LINE
  5
19EB0
330
1F
100
AcDbEntity
  8
0
100
AcDbLine
 10
283.0152399062667
 20
238.1111321561799
 30
0.0
 11
274.0152399062667
 21
229.1111321561801
 31
0.0
  0
LINE
  5
19EB1
330
1F
100
AcDbEntity
  8
0
100
AcDbLine
 10
283.0152399062667
 20
228.7827050314337
 30
0.0
 11
284.0152399062668
 21
227.7827050314339
 31
0.0
  0
LINE
  5
19EB2
330
1F
100
AcDbEntity
  8
0
100
AcDbLine
 10
276.3731042825357
 20
227.7827050314337
 30
0.0
 11
274.0152399062667
 21
230.1405694077026
 31
0.0
  0
LINE
  5
19EB3
330
1F
100
AcDbEntity
  8
0
100
AcDbLine
 10
282.0299585320283
 20
227.7827050314337
 30
0.0
 11
274.0152399062667
 21
235.797423657195
 31
0.0
  0
LINE
  5
19EB4
330
1F
100
AcDbEntity
  8
0
100
AcDbLine
 10
279.2015314072819
 20
227.7827050314337
 30
0.0
 11
274.0152399062667
 21
232.9689965324488
 31
0.0
  0
LINE
  5
19EB5
330
1F
100
AcDbEntity
  8
0
100
AcDbLine
 10
283.0152399062667
 20
232.4542779066877
 30
0.0
 11
278.3436670310127
 21
227.7827050314339
 31
0.0
  0
LINE
  5
19EB6
330
1F
100
AcDbEntity
  8
0
100
AcDbLine
 10
283.0152399062667
 20
229.6258507819415
 30
0.0
 11
281.1720941557589
 21
227.7827050314339
 31
0.0
  0
LINE
  5
19EB7
330
1F
100
AcDbEntity
  8
0
100
AcDbLine
 10
283.0152399062667
 20
235.2827050314339
 30
0.0
 11
275.5152399062668
 21
227.7827050314339
 31
0.0
  0
LINE
  5
19EB8
330
1F
100
AcDbEntity
  8
OS
  6
DASHED
 62
     3
100
AcDbLine
 10
271.7153199062668
 20
208.9826350314335
 30
0.0
 11
274.0152899062668
 21
211.5962550314335
 31
0.0
  0
LINE
  5
19EB9
330
1F
100
AcDbEntity
  8
OS
  6
DASHED
 62
     3
100
AcDbLine
 10
274.0152899062668
 20
211.5962550314335
 30
0.0
 11
275.315309906267
 21
213.0735550314335
 31
0.0
  0
LINE
  5
19EBA
330
1F
100
AcDbEntity
  8
OS
  6
DASHED
 62
     3
100
AcDbLine
 10
274.0152799062666
 20
208.1147150314338
 30
0.0
 11
277.615279906267
 21
212.2056450314336
 31
0.0
  0
LINE
  5
19EBB
330
1F
100
AcDbEntity
  8
OS
  6
DASHED
 62
     3
100
AcDbLine
 10
275.315289906267
 20
222.9826650314336
 30
0.0
 11
275.315289906267
 21
213.0735450314338
 31
0.0
  0
LINE
  5
19EBC
330
1F
100
AcDbEntity
  8
OS
  6
DASHED
 62
     3
100
AcDbLine
 10
277.6152699062668
 20
222.9826650314336
 30
0.0
 11
277.6152699062668
 21
212.2056250314336
 31
0.0
  0
LINE
  5
19EBD
330
1F
100
AcDbEntity
  8
OS
  6
DASHED
 62
     3
100
AcDbLine
 10
271.7153099062671
 20
224.9826850314335
 30
0.0
 11
274.0152999062666
 21
224.9826850314335
 31
0.0
  0
LINE
  5
19EBE
330
1F
100
AcDbEntity
  8
OS
  6
DASHED
 62
     3
100
AcDbLine
 10
275.4118399062668
 20
225.9826550314339
 30
0.0
 11
275.4118399062668
 21
222.9826650314336
 31
0.0
  0
LINE
  5
19EBF
330
1F
100
AcDbEntity
  8
OS
  6
DASHED
 62
     3
100
AcDbLine
 10
277.7153099062671
 20
225.9826550314339
 30
0.0
 11
277.7153099062671
 21
222.9826650314336
 31
0.0
  0
LINE
  5
19EC0
330
1F
100
AcDbEntity
  8
OS
  6
DASHED
 62
     3
100
AcDbLine
 10
275.4118399062668
 20
225.9826850314336
 30
0.0
 11
277.7153099062671
 21
225.9826850314336
 31
0.0
  0
LINE
  5
19EC1
330
1F
100
AcDbEntity
  8
OS
  6
DASHED
 62
     3
100
AcDbLine
 10
277.6152699062668
 20
222.9826650314336
 30
0.0
 11
277.7153099062671
 21
222.9826650314336
 31
0.0
  0
LINE
  5
19EC2
330
1F
100
AcDbEntity
  8
OS
  6
DASHED
 62
     3
100
AcDbLine
 10
274.0152999062666
 20
224.9826850314335
 30
0.0
 11
274.0152999062666
 21
216.6834750314334
 31
0.0
  0
LINE
  5
19EC3
330
1F
100
AcDbEntity
  8
OS
  6
DASHED
 62
     3
100
AcDbLine
 10
275.315289906267
 20
172.3918750314334
 30
0.0
 11
275.315289906267
 21
162.4827150314337
 31
0.0
  0
LINE
  5
19EC4
330
1F
100
AcDbEntity
  8
OS
  6
DASHED
 62
     3
100
AcDbLine
 10
277.6152699062668
 20
173.2597650314338
 30
0.0
 11
277.6152699062668
 21
162.4827150314337
 31
0.0
  0
LINE
  5
19EC5
330
1F
100
AcDbEntity
  8
OS
  6
DASHED
 62
     3
100
AcDbLine
 10
275.315289906267
 20
172.3918850314336
 30
0.0
 11
274.0153299062667
 21
173.8691250314338
 31
0.0
  0
LINE
  5
19EC6
330
1F
100
AcDbEntity
  8
OS
  6
DASHED
 62
     3
100
AcDbLine
 10
274.0153299062667
 20
173.8691250314338
 30
0.0
 11
271.715349906267
 21
176.4827350314336
 31
0.0
  0
LINE
  5
19EC7
330
1F
100
AcDbEntity
  8
OS
  6
DASHED
 62
     3
100
AcDbLine
 10
277.615299906267
 20
173.2597650314338
 30
0.0
 11
274.0153099062668
 21
177.3506550314338
 31
0.0
  0
LINE
  5
19EC8
330
1F
100
AcDbEntity
  8
OS
  6
DASHED
 62
     3
100
AcDbLine
 10
275.4118399062668
 20
162.4827150314337
 30
0.0
 11
275.4118399062668
 21
159.4827150314337
 31
0.0
  0
LINE
  5
19EC9
330
1F
100
AcDbEntity
  8
OS
  6
DASHED
 62
     3
100
AcDbLine
 10
275.413309906267
 20
159.4827150314337
 30
0.0
 11
277.716769906267
 21
159.4827150314337
 31
0.0
  0
LINE
  5
19ECA
330
1F
100
AcDbEntity
  8
OS
  6
DASHED
 62
     3
100
AcDbLine
 10
277.7153099062671
 20
162.4827150314337
 30
0.0
 11
277.7153099062671
 21
159.4827150314337
 31
0.0
  0
LINE
  5
19ECB
330
1F
100
AcDbEntity
  8
OS
  6
DASHED
 62
     3
100
AcDbLine
 10
271.7153099062671
 20
160.4827150314337
 30
0.0
 11
274.0152999062666
 21
160.4827150314337
 31
0.0
  0
LINE
  5
19ECC
330
1F
100
AcDbEntity
  8
0
100
AcDbLine
 10
284.0152399062668
 20
299.4039010216446
 30
0.0
 11
251.8452399062671
 21
267.2339010216443
 31
0.0
  0
LINE
  5
19ECD
330
1F
100
AcDbEntity
  8
0
100
AcDbLine
 10
284.0152399062668
 20
302.2239010216444
 30
0.0
 11
251.8452399062671
 21
270.0539010216443
 31
0.0
  0
LINE
  5
19ECE
330
1F
100
AcDbEntity
  8
0
100
AcDbLine
 10
284.0152399062668
 20
305.0439010216445
 30
0.0
 11
251.8452399062671
 21
272.8739010216442
 31
0.0
  0
DIMENSION
  5
19ECF
330
1F
100
AcDbEntity
  8
003
100
AcDbDimension
  2
*D8
 10
719.5525996421706
 20
528.3401181554427
 30
0.0
 11
714.5525996421705
 21
473.2901181554428
 31
0.0
 70
    32
  1
製品H
 71
     5
 42
110.0999999999999
  3
DIM
100
AcDbAlignedDimension
 13
680.790587796177
 23
418.2401181554427
 33
0.0
 14
680.790587796177
 24
528.3401181554427
 34
0.0
 50
90.0
100
AcDbRotatedDimension
  0
LINE
  5
19ED0
330
1F
100
AcDbEntity
  8
003
100
AcDbLine
 10
671.790587796177
 20
524.4401181554426
 30
0.0
 11
671.790587796177
 21
422.1401181554425
 31
0.0
  0
LINE
  5
19ED1
330
1F
100
AcDbEntity
  8
003
100
AcDbLine
 10
680.790587796177
 20
528.3401181554427
 30
0.0
 11
680.790587796177
 21
418.2401181554427
 31
0.0
  0
LINE
  5
19ED2
330
1F
100
AcDbEntity
  8
003
100
AcDbLine
 10
599.7905877961771
 20
524.4401181554426
 30
0.0
 11
599.7905877961771
 21
422.1401181554425
 31
0.0
  0
LINE
  5
19ED3
330
1F
100
AcDbEntity
  8
003
100
AcDbLine
 10
590.7905877961771
 20
528.3401181554427
 30
0.0
 11
590.7905877961771
 21
418.2401181554427
 31
0.0
  0
DIMENSION
  5
19ED4
330
1F
100
AcDbEntity
  8
003
100
AcDbDimension
  2
*D9
 10
680.790587796177
 20
395.9218147561324
 30
0.0
 11
635.790587796177
 21
400.9218147561324
 31
0.0
 70
    32
  1
製品W
 71
     5
 42
90.0
  3
DIM
100
AcDbAlignedDimension
 13
590.7905877961771
 23
418.2401181554427
 33
0.0
 14
680.790587796177
 24
418.2401181554427
 34
0.0
100
AcDbRotatedDimension
  0
LINE
  5
19ED5
330
1F
100
AcDbEntity
  8
003
100
AcDbLine
 10
590.7905877961771
 20
418.2401181554427
 30
0.0
 11
680.790587796177
 21
418.2401181554427
 31
0.0
  0
LINE
  5
19ED6
330
1F
100
AcDbEntity
  8
003
100
AcDbLine
 10
590.7905877961771
 20
422.1401181554426
 30
0.0
 11
680.790587796177
 21
422.1401181554426
 31
0.0
  0
LINE
  5
19ED7
330
1F
100
AcDbEntity
  8
003
100
AcDbLine
 10
590.7905877961771
 20
419.4401181554426
 30
0.0
 11
680.790587796177
 21
419.4401181554426
 31
0.0
  0
LINE
  5
19ED8
330
1F
100
AcDbEntity
  8
003
100
AcDbLine
 10
590.7905877961771
 20
418.2401181554427
 30
0.0
 11
680.790587796177
 21
418.2401181554427
 31
0.0
  0
LINE
  5
19ED9
330
1F
100
AcDbEntity
  8
003
100
AcDbLine
 10
599.7905877961771
 20
425.1401181554427
 30
0.0
 11
671.790587796177
 21
425.1401181554427
 31
0.0
  0
LINE
  5
19EDA
330
1F
100
AcDbEntity
  8
003
100
AcDbLine
 10
595.7905877961771
 20
365.9218147561325
 30
0.0
 11
675.790587796177
 21
365.9218147561325
 31
0.0
  0
LINE
  5
19EDB
330
1F
100
AcDbEntity
  8
003
100
AcDbLine
 10
595.7905877961771
 20
380.9218147561324
 30
0.0
 11
675.790587796177
 21
380.9218147561324
 31
0.0
  0
TEXT
  5
19EDC
330
1F
100
AcDbEntity
  8
0
100
AcDbText
 10
617.9239211295104
 20
369.4218147561325
 30
0.0
 40
8.0
  1
外観姿図
  7
AT_VECTOR
 72
     1
 11
635.790587796177
 21
373.4218147561325
 31
0.0
100
AcDbText
 73
     2
  0
LINE
  5
19EDD
330
1F
100
AcDbEntity
  8
003
100
AcDbLine
 10
595.7905877961771
 20
380.9218147561324
 30
0.0
 11
595.7905877961771
 21
365.9218147561325
 31
0.0
  0
LINE
  5
19EDE
330
1F
100
AcDbEntity
  8
003
100
AcDbLine
 10
605.790587796177
 20
422.1401181554425
 30
0.0
 11
605.790587796177
 21
419.4401181554426
 31
0.0
  0
CIRCLE
  5
19EDF
330
1F
100
AcDbEntity
  8
003
100
AcDbCircle
 10
602.7905877961771
 20
420.7901181554426
 30
0.0
 40
0.75
  0
LINE
  5
19EE0
330
1F
100
AcDbEntity
  8
003
100
AcDbLine
 10
593.790587796177
 20
422.1401181554425
 30
0.0
 11
593.790587796177
 21
419.4401181554426
 31
0.0
  0
CIRCLE
  5
19EE1
330
1F
100
AcDbEntity
  8
003
100
AcDbCircle
 10
596.790587796177
 20
420.7901181554426
 30
0.0
 40
0.75
  0
MTEXT
  5
19EE2
102
{ACAD_REACTORS
330
19EE3
102
}
330
1F
100
AcDbEntity
  8
003
 62
     7
100
AcDbMText
 10
692.8199079774947
 20
403.795454704584
 30
0.0
 40
6.0
 41
0.0
 71
     7
 72
     1
  1
取付金具（下部）
  7
DIM
 73
     1
 44
1.0
1001
ACAD
1000
MTEXTBEGIN
1070
    73
1070
     1
1070
    44
1040
1.0
1070
    74
1070
     0
1000
MTEXTEND
  0
LEADER
  5
19EE3
330
1F
100
AcDbEntity
  8
003
100
AcDbLeader
  3
DIM
 73
     0
 74
     0
 40
6.000000000000001
 41
39.29999999999998
 76
     3
 10
672.6021494303665
 20
420.3414288253249
 30
0.0
 10
683.3096725813602
 20
401.795454704584
 30
0.0
 10
690.8199079774947
 20
401.795454704584
 30
0.0
340
19EE2
1001
ACAD
1000
DSTYLE
1002
{
1070
   147
1040
1.0
1070
    77
1070
     1
1002
}
  0
LINE
  5
19EE4
330
1F
100
AcDbEntity
  8
003
100
AcDbLine
 10
675.790587796177
 20
380.9218147561324
 30
0.0
 11
675.790587796177
 21
365.9218147561325
 31
0.0
  0
LINE
  5
19EE5
330
1F
100
AcDbEntity
  8
003
100
AcDbLine
 10
665.7905877961771
 20
422.1401181554425
 30
0.0
 11
665.7905877961771
 21
419.4401181554426
 31
0.0
  0
CIRCLE
  5
19EE6
330
1F
100
AcDbEntity
  8
003
100
AcDbCircle
 10
668.790587796177
 20
420.7901181554426
 30
0.0
 40
0.75
  0
LINE
  5
19EE7
330
1F
100
AcDbEntity
  8
003
100
AcDbLine
 10
677.7905877961771
 20
422.1401181554425
 30
0.0
 11
677.7905877961771
 21
419.4401181554426
 31
0.0
  0
CIRCLE
  5
19EE8
330
1F
100
AcDbEntity
  8
003
100
AcDbCircle
 10
674.7905877961771
 20
420.7901181554426
 30
0.0
 40
0.75
  0
LEADER
  5
19EE9
330
1F
100
AcDbEntity
  8
003
100
AcDbLeader
  3
DIM
 73
     0
 74
     0
 40
6.000000000000001
 41
9.600000000000001
 76
     3
 10
652.8329453333944
 20
477.9828095394202
 30
0.0
 10
659.0938621974815
 20
488.8270356499837
 30
0.0
 10
687.5945848650385
 20
488.8270356499837
 30
0.0
340
19EEA
1001
ACAD
1000
DSTYLE
1002
{
1070
   147
1040
1.0
1070
    77
1070
     1
1002
}
  0
MTEXT
  5
19EEA
102
{ACAD_REACTORS
330
19EE9
102
}
330
1F
100
AcDbEntity
  8
003
 62
     7
100
AcDbMText
 10
689.5945848650385
 20
490.8270356499838
 30
0.0
 40
6.0
 41
0.0
 71
     7
 72
     1
  1
羽根
  7
DIM
 73
     1
 44
1.0
1001
ACAD
1000
MTEXTBEGIN
1070
    73
1070
     1
1070
    44
1040
1.0
1070
    74
1070
     0
1000
MTEXTEND
  0
LINE
  5
19EEB
330
1F
100
AcDbEntity
  8
003
100
AcDbLine
 10
665.7905877961771
 20
531.3401181554427
 30
0.0
 11
653.7905877961771
 21
531.3401181554427
 31
0.0
  0
LINE
  5
19EEC
330
1F
100
AcDbEntity
  8
003
100
AcDbLine
 10
590.7905877961771
 20
528.3401181554427
 30
0.0
 11
680.790587796177
 21
528.3401181554427
 31
0.0
  0
LINE
  5
19EED
330
1F
100
AcDbEntity
  8
003
100
AcDbLine
 10
590.7905877961771
 20
524.4401181554426
 30
0.0
 11
680.790587796177
 21
524.4401181554426
 31
0.0
  0
LINE
  5
19EEE
330
1F
100
AcDbEntity
  8
003
100
AcDbLine
 10
590.7905877961771
 20
527.1401181554426
 30
0.0
 11
680.790587796177
 21
527.1401181554426
 31
0.0
  0
LINE
  5
19EEF
330
1F
100
AcDbEntity
  8
003
100
AcDbLine
 10
599.7905877961771
 20
521.4401181554426
 30
0.0
 11
671.790587796177
 21
521.4401181554426
 31
0.0
  0
LINE
  5
19EF0
330
1F
100
AcDbEntity
  8
003
100
AcDbLine
 10
599.7905877961771
 20
453.4901181554428
 30
0.0
 11
671.790587796177
 21
453.4901181554428
 31
0.0
  0
LINE
  5
19EF1
330
1F
100
AcDbEntity
  8
003
100
AcDbLine
 10
599.7905877961771
 20
463.3901181554427
 30
0.0
 11
671.790587796177
 21
463.3901181554427
 31
0.0
  0
LINE
  5
19EF2
330
1F
100
AcDbEntity
  8
003
100
AcDbLine
 10
599.7905877961771
 20
473.2901181554425
 30
0.0
 11
671.790587796177
 21
473.2901181554425
 31
0.0
  0
LINE
  5
19EF3
330
1F
100
AcDbEntity
  8
003
100
AcDbLine
 10
599.7905877961771
 20
483.1901181554426
 30
0.0
 11
671.790587796177
 21
483.1901181554426
 31
0.0
  0
LINE
  5
19EF4
330
1F
100
AcDbEntity
  8
003
100
AcDbLine
 10
599.7905877961771
 20
493.0901181554427
 30
0.0
 11
671.790587796177
 21
493.0901181554427
 31
0.0
  0
LINE
  5
19EF5
330
1F
100
AcDbEntity
  8
003
100
AcDbLine
 10
599.7905877961771
 20
502.9901181554428
 30
0.0
 11
671.790587796177
 21
502.9901181554428
 31
0.0
  0
LINE
  5
19EF6
330
1F
100
AcDbEntity
  8
003
100
AcDbLine
 10
599.7905877961771
 20
433.6901181554426
 30
0.0
 11
671.790587796177
 21
433.6901181554426
 31
0.0
  0
LINE
  5
19EF7
330
1F
100
AcDbEntity
  8
003
100
AcDbLine
 10
599.7905877961771
 20
443.5901181554426
 30
0.0
 11
671.790587796177
 21
443.5901181554426
 31
0.0
  0
LINE
  5
19EF8
330
1F
100
AcDbEntity
  8
003
100
AcDbLine
 10
599.7905877961771
 20
453.4901181554428
 30
0.0
 11
671.790587796177
 21
453.4901181554428
 31
0.0
  0
LINE
  5
19EF9
330
1F
100
AcDbEntity
  8
003
100
AcDbLine
 10
599.7905877961771
 20
512.8901181554426
 30
0.0
 11
671.790587796177
 21
512.8901181554426
 31
0.0
  0
LEADER
  5
19EFA
330
1F
100
AcDbEntity
  8
003
100
AcDbLeader
  3
DIM
 73
     0
 40
6.0
 41
18.68571428571429
 76
     3
 10
595.7966294850661
 20
455.2146621773979
 30
0.0
 10
584.195323866063
 20
475.3087129436456
 30
0.0
 10
580.3575495915106
 20
475.3087129436456
 30
0.0
340
19EFB
1001
ACAD
1000
DSTYLE
1002
{
1070
   147
1040
1.0
1070
    77
1070
     1
1002
}
  0
MTEXT
  5
19EFB
102
{ACAD_REACTORS
330
19EFA
102
}
330
1F
100
AcDbEntity
  8
003
 62
     7
100
AcDbMText
 10
578.3575495915106
 20
477.3087129436455
 30
0.0
 40
6.0
 41
0.0
 71
     9
 72
     1
  1
Ｈ材1型
  7
DIM
 73
     1
 44
1.0
1001
ACAD
1000
MTEXTBEGIN
1070
    73
1070
     1
1070
    44
1040
1.0
1070
    74
1070
     0
1000
MTEXTEND
  0
LEADER
  5
19EFC
330
1F
100
AcDbEntity
  8
003
100
AcDbLeader
  3
DIM
 73
     0
 40
6.000000000000003
 41
54.38571428571428
 76
     3
 10
593.4352298874021
 20
524.4401181554426
 30
0.0
 10
587.2510277923318
 20
535.1514703883784
 30
0.0
 10
586.7623353824263
 20
535.1514703883784
 30
0.0
340
19EFD
1001
ACAD
1000
DSTYLE
1002
{
1070
   147
1040
1.0
1070
    77
1070
     1
1002
}
  0
MTEXT
  5
19EFD
102
{ACAD_REACTORS
330
19EFC
102
}
330
1F
100
AcDbEntity
  8
003
 62
     7
100
AcDbMText
 10
584.7623353824262
 20
537.1514703883783
 30
0.0
 40
6.0
 41
0.0
 71
     9
 72
     1
  1
安全キャップ（4ヶ所）
  7
DIM
 73
     1
 44
1.0
1001
ACAD
1000
MTEXTBEGIN
1070
    73
1070
     1
1070
    44
1040
1.0
1070
    74
1070
     0
1000
MTEXTEND
  0
LINE
  5
19EFE
330
1F
100
AcDbEntity
  8
003
100
AcDbLine
 10
605.790587796177
 20
531.3401181554427
 30
0.0
 11
617.790587796177
 21
531.3401181554427
 31
0.0
  0
LINE
  5
19EFF
330
1F
100
AcDbEntity
  8
003
100
AcDbLine
 10
605.790587796177
 20
528.3401181554427
 30
0.0
 11
605.790587796177
 21
531.3401181554427
 31
0.0
  0
LINE
  5
19F00
330
1F
100
AcDbEntity
  8
003
100
AcDbLine
 10
617.790587796177
 20
528.3401181554427
 30
0.0
 11
617.790587796177
 21
531.3401181554427
 31
0.0
  0
LINE
  5
19F01
330
1F
100
AcDbEntity
  8
003
100
AcDbLine
 10
653.7905877961771
 20
528.3401181554427
 30
0.0
 11
653.7905877961771
 21
531.3401181554427
 31
0.0
  0
MTEXT
  5
19F02
102
{ACAD_REACTORS
330
19F03
102
}
330
1F
100
AcDbEntity
  8
003
 62
     7
100
AcDbMText
 10
671.9598478149318
 20
543.1375241189903
 30
0.0
 40
6.0
 41
0.0
 71
     7
 72
     1
  1
取付金具（上部）
  7
DIM
 73
     1
 44
1.0
1001
ACAD
1000
MTEXTBEGIN
1070
    73
1070
     1
1070
    44
1040
1.0
1070
    74
1070
     0
1000
MTEXTEND
  0
LEADER
  5
19F03
330
1F
100
AcDbEntity
  8
003
100
AcDbLeader
  3
DIM
 73
     0
 74
     0
 40
6.000000000000001
 41
39.29999999999998
 76
     3
 10
659.790587796177
 20
531.3401181554427
 30
0.0
 10
665.4471227665914
 20
541.1375241189903
 30
0.0
 10
669.9598478149319
 20
541.1375241189903
 30
0.0
340
19F02
1001
ACAD
1000
DSTYLE
1002
{
1070
   147
1040
1.0
1070
    77
1070
     1
1002
}
  0
LINE
  5
19F04
330
1F
100
AcDbEntity
  8
003
100
AcDbLine
 10
665.7905877961771
 20
528.3401181554427
 30
0.0
 11
665.7905877961771
 21
531.3401181554427
 31
0.0
  0
LINE
  5
19F05
330
1F
100
AcDbEntity
  8
003
100
AcDbLine
 10
243.1311383070195
 20
521.4050126380011
 30
0.0
 11
330.9751516968124
 21
521.4050126380011
 31
0.0
  0
LINE
  5
19F06
330
1F
100
AcDbEntity
  8
003
100
AcDbLine
 10
199.0212626666846
 20
481.708116720541
 30
0.0
 11
330.9751516968124
 21
481.708116720541
 31
0.0
  0
TEXT
  5
19F07
330
1F
100
AcDbEntity
  8
0
100
AcDbText
 10
204.4458488650173
 20
487.9332677470679
 30
0.0
 40
8.0
  1
サッシＨ＝３００～１００４
  7
AT_VECTOR
100
AcDbText
  0
TEXT
  5
19F08
330
1F
100
AcDbEntity
  8
0
100
AcDbText
 10
204.4458488650173
 20
502.9332677470679
 30
0.0
 40
8.0
  1
サッシＷ＝２５２～　８０２
  7
AT_VECTOR
100
AcDbText
  0
TEXT
  5
19F09
330
1F
100
AcDbEntity
  8
0
100
AcDbText
 10
194.7479322779402
 20
517.9332677470679
 30
0.0
 40
8.0
  1
※製作範囲
  7
AT_VECTOR
100
AcDbText
  0
LINE
  5
19F0A
330
1F
100
AcDbEntity
  8
003
100
AcDbLine
 10
330.9751516968124
 20
481.708116720541
 30
0.0
 11
330.9751516968124
 21
521.4050126380011
 31
0.0
  0
DIMENSION
  5
19F0B
330
1F
100
AcDbEntity
  8
003
100
AcDbDimension
  2
*D10
 10
319.0152399062668
 20
134.6001278518658
 30
0.0
 11
309.0152399062668
 21
139.6001278518658
 31
0.0
 70
    32
 71
     5
 42
20.0
  3
DIM
100
AcDbAlignedDimension
 13
299.0152399062667
 23
158.2827050314341
 33
0.0
 14
319.0152399062668
 24
217.9827150314337
 34
0.0
100
AcDbRotatedDimension
  0
DIMENSION
  5
19F0C
330
1F
100
AcDbEntity
  8
003
100
AcDbDimension
  2
*D11
 10
546.0152399062665
 20
134.6001278518658
 30
0.0
 11
556.0152399062665
 21
139.6001278518658
 31
0.0
 70
    32
 71
     5
 42
20.0
  3
DIM
100
AcDbAlignedDimension
 13
566.0152399062665
 23
158.2827050314341
 33
0.0
 14
546.0152399062665
 24
217.9827150314337
 34
0.0
 50
180.0
100
AcDbRotatedDimension
  0
LINE
  5
1A74E
330
1F
100
AcDbEntity
  8
006
100
AcDbLine
 10
342.111110195332
 20
238.4930110518795
 30
0.0
 11
326.660215151629
 21
238.4930110518795
 31
0.0
  0
LWPOLYLINE
  5
1A74F
330
1F
100
AcDbEntity
  8
003
100
AcDbPolyline
 90
        4
 70
     1
 43
0.0
 10
334.0152299237245
 20
245.9930110518795
 10
336.0152299237245
 20
245.9930110518795
 10
336.0152299237245
 20
230.9930110518795
 10
334.0152299237245
 20
230.9930110518795
  0
LINE
  5
1A750
330
1F
100
AcDbEntity
  8
003
100
AcDbLine
 10
334.0152299237245
 20
245.9930110518795
 30
0.0
 11
334.0152299237248
 21
235.1434019155775
 31
0.0
  0
LINE
  5
1A751
330
1F
100
AcDbEntity
  8
003
100
AcDbLine
 10
332.8152299237247
 20
244.7930110518795
 30
0.0
 11
332.8152299237247
 21
233.1509786704684
 31
0.0
  0
LINE
  5
1A752
330
1F
100
AcDbEntity
  8
003
100
AcDbLine
 10
332.0152299237248
 20
242.9930110518796
 30
0.0
 11
332.8152299237247
 21
242.9930110518791
 31
0.0
  0
LINE
  5
1A753
330
1F
100
AcDbEntity
  8
003
100
AcDbLine
 10
332.0152299237248
 20
242.4930110518795
 30
0.0
 11
329.0152299237247
 21
242.4930110518795
 31
0.0
  0
LINE
  5
1A754
330
1F
100
AcDbEntity
  8
003
100
AcDbLine
 10
334.0152299237245
 20
233.1509786704684
 30
0.0
 11
332.8152299237247
 21
233.1509786704684
 31
0.0
  0
LINE
  5
1A755
330
1F
100
AcDbEntity
  8
003
100
AcDbLine
 10
332.0152299237248
 20
233.9930110518795
 30
0.0
 11
332.8152299237247
 21
233.9930110518793
 31
0.0
  0
LINE
  5
1A756
330
1F
100
AcDbEntity
  8
003
100
AcDbLine
 10
332.0152299237248
 20
236.4830110518793
 30
0.0
 11
329.0152299237247
 21
236.4830110518793
 31
0.0
  0
LINE
  5
1A757
330
1F
100
AcDbEntity
  8
003
100
AcDbLine
 10
332.0152299237248
 20
234.4930110518795
 30
0.0
 11
329.0152299237247
 21
234.4930110518793
 31
0.0
  0
LINE
  5
1A758
330
1F
100
AcDbEntity
  8
003
100
AcDbLine
 10
332.0152299237248
 20
240.4830110518793
 30
0.0
 11
329.0152299237247
 21
240.4830110518793
 31
0.0
  0
LINE
  5
1A759
330
1F
100
AcDbEntity
  8
003
100
AcDbLine
 10
329.0152299237247
 20
242.4930110518795
 30
0.0
 11
329.0152299237247
 21
234.4930110518793
 31
0.0
  0
LINE
  5
1A75A
330
1F
100
AcDbEntity
  8
003
100
AcDbLine
 10
332.0152299237248
 20
233.9930110518795
 30
0.0
 11
332.0152299237248
 21
242.9930110518796
 31
0.0
  0
LINE
  5
1A75B
330
1F
100
AcDbEntity
  8
003
100
AcDbLine
 10
316.9152399062673
 20
244.7930110518795
 30
0.0
 11
332.8152299237247
 21
244.7930110518795
 31
0.0
  0
LINE
  5
1A75C
330
1F
100
AcDbEntity
  8
003
100
AcDbLine
 10
318.1152399062676
 20
245.9930110518795
 30
0.0
 11
334.0152299237245
 21
245.9930110518795
 31
0.0
  0
LINE
  5
1A75D
330
1F
100
AcDbEntity
  8
003
100
AcDbLine
 10
338.0152329618129
 20
245.9930110518793
 30
0.0
 11
338.0152329618131
 21
217.7823950314338
 31
0.0
  0
LINE
  5
1A75E
330
1F
100
AcDbEntity
  8
003
100
AcDbLine
 10
336.0152268144559
 20
220.7824314313285
 30
0.0
 11
336.0152325400031
 21
245.9930110518795
 31
0.0
  0
LINE
  5
1A75F
330
1F
100
AcDbEntity
  8
003
100
AcDbLine
 10
343.0152399062672
 20
218.7824295313318
 30
0.0
 11
343.0152399062672
 21
247.2827050314337
 31
0.0
  0
LINE
  5
1A760
330
1F
100
AcDbEntity
  8
003
100
AcDbLine
 10
341.0152329618131
 20
217.7823950314338
 30
0.0
 11
341.0152399062672
 21
247.2827050314337
 31
0.0
  0
LINE
  5
1A761
330
1F
100
AcDbEntity
  8
003
100
AcDbLine
 10
338.0152329618131
 20
220.7824314313285
 30
0.0
 11
336.0152268144559
 21
220.7824314313285
 31
0.0
  0
ARC
  5
1A762
330
1F
100
AcDbEntity
  8
2
  6
Continuous
 62
     2
100
AcDbCircle
 10
338.5152329618131
 20
241.5330110518793
 30
0.0
 40
0.5
100
AcDbArc
 50
90.0
 51
180.0
  0
LINE
  5
1A763
330
1F
100
AcDbEntity
  8
2
  6
Continuous
 62
     2
100
AcDbLine
 10
338.5152329618131
 20
242.0330110518795
 30
0.0
 11
339.2152329618129
 21
242.0330110518795
 31
0.0
  0
LINE
  5
1A764
330
1F
100
AcDbEntity
  8
2
  6
Continuous
 62
     2
100
AcDbLine
 10
340.2152329618129
 20
241.0530110518795
 30
0.0
 11
340.2152329618129
 21
235.9330110518794
 31
0.0
  0
ARC
  5
1A765
330
1F
100
AcDbEntity
  8
2
  6
Continuous
 62
     2
100
AcDbCircle
 10
338.5152329618131
 20
235.4330110518794
 30
0.0
 40
0.5
100
AcDbArc
 50
180.0
 51
270.0
  0
LINE
  5
1A766
330
1F
100
AcDbEntity
  8
2
  6
Continuous
 62
     2
100
AcDbLine
 10
338.5152329618131
 20
234.9330110518794
 30
0.0
 11
339.2152329618129
 21
234.9330110518794
 31
0.0
  0
ARC
  5
1A767
330
1F
100
AcDbEntity
  8
2
  6
Continuous
 62
     2
100
AcDbCircle
 10
339.2152329618129
 20
235.9330110518794
 30
0.0
 40
1.0
100
AcDbArc
 50
270.0
 51
0.0
  0
ARC
  5
1A768
330
1F
100
AcDbEntity
  8
2
  6
Continuous
 62
     2
100
AcDbCircle
 10
339.2152329618129
 20
241.0330110518793
 30
0.0
 40
1.0
100
AcDbArc
 50
0.0
 51
90.0
  0
LINE
  5
1A769
330
1F
100
AcDbEntity
  8
003
100
AcDbLine
 10
338.0152329618131
 20
217.7823950314338
 30
0.0
 11
341.0152329618131
 21
217.7823950314338
 31
0.0
  0
LINE
  5
1A76A
330
1F
100
AcDbEntity
  8
003
100
AcDbLine
 10
340.2152329618129
 20
237.7823950314338
 30
0.0
 11
341.0152329618131
 21
237.7823950314338
 31
0.0
  0
LINE
  5
1A76B
330
1F
100
AcDbEntity
  8
003
100
AcDbLine
 10
341.0152399062672
 20
218.7824295313318
 30
0.0
 11
343.0152399062672
 21
218.7824295313318
 31
0.0
  0
LINE
  5
1A76C
330
1F
100
AcDbEntity
  8
003
100
AcDbLine
 10
336.0152325400031
 20
245.9930110518795
 30
0.0
 11
338.0152329618129
 21
245.9930110518793
 31
0.0
  0
ENDSEC
  0
SECTION
  2
OBJECTS
  0
DICTIONARY
  5
C
330
0
100
AcDbDictionary
281
     1
  3
ACAD_COLOR
350
E400
  3
ACAD_GROUP
350
D
  3
ACAD_LAYOUT
350
1A
  3
ACAD_MATERIAL
350
E3D6
  3
ACAD_MLEADERSTYLE
350
E425
  3
ACAD_MLINESTYLE
350
17
  3
ACAD_PLOTSETTINGS
350
19
  3
ACAD_PLOTSTYLENAME
350
E
  3
ACAD_SCALELIST
350
E403
  3
ACAD_TABLESTYLE
350
E401
  3
ACAD_VISUALSTYLE
350
E3EF
  3
AcadDim
350
2AE
  3
ACDB_RECOMPOSE_DATA
350
103AB
  3
AcDbVariableDictionary
350
103AC
  3
DWGPROPS
350
1AB3C
  0
DICTIONARY
  5
18A0D
330
8
100
AcDbDictionary
280
     1
281
     1
  0
DICTIONARY
  5
2859
330
2
100
AcDbDictionary
280
     1
281
     1
  3
ACAD_LAYERFILTERS
360
128C4
  3
ACAD_LAYERSTATES
360
285A
  3
ACLYDICTIONARY
360
128C3
  0
DICTIONARY
  5
F074
330
10
100
AcDbDictionary
280
     1
281
     1
  3
ADSK_XREC_LAYER_RECONCILED
360
F075
  0
DICTIONARY
  5
F07A
330
33
100
AcDbDictionary
280
     1
281
     1
  3
ADSK_XREC_LAYER_RECONCILED
360
F07B
  0
DICTIONARY
  5
F080
330
1A4
100
AcDbDictionary
280
     1
281
     1
  3
ADSK_XREC_LAYER_RECONCILED
360
F081
  0
DICTIONARY
  5
F082
330
1A5
100
AcDbDictionary
280
     1
281
     1
  3
ADSK_XREC_LAYER_RECONCILED
360
F083
  0
DICTIONARY
  5
F088
330
2B1
100
AcDbDictionary
280
     1
281
     1
  3
ADSK_XREC_LAYER_RECONCILED
360
F089
  0
DICTIONARY
  5
F144
330
1F
100
AcDbDictionary
280
     1
281
     1
  3
ACAD_SORTENTS
360
F145
  0
DICTIONARY
  5
E400
102
{ACAD_REACTORS
330
C
102
}
330
C
100
AcDbDictionary
281
     1
  0
DICTIONARY
  5
D
102
{ACAD_REACTORS
330
C
102
}
330
C
100
AcDbDictionary
281
     1
  0
DICTIONARY
  5
1A
102
{ACAD_REACTORS
330
C
102
}
330
C
100
AcDbDictionary
281
     1
  3
Model
350
22
  3
ﾚｲｱｳﾄ1
350
1E
  3
ﾚｲｱｳﾄ2
350
26
  0
DICTIONARY
  5
E3D6
102
{ACAD_REACTORS
330
C
102
}
330
C
100
AcDbDictionary
281
     1
  3
ByBlock
350
E3DF
  3
ByLayer
350
E3D7
  3
Global
350
E3E7
  0
DICTIONARY
  5
E425
102
{ACAD_REACTORS
330
C
102
}
330
C
100
AcDbDictionary
281
     1
  3
Standard
350
E426
  0
DICTIONARY
  5
17
102
{ACAD_REACTORS
330
C
102
}
330
C
100
AcDbDictionary
281
     1
  3
Standard
350
18
  0
DICTIONARY
  5
19
102
{ACAD_REACTORS
330
C
102
}
330
C
100
AcDbDictionary
281
     1
  0
ACDBDICTIONARYWDFLT
  5
E
102
{ACAD_REACTORS
330
C
102
}
330
C
100
AcDbDictionary
281
     1
  3
Normal
350
F
100
AcDbDictionaryWithDefault
340
F
  0
DICTIONARY
  5
E403
102
{ACAD_REACTORS
330
C
102
}
330
C
100
AcDbDictionary
281
     1
  3
A0
350
E404
  3
A1
350
E405
  3
A2
350
E406
  3
A3
350
E407
  3
A4
350
E408
  3
A5
350
E409
  3
A6
350
E40A
  3
A7
350
E40B
  3
A8
350
E40C
  3
A9
350
E40D
  3
B0
350
E40E
  3
B1
350
E40F
  3
B2
350
E410
  3
B3
350
E411
  3
B4
350
E412
  3
B5
350
E413
  3
B6
350
E414
  3
B7
350
E415
  3
B8
350
E416
  3
B9
350
E417
  3
C0
350
E418
  3
C1
350
E419
  3
C2
350
E41A
  3
C3
350
E41B
  3
C4
350
E41C
  3
C5
350
E41D
  3
C6
350
E41E
  3
C7
350
E41F
  3
C8
350
E420
  3
C9
350
E421
  3
D0
350
E422
  3
D1
350
E423
  3
D2
350
E424
  0
DICTIONARY
  5
E401
102
{ACAD_REACTORS
330
C
102
}
330
C
100
AcDbDictionary
281
     1
  3
Standard
350
E402
  0
DICTIONARY
  5
E3EF
102
{ACAD_REACTORS
330
C
102
}
330
C
100
AcDbDictionary
281
     1
  3
2dWireframe
350
E3F5
  3
3D Hidden
350
E3F7
  3
3dWireframe
350
E3F6
  3
Basic
350
E3F4
  3
Brighten
350
E3FB
  3
ColorChange
350
E3FF
  3
Conceptual
350
E3F8
  3
Dim
350
E3FA
  3
Facepattern
350
E3FE
  3
Flat
350
E3F0
  3
FlatWithEdges
350
E3F1
  3
Gouraud
350
E3F2
  3
GouraudWithEdges
350
E3F3
  3
Linepattern
350
E3FD
  3
Realistic
350
E3F9
  3
Thicken
350
E3FC
  0
XRECORD
  5
2AE
102
{ACAD_REACTORS
330
C
102
}
330
C
100
AcDbXrecord
280
     1
 90
   990106
  3

 60
     0
 61
     0
 62
     4
 63
     4
 64
     1
 65
     0
 66
     0
 67
     3
 68
     1
 69
     0
 70
     0
 71
     0
 72
     0
 40
0.0
170
     2
  0
XRECORD
  5
103AB
102
{ACAD_REACTORS
330
C
102
}
330
C
100
AcDbXrecord
280
     1
 90
        1
330
E402
  0
DICTIONARY
  5
103AC
102
{ACAD_REACTORS
330
C
102
}
330
C
100
AcDbDictionary
281
     1
  3
CANNOSCALE
350
103B0
  3
CMLEADERSTYLE
350
103AE
  3
CTABLESTYLE
350
103AD
  3
DIMASSOC
350
18A5F
  3
INDEXCTL
350
18A5E
  3
LIGHTINGUNITS
350
103B1
  3
MSLTSCALE
350
103AF
  3
SORTENTS
350
18A5D
  0
XRECORD
  5
1AB3C
102
{ACAD_REACTORS
330
C
102
}
330
C
100
AcDbXrecord
280
     1
  1
DWGPROPS COOKIE
  2

  3

  4

  6

  7

  8
koba
  9

300
=
301
=
302
=
303
=
304
=
305
=
306
=
307
=
308
=
309
=
 40
0.4663315046296297
 41
2452888.42884919
 42
2455959.430708172
  1

 90
        0
  0
DICTIONARY
  5
128C4
102
{ACAD_REACTORS
330
2859
102
}
330
2859
100
AcDbDictionary
281
     1
  0
DICTIONARY
  5
285A
102
{ACAD_REACTORS
330
2859
102
}
330
2859
100
AcDbDictionary
281
     1
  0
DICTIONARY
  5
128C3
102
{ACAD_REACTORS
330
2859
102
}
330
2859
100
AcDbDictionary
281
     1
1001
ACAD
1000
<All
  0
XRECORD
  5
F075
102
{ACAD_REACTORS
330
F074
102
}
330
F074
100
AcDbXrecord
280
     1
290
     1
  0
XRECORD
  5
F07B
102
{ACAD_REACTORS
330
F07A
102
}
330
F07A
100
AcDbXrecord
280
     1
290
     1
  0
XRECORD
  5
F081
102
{ACAD_REACTORS
330
F080
102
}
330
F080
100
AcDbXrecord
280
     1
290
     1
  0
XRECORD
  5
F083
102
{ACAD_REACTORS
330
F082
102
}
330
F082
100
AcDbXrecord
280
     1
290
     1
  0
XRECORD
  5
F089
102
{ACAD_REACTORS
330
F088
102
}
330
F088
100
AcDbXrecord
280
     1
290
     1
  0
SORTENTSTABLE
  5
F145
102
{ACAD_REACTORS
330
F144
102
}
330
F144
100
AcDbSortentsTable
330
1F
331
18780
  5
18785
331
18793
  5
18798
331
1876E
  5
18773
331
187A5
  5
187AA
331
1876A
  5
1876F
331
1878F
  5
18794
331
1877D
  5
18782
331
187A1
  5
187A6
331
18766
  5
1876B
331
18779
  5
1877E
331
1879E
  5
187A3
331
1878B
  5
18790
331
18787
  5
1878C
331
18775
  5
1877A
331
187AC
  5
189F0
331
1879A
  5
1879F
331
18783
  5
18788
331
18771
  5
18776
331
187A8
  5
187AD
331
18796
  5
1879B
331
1876D
  5
18772
331
187A4
  5
187A9
331
18792
  5
18797
331
18769
  5
1876E
331
1878E
  5
18793
331
1877C
  5
18781
331
187A0
  5
187A5
331
18765
  5
1876A
331
1878A
  5
1878F
331
1879D
  5
187A2
331
18778
  5
1877D
331
18786
  5
1878B
331
18774
  5
18779
331
187AB
  5
189EF
331
18799
  5
1879E
331
18782
  5
18787
331
18770
  5
18775
331
187A7
  5
187AC
331
18795
  5
1879A
331
1876C
  5
18771
331
187A3
  5
187A8
331
1877F
  5
18784
331
18791
  5
18796
331
1878D
  5
18792
331
1877B
  5
18780
331
18768
  5
1876D
331
18764
  5
18769
331
18789
  5
1878E
331
1879C
  5
187A1
331
18777
  5
1877C
331
18785
  5
1878A
331
18773
  5
18778
331
187AA
  5
189EE
331
18798
  5
1879D
331
187A6
  5
187AB
331
18794
  5
18799
331
1876F
  5
18774
331
18781
  5
18786
331
1876B
  5
18770
331
187A2
  5
187A7
331
1877E
  5
18783
331
18790
  5
18795
331
1878C
  5
18791
331
F7F2
  5
F806
331
1877A
  5
1877F
331
1879F
  5
187A4
331
18767
  5
1876C
331
18763
  5
18768
331
18788
  5
1878D
331
18776
  5
1877B
331
187AD
  5
189F1
331
1879B
  5
187A0
331
18784
  5
18789
331
18772
  5
18777
331
187A9
  5
1891B
331
18797
  5
1879C
  0
LAYOUT
  5
22
102
{ACAD_XDICTIONARY
360
1AB3F
102
}
102
{ACAD_REACTORS
330
1A
102
}
330
1A
100
AcDbPlotSettings
  1

  2
Brother HL-2170W series
  4
A4
  6

 40
5.027082920074462
 41
5.027085781097412
 42
5.027069091796875
 43
5.027069091796875
 44
209.9733276367187
 45
296.9259948730469
 46
2.212012888514294
 47
0.0
 48
20.0000000000001
 49
21.0
140
808.0000000000037
141
558.0
142
1.0
143
2.746871216078874
 70
 11956
 72
     1
 73
     1
 74
     4
  7
EPSON.ctb
 75
     0
147
0.3640505583758265
148
-20.0000000000001
149
-21.0
100
AcDbLayout
  1
Model
 70
     1
 71
     0
 10
0.0
 20
0.0
 11
12.0
 21
9.0
 12
0.0
 22
0.0
 32
0.0
 14
0.0
 24
0.0
 34
0.0
 15
0.0
 25
0.0
 35
0.0
146
0.0
 13
0.0
 23
0.0
 33
0.0
 16
1.0
 26
0.0
 36
0.0
 17
0.0
 27
1.0
 37
0.0
 76
     0
330
1F
331
E3D4
1001
ACAD_PSEXT
1000
Brother HL-2170W series
1000
Brother HL-2170W series
1000
USB002
1000

1070
     0
  0
LAYOUT
  5
1E
102
{ACAD_XDICTIONARY
360
1AB3D
102
}
102
{ACAD_REACTORS
330
1A
102
}
330
1A
100
AcDbPlotSettings
  1

  2
C:\PROGRAM FILES\AUTOCAD LT 2000I\plotters\HP DesignJet 430 A3.pc3
  4

  6

 40
0.0
 41
0.0
 42
0.0
 43
0.0
 44
0.0
 45
0.0
 46
0.0
 47
0.0
 48
0.0
 49
0.0
140
0.0
141
0.0
142
1.0
143
1.0
 70
   688
 72
     0
 73
     0
 74
     5
  7
EPSON.ctb
 75
    16
147
1.0
148
0.0
149
0.0
100
AcDbLayout
  1
ﾚｲｱｳﾄ1
 70
     1
 71
     1
 10
0.0
 20
0.0
 11
420.0
 21
297.0
 12
0.0
 22
0.0
 32
0.0
 14
1.000000000000000E+20
 24
1.000000000000000E+20
 34
1.000000000000000E+20
 15
-1.000000000000000E+20
 25
-1.000000000000000E+20
 35
-1.000000000000000E+20
146
0.0
 13
0.0
 23
0.0
 33
0.0
 16
1.0
 26
0.0
 36
0.0
 17
0.0
 27
1.0
 37
0.0
 76
     0
330
1B
  0
LAYOUT
  5
26
102
{ACAD_XDICTIONARY
360
1AB41
102
}
102
{ACAD_REACTORS
330
1A
102
}
330
1A
100
AcDbPlotSettings
  1

  2
C:\PROGRAM FILES\AUTOCAD LT 2000I\plotters\HP DesignJet 430 A3.pc3
  4

  6

 40
0.0
 41
0.0
 42
0.0
 43
0.0
 44
0.0
 45
0.0
 46
0.0
 47
0.0
 48
0.0
 49
0.0
140
0.0
141
0.0
142
1.0
143
1.0
 70
   688
 72
     0
 73
     0
 74
     5
  7
EPSON.ctb
 75
    16
147
1.0
148
0.0
149
0.0
100
AcDbLayout
  1
ﾚｲｱｳﾄ2
 70
     1
 71
     2
 10
0.0
 20
0.0
 11
12.0
 21
9.0
 12
0.0
 22
0.0
 32
0.0
 14
0.0
 24
0.0
 34
0.0
 15
0.0
 25
0.0
 35
0.0
146
0.0
 13
0.0
 23
0.0
 33
0.0
 16
1.0
 26
0.0
 36
0.0
 17
0.0
 27
1.0
 37
0.0
 76
     0
330
23
  0
MATERIAL
  5
E3DF
102
{ACAD_XDICTIONARY
360
E3E0
102
}
102
{ACAD_REACTORS
330
E3D6
102
}
330
E3D6
100
AcDbMaterial
  1
ByBlock
 72
     0
 43
0.0008202099737533
 43
0.0
 43
0.0
 43
0.0
 43
0.0
 43
0.0008202099737533
 43
0.0
 43
0.0
 43
0.0
 43
0.0
 43
1.0
 43
0.0
 43
0.0
 43
0.0
 43
0.0
 43
1.0
 77
     0
 47
0.0008202099737533
 47
0.0
 47
0.0
 47
0.0
 47
0.0
 47
0.0008202099737533
 47
0.0
 47
0.0
 47
0.0
 47
0.0
 47
1.0
 47
0.0
 47
0.0
 47
0.0
 47
0.0
 47
1.0
171
     0
 49
0.0008202099737533
 49
0.0
 49
0.0
 49
0.0
 49
0.0
 49
0.0008202099737533
 49
0.0
 49
0.0
 49
0.0
 49
0.0
 49
1.0
 49
0.0
 49
0.0
 49
0.0
 49
0.0
 49
1.0
175
     0
142
0.0008202099737533
142
0.0
142
0.0
142
0.0
142
0.0
142
0.0008202099737533
142
0.0
142
0.0
142
0.0
142
0.0
142
1.0
142
0.0
142
0.0
142
0.0
142
0.0
142
1.0
179
     0
144
0.0008202099737533
144
0.0
144
0.0
144
0.0
144
0.0
144
0.0008202099737533
144
0.0
144
0.0
144
0.0
144
0.0
144
1.0
144
0.0
144
0.0
144
0.0
144
0.0
144
1.0
147
0.0008202099737533
147
0.0
147
0.0
147
0.0
147
0.0
147
0.0008202099737533
147
0.0
147
0.0
147
0.0
147
0.0
147
1.0
147
0.0
147
0.0
147
0.0
147
0.0
147
1.0
  0
MATERIAL
  5
E3D7
102
{ACAD_XDICTIONARY
360
E3D8
102
}
102
{ACAD_REACTORS
330
E3D6
102
}
330
E3D6
100
AcDbMaterial
  1
ByLayer
 72
     0
 43
0.0008202099737533
 43
0.0
 43
0.0
 43
0.0
 43
0.0
 43
0.0008202099737533
 43
0.0
 43
0.0
 43
0.0
 43
0.0
 43
1.0
 43
0.0
 43
0.0
 43
0.0
 43
0.0
 43
1.0
 77
     0
 47
0.0008202099737533
 47
0.0
 47
0.0
 47
0.0
 47
0.0
 47
0.0008202099737533
 47
0.0
 47
0.0
 47
0.0
 47
0.0
 47
1.0
 47
0.0
 47
0.0
 47
0.0
 47
0.0
 47
1.0
171
     0
 49
0.0008202099737533
 49
0.0
 49
0.0
 49
0.0
 49
0.0
 49
0.0008202099737533
 49
0.0
 49
0.0
 49
0.0
 49
0.0
 49
1.0
 49
0.0
 49
0.0
 49
0.0
 49
0.0
 49
1.0
175
     0
142
0.0008202099737533
142
0.0
142
0.0
142
0.0
142
0.0
142
0.0008202099737533
142
0.0
142
0.0
142
0.0
142
0.0
142
1.0
142
0.0
142
0.0
142
0.0
142
0.0
142
1.0
179
     0
144
0.0008202099737533
144
0.0
144
0.0
144
0.0
144
0.0
144
0.0008202099737533
144
0.0
144
0.0
144
0.0
144
0.0
144
1.0
144
0.0
144
0.0
144
0.0
144
0.0
144
1.0
147
0.0008202099737533
147
0.0
147
0.0
147
0.0
147
0.0
147
0.0008202099737533
147
0.0
147
0.0
147
0.0
147
0.0
147
1.0
147
0.0
147
0.0
147
0.0
147
0.0
147
1.0
  0
MATERIAL
  5
E3E7
102
{ACAD_XDICTIONARY
360
E3E8
102
}
102
{ACAD_REACTORS
330
E3D6
102
}
330
E3D6
100
AcDbMaterial
  1
Global
 72
     0
 43
0.0008202099737533
 43
0.0
 43
0.0
 43
0.0
 43
0.0
 43
0.0008202099737533
 43
0.0
 43
0.0
 43
0.0
 43
0.0
 43
1.0
 43
0.0
 43
0.0
 43
0.0
 43
0.0
 43
1.0
 77
     0
 47
0.0008202099737533
 47
0.0
 47
0.0
 47
0.0
 47
0.0
 47
0.0008202099737533
 47
0.0
 47
0.0
 47
0.0
 47
0.0
 47
1.0
 47
0.0
 47
0.0
 47
0.0
 47
0.0
 47
1.0
171
     0
 49
0.0008202099737533
 49
0.0
 49
0.0
 49
0.0
 49
0.0
 49
0.0008202099737533
 49
0.0
 49
0.0
 49
0.0
 49
0.0
 49
1.0
 49
0.0
 49
0.0
 49
0.0
 49
0.0
 49
1.0
175
     0
142
0.0008202099737533
142
0.0
142
0.0
142
0.0
142
0.0
142
0.0008202099737533
142
0.0
142
0.0
142
0.0
142
0.0
142
1.0
142
0.0
142
0.0
142
0.0
142
0.0
142
1.0
179
     0
144
0.0008202099737533
144
0.0
144
0.0
144
0.0
144
0.0
144
0.0008202099737533
144
0.0
144
0.0
144
0.0
144
0.0
144
1.0
144
0.0
144
0.0
144
0.0
144
0.0
144
1.0
147
0.0008202099737533
147
0.0
147
0.0
147
0.0
147
0.0
147
0.0008202099737533
147
0.0
147
0.0
147
0.0
147
0.0
147
1.0
147
0.0
147
0.0
147
0.0
147
0.0
147
1.0
  0
MLEADERSTYLE
  5
E426
102
{ACAD_REACTORS
330
E425
102
}
330
E425
100
AcDbMLeaderStyle
170
     2
171
     1
172
     0
 90
        2
 40
0.0
 41
0.0
173
     1
 91
-1023410172
340
15
 92
       20
290
     1
 42
0.09
291
     1
 43
-0.36
  3
Standard
341
2B
 44
3.0
300

342
34
174
     6
178
     6
175
     1
176
     0
 93
-1023410169
 45
6.0
292
     0
297
     0
 46
0.18
 94
-1056964608
 47
1.0
 49
1.0
140
1.0
293
     1
141
0.0
294
     1
177
     0
142
1.0
295
     0
296
     0
143
0.125
1001
ACAD_MLEADERVER
1070
     2
  0
MLINESTYLE
  5
18
102
{ACAD_REACTORS
330
17
102
}
330
17
100
AcDbMlineStyle
  2
STANDARD
 70
     0
  3

 62
   256
 51
90.0
 52
90.0
 71
     2
 49
0.5
 62
   256
  6
BYLAYER
 49
-0.5
 62
   256
  6
BYLAYER
  0
ACDBPLACEHOLDER
  5
F
102
{ACAD_REACTORS
330
E
102
}
330
E
  0
SCALE
  5
E404
102
{ACAD_REACTORS
330
E403
102
}
330
E403
100
AcDbScale
 70
     0
300
1:1
140
1.0
141
1.0
290
     1
  0
SCALE
  5
E405
102
{ACAD_REACTORS
330
E403
102
}
330
E403
100
AcDbScale
 70
     0
300
1:2
140
1.0
141
2.0
290
     0
  0
SCALE
  5
E406
102
{ACAD_REACTORS
330
E403
102
}
330
E403
100
AcDbScale
 70
     0
300
1:4
140
1.0
141
4.0
290
     0
  0
SCALE
  5
E407
102
{ACAD_REACTORS
330
E403
102
}
330
E403
100
AcDbScale
 70
     0
300
1:5
140
1.0
141
5.0
290
     0
  0
SCALE
  5
E408
102
{ACAD_REACTORS
330
E403
102
}
330
E403
100
AcDbScale
 70
     0
300
1:8
140
1.0
141
8.0
290
     0
  0
SCALE
  5
E409
102
{ACAD_REACTORS
330
E403
102
}
330
E403
100
AcDbScale
 70
     0
300
1:10
140
1.0
141
10.0
290
     0
  0
SCALE
  5
E40A
102
{ACAD_REACTORS
330
E403
102
}
330
E403
100
AcDbScale
 70
     0
300
1:16
140
1.0
141
16.0
290
     0
  0
SCALE
  5
E40B
102
{ACAD_REACTORS
330
E403
102
}
330
E403
100
AcDbScale
 70
     0
300
1:20
140
1.0
141
20.0
290
     0
  0
SCALE
  5
E40C
102
{ACAD_REACTORS
330
E403
102
}
330
E403
100
AcDbScale
 70
     0
300
1:30
140
1.0
141
30.0
290
     0
  0
SCALE
  5
E40D
102
{ACAD_REACTORS
330
E403
102
}
330
E403
100
AcDbScale
 70
     0
300
1:40
140
1.0
141
40.0
290
     0
  0
SCALE
  5
E40E
102
{ACAD_REACTORS
330
E403
102
}
330
E403
100
AcDbScale
 70
     0
300
1:50
140
1.0
141
50.0
290
     0
  0
SCALE
  5
E40F
102
{ACAD_REACTORS
330
E403
102
}
330
E403
100
AcDbScale
 70
     0
300
1:100
140
1.0
141
100.0
290
     0
  0
SCALE
  5
E410
102
{ACAD_REACTORS
330
E403
102
}
330
E403
100
AcDbScale
 70
     0
300
2:1
140
2.0
141
1.0
290
     0
  0
SCALE
  5
E411
102
{ACAD_REACTORS
330
E403
102
}
330
E403
100
AcDbScale
 70
     0
300
4:1
140
4.0
141
1.0
290
     0
  0
SCALE
  5
E412
102
{ACAD_REACTORS
330
E403
102
}
330
E403
100
AcDbScale
 70
     0
300
8:1
140
8.0
141
1.0
290
     0
  0
SCALE
  5
E413
102
{ACAD_REACTORS
330
E403
102
}
330
E403
100
AcDbScale
 70
     0
300
10:1
140
10.0
141
1.0
290
     0
  0
SCALE
  5
E414
102
{ACAD_REACTORS
330
E403
102
}
330
E403
100
AcDbScale
 70
     0
300
100:1
140
100.0
141
1.0
290
     0
  0
SCALE
  5
E415
102
{ACAD_REACTORS
330
E403
102
}
330
E403
100
AcDbScale
 70
     0
300
1/128" = 1'-0"
140
0.0078125
141
12.0
290
     0
  0
SCALE
  5
E416
102
{ACAD_REACTORS
330
E403
102
}
330
E403
100
AcDbScale
 70
     0
300
1/64" = 1'-0"
140
0.015625
141
12.0
290
     0
  0
SCALE
  5
E417
102
{ACAD_REACTORS
330
E403
102
}
330
E403
100
AcDbScale
 70
     0
300
1/32" = 1'-0"
140
0.03125
141
12.0
290
     0
  0
SCALE
  5
E418
102
{ACAD_REACTORS
330
E403
102
}
330
E403
100
AcDbScale
 70
     0
300
1/16" = 1'-0"
140
0.0625
141
12.0
290
     0
  0
SCALE
  5
E419
102
{ACAD_REACTORS
330
E403
102
}
330
E403
100
AcDbScale
 70
     0
300
3/32" = 1'-0"
140
0.09375
141
12.0
290
     0
  0
SCALE
  5
E41A
102
{ACAD_REACTORS
330
E403
102
}
330
E403
100
AcDbScale
 70
     0
300
1/8" = 1'-0"
140
0.125
141
12.0
290
     0
  0
SCALE
  5
E41B
102
{ACAD_REACTORS
330
E403
102
}
330
E403
100
AcDbScale
 70
     0
300
3/16" = 1'-0"
140
0.1875
141
12.0
290
     0
  0
SCALE
  5
E41C
102
{ACAD_REACTORS
330
E403
102
}
330
E403
100
AcDbScale
 70
     0
300
1/4" = 1'-0"
140
0.25
141
12.0
290
     0
  0
SCALE
  5
E41D
102
{ACAD_REACTORS
330
E403
102
}
330
E403
100
AcDbScale
 70
     0
300
3/8" = 1'-0"
140
0.375
141
12.0
290
     0
  0
SCALE
  5
E41E
102
{ACAD_REACTORS
330
E403
102
}
330
E403
100
AcDbScale
 70
     0
300
1/2" = 1'-0"
140
0.5
141
12.0
290
     0
  0
SCALE
  5
E41F
102
{ACAD_REACTORS
330
E403
102
}
330
E403
100
AcDbScale
 70
     0
300
3/4" = 1'-0"
140
0.75
141
12.0
290
     0
  0
SCALE
  5
E420
102
{ACAD_REACTORS
330
E403
102
}
330
E403
100
AcDbScale
 70
     0
300
1" = 1'-0"
140
1.0
141
12.0
290
     0
  0
SCALE
  5
E421
102
{ACAD_REACTORS
330
E403
102
}
330
E403
100
AcDbScale
 70
     0
300
1-1/2" = 1'-0"
140
1.5
141
12.0
290
     0
  0
SCALE
  5
E422
102
{ACAD_REACTORS
330
E403
102
}
330
E403
100
AcDbScale
 70
     0
300
3" = 1'-0"
140
3.0
141
12.0
290
     0
  0
SCALE
  5
E423
102
{ACAD_REACTORS
330
E403
102
}
330
E403
100
AcDbScale
 70
     0
300
6" = 1'-0"
140
6.0
141
12.0
290
     0
  0
SCALE
  5
E424
102
{ACAD_REACTORS
330
E403
102
}
330
E403
100
AcDbScale
 70
     0
300
1'-0" = 1'-0"
140
12.0
141
12.0
290
     0
  0
TABLESTYLE
  5
E402
102
{ACAD_XDICTIONARY
360
103A9
102
}
102
{ACAD_REACTORS
330
E401
102
}
330
E401
100
AcDbTableStyle
  3
Standard
 70
     0
 71
     0
 40
0.06
 41
0.06
280
     0
281
     0
  7
Standard
140
0.18
170
     2
 62
     0
 63
     7
283
     0
274
    -2
284
     1
 64
     0
275
    -2
285
     1
 65
     0
276
    -2
286
     1
 66
     0
277
    -2
287
     1
 67
     0
278
    -2
288
     1
 68
     0
279
    -2
289
     1
 69
     0
  7
Standard
140
0.25
170
     5
 62
     0
 63
     7
283
     0
274
    -2
284
     1
 64
     0
275
    -2
285
     1
 65
     0
276
    -2
286
     1
 66
     0
277
    -2
287
     1
 67
     0
278
    -2
288
     1
 68
     0
279
    -2
289
     1
 69
     0
  7
Standard
140
0.18
170
     5
 62
     0
 63
     7
283
     0
274
    -2
284
     1
 64
     0
275
    -2
285
     1
 65
     0
276
    -2
286
     1
 66
     0
277
    -2
287
     1
 67
     0
278
    -2
288
     1
 68
     0
279
    -2
289
     1
 69
     0
  0
VISUALSTYLE
  5
E3F5
102
{ACAD_REACTORS
330
E3EF
102
}
330
E3EF
100
AcDbVisualStyle
  2
2dWireframe
 70
     4
 71
     0
 72
     2
 73
     0
 90
        0
 40
-0.6
 41
-30.0
 62
     5
 63
     7
 74
     1
 91
        4
 64
     7
 65
   257
 75
     1
175
     1
 42
1.0
 92
        0
 66
   257
 43
1.0
 76
     1
 77
     6
 78
     2
 67
     7
 79
     5
170
     0
171
     0
290
     0
174
     0
 93
        1
 44
0.0
173
     0
291
     0
 45
0.0
1001
ACAD
1000
AcDbSavedByObjectVersion
1070
     0
  0
VISUALSTYLE
  5
E3F7
102
{ACAD_REACTORS
330
E3EF
102
}
330
E3EF
100
AcDbVisualStyle
  2
3D Hidden
 70
     6
 71
     1
 72
     2
 73
     2
 90
        0
 40
-0.6
 41
-30.0
 62
     5
 63
     7
 74
     2
 91
        2
 64
     7
 65
   257
 75
     2
175
     1
 42
40.0
 92
        0
 66
   257
 43
1.0
 76
     1
 77
     6
 78
     2
 67
     7
 79
     3
170
     0
171
     0
290
     0
174
     0
 93
        1
 44
0.0
173
     0
291
     0
 45
0.0
1001
ACAD
1000
AcDbSavedByObjectVersion
1070
     0
  0
VISUALSTYLE
  5
E3F6
102
{ACAD_REACTORS
330
E3EF
102
}
330
E3EF
100
AcDbVisualStyle
  2
3dWireframe
 70
     5
 71
     0
 72
     2
 73
     0
 90
        0
 40
-0.6
 41
-30.0
 62
     5
 63
     7
 74
     1
 91
        4
 64
     7
 65
   257
 75
     1
175
     1
 42
1.0
 92
        0
 66
   257
 43
1.0
 76
     1
 77
     6
 78
     2
 67
     7
 79
     5
170
     0
171
     0
290
     0
174
     0
 93
        1
 44
0.0
173
     0
291
     0
 45
0.0
1001
ACAD
1000
AcDbSavedByObjectVersion
1070
     0
  0
VISUALSTYLE
  5
E3F4
102
{ACAD_REACTORS
330
E3EF
102
}
330
E3EF
100
AcDbVisualStyle
  2
Basic
 70
     7
 71
     1
 72
     0
 73
     1
 90
        0
 40
-0.6
 41
-30.0
 62
     5
 63
     7
 74
     0
 91
        4
 64
     7
 65
   257
 75
     1
175
     1
 42
1.0
 92
        8
 66
     7
 43
1.0
 76
     1
 77
     6
 78
     2
 67
     7
 79
     5
170
     0
171
     0
290
     0
174
     0
 93
        1
 44
0.0
173
     0
291
     1
 45
0.0
1001
ACAD
1000
AcDbSavedByObjectVersion
1070
     0
  0
VISUALSTYLE
  5
E3FB
102
{ACAD_REACTORS
330
E3EF
102
}
330
E3EF
100
AcDbVisualStyle
  2
Brighten
 70
    12
 71
     2
 72
     2
 73
     0
 90
        0
 40
-0.6
 41
-30.0
 62
     5
 63
     7
 74
     1
 91
        4
 64
     7
 65
   257
 75
     1
175
     1
 42
1.0
 92
        8
 66
     7
 43
1.0
 76
     1
 77
     6
 78
     2
 67
     7
 79
     5
170
     0
171
     0
290
     0
174
     0
 93
        1
 44
50.0
173
     0
291
     1
 45
0.0
1001
ACAD
1000
AcDbSavedByObjectVersion
1070
     0
  0
VISUALSTYLE
  5
E3FF
102
{ACAD_REACTORS
330
E3EF
102
}
330
E3EF
100
AcDbVisualStyle
  2
ColorChange
 70
    16
 71
     2
 72
     2
 73
     3
 90
        0
 40
-0.6
 41
-30.0
 62
     5
 63
     8
 74
     1
 91
        4
 64
     7
 65
   257
 75
     1
175
     1
 42
1.0
 92
        8
 66
     8
 43
1.0
 76
     1
 77
     6
 78
     2
 67
     7
 79
     5
170
     0
171
     0
290
     0
174
     0
 93
        1
 44
0.0
173
     0
291
     1
 45
0.0
1001
ACAD
1000
AcDbSavedByObjectVersion
1070
     0
  0
VISUALSTYLE
  5
E3F8
102
{ACAD_REACTORS
330
E3EF
102
}
330
E3EF
100
AcDbVisualStyle
  2
Conceptual
 70
     9
 71
     3
 72
     2
 73
     0
 90
        0
 40
-0.6
 41
-30.0
 62
     5
 63
     7
 74
     2
 91
        2
 64
     7
 65
   257
 75
     1
175
     1
 42
40.0
 92
        8
 66
     7
 43
1.0
 76
     1
 77
     6
 78
     2
 67
     7
 79
     3
170
     0
171
     0
290
     0
174
     0
 93
        1
 44
0.0
173
     0
291
     0
 45
0.0
1001
ACAD
1000
AcDbSavedByObjectVersion
1070
     0
  0
VISUALSTYLE
  5
E3FA
102
{ACAD_REACTORS
330
E3EF
102
}
330
E3EF
100
AcDbVisualStyle
  2
Dim
 70
    11
 71
     2
 72
     2
 73
     0
 90
        0
 40
-0.6
 41
-30.0
 62
     5
 63
     7
 74
     1
 91
        4
 64
     7
 65
   257
 75
     1
175
     1
 42
1.0
 92
        8
 66
     7
 43
1.0
 76
     1
 77
     6
 78
     2
 67
     7
 79
     5
170
     0
171
     0
290
     0
174
     0
 93
        1
 44
-50.0
173
     0
291
     1
 45
0.0
1001
ACAD
1000
AcDbSavedByObjectVersion
1070
     0
  0
VISUALSTYLE
  5
E3FE
102
{ACAD_REACTORS
330
E3EF
102
}
330
E3EF
100
AcDbVisualStyle
  2
Facepattern
 70
    15
 71
     2
 72
     2
 73
     0
 90
        0
 40
-0.6
 41
-30.0
 62
     5
 63
     7
 74
     1
 91
        4
 64
     7
 65
   257
 75
     1
175
     1
 42
1.0
 92
        8
 66
     7
 43
1.0
 76
     1
 77
     6
 78
     2
 67
     7
 79
     5
170
     0
171
     0
290
     0
174
     0
 93
        1
 44
0.0
173
     0
291
     1
 45
0.0
1001
ACAD
1000
AcDbSavedByObjectVersion
1070
     0
  0
VISUALSTYLE
  5
E3F0
102
{ACAD_REACTORS
330
E3EF
102
}
330
E3EF
100
AcDbVisualStyle
  2
Flat
 70
     0
 71
     2
 72
     1
 73
     1
 90
        2
 40
-0.6
 41
30.0
 62
     5
 63
     7
 74
     0
 91
        4
 64
     7
 65
   257
 75
     1
175
     1
 42
1.0
 92
        8
 66
     7
 43
1.0
 76
     1
 77
     6
 78
     2
 67
     7
 79
     5
170
     0
171
     0
290
     0
174
     0
 93
       13
 44
0.0
173
     0
291
     1
 45
0.0
1001
ACAD
1000
AcDbSavedByObjectVersion
1070
     0
  0
VISUALSTYLE
  5
E3F1
102
{ACAD_REACTORS
330
E3EF
102
}
330
E3EF
100
AcDbVisualStyle
  2
FlatWithEdges
 70
     1
 71
     2
 72
     1
 73
     1
 90
        2
 40
-0.6
 41
30.0
 62
     5
 63
     7
 74
     1
 91
        4
 64
     7
 65
   257
 75
     1
175
     1
 42
1.0
 92
        0
 66
   257
 43
1.0
 76
     1
 77
     6
 78
     2
 67
     7
 79
     5
170
     0
171
     0
290
     0
174
     0
 93
       13
 44
0.0
173
     0
291
     1
 45
0.0
1001
ACAD
1000
AcDbSavedByObjectVersion
1070
     0
  0
VISUALSTYLE
  5
E3F2
102
{ACAD_REACTORS
330
E3EF
102
}
330
E3EF
100
AcDbVisualStyle
  2
Gouraud
 70
     2
 71
     2
 72
     2
 73
     1
 90
        2
 40
-0.6
 41
30.0
 62
     5
 63
     7
 74
     0
 91
        4
 64
     7
 65
   257
 75
     1
175
     1
 42
1.0
 92
        0
 66
     7
 43
1.0
 76
     1
 77
     6
 78
     2
 67
     7
 79
     5
170
     0
171
     0
290
     0
174
     0
 93
       13
 44
0.0
173
     0
291
     1
 45
0.0
1001
ACAD
1000
AcDbSavedByObjectVersion
1070
     0
  0
VISUALSTYLE
  5
E3F3
102
{ACAD_REACTORS
330
E3EF
102
}
330
E3EF
100
AcDbVisualStyle
  2
GouraudWithEdges
 70
     3
 71
     2
 72
     2
 73
     1
 90
        2
 40
-0.6
 41
30.0
 62
     5
 63
     7
 74
     1
 91
        4
 64
     7
 65
   257
 75
     1
175
     1
 42
1.0
 92
        0
 66
   257
 43
1.0
 76
     1
 77
     6
 78
     2
 67
     7
 79
     5
170
     0
171
     0
290
     0
174
     0
 93
       13
 44
0.0
173
     0
291
     1
 45
0.0
1001
ACAD
1000
AcDbSavedByObjectVersion
1070
     0
  0
VISUALSTYLE
  5
E3FD
102
{ACAD_REACTORS
330
E3EF
102
}
330
E3EF
100
AcDbVisualStyle
  2
Linepattern
 70
    14
 71
     2
 72
     2
 73
     0
 90
        0
 40
-0.6
 41
-30.0
 62
     5
 63
     7
 74
     1
 91
        4
 64
     7
 65
   257
 75
     7
175
     7
 42
1.0
 92
        8
 66
     7
 43
1.0
 76
     1
 77
     6
 78
     2
 67
     7
 79
     5
170
     0
171
     0
290
     0
174
     0
 93
        1
 44
0.0
173
     0
291
     1
 45
0.0
1001
ACAD
1000
AcDbSavedByObjectVersion
1070
     0
  0
VISUALSTYLE
  5
E3F9
102
{ACAD_REACTORS
330
E3EF
102
}
330
E3EF
100
AcDbVisualStyle
  2
Realistic
 70
     8
 71
     2
 72
     2
 73
     0
 90
        0
 40
-0.6
 41
-30.0
 62
     5
 63
     7
 74
     1
 91
        0
 64
     7
 65
   257
 75
     1
175
     1
 42
1.0
 92
        8
 66
     8
 43
1.0
 76
     1
 77
     6
 78
     2
 67
     7
 79
     5
170
     0
171
     0
290
     0
174
     0
 93
       13
 44
0.0
173
     0
291
     0
 45
0.0
1001
ACAD
1000
AcDbSavedByObjectVersion
1070
     0
  0
VISUALSTYLE
  5
E3FC
102
{ACAD_REACTORS
330
E3EF
102
}
330
E3EF
100
AcDbVisualStyle
  2
Thicken
 70
    13
 71
     2
 72
     2
 73
     0
 90
        0
 40
-0.6
 41
-30.0
 62
     5
 63
     7
 74
     1
 91
        4
 64
     7
 65
   257
 75
     1
175
     1
 42
1.0
 92
       12
 66
     7
 43
1.0
 76
     1
 77
     6
 78
     2
 67
     7
 79
     5
170
     0
171
     0
290
     0
174
     0
 93
        1
 44
0.0
173
     0
291
     1
 45
0.0
1001
ACAD
1000
AcDbSavedByObjectVersion
1070
     0
  0
DICTIONARYVAR
  5
103B0
102
{ACAD_REACTORS
330
103AC
102
}
330
103AC
100
DictionaryVariables
280
     0
  1
1:1
  0
DICTIONARYVAR
  5
103AE
102
{ACAD_REACTORS
330
103AC
102
}
330
103AC
100
DictionaryVariables
280
     0
  1
STANDARD
  0
DICTIONARYVAR
  5
103AD
102
{ACAD_REACTORS
330
103AC
102
}
330
103AC
100
DictionaryVariables
280
     0
  1
STANDARD
  0
DICTIONARYVAR
  5
18A5F
102
{ACAD_REACTORS
330
103AC
102
}
330
103AC
100
DictionaryVariables
280
     0
  1
1
  0
DICTIONARYVAR
  5
18A5E
102
{ACAD_REACTORS
330
103AC
102
}
330
103AC
100
DictionaryVariables
280
     0
  1
0
  0
DICTIONARYVAR
  5
103B1
102
{ACAD_REACTORS
330
103AC
102
}
330
103AC
100
DictionaryVariables
280
     0
  1
0
  0
DICTIONARYVAR
  5
103AF
102
{ACAD_REACTORS
330
103AC
102
}
330
103AC
100
DictionaryVariables
280
     0
  1
0
  0
DICTIONARYVAR
  5
18A5D
102
{ACAD_REACTORS
330
103AC
102
}
330
103AC
100
DictionaryVariables
280
     0
  1
127
  0
DICTIONARY
  5
1AB3F
330
22
100
AcDbDictionary
280
     1
281
     1
  3
ACAD_XREC_ROUNDTRIP
360
1AB40
  0
DICTIONARY
  5
1AB3D
330
1E
100
AcDbDictionary
280
     1
281
     1
  3
ACAD_XREC_ROUNDTRIP
360
1AB3E
  0
DICTIONARY
  5
1AB41
330
26
100
AcDbDictionary
280
     1
281
     1
  3
ACAD_XREC_ROUNDTRIP
360
1AB42
  0
DICTIONARY
  5
E3E0
330
E3DF
100
AcDbDictionary
280
     1
281
     1
  3
ACAD_XREC_ROUNDTRIP
360
1AB44
  3
BUMPTILE
360
E3E2
  3
DIFFUSETILE
360
E3E1
  3
OPACITYTILE
360
E3E5
  3
REFLECTIONTILE
360
E3E4
  3
REFRACTIONTILE
360
E3E6
  3
SPECULARTILE
360
E3E3
  0
DICTIONARY
  5
E3D8
330
E3D7
100
AcDbDictionary
280
     1
281
     1
  3
ACAD_XREC_ROUNDTRIP
360
1AB43
  3
BUMPTILE
360
E3DA
  3
DIFFUSETILE
360
E3D9
  3
OPACITYTILE
360
E3DD
  3
REFLECTIONTILE
360
E3DC
  3
REFRACTIONTILE
360
E3DE
  3
SPECULARTILE
360
E3DB
  0
DICTIONARY
  5
E3E8
330
E3E7
100
AcDbDictionary
280
     1
281
     1
  3
ACAD_XREC_ROUNDTRIP
360
1AB45
  3
BUMPTILE
360
E3EA
  3
DIFFUSETILE
360
E3E9
  3
OPACITYTILE
360
E3ED
  3
REFLECTIONTILE
360
E3EC
  3
REFRACTIONTILE
360
E3EE
  3
SPECULARTILE
360
E3EB
  0
DICTIONARY
  5
103A9
330
E402
100
AcDbDictionary
280
     1
281
     1
  3
ACAD_ROUNDTRIP_2008_TABLESTYLE_CELLSTYLEMAP
360
1AB3B
  3
ACAD_XREC_ROUNDTRIP
360
1AB46
  0
XRECORD
  5
1AB40
102
{ACAD_REACTORS
330
1AB3F
102
}
330
1AB3F
100
AcDbXrecord
280
     1
102
SHADEPLOT
 70
     0
102
SHADEPLOTRESLEVEL
 70
     2
102
SHADEPLOTCUSTOMDPI
 70
   300
  0
XRECORD
  5
1AB3E
102
{ACAD_REACTORS
330
1AB3D
102
}
330
1AB3D
100
AcDbXrecord
280
     1
102
SHADEPLOT
 70
     0
102
SHADEPLOTRESLEVEL
 70
     2
102
SHADEPLOTCUSTOMDPI
 70
   300
  0
XRECORD
  5
1AB42
102
{ACAD_REACTORS
330
1AB41
102
}
330
1AB41
100
AcDbXrecord
280
     1
102
SHADEPLOT
 70
     0
102
SHADEPLOTRESLEVEL
 70
     2
102
SHADEPLOTCUSTOMDPI
 70
   300
  0
XRECORD
  5
1AB44
102
{ACAD_REACTORS
330
E3E0
102
}
330
E3E0
100
AcDbXrecord
280
     1
102
MATERIAL
148
0.0
149
0.0
149
0.0
 93
        0
 94
      127
282
     0
 72
     0
 77
     0
171
     0
175
     0
179
     0
273
     0
  0
XRECORD
  5
E3E2
102
{ACAD_REACTORS
330
E3E0
102
}
330
E3E0
100
AcDbXrecord
280
     1
270
     1
271
     1
  0
XRECORD
  5
E3E1
102
{ACAD_REACTORS
330
E3E0
102
}
330
E3E0
100
AcDbXrecord
280
     1
270
     1
271
     1
  0
XRECORD
  5
E3E5
102
{ACAD_REACTORS
330
E3E0
102
}
330
E3E0
100
AcDbXrecord
280
     1
270
     1
271
     1
  0
XRECORD
  5
E3E4
102
{ACAD_REACTORS
330
E3E0
102
}
330
E3E0
100
AcDbXrecord
280
     1
270
     1
271
     1
  0
XRECORD
  5
E3E6
102
{ACAD_REACTORS
330
E3E0
102
}
330
E3E0
100
AcDbXrecord
280
     1
270
     1
271
     1
  0
XRECORD
  5
E3E3
102
{ACAD_REACTORS
330
E3E0
102
}
330
E3E0
100
AcDbXrecord
280
     1
270
     1
271
     1
  0
XRECORD
  5
1AB43
102
{ACAD_REACTORS
330
E3D8
102
}
330
E3D8
100
AcDbXrecord
280
     1
102
MATERIAL
148
0.0
149
0.0
149
0.0
 93
        0
 94
      127
282
     0
 72
     0
 77
     0
171
     0
175
     0
179
     0
273
     0
  0
XRECORD
  5
E3DA
102
{ACAD_REACTORS
330
E3D8
102
}
330
E3D8
100
AcDbXrecord
280
     1
270
     1
271
     1
  0
XRECORD
  5
E3D9
102
{ACAD_REACTORS
330
E3D8
102
}
330
E3D8
100
AcDbXrecord
280
     1
270
     1
271
     1
  0
XRECORD
  5
E3DD
102
{ACAD_REACTORS
330
E3D8
102
}
330
E3D8
100
AcDbXrecord
280
     1
270
     1
271
     1
  0
XRECORD
  5
E3DC
102
{ACAD_REACTORS
330
E3D8
102
}
330
E3D8
100
AcDbXrecord
280
     1
270
     1
271
     1
  0
XRECORD
  5
E3DE
102
{ACAD_REACTORS
330
E3D8
102
}
330
E3D8
100
AcDbXrecord
280
     1
270
     1
271
     1
  0
XRECORD
  5
E3DB
102
{ACAD_REACTORS
330
E3D8
102
}
330
E3D8
100
AcDbXrecord
280
     1
270
     1
271
     1
  0
XRECORD
  5
1AB45
102
{ACAD_REACTORS
330
E3E8
102
}
330
E3E8
100
AcDbXrecord
280
     1
102
MATERIAL
148
0.0
149
0.0
149
0.0
 93
        0
 94
      127
282
     0
 72
     0
 77
     0
171
     0
175
     0
179
     0
273
     0
  0
XRECORD
  5
E3EA
102
{ACAD_REACTORS
330
E3E8
102
}
330
E3E8
100
AcDbXrecord
280
     1
270
     1
271
     1
  0
XRECORD
  5
E3E9
102
{ACAD_REACTORS
330
E3E8
102
}
330
E3E8
100
AcDbXrecord
280
     1
270
     1
271
     1
  0
XRECORD
  5
E3ED
102
{ACAD_REACTORS
330
E3E8
102
}
330
E3E8
100
AcDbXrecord
280
     1
270
     1
271
     1
  0
XRECORD
  5
E3EC
102
{ACAD_REACTORS
330
E3E8
102
}
330
E3E8
100
AcDbXrecord
280
     1
270
     1
271
     1
  0
XRECORD
  5
E3EE
102
{ACAD_REACTORS
330
E3E8
102
}
330
E3E8
100
AcDbXrecord
280
     1
270
     1
271
     1
  0
XRECORD
  5
E3EB
102
{ACAD_REACTORS
330
E3E8
102
}
330
E3E8
100
AcDbXrecord
280
     1
270
     1
271
     1
  0
CELLSTYLEMAP
  5
1AB3B
102
{ACAD_REACTORS
330
103A9
102
}
330
103A9
100
AcDbCellStyleMap
 90
        3
300
CELLSTYLE
  1
TABLEFORMAT_BEGIN
 90
        5
170
     1
 91
        0
 92
    32768
 62
   257
 93
        1
300
CONTENTFORMAT
  1
CONTENTFORMAT_BEGIN
 90
        0
 91
        0
 92
      512
 93
        0
300

 40
0.0
140
1.0
 94
        5
 62
     0
340
11
144
0.25
309
CONTENTFORMAT_END
171
     0
 94
        0
309
TABLEFORMAT_END
  1
CELLSTYLE_BEGIN
 90
        1
 91
        1
300
_TITLE
309
CELLSTYLE_END
300
CELLSTYLE
  1
TABLEFORMAT_BEGIN
 90
        5
170
     1
 91
        0
 92
        0
 62
   257
 93
        1
300
CONTENTFORMAT
  1
CONTENTFORMAT_BEGIN
 90
        0
 91
        0
 92
      512
 93
        0
300

 40
0.0
140
1.0
 94
        5
 62
     0
340
11
144
0.18
309
CONTENTFORMAT_END
171
     0
 94
        0
309
TABLEFORMAT_END
  1
CELLSTYLE_BEGIN
 90
        2
 91
        1
300
_HEADER
309
CELLSTYLE_END
300
CELLSTYLE
  1
TABLEFORMAT_BEGIN
 90
        5
170
     1
 91
        0
 92
        0
 62
   257
 93
        1
300
CONTENTFORMAT
  1
CONTENTFORMAT_BEGIN
 90
        0
 91
        0
 92
      512
 93
        0
300

 40
0.0
140
1.0
 94
        2
 62
     0
340
11
144
0.18
309
CONTENTFORMAT_END
171
     0
 94
        0
309
TABLEFORMAT_END
  1
CELLSTYLE_BEGIN
 90
        3
 91
        2
300
_DATA
309
CELLSTYLE_END
  0
XRECORD
  5
1AB46
102
{ACAD_REACTORS
330
103A9
102
}
330
103A9
100
AcDbXrecord
280
     1
102
ACAD_ROUNDTRIP_PRE2007_TABLESTYLE
 90
      512
 91
        0
  1

 92
      512
 93
        0
  2

 94
      512
 95
        0
  3

  0
ENDSEC
  0
EOF
