  0
SECTION
  2
HEADER
  9
$ACADVER
  1
AC1015
  9
$ACADMAINTVER
 70
    20
  9
$DWGCODEPAGE
  3
ANSI_932
  9
$INSBASE
 10
0.0
 20
0.0
 30
0.0
  9
$EXTMIN
 10
20.0000000000001
 20
21.00000000000003
 30
0.0
  9
$EXTMAX
 10
809.9999999999996
 20
558.0
 30
0.0
  9
$LIMMIN
 10
0.0
 20
0.0
  9
$LIMMAX
 10
840.0
 20
594.0
  9
$ORTHOMODE
 70
     0
  9
$REGENMODE
 70
     1
  9
$FILLMODE
 70
     1
  9
$QTEXTMODE
 70
     0
  9
$MIRRTEXT
 70
     0
  9
$LTSCALE
 40
1.0
  9
$ATTMODE
 70
     1
  9
$TEXTSIZE
 40
3.0
  9
$TRACEWID
 40
1.0
  9
$TEXTSTYLE
  7
AT_VECTOR
  9
$CLAYER
  8
003
  9
$CELTYPE
  6
ByLayer
  9
$CECOLOR
 62
   256
  9
$CELTSCALE
 40
1.0
  9
$DISPSILH
 70
     0
  9
$DIMSCALE
 40
2.0
  9
$DIMASZ
 40
1.5
  9
$DIMEXO
 40
1.5
  9
$DIMDLI
 40
7.0
  9
$DIMRND
 40
0.0
  9
$DIMDLE
 40
0.0
  9
$DIMEXE
 40
1.0
  9
$DIMTP
 40
0.0
  9
$DIMTM
 40
0.0
  9
$DIMTXT
 40
3.0
  9
$DIMCEN
 40
0.0
  9
$DIMTSZ
 40
0.0
  9
$DIMTOL
 70
     0
  9
$DIMLIM
 70
     0
  9
$DIMTIH
 70
     0
  9
$DIMTOH
 70
     0
  9
$DIMSE1
 70
     0
  9
$DIMSE2
 70
     0
  9
$DIMTAD
 70
     1
  9
$DIMZIN
 70
     8
  9
$DIMBLK
  1
Open30
  9
$DIMASO
 70
     1
  9
$DIMSHO
 70
     1
  9
$DIMPOST
  1

  9
$DIMAPOST
  1

  9
$DIMALT
 70
     0
  9
$DIMALTD
 70
     3
  9
$DIMALTF
 40
0.03937007874016
  9
$DIMLFAC
 40
1.0
  9
$DIMTOFL
 70
     1
  9
$DIMTVP
 40
0.0
  9
$DIMTIX
 70
     0
  9
$DIMSOXD
 70
     0
  9
$DIMSAH
 70
     0
  9
$DIMBLK1
  1

  9
$DIMBLK2
  1

  9
$DIMSTYLE
  2
DIM
  9
$DIMCLRD
 70
     4
  9
$DIMCLRE
 70
     4
  9
$DIMCLRT
 70
     7
  9
$DIMTFAC
 40
1.0
  9
$DIMGAP
 40
1.0
  9
$DIMJUST
 70
     0
  9
$DIMSD1
 70
     0
  9
$DIMSD2
 70
     0
  9
$DIMTOLJ
 70
     0
  9
$DIMTZIN
 70
     8
  9
$DIMALTZ
 70
     0
  9
$DIMALTTZ
 70
     0
  9
$DIMUPT
 70
     0
  9
$DIMDEC
 70
     2
  9
$DIMTDEC
 70
     2
  9
$DIMALTU
 70
     2
  9
$DIMALTTD
 70
     3
  9
$DIMTXSTY
  7
DIM
  9
$DIMAUNIT
 70
     0
  9
$DIMADEC
 70
     0
  9
$DIMALTRND
 40
0.0
  9
$DIMAZIN
 70
     0
  9
$DIMDSEP
 70
    46
  9
$DIMATFIT
 70
     3
  9
$DIMFRAC
 70
     0
  9
$DIMLDRBLK
  1
Open30
  9
$DIMLUNIT
 70
     2
  9
$DIMLWD
 70
    20
  9
$DIMLWE
 70
    20
  9
$DIMTMOVE
 70
     0
  9
$LUNITS
 70
     2
  9
$LUPREC
 70
     4
  9
$SKETCHINC
 40
1.0
  9
$FILLETRAD
 40
0.0
  9
$AUNITS
 70
     0
  9
$AUPREC
 70
     0
  9
$MENU
  1
.
  9
$ELEVATION
 40
0.0
  9
$PELEVATION
 40
0.0
  9
$THICKNESS
 40
0.0
  9
$LIMCHECK
 70
     0
  9
$CHAMFERA
 40
10.0
  9
$CHAMFERB
 40
10.0
  9
$CHAMFERC
 40
20.0
  9
$CHAMFERD
 40
0.0
  9
$SKPOLY
 70
     0
  9
$TDCREATE
 40
2452888.428849190
  9
$TDUCREATE
 40
2452888.053849190
  9
$TDUPDATE
 40
2455959.423049641
  9
$TDUUPDATE
 40
2455959.048049642
  9
$TDINDWG
 40
0.4313324190
  9
$TDUSRTIMER
 40
0.4313324190
  9
$USRTIMER
 70
     1
  9
$ANGBASE
 50
0.0
  9
$ANGDIR
 70
     0
  9
$PDMODE
 70
     0
  9
$PDSIZE
 40
0.0
  9
$PLINEWID
 40
0.0
  9
$SPLFRAME
 70
     0
  9
$SPLINETYPE
 70
     6
  9
$SPLINESEGS
 70
     8
  9
$HANDSEED
  5
17C98
  9
$SURFTAB1
 70
     6
  9
$SURFTAB2
 70
     6
  9
$SURFTYPE
 70
     6
  9
$SURFU
 70
     6
  9
$SURFV
 70
     6
  9
$UCSBASE
  2

  9
$UCSNAME
  2

  9
$UCSORG
 10
0.0
 20
0.0
 30
0.0
  9
$UCSXDIR
 10
1.0
 20
0.0
 30
0.0
  9
$UCSYDIR
 10
0.0
 20
1.0
 30
0.0
  9
$UCSORTHOREF
  2

  9
$UCSORTHOVIEW
 70
     0
  9
$UCSORGTOP
 10
0.0
 20
0.0
 30
0.0
  9
$UCSORGBOTTOM
 10
0.0
 20
0.0
 30
0.0
  9
$UCSORGLEFT
 10
0.0
 20
0.0
 30
0.0
  9
$UCSORGRIGHT
 10
0.0
 20
0.0
 30
0.0
  9
$UCSORGFRONT
 10
0.0
 20
0.0
 30
0.0
  9
$UCSORGBACK
 10
0.0
 20
0.0
 30
0.0
  9
$PUCSBASE
  2

  9
$PUCSNAME
  2

  9
$PUCSORG
 10
0.0
 20
0.0
 30
0.0
  9
$PUCSXDIR
 10
1.0
 20
0.0
 30
0.0
  9
$PUCSYDIR
 10
0.0
 20
1.0
 30
0.0
  9
$PUCSORTHOREF
  2

  9
$PUCSORTHOVIEW
 70
     0
  9
$PUCSORGTOP
 10
0.0
 20
0.0
 30
0.0
  9
$PUCSORGBOTTOM
 10
0.0
 20
0.0
 30
0.0
  9
$PUCSORGLEFT
 10
0.0
 20
0.0
 30
0.0
  9
$PUCSORGRIGHT
 10
0.0
 20
0.0
 30
0.0
  9
$PUCSORGFRONT
 10
0.0
 20
0.0
 30
0.0
  9
$PUCSORGBACK
 10
0.0
 20
0.0
 30
0.0
  9
$USERI1
 70
     0
  9
$USERI2
 70
     0
  9
$USERI3
 70
     0
  9
$USERI4
 70
     0
  9
$USERI5
 70
     0
  9
$USERR1
 40
0.0
  9
$USERR2
 40
0.0
  9
$USERR3
 40
0.0
  9
$USERR4
 40
0.0
  9
$USERR5
 40
0.0
  9
$WORLDVIEW
 70
     1
  9
$SHADEDGE
 70
     3
  9
$SHADEDIF
 70
    70
  9
$TILEMODE
 70
     1
  9
$MAXACTVP
 70
    64
  9
$PINSBASE
 10
0.0
 20
0.0
 30
0.0
  9
$PLIMCHECK
 70
     0
  9
$PEXTMIN
 10
1.000000000000000E+20
 20
1.000000000000000E+20
 30
1.000000000000000E+20
  9
$PEXTMAX
 10
-1.000000000000000E+20
 20
-1.000000000000000E+20
 30
-1.000000000000000E+20
  9
$PLIMMIN
 10
0.0
 20
0.0
  9
$PLIMMAX
 10
420.0
 20
297.0
  9
$UNITMODE
 70
     0
  9
$VISRETAIN
 70
     1
  9
$PLINEGEN
 70
     0
  9
$PSLTSCALE
 70
     1
  9
$TREEDEPTH
 70
  3020
  9
$CMLSTYLE
  2
Standard
  9
$CMLJUST
 70
     0
  9
$CMLSCALE
 40
20.0
  9
$PROXYGRAPHICS
 70
     1
  9
$MEASUREMENT
 70
     0
  9
$CELWEIGHT
370
    -1
  9
$ENDCAPS
280
     0
  9
$JOINSTYLE
280
     0
  9
$LWDISPLAY
290
     0
  9
$INSUNITS
 70
     4
  9
$HYPERLINKBASE
  1

  9
$STYLESHEET
  1
EPSON.ctb
  9
$XEDIT
290
     1
  9
$CEPSNTYPE
380
     0
  9
$PSTYLEMODE
290
     1
  9
$FINGERPRINTGUID
  2
{9AEAB59C-DF80-11D7-8237-004026CDA8AB}
  9
$VERSIONGUID
  2
{55EFE4DB-3B15-4BDB-8E49-4E6A71033C8C}
  9
$EXTNAMES
290
     1
  9
$PSVPSCALE
 40
0.0
  9
$OLESTARTUP
290
     0
  0
ENDSEC
  0
SECTION
  2
CLASSES
  0
CLASS
  1
ACDBDICTIONARYWDFLT
  2
AcDbDictionaryWithDefault
  3
ObjectDBX Classes
 90
        0
280
     0
281
     0
  0
CLASS
  1
ACDBPLACEHOLDER
  2
AcDbPlaceHolder
  3
ObjectDBX Classes
 90
        0
280
     0
281
     0
  0
CLASS
  1
LAYOUT
  2
AcDbLayout
  3
ObjectDBX Classes
 90
        0
280
     0
281
     0
  0
CLASS
  1
MATERIAL
  2
AcDbMaterial
  3
ObjectDBX Classes
 90
     1153
280
     0
281
     0
  0
CLASS
  1
VISUALSTYLE
  2
AcDbVisualStyle
  3
ObjectDBX Classes
 90
     4095
280
     0
281
     0
  0
CLASS
  1
TABLESTYLE
  2
AcDbTableStyle
  3
ObjectDBX Classes
 90
     4095
280
     0
281
     0
  0
CLASS
  1
SCALE
  2
AcDbScale
  3
ObjectDBX Classes
 90
     1153
280
     0
281
     0
  0
CLASS
  1
MLEADERSTYLE
  2
AcDbMLeaderStyle
  3
ACDB_MLEADERSTYLE_CLASS
 90
     4095
280
     0
281
     0
  0
CLASS
  1
SORTENTSTABLE
  2
AcDbSortentsTable
  3
ObjectDBX Classes
 90
        0
280
     0
281
     0
  0
CLASS
  1
CELLSTYLEMAP
  2
AcDbCellStyleMap
  3
ObjectDBX Classes
 90
     1152
280
     0
281
     0
  0
CLASS
  1
DICTIONARYVAR
  2
AcDbDictionaryVar
  3
ObjectDBX Classes
 90
        0
280
     0
281
     0
  0
CLASS
  1
MULTILEADER
  2
AcDbMLeader
  3
ACDB_MLEADER_CLASS
 90
    33793
280
     0
281
     1
  0
ENDSEC
  0
SECTION
  2
TABLES
  0
TABLE
  2
VPORT
  5
8
102
{ACAD_XDICTIONARY
360
162EC
102
}
330
0
100
AcDbSymbolTable
 70
     1
  0
VPORT
  5
E3D4
330
8
100
AcDbSymbolTableRecord
100
AcDbViewportTableRecord
  2
*Active
 70
     0
 10
0.0
 20
0.0
 11
1.0
 21
1.0
 12
420.0
 22
297.0
 13
0.0
 23
0.0
 14
10.0
 24
10.0
 15
10.0
 25
10.0
 16
0.0
 26
0.0
 36
1.0
 17
0.0
 27
0.0
 37
0.0
 40
598.7724508055416
 41
1.590250329380764
 42
50.0
 43
0.0
 44
0.0
 50
0.0
 51
0.0
 71
     0
 72
   100
 73
     1
 74
     3
 75
     0
 76
     0
 77
     0
 78
     0
281
     0
 65
     1
110
0.0
120
0.0
130
0.0
111
1.0
121
0.0
131
0.0
112
0.0
122
1.0
132
0.0
 79
     0
146
0.0
  0
ENDTAB
  0
TABLE
  2
LTYPE
  5
5
330
0
100
AcDbSymbolTable
 70
     5
  0
LTYPE
  5
14
330
5
100
AcDbSymbolTableRecord
100
AcDbLinetypeTableRecord
  2
ByBlock
 70
     0
  3

 72
    65
 73
     0
 40
0.0
  0
LTYPE
  5
15
330
5
100
AcDbSymbolTableRecord
100
AcDbLinetypeTableRecord
  2
ByLayer
 70
     0
  3

 72
    65
 73
     0
 40
0.0
  0
LTYPE
  5
16
330
5
100
AcDbSymbolTableRecord
100
AcDbLinetypeTableRecord
  2
Continuous
 70
     0
  3
Solid line
 72
    65
 73
     0
 40
0.0
  0
LTYPE
  5
19D
330
5
100
AcDbSymbolTableRecord
100
AcDbLinetypeTableRecord
  2
ACAD_ISO04W100
 70
     0
  3
ISO long-dash dot ____ . ____ . ____ . ____ . _
 72
    65
 73
     4
 40
30.0
 49
24.0
 74
     0
 49
-3.0
 74
     0
 49
0.0
 74
     0
 49
-3.0
 74
     0
  0
LTYPE
  5
19E
330
5
100
AcDbSymbolTableRecord
100
AcDbLinetypeTableRecord
  2
ACAD_ISO02W100
 70
     0
  3
ISO dash __ __ __ __ __ __ __ __ __ __ __ __ __
 72
    65
 73
     2
 40
15.0
 49
12.0
 74
     0
 49
-3.0
 74
     0
  0
LTYPE
  5
3BF
330
5
100
AcDbSymbolTableRecord
100
AcDbLinetypeTableRecord
  2
HIDDEN
 70
     0
  3
__ __ __ __ __ __ __ __ __ __ __ __ __ __ __ __
 72
    65
 73
     2
 40
0.375
 49
0.25
 74
     0
 49
-0.125
 74
     0
  0
ENDTAB
  0
TABLE
  2
LAYER
  5
2
102
{ACAD_XDICTIONARY
360
2859
102
}
330
0
100
AcDbSymbolTable
 70
    15
  0
LAYER
  5
10
102
{ACAD_XDICTIONARY
360
F074
102
}
330
2
100
AcDbSymbolTableRecord
100
AcDbLayerTableRecord
  2
0
 70
     0
 62
     7
  6
Continuous
370
    25
390
F
  0
LAYER
  5
33
102
{ACAD_XDICTIONARY
360
F07A
102
}
330
2
100
AcDbSymbolTableRecord
100
AcDbLayerTableRecord
  2
003
 70
     0
 62
     2
  6
Continuous
370
    25
390
F
  0
LAYER
  5
1A4
102
{ACAD_XDICTIONARY
360
F080
102
}
330
2
100
AcDbSymbolTableRecord
100
AcDbLayerTableRecord
  2
006
 70
     0
 62
     4
  6
ACAD_ISO04W100
370
    20
390
F
  0
LAYER
  5
1A5
102
{ACAD_XDICTIONARY
360
F082
102
}
330
2
100
AcDbSymbolTableRecord
100
AcDbLayerTableRecord
  2
007
 70
     0
 62
     4
  6
ACAD_ISO02W100
370
    20
390
F
  0
LAYER
  5
1A8
330
2
100
AcDbSymbolTableRecord
100
AcDbLayerTableRecord
  2
Defpoints
 70
     0
 62
     7
  6
Continuous
290
     0
370
    25
390
F
  0
LAYER
  5
2B1
102
{ACAD_XDICTIONARY
360
F088
102
}
330
2
100
AcDbSymbolTableRecord
100
AcDbLayerTableRecord
  2
010
 70
     0
 62
     4
  6
Continuous
370
    20
390
F
  0
LAYER
  5
1271F
330
2
100
AcDbSymbolTableRecord
100
AcDbLayerTableRecord
  2
YKK_ZWAK
 70
     0
 62
     7
  6
Continuous
370
    -3
390
F
  0
LAYER
  5
167A3
330
2
100
AcDbSymbolTableRecord
100
AcDbLayerTableRecord
  2
YKK_W11
 70
     0
 62
     7
  6
Continuous
370
    -3
390
F
  0
LAYER
  5
167A5
330
2
100
AcDbSymbolTableRecord
100
AcDbLayerTableRecord
  2
YKK_W17
 70
     0
 62
     7
  6
Continuous
370
    -3
390
F
  0
LAYER
  5
167A7
330
2
100
AcDbSymbolTableRecord
100
AcDbLayerTableRecord
  2
2
 70
     0
 62
     7
  6
Continuous
370
    -3
390
F
  0
ENDTAB
  0
TABLE
  2
STYLE
  5
3
330
0
100
AcDbSymbolTable
 70
     4
  0
STYLE
  5
11
330
3
100
AcDbSymbolTableRecord
100
AcDbTextStyleTableRecord
  2
Standard
 70
     0
 40
0.0
 41
1.0
 50
0.0
 71
     0
 42
2.5
  3
txt
  4

  0
STYLE
  5
34
330
3
100
AcDbSymbolTableRecord
100
AcDbTextStyleTableRecord
  2
DIM
 70
     0
 40
0.0
 41
0.75
 50
0.0
 71
     0
 42
60.0
  3
romans.shx
  4
extfont.shx
  0
STYLE
  5
35
330
3
100
AcDbSymbolTableRecord
100
AcDbTextStyleTableRecord
  2
AT_VECTOR
 70
     0
 40
0.0
 41
1.0
 50
0.0
 71
     0
 42
3.0
  3
romans.shx
  4
extfont.shx
  0
STYLE
  5
12720
330
3
100
AcDbSymbolTableRecord
100
AcDbTextStyleTableRecord
  2
YKK_OSSTYLE1
 70
     0
 40
0.0
 41
0.9
 50
0.0
 71
     0
 42
3.0
  3
romans.shx
  4
EXTFONT.SHX
  0
ENDTAB
  0
TABLE
  2
VIEW
  5
6
330
0
100
AcDbSymbolTable
 70
     0
  0
ENDTAB
  0
TABLE
  2
UCS
  5
7
330
0
100
AcDbSymbolTable
 70
     0
  0
ENDTAB
  0
TABLE
  2
APPID
  5
9
330
0
100
AcDbSymbolTable
 70
    12
  0
APPID
  5
12
330
9
100
AcDbSymbolTableRecord
100
AcDbRegAppTableRecord
  2
ACAD
 70
     0
  0
APPID
  5
3DA
330
9
100
AcDbSymbolTableRecord
100
AcDbRegAppTableRecord
  2
BS2_OSAMARI_KUTAI
 70
     0
  0
APPID
  5
3DB
330
9
100
AcDbSymbolTableRecord
100
AcDbRegAppTableRecord
  2
BS2_OSAMARI_ISIAGE
 70
     0
  0
APPID
  5
3DC
330
9
100
AcDbSymbolTableRecord
100
AcDbRegAppTableRecord
  2
BS2_OSAMARI_IMOKU
 70
     0
  0
APPID
  5
3DD
330
9
100
AcDbSymbolTableRecord
100
AcDbRegAppTableRecord
  2
BS2_OSAMARI_OSIAGE
 70
     0
  0
APPID
  5
3DE
330
9
100
AcDbSymbolTableRecord
100
AcDbRegAppTableRecord
  2
BS2_OSAMARI_OFZK
 70
     0
  0
APPID
  5
E427
330
9
100
AcDbSymbolTableRecord
100
AcDbRegAppTableRecord
  2
ACAD_MLEADERVER
 70
     0
  0
APPID
  5
F13C
330
9
100
AcDbSymbolTableRecord
100
AcDbRegAppTableRecord
  2
ACAD_EXEMPT_FROM_CAD_STANDARDS
 70
     0
  0
APPID
  5
F7FB
330
9
100
AcDbSymbolTableRecord
100
AcDbRegAppTableRecord
  2
ACAD_PSEXT
 70
     0
  0
APPID
  5
12721
330
9
100
AcDbSymbolTableRecord
100
AcDbRegAppTableRecord
  2
ACAD_DSTYLE_DIMJAG
 70
     0
  0
APPID
  5
12722
330
9
100
AcDbSymbolTableRecord
100
AcDbRegAppTableRecord
  2
ACAD_DSTYLE_DIMTALN
 70
     0
  0
APPID
  5
1393B
330
9
100
AcDbSymbolTableRecord
100
AcDbRegAppTableRecord
  2
YALIB
 70
     0
  0
ENDTAB
  0
TABLE
  2
DIMSTYLE
  5
A
330
0
100
AcDbSymbolTable
 70
     2
100
AcDbDimStyleTable
 71
     2
340
38
340
1A9
  0
DIMSTYLE
105
38
102
{ACAD_REACTORS
330
1713B
330
1714F
330
171C8
330
171E4
330
17281
330
17282
330
17292
330
172C8
330
172C9
330
173A7
330
173A8
102
}
330
A
100
AcDbSymbolTableRecord
100
AcDbDimStyleTableRecord
  2
DIM
 70
     0
 40
2.0
 41
1.5
 42
1.5
 43
7.0
 44
1.0
 73
     0
 74
     0
 77
     1
 78
     8
140
3.0
141
0.0
143
0.03937007874016
147
1.0
171
     3
172
     1
176
     4
177
     4
178
     7
271
     2
272
     2
274
     3
283
     0
284
     8
340
34
341
2B
342
2B
371
    20
372
    20
  0
DIMSTYLE
105
1A9
330
A
100
AcDbSymbolTableRecord
100
AcDbDimStyleTableRecord
  2
Standard
 70
     0
340
11
  0
ENDTAB
  0
TABLE
  2
BLOCK_RECORD
  5
1
330
0
100
AcDbSymbolTable
 70
    25
  0
BLOCK_RECORD
  5
1F
102
{ACAD_XDICTIONARY
360
F144
102
}
330
1
100
AcDbSymbolTableRecord
100
AcDbBlockTableRecord
  2
*Model_Space
340
22
  0
BLOCK_RECORD
  5
1B
330
1
100
AcDbSymbolTableRecord
100
AcDbBlockTableRecord
  2
*Paper_Space
340
1E
  0
BLOCK_RECORD
  5
23
330
1
100
AcDbSymbolTableRecord
100
AcDbBlockTableRecord
  2
*Paper_Space0
340
26
  0
BLOCK_RECORD
  5
2B
330
1
100
AcDbSymbolTableRecord
100
AcDbBlockTableRecord
  2
_Open30
340
0
102
{BLKREFS
331
17B8E
331
17B8F
331
17B97
331
17B98
331
17BA0
331
17BA1
331
17BA9
331
17BAA
331
17BB2
331
17BB3
331
17BBB
331
17BBC
331
17BC4
331
17BC5
331
17BCD
331
17BCE
331
17BD6
331
17BD7
331
17BDF
331
17BE0
331
17BE8
331
17BE9
102
}
  0
BLOCK_RECORD
  5
128D7
330
1
100
AcDbSymbolTableRecord
100
AcDbBlockTableRecord
  2
K-86576
340
0
102
{BLKREFS
331
1719C
331
17210
102
}
  0
BLOCK_RECORD
  5
165EC
330
1
100
AcDbSymbolTableRecord
100
AcDbBlockTableRecord
  2
K-86579
340
0
102
{BLKREFS
331
1715C
331
171F3
102
}
  0
BLOCK_RECORD
  5
16626
330
1
100
AcDbSymbolTableRecord
100
AcDbBlockTableRecord
  2
K-86528
340
0
102
{BLKREFS
331
1715A
331
17229
102
}
  0
BLOCK_RECORD
  5
17A14
330
1
100
AcDbSymbolTableRecord
100
AcDbBlockTableRecord
  2
*D14
340
0
  0
BLOCK_RECORD
  5
17A20
330
1
100
AcDbSymbolTableRecord
100
AcDbBlockTableRecord
  2
*D15
340
0
  0
BLOCK_RECORD
  5
17A2C
330
1
100
AcDbSymbolTableRecord
100
AcDbBlockTableRecord
  2
*D16
340
0
  0
BLOCK_RECORD
  5
17A38
330
1
100
AcDbSymbolTableRecord
100
AcDbBlockTableRecord
  2
*D17
340
0
  0
BLOCK_RECORD
  5
17A44
330
1
100
AcDbSymbolTableRecord
100
AcDbBlockTableRecord
  2
*D18
340
0
  0
BLOCK_RECORD
  5
17A50
330
1
100
AcDbSymbolTableRecord
100
AcDbBlockTableRecord
  2
*D19
340
0
  0
BLOCK_RECORD
  5
17A5C
330
1
100
AcDbSymbolTableRecord
100
AcDbBlockTableRecord
  2
*D20
340
0
  0
BLOCK_RECORD
  5
17A68
330
1
100
AcDbSymbolTableRecord
100
AcDbBlockTableRecord
  2
*D21
340
0
  0
BLOCK_RECORD
  5
17A74
330
1
100
AcDbSymbolTableRecord
100
AcDbBlockTableRecord
  2
*D22
340
0
  0
BLOCK_RECORD
  5
17A80
330
1
100
AcDbSymbolTableRecord
100
AcDbBlockTableRecord
  2
*D23
340
0
  0
BLOCK_RECORD
  5
17A8C
330
1
100
AcDbSymbolTableRecord
100
AcDbBlockTableRecord
  2
*D24
340
0
  0
ENDTAB
  0
ENDSEC
  0
SECTION
  2
BLOCKS
  0
BLOCK
  5
20
330
1F
100
AcDbEntity
  8
0
100
AcDbBlockBegin
  2
*Model_Space
 70
     0
 10
0.0
 20
0.0
 30
0.0
  3
*Model_Space
  1

  0
ENDBLK
  5
21
330
1F
100
AcDbEntity
  8
0
100
AcDbBlockEnd
  0
BLOCK
  5
1C
330
1B
100
AcDbEntity
 67
     1
  8
0
100
AcDbBlockBegin
  2
*Paper_Space
 70
     0
 10
0.0
 20
0.0
 30
0.0
  3
*Paper_Space
  1

  0
ENDBLK
  5
1D
330
1B
100
AcDbEntity
 67
     1
  8
0
100
AcDbBlockEnd
  0
BLOCK
  5
24
330
23
100
AcDbEntity
 67
     1
  8
0
100
AcDbBlockBegin
  2
*Paper_Space0
 70
     0
 10
0.0
 20
0.0
 30
0.0
  3
*Paper_Space0
  1

  0
ENDBLK
  5
25
330
23
100
AcDbEntity
 67
     1
  8
0
100
AcDbBlockEnd
  0
BLOCK
  5
2F
330
2B
100
AcDbEntity
  8
0
100
AcDbBlockBegin
  2
_Open30
 70
     0
 10
0.0
 20
0.0
 30
0.0
  3
_Open30
  1

  0
LINE
  5
2C
330
2B
100
AcDbEntity
  8
0
  6
ByBlock
 62
     0
370
    -2
100
AcDbLine
 10
-1.0
 20
0.26794919
 30
0.0
 11
0.0
 21
0.0
 31
0.0
  0
LINE
  5
2D
330
2B
100
AcDbEntity
  8
0
  6
ByBlock
 62
     0
370
    -2
100
AcDbLine
 10
0.0
 20
0.0
 30
0.0
 11
-1.0
 21
-0.26794919
 31
0.0
  0
LINE
  5
2E
330
2B
100
AcDbEntity
  8
0
  6
ByBlock
 62
     0
370
    -2
100
AcDbLine
 10
0.0
 20
0.0
 30
0.0
 11
-1.0
 21
0.0
 31
0.0
  0
ENDBLK
  5
30
330
2B
100
AcDbEntity
  8
0
100
AcDbBlockEnd
  0
BLOCK
  5
128D8
330
128D7
100
AcDbEntity
  8
0
 62
     7
100
AcDbBlockBegin
  2
K-86576
 70
     0
 10
203.501448
 20
148.541144
 30
0.0
  3
K-86576
  1
K-86576
  0
LINE
  5
128D9
330
128D7
100
AcDbEntity
  8
0
 62
     7
100
AcDbLine
 10
206.701445
 20
155.041145
 30
0.0
 11
204.501448
 21
155.041145
 31
0.0
  0
ARC
  5
128DA
330
128D7
100
AcDbEntity
  8
0
 62
     7
100
AcDbCircle
 10
206.701445
 20
154.241141
 30
0.0
 40
0.800003
100
AcDbArc
 50
0.0
 51
89.99999999971944
  0
LINE
  5
128DB
330
128D7
100
AcDbEntity
  8
0
 62
     7
100
AcDbLine
 10
207.501448
 20
151.14112
 30
0.0
 11
207.501448
 21
154.241141
 31
0.0
  0
ARC
  5
128DC
330
128D7
100
AcDbEntity
  8
0
 62
     7
100
AcDbCircle
 10
206.901442
 20
151.14112
 30
0.0
 40
0.6000760000000001
100
AcDbArc
 50
209.9995009993454
 51
359.9999999988777
  0
LINE
  5
128DD
330
128D7
100
AcDbEntity
  8
0
 62
     7
100
AcDbLine
 10
205.588975
 20
152.214228
 30
0.0
 11
206.381773
 21
150.841087
 31
0.0
  0
LINE
  5
128DE
330
128D7
100
AcDbEntity
  8
0
 62
     7
100
AcDbLine
 10
206.501448
 20
152.741042
 30
0.0
 11
205.588975
 21
152.214228
 31
0.0
  0
LINE
  5
128DF
330
128D7
100
AcDbEntity
  8
0
 62
     7
100
AcDbLine
 10
206.501448
 20
154.041145
 30
0.0
 11
206.501448
 21
152.741042
 31
0.0
  0
LINE
  5
128E0
330
128D7
100
AcDbEntity
  8
0
 62
     7
100
AcDbLine
 10
204.425011
 20
154.041145
 30
0.0
 11
206.501448
 21
154.041145
 31
0.0
  0
LINE
  5
128E1
330
128D7
100
AcDbEntity
  8
0
 62
     7
100
AcDbLine
 10
204.201445
 20
153.541129
 30
0.0
 11
204.425011
 21
154.041145
 31
0.0
  0
LINE
  5
128E2
330
128D7
100
AcDbEntity
  8
0
 62
     7
100
AcDbLine
 10
203.501448
 20
153.541129
 30
0.0
 11
204.201445
 21
153.541129
 31
0.0
  0
LINE
  5
128E3
330
128D7
100
AcDbEntity
  8
0
 62
     7
100
AcDbLine
 10
203.501448
 20
164.541145
 30
0.0
 11
203.501448
 21
153.541129
 31
0.0
  0
LINE
  5
128E4
330
128D7
100
AcDbEntity
  8
0
 62
     7
100
AcDbLine
 10
217.301454
 20
164.541145
 30
0.0
 11
203.501448
 21
164.541145
 31
0.0
  0
LINE
  5
128E5
330
128D7
100
AcDbEntity
  8
0
 62
     7
100
AcDbLine
 10
217.301454
 20
163.041145
 30
0.0
 11
217.301454
 21
164.541145
 31
0.0
  0
LINE
  5
128E6
330
128D7
100
AcDbEntity
  8
0
 62
     7
100
AcDbLine
 10
218.801454
 20
163.041145
 30
0.0
 11
217.301454
 21
163.041145
 31
0.0
  0
LINE
  5
128E7
330
128D7
100
AcDbEntity
  8
0
 62
     7
100
AcDbLine
 10
218.801454
 20
159.041129
 30
0.0
 11
218.801454
 21
163.041145
 31
0.0
  0
LINE
  5
128E8
330
128D7
100
AcDbEntity
  8
0
 62
     7
100
AcDbLine
 10
217.801451
 20
159.041129
 30
0.0
 11
218.801454
 21
159.041129
 31
0.0
  0
LINE
  5
128E9
330
128D7
100
AcDbEntity
  8
0
 62
     7
100
AcDbLine
 10
217.801451
 20
155.541099
 30
0.0
 11
217.801451
 21
159.041129
 31
0.0
  0
LINE
  5
128EA
330
128D7
100
AcDbEntity
  8
0
 62
     7
100
AcDbLine
 10
214.601454
 20
152.341102
 30
0.0
 11
217.801451
 21
155.541099
 31
0.0
  0
LINE
  5
128EB
330
128D7
100
AcDbEntity
  8
0
 62
     7
100
AcDbLine
 10
214.601454
 20
149.541145
 30
0.0
 11
214.601454
 21
152.341102
 31
0.0
  0
LINE
  5
128EC
330
128D7
100
AcDbEntity
  8
0
 62
     7
100
AcDbLine
 10
216.52687
 20
149.541145
 30
0.0
 11
214.601454
 21
149.541145
 31
0.0
  0
ARC
  5
128ED
330
128D7
100
AcDbEntity
  8
0
 62
     7
100
AcDbCircle
 10
217.301451
 20
149.341132
 30
0.0
 40
0.799988
100
AcDbArc
 50
269.9999999991583
 51
165.5213589983617
  0
LINE
  5
128EE
330
128D7
100
AcDbEntity
  8
0
 62
     7
100
AcDbLine
 10
214.101454
 20
148.541145
 30
0.0
 11
217.301451
 21
148.541145
 31
0.0
  0
ARC
  5
128EF
330
128D7
100
AcDbEntity
  8
0
 62
     7
100
AcDbCircle
 10
214.101454
 20
149.041145
 30
0.0
 40
0.5
100
AcDbArc
 50
179.9999999994389
 51
269.9999999991583
  0
LINE
  5
128F0
330
128D7
100
AcDbEntity
  8
0
 62
     7
100
AcDbLine
 10
213.601454
 20
152.755302
 30
0.0
 11
213.601454
 21
149.041145
 31
0.0
  0
LINE
  5
128F1
330
128D7
100
AcDbEntity
  8
0
 62
     7
100
AcDbLine
 10
216.801451
 20
155.955299
 30
0.0
 11
213.601454
 21
152.755302
 31
0.0
  0
LINE
  5
128F2
330
128D7
100
AcDbEntity
  8
0
 62
     7
100
AcDbLine
 10
216.801451
 20
159.541129
 30
0.0
 11
216.801451
 21
155.955299
 31
0.0
  0
ARC
  5
128F3
330
128D7
100
AcDbEntity
  8
0
 62
     7
100
AcDbCircle
 10
217.301454
 20
159.541129
 30
0.0
 40
0.5
100
AcDbArc
 50
89.99999999971944
 51
179.9999999994389
  0
LINE
  5
128F4
330
128D7
100
AcDbEntity
  8
0
 62
     7
100
AcDbLine
 10
217.801454
 20
160.041129
 30
0.0
 11
217.301454
 21
160.041129
 31
0.0
  0
LINE
  5
128F5
330
128D7
100
AcDbEntity
  8
0
 62
     7
100
AcDbLine
 10
217.801454
 20
162.041145
 30
0.0
 11
217.801454
 21
160.041129
 31
0.0
  0
LINE
  5
128F6
330
128D7
100
AcDbEntity
  8
0
 62
     7
100
AcDbLine
 10
216.801454
 20
162.041145
 30
0.0
 11
217.801454
 21
162.041145
 31
0.0
  0
ARC
  5
128F7
330
128D7
100
AcDbEntity
  8
0
 62
     7
100
AcDbCircle
 10
216.801454
 20
162.541129
 30
0.0
 40
0.5
100
AcDbArc
 50
179.9999999994389
 51
269.9999999991583
  0
LINE
  5
128F8
330
128D7
100
AcDbEntity
  8
0
 62
     7
100
AcDbLine
 10
216.301454
 20
163.541145
 30
0.0
 11
216.301454
 21
162.541129
 31
0.0
  0
LINE
  5
128F9
330
128D7
100
AcDbEntity
  8
0
 62
     7
100
AcDbLine
 10
204.501448
 20
163.541129
 30
0.0
 11
216.301454
 21
163.541145
 31
0.0
  0
LINE
  5
128FA
330
128D7
100
AcDbEntity
  8
0
 62
     7
100
AcDbLine
 10
204.501448
 20
155.041145
 30
0.0
 11
204.501448
 21
163.541129
 31
0.0
  0
ENDBLK
  5
128FB
330
128D7
100
AcDbEntity
  8
0
 62
     7
100
AcDbBlockEnd
  0
BLOCK
  5
165ED
330
165EC
100
AcDbEntity
  8
0
 62
     7
100
AcDbBlockBegin
  2
K-86579
 70
     0
 10
212.042452
 20
158.939007
 30
0.0
  3
K-86579
  1
K-86579
  0
LINE
  5
165EE
330
165EC
100
AcDbEntity
  8
0
 62
     7
100
AcDbLine
 10
231.04244
 20
187.938992
 30
0.0
 11
231.04244
 21
160.238995
 31
0.0
  0
ARC
  5
165EF
330
165EC
100
AcDbEntity
  8
0
 62
     7
100
AcDbCircle
 10
230.04244
 20
187.938992
 30
0.0
 40
1.0
100
AcDbArc
 50
0.0
 51
89.99999999971944
  0
LINE
  5
165F0
330
165EC
100
AcDbEntity
  8
0
 62
     7
100
AcDbLine
 10
229.342443
 20
188.938992
 30
0.0
 11
230.04244
 21
188.938992
 31
0.0
  0
ARC
  5
165F1
330
165EC
100
AcDbEntity
  8
0
 62
     7
100
AcDbCircle
 10
229.342443
 20
189.438992
 30
0.0
 40
0.5
100
AcDbArc
 50
179.9999999994389
 51
269.9999999991583
  0
LINE
  5
165F2
330
165EC
100
AcDbEntity
  8
0
 62
     7
100
AcDbLine
 10
228.842443
 20
195.139004
 30
0.0
 11
228.842443
 21
189.438992
 31
0.0
  0
ARC
  5
165F3
330
165EC
100
AcDbEntity
  8
0
 62
     7
100
AcDbCircle
 10
229.342443
 20
195.139004
 30
0.0
 40
0.5
100
AcDbArc
 50
89.99999999971944
 51
179.9999999994389
  0
LINE
  5
165F4
330
165EC
100
AcDbEntity
  8
0
 62
     7
100
AcDbLine
 10
239.742483
 20
195.638989
 30
0.0
 11
229.342443
 21
195.638974
 31
0.0
  0
LINE
  5
165F5
330
165EC
100
AcDbEntity
  8
0
 62
     7
100
AcDbLine
 10
239.742483
 20
160.238995
 30
0.0
 11
239.742483
 21
195.638989
 31
0.0
  0
LINE
  5
165F6
330
165EC
100
AcDbEntity
  8
0
 62
     7
100
AcDbLine
 10
231.04244
 20
160.238995
 30
0.0
 11
239.742483
 21
160.238995
 31
0.0
  0
LINE
  5
165F7
330
165EC
100
AcDbEntity
  8
0
 62
     7
100
AcDbLine
 10
240.842474
 20
161.23901
 30
0.0
 11
241.042486
 21
161.439023
 31
0.0
  0
LINE
  5
165F8
330
165EC
100
AcDbEntity
  8
0
 62
     7
100
AcDbLine
 10
240.842474
 20
160.239009
 30
0.0
 11
240.842474
 21
161.23901
 31
0.0
  0
LINE
  5
165F9
330
165EC
100
AcDbEntity
  8
0
 62
     7
100
AcDbLine
 10
244.642477
 20
160.239027
 30
0.0
 11
240.842474
 21
160.239009
 31
0.0
  0
LINE
  5
165FA
330
165EC
100
AcDbEntity
  8
0
 62
     7
100
AcDbLine
 10
244.642477
 20
163.099753
 30
0.0
 11
244.642477
 21
160.239027
 31
0.0
  0
LINE
  5
165FB
330
165EC
100
AcDbEntity
  8
0
 62
     7
100
AcDbLine
 10
245.242473
 20
164.139004
 30
0.0
 11
244.642477
 21
163.099753
 31
0.0
  0
LINE
  5
165FC
330
165EC
100
AcDbEntity
  8
0
 62
     7
100
AcDbLine
 10
246.042471
 20
164.139004
 30
0.0
 11
245.242473
 21
164.139004
 31
0.0
  0
LINE
  5
165FD
330
165EC
100
AcDbEntity
  8
0
 62
     7
100
AcDbLine
 10
246.042471
 20
158.939007
 30
0.0
 11
246.042471
 21
164.139004
 31
0.0
  0
LINE
  5
165FE
330
165EC
100
AcDbEntity
  8
0
 62
     7
100
AcDbLine
 10
212.042474
 20
158.939007
 30
0.0
 11
246.042471
 21
158.939007
 31
0.0
  0
LINE
  5
165FF
330
165EC
100
AcDbEntity
  8
0
 62
     7
100
AcDbLine
 10
212.042452
 20
160.939026
 30
0.0
 11
212.042474
 21
158.939007
 31
0.0
  0
LINE
  5
16600
330
165EC
100
AcDbEntity
  8
0
 62
     7
100
AcDbLine
 10
213.042471
 20
160.939064
 30
0.0
 11
212.042452
 21
160.939026
 31
0.0
  0
LINE
  5
16601
330
165EC
100
AcDbEntity
  8
0
 62
     7
100
AcDbLine
 10
213.042471
 20
160.239041
 30
0.0
 11
213.042471
 21
160.939064
 31
0.0
  0
LINE
  5
16602
330
165EC
100
AcDbEntity
  8
0
 62
     7
100
AcDbLine
 10
229.242437
 20
160.239041
 30
0.0
 11
213.042471
 21
160.239041
 31
0.0
  0
ARC
  5
16603
330
165EC
100
AcDbEntity
  8
0
 62
     7
100
AcDbCircle
 10
229.242437
 20
160.739026
 30
0.0
 40
0.5
100
AcDbArc
 50
270.0000000002805
 51
0.0
  0
LINE
  5
16604
330
165EC
100
AcDbEntity
  8
0
 62
     7
100
AcDbLine
 10
229.742437
 20
164.939023
 30
0.0
 11
229.742437
 21
160.739026
 31
0.0
  0
LINE
  5
16605
330
165EC
100
AcDbEntity
  8
0
 62
     7
100
AcDbLine
 10
229.242467
 20
165.438992
 30
0.0
 11
229.742437
 21
164.939023
 31
0.0
  0
LINE
  5
16606
330
165EC
100
AcDbEntity
  8
0
 62
     7
100
AcDbLine
 10
229.242467
 20
187.1390189999999
 30
0.0
 11
229.242467
 21
165.438992
 31
0.0
  0
ARC
  5
16607
330
165EC
100
AcDbEntity
  8
0
 62
     7
100
AcDbCircle
 10
228.742467
 20
187.1390189999999
 30
0.0
 40
0.5
100
AcDbArc
 50
0.0
 51
89.99999999971944
  0
LINE
  5
16608
330
165EC
100
AcDbEntity
  8
0
 62
     7
100
AcDbLine
 10
225.192464
 20
187.639019
 30
0.0
 11
228.742467
 21
187.639019
 31
0.0
  0
ARC
  5
16609
330
165EC
100
AcDbEntity
  8
0
 62
     7
100
AcDbCircle
 10
225.192464
 20
188.289013
 30
0.0
 40
0.650009
100
AcDbArc
 50
89.99999999971944
 51
269.9999999991583
  0
LINE
  5
1660A
330
165EC
100
AcDbEntity
  8
0
 62
     7
100
AcDbLine
 10
227.542471
 20
188.939023
 30
0.0
 11
225.192449
 21
188.939023
 31
0.0
  0
LINE
  5
1660B
330
165EC
100
AcDbEntity
  8
0
 62
     7
100
AcDbLine
 10
227.542471
 20
195.439003
 30
0.0
 11
227.542471
 21
188.939023
 31
0.0
  0
LINE
  5
1660C
330
165EC
100
AcDbEntity
  8
0
 62
     7
100
AcDbLine
 10
227.042486
 20
195.939011
 30
0.0
 11
227.542471
 21
195.439003
 31
0.0
  0
LINE
  5
1660D
330
165EC
100
AcDbEntity
  8
0
 62
     7
100
AcDbLine
 10
227.042486
 20
196.938992
 30
0.0
 11
227.042486
 21
195.939011
 31
0.0
  0
LINE
  5
1660E
330
165EC
100
AcDbEntity
  8
0
 62
     7
100
AcDbLine
 10
257.042486
 20
196.939007
 30
0.0
 11
227.042486
 21
196.938992
 31
0.0
  0
LINE
  5
1660F
330
165EC
100
AcDbEntity
  8
0
 62
     7
100
AcDbLine
 10
257.042486
 20
190.438977
 30
0.0
 11
257.042486
 21
196.939007
 31
0.0
  0
LINE
  5
16610
330
165EC
100
AcDbEntity
  8
0
 62
     7
100
AcDbLine
 10
254.042455
 20
190.438977
 30
0.0
 11
257.042486
 21
190.438977
 31
0.0
  0
LINE
  5
16611
330
165EC
100
AcDbEntity
  8
0
 62
     7
100
AcDbLine
 10
254.042455
 20
191.438977
 30
0.0
 11
254.042455
 21
190.438977
 31
0.0
  0
LINE
  5
16612
330
165EC
100
AcDbEntity
  8
0
 62
     7
100
AcDbLine
 10
255.742467
 20
191.438977
 30
0.0
 11
254.042455
 21
191.438977
 31
0.0
  0
LINE
  5
16613
330
165EC
100
AcDbEntity
  8
0
 62
     7
100
AcDbLine
 10
255.742467
 20
195.638989
 30
0.0
 11
255.742467
 21
191.438977
 31
0.0
  0
LINE
  5
16614
330
165EC
100
AcDbEntity
  8
0
 62
     7
100
AcDbLine
 10
248.342474
 20
195.638989
 30
0.0
 11
255.742467
 21
195.638989
 31
0.0
  0
LINE
  5
16615
330
165EC
100
AcDbEntity
  8
0
 62
     7
100
AcDbLine
 10
248.342474
 20
191.438977
 30
0.0
 11
248.342474
 21
195.638989
 31
0.0
  0
LINE
  5
16616
330
165EC
100
AcDbEntity
  8
0
 62
     7
100
AcDbLine
 10
250.042471
 20
191.438977
 30
0.0
 11
248.342474
 21
191.438977
 31
0.0
  0
LINE
  5
16617
330
165EC
100
AcDbEntity
  8
0
 62
     7
100
AcDbLine
 10
250.042471
 20
190.438977
 30
0.0
 11
250.042471
 21
191.438977
 31
0.0
  0
LINE
  5
16618
330
165EC
100
AcDbEntity
  8
0
 62
     7
100
AcDbLine
 10
247.542486
 20
190.438977
 30
0.0
 11
250.042471
 21
190.438977
 31
0.0
  0
ARC
  5
16619
330
165EC
100
AcDbEntity
  8
0
 62
     7
100
AcDbCircle
 10
247.542486
 20
190.938977
 30
0.0
 40
0.5
100
AcDbArc
 50
179.9999999994389
 51
269.9999999991583
  0
LINE
  5
1661A
330
165EC
100
AcDbEntity
  8
0
 62
     7
100
AcDbLine
 10
247.042486
 20
195.638989
 30
0.0
 11
247.042486
 21
190.938977
 31
0.0
  0
LINE
  5
1661B
330
165EC
100
AcDbEntity
  8
0
 62
     7
100
AcDbLine
 10
240.842474
 20
195.638989
 30
0.0
 11
247.042486
 21
195.638989
 31
0.0
  0
LINE
  5
1661C
330
165EC
100
AcDbEntity
  8
0
 62
     7
100
AcDbLine
 10
240.842474
 20
194.638989
 30
0.0
 11
240.842474
 21
195.638989
 31
0.0
  0
LINE
  5
1661D
330
165EC
100
AcDbEntity
  8
0
 62
     7
100
AcDbLine
 10
241.042486
 20
194.438977
 30
0.0
 11
240.842474
 21
194.638989
 31
0.0
  0
LINE
  5
1661E
330
165EC
100
AcDbEntity
  8
0
 62
     7
100
AcDbLine
 10
241.042486
 20
176.939007
 30
0.0
 11
241.042486
 21
194.438977
 31
0.0
  0
LINE
  5
1661F
330
165EC
100
AcDbEntity
  8
0
 62
     7
100
AcDbLine
 10
244.042486
 20
176.939007
 30
0.0
 11
241.042486
 21
176.939007
 31
0.0
  0
LINE
  5
16620
330
165EC
100
AcDbEntity
  8
0
 62
     7
100
AcDbLine
 10
244.042486
 20
174.038998
 30
0.0
 11
244.042486
 21
176.939007
 31
0.0
  0
ARC
  5
16621
330
165EC
100
AcDbEntity
  8
0
 62
     7
100
AcDbCircle
 10
243.442464
 20
174.038998
 30
0.0
 40
0.599976
100
AcDbArc
 50
180.0014569994388
 51
359.9999999988777
  0
LINE
  5
16622
330
165EC
100
AcDbEntity
  8
0
 62
     7
100
AcDbLine
 10
242.842489
 20
175.73901
 30
0.0
 11
242.842489
 21
174.038983
 31
0.0
  0
LINE
  5
16623
330
165EC
100
AcDbEntity
  8
0
 62
     7
100
AcDbLine
 10
241.042486
 20
175.73901
 30
0.0
 11
242.842489
 21
175.73901
 31
0.0
  0
LINE
  5
16624
330
165EC
100
AcDbEntity
  8
0
 62
     7
100
AcDbLine
 10
241.042486
 20
161.439023
 30
0.0
 11
241.042486
 21
175.73901
 31
0.0
  0
ENDBLK
  5
16625
330
165EC
100
AcDbEntity
  8
0
 62
     7
100
AcDbBlockEnd
  0
BLOCK
  5
16627
330
16626
100
AcDbEntity
  8
0
 62
     7
100
AcDbBlockBegin
  2
K-86528
 70
     0
 10
228.679758
 20
148.45649
 30
0.0
  3
K-86528
  1
K-86528
  0
LINE
  5
16628
330
16626
100
AcDbEntity
  8
0
 62
     7
100
AcDbLine
 10
203.679758
 20
148.45649
 30
0.0
 11
228.679758
 21
148.45649
 31
0.0
  0
LINE
  5
16629
330
16626
100
AcDbEntity
  8
0
 62
     7
100
AcDbLine
 10
203.679758
 20
152.156474
 30
0.0
 11
203.679758
 21
148.45649
 31
0.0
  0
LINE
  5
1662A
330
16626
100
AcDbEntity
  8
0
 62
     7
100
AcDbLine
 10
203.979758
 20
152.156474
 30
0.0
 11
203.679758
 21
152.156474
 31
0.0
  0
LINE
  5
1662B
330
16626
100
AcDbEntity
  8
0
 62
     7
100
AcDbLine
 10
203.979758
 20
152.756474
 30
0.0
 11
203.979758
 21
152.156474
 31
0.0
  0
LINE
  5
1662C
330
16626
100
AcDbEntity
  8
0
 62
     7
100
AcDbLine
 10
203.679758
 20
152.756474
 30
0.0
 11
203.979758
 21
152.756474
 31
0.0
  0
LINE
  5
1662D
330
16626
100
AcDbEntity
  8
0
 62
     7
100
AcDbLine
 10
203.679758
 20
153.156474
 30
0.0
 11
203.679758
 21
152.756474
 31
0.0
  0
LINE
  5
1662E
330
16626
100
AcDbEntity
  8
0
 62
     7
100
AcDbLine
 10
203.979758
 20
153.156474
 30
0.0
 11
203.679758
 21
153.156474
 31
0.0
  0
LINE
  5
1662F
330
16626
100
AcDbEntity
  8
0
 62
     7
100
AcDbLine
 10
203.979758
 20
153.756474
 30
0.0
 11
203.979758
 21
153.156474
 31
0.0
  0
LINE
  5
16630
330
16626
100
AcDbEntity
  8
0
 62
     7
100
AcDbLine
 10
203.679758
 20
153.756474
 30
0.0
 11
203.979758
 21
153.756474
 31
0.0
  0
LINE
  5
16631
330
16626
100
AcDbEntity
  8
0
 62
     7
100
AcDbLine
 10
203.679758
 20
157.456459
 30
0.0
 11
203.679758
 21
153.756474
 31
0.0
  0
LINE
  5
16632
330
16626
100
AcDbEntity
  8
0
 62
     7
100
AcDbLine
 10
204.679712
 20
157.456459
 30
0.0
 11
203.679758
 21
157.456459
 31
0.0
  0
LINE
  5
16633
330
16626
100
AcDbEntity
  8
0
 62
     7
100
AcDbLine
 10
205.329752
 20
156.330572
 30
0.0
 11
204.679712
 21
157.456459
 31
0.0
  0
LINE
  5
16634
330
16626
100
AcDbEntity
  8
0
 62
     7
100
AcDbLine
 10
205.329752
 20
150.106453
 30
0.0
 11
205.329752
 21
156.330572
 31
0.0
  0
LINE
  5
16635
330
16626
100
AcDbEntity
  8
0
 62
     7
100
AcDbLine
 10
226.529749
 20
150.106453
 30
0.0
 11
205.329752
 21
150.106453
 31
0.0
  0
ARC
  5
16636
330
16626
100
AcDbEntity
  8
0
 62
     7
100
AcDbCircle
 10
226.529749
 20
150.606438
 30
0.0
 40
0.5
100
AcDbArc
 50
269.9999999991583
 51
359.9982509988777
  0
LINE
  5
16637
330
16626
100
AcDbEntity
  8
0
 62
     7
100
AcDbLine
 10
227.029749
 20
216.306481
 30
0.0
 11
227.029749
 21
150.606423
 31
0.0
  0
ARC
  5
16638
330
16626
100
AcDbEntity
  8
0
 62
     7
100
AcDbCircle
 10
226.529749
 20
216.306481
 30
0.0
 40
0.5
100
AcDbArc
 50
0.0
 51
89.99999999971944
  0
LINE
  5
16639
330
16626
100
AcDbEntity
  8
0
 62
     7
100
AcDbLine
 10
205.329752
 20
216.806481
 30
0.0
 11
226.529749
 21
216.806481
 31
0.0
  0
LINE
  5
1663A
330
16626
100
AcDbEntity
  8
0
 62
     7
100
AcDbLine
 10
205.329752
 20
210.582314
 30
0.0
 11
205.329752
 21
216.806481
 31
0.0
  0
LINE
  5
1663B
330
16626
100
AcDbEntity
  8
0
 62
     7
100
AcDbLine
 10
204.679747
 20
209.456459
 30
0.0
 11
205.329752
 21
210.582314
 31
0.0
  0
LINE
  5
1663C
330
16626
100
AcDbEntity
  8
0
 62
     7
100
AcDbLine
 10
203.679758
 20
209.456459
 30
0.0
 11
204.679747
 21
209.456459
 31
0.0
  0
LINE
  5
1663D
330
16626
100
AcDbEntity
  8
0
 62
     7
100
AcDbLine
 10
203.679758
 20
218.456459
 30
0.0
 11
203.679758
 21
209.456459
 31
0.0
  0
LINE
  5
1663E
330
16626
100
AcDbEntity
  8
0
 62
     7
100
AcDbLine
 10
228.679758
 20
218.456475
 30
0.0
 11
203.679758
 21
218.456459
 31
0.0
  0
LINE
  5
1663F
330
16626
100
AcDbEntity
  8
0
 62
     7
100
AcDbLine
 10
228.679758
 20
211.45649
 30
0.0
 11
228.679758
 21
218.456475
 31
0.0
  0
LINE
  5
16640
330
16626
100
AcDbEntity
  8
0
 62
     7
100
AcDbLine
 10
243.679758
 20
211.45649
 30
0.0
 11
228.679758
 21
211.45649
 31
0.0
  0
LINE
  5
16641
330
16626
100
AcDbEntity
  8
0
 62
     7
100
AcDbLine
 10
243.679758
 20
206.95649
 30
0.0
 11
243.679758
 21
211.45649
 31
0.0
  0
LINE
  5
16642
330
16626
100
AcDbEntity
  8
0
 62
     7
100
AcDbLine
 10
240.679742
 20
206.95649
 30
0.0
 11
243.679758
 21
206.95649
 31
0.0
  0
LINE
  5
16643
330
16626
100
AcDbEntity
  8
0
 62
     7
100
AcDbLine
 10
240.679742
 20
207.956393
 30
0.0
 11
240.679742
 21
206.95649
 31
0.0
  0
LINE
  5
16644
330
16626
100
AcDbEntity
  8
0
 62
     7
100
AcDbLine
 10
242.179742
 20
207.956419
 30
0.0
 11
240.679742
 21
207.956393
 31
0.0
  0
LINE
  5
16645
330
16626
100
AcDbEntity
  8
0
 62
     7
100
AcDbLine
 10
242.179742
 20
209.806435
 30
0.0
 11
242.179742
 21
207.956419
 31
0.0
  0
LINE
  5
16646
330
16626
100
AcDbEntity
  8
0
 62
     7
100
AcDbLine
 10
235.179742
 20
209.806435
 30
0.0
 11
242.179742
 21
209.806435
 31
0.0
  0
LINE
  5
16647
330
16626
100
AcDbEntity
  8
0
 62
     7
100
AcDbLine
 10
235.179742
 20
207.956419
 30
0.0
 11
235.179742
 21
209.806435
 31
0.0
  0
LINE
  5
16648
330
16626
100
AcDbEntity
  8
0
 62
     7
100
AcDbLine
 10
236.679742
 20
207.956393
 30
0.0
 11
235.179742
 21
207.956419
 31
0.0
  0
LINE
  5
16649
330
16626
100
AcDbEntity
  8
0
 62
     7
100
AcDbLine
 10
236.679742
 20
206.95649
 30
0.0
 11
236.679742
 21
207.956393
 31
0.0
  0
LINE
  5
1664A
330
16626
100
AcDbEntity
  8
0
 62
     7
100
AcDbLine
 10
234.179758
 20
206.95649
 30
0.0
 11
236.679742
 21
206.95649
 31
0.0
  0
ARC
  5
1664B
330
16626
100
AcDbEntity
  8
0
 62
     7
100
AcDbCircle
 10
234.179758
 20
207.45649
 30
0.0
 40
0.5
100
AcDbArc
 50
179.9999999994389
 51
269.9999999991583
  0
LINE
  5
1664C
330
16626
100
AcDbEntity
  8
0
 62
     7
100
AcDbLine
 10
233.679758
 20
209.806435
 30
0.0
 11
233.679758
 21
207.45649
 31
0.0
  0
LINE
  5
1664D
330
16626
100
AcDbEntity
  8
0
 62
     7
100
AcDbLine
 10
228.679758
 20
209.806435
 30
0.0
 11
233.679758
 21
209.806435
 31
0.0
  0
LINE
  5
1664E
330
16626
100
AcDbEntity
  8
0
 62
     7
100
AcDbLine
 10
228.679758
 20
180.106468
 30
0.0
 11
228.679758
 21
209.806435
 31
0.0
  0
LINE
  5
1664F
330
16626
100
AcDbEntity
  8
0
 62
     7
100
AcDbLine
 10
231.679681
 20
180.106468
 30
0.0
 11
228.679758
 21
180.106468
 31
0.0
  0
LINE
  5
16650
330
16626
100
AcDbEntity
  8
0
 62
     7
100
AcDbLine
 10
231.679681
 20
182.256478
 30
0.0
 11
231.679681
 21
180.106468
 31
0.0
  0
ARC
  5
16651
330
16626
100
AcDbEntity
  8
0
 62
     7
100
AcDbCircle
 10
232.179697
 20
182.256478
 30
0.0
 40
0.5
100
AcDbArc
 50
89.99999999971944
 51
179.9999999994389
  0
LINE
  5
16652
330
16626
100
AcDbEntity
  8
0
 62
     7
100
AcDbLine
 10
240.679742
 20
182.756478
 30
0.0
 11
232.179697
 21
182.756478
 31
0.0
  0
LINE
  5
16653
330
16626
100
AcDbEntity
  8
0
 62
     7
100
AcDbLine
 10
240.679742
 20
178.45649
 30
0.0
 11
240.679742
 21
182.756478
 31
0.0
  0
LINE
  5
16654
330
16626
100
AcDbEntity
  8
0
 62
     7
100
AcDbLine
 10
237.679742
 20
178.45649
 30
0.0
 11
240.679742
 21
178.45649
 31
0.0
  0
LINE
  5
16655
330
16626
100
AcDbEntity
  8
0
 62
     7
100
AcDbLine
 10
237.679742
 20
179.456444
 30
0.0
 11
237.679742
 21
178.45649
 31
0.0
  0
LINE
  5
16656
330
16626
100
AcDbEntity
  8
0
 62
     7
100
AcDbLine
 10
239.179742
 20
179.456444
 30
0.0
 11
237.679742
 21
179.456444
 31
0.0
  0
LINE
  5
16657
330
16626
100
AcDbEntity
  8
0
 62
     7
100
AcDbLine
 10
239.179742
 20
181.106468
 30
0.0
 11
239.179742
 21
179.456444
 31
0.0
  0
LINE
  5
16658
330
16626
100
AcDbEntity
  8
0
 62
     7
100
AcDbLine
 10
233.179742
 20
181.106468
 30
0.0
 11
239.179742
 21
181.106468
 31
0.0
  0
LINE
  5
16659
330
16626
100
AcDbEntity
  8
0
 62
     7
100
AcDbLine
 10
233.179742
 20
179.456444
 30
0.0
 11
233.179742
 21
181.106468
 31
0.0
  0
LINE
  5
1665A
330
16626
100
AcDbEntity
  8
0
 62
     7
100
AcDbLine
 10
234.679742
 20
179.456444
 30
0.0
 11
233.179742
 21
179.456444
 31
0.0
  0
LINE
  5
1665B
330
16626
100
AcDbEntity
  8
0
 62
     7
100
AcDbLine
 10
234.679742
 20
178.45649
 30
0.0
 11
234.679742
 21
179.456444
 31
0.0
  0
LINE
  5
1665C
330
16626
100
AcDbEntity
  8
0
 62
     7
100
AcDbLine
 10
228.679758
 20
178.45649
 30
0.0
 11
234.679742
 21
178.45649
 31
0.0
  0
LINE
  5
1665D
330
16626
100
AcDbEntity
  8
0
 62
     7
100
AcDbLine
 10
228.679758
 20
148.45649
 30
0.0
 11
228.679758
 21
178.45649
 31
0.0
  0
ENDBLK
  5
1665E
330
16626
100
AcDbEntity
  8
0
 62
     7
100
AcDbBlockEnd
  0
BLOCK
  5
17A15
330
17A14
100
AcDbEntity
  8
0
100
AcDbBlockBegin
  2
*D14
 70
     1
 10
0.0
 20
0.0
 30
0.0
  3
*D14
  1

  0
LINE
  5
17B8B
330
17A14
100
AcDbEntity
  8
0
 62
     4
370
    20
100
AcDbLine
 10
271.2827015638967
 20
145.9456645561771
 30
0.0
 11
271.2827015638967
 21
116.4490602072778
 31
0.0
  0
LINE
  5
17B8C
330
17A14
100
AcDbEntity
  8
0
 62
     4
370
    20
100
AcDbLine
 10
576.2829835638966
 20
145.9456778424929
 30
0.0
 11
576.2829835638966
 21
116.4490602072778
 31
0.0
  0
LINE
  5
17B8D
330
17A14
100
AcDbEntity
  8
0
 62
     4
370
    20
100
AcDbLine
 10
274.2827015638967
 20
118.4490602072778
 30
0.0
 11
573.2829835638966
 21
118.4490602072778
 31
0.0
  0
INSERT
  5
17B8E
330
17A14
100
AcDbEntity
  8
0
 62
     4
370
    20
100
AcDbBlockReference
  2
_Open30
 10
271.2827015638967
 20
118.4490602072778
 30
0.0
 41
3.0
 42
3.0
 43
3.0
 50
180.0
  0
INSERT
  5
17B8F
330
17A14
100
AcDbEntity
  8
0
 62
     4
370
    20
100
AcDbBlockReference
  2
_Open30
 10
576.2829835638966
 20
118.4490602072778
 30
0.0
 41
3.0
 42
3.0
 43
3.0
  0
MTEXT
  5
17B90
330
17A14
100
AcDbEntity
  8
0
 62
     7
100
AcDbMText
 10
423.7828425638967
 20
123.4490602072778
 30
0.0
 40
6.0
 41
0.0
 71
     5
 72
     1
  1
SW
  7
DIM
 73
     1
 44
1.0
1001
ACAD
1000
MTEXTBEGIN
1070
    73
1070
     1
1070
    44
1040
1.0
1070
    74
1070
     0
1000
MTEXTEND
  0
POINT
  5
17B91
330
17A14
100
AcDbEntity
  8
Defpoints
 62
     0
100
AcDbPoint
 10
271.2827015638967
 20
148.9456645561771
 30
0.0
  0
POINT
  5
17B92
330
17A14
100
AcDbEntity
  8
Defpoints
 62
     0
100
AcDbPoint
 10
576.2829835638966
 20
148.9456778424929
 30
0.0
  0
POINT
  5
17B93
330
17A14
100
AcDbEntity
  8
Defpoints
 62
     0
100
AcDbPoint
 10
576.2829835638966
 20
118.4490602072778
 30
0.0
  0
ENDBLK
  5
17A16
330
17A14
100
AcDbEntity
  8
0
100
AcDbBlockEnd
  0
BLOCK
  5
17A21
330
17A20
100
AcDbEntity
  8
0
100
AcDbBlockBegin
  2
*D15
 70
     1
 10
0.0
 20
0.0
 30
0.0
  3
*D15
  1

  0
LINE
  5
17B94
330
17A20
100
AcDbEntity
  8
003
 62
     4
370
    20
100
AcDbLine
 10
272.2827015638967
 20
269.0526617951994
 30
0.0
 11
272.2827015638967
 21
318.1248771122674
 31
0.0
  0
LINE
  5
17B95
330
17A20
100
AcDbEntity
  8
003
 62
     4
370
    20
100
AcDbLine
 10
575.2829835638967
 20
269.9456778424929
 30
0.0
 11
575.2829835638967
 21
318.1248771122674
 31
0.0
  0
LINE
  5
17B96
330
17A20
100
AcDbEntity
  8
003
 62
     4
370
    20
100
AcDbLine
 10
275.2827015638967
 20
316.1248771122674
 30
0.0
 11
572.2829835638966
 21
316.1248771122674
 31
0.0
  0
INSERT
  5
17B97
330
17A20
100
AcDbEntity
  8
003
 62
     4
370
    20
100
AcDbBlockReference
  2
_Open30
 10
272.2827015638967
 20
316.1248771122674
 30
0.0
 41
3.0
 42
3.0
 43
3.0
 50
180.0
  0
INSERT
  5
17B98
330
17A20
100
AcDbEntity
  8
003
 62
     4
370
    20
100
AcDbBlockReference
  2
_Open30
 10
575.2829835638967
 20
316.1248771122674
 30
0.0
 41
3.0
 42
3.0
 43
3.0
  0
MTEXT
  5
17B99
330
17A20
100
AcDbEntity
  8
003
 62
     7
100
AcDbMText
 10
423.7828425638967
 20
321.1248771122674
 30
0.0
 40
6.0
 41
0.0
 71
     5
 72
     1
  1
製品W=SW-2
  7
DIM
 73
     1
 44
1.0
1001
ACAD
1000
MTEXTBEGIN
1070
    73
1070
     1
1070
    44
1040
1.0
1070
    74
1070
     0
1000
MTEXTEND
  0
POINT
  5
17B9A
330
17A20
100
AcDbEntity
  8
Defpoints
 62
     0
100
AcDbPoint
 10
272.2827015638967
 20
266.0526617951993
 30
0.0
  0
POINT
  5
17B9B
330
17A20
100
AcDbEntity
  8
Defpoints
 62
     0
100
AcDbPoint
 10
575.2829835638967
 20
266.9456778424928
 30
0.0
  0
POINT
  5
17B9C
330
17A20
100
AcDbEntity
  8
Defpoints
 62
     0
100
AcDbPoint
 10
575.2829835638967
 20
316.1248771122674
 30
0.0
  0
ENDBLK
  5
17A22
330
17A20
100
AcDbEntity
  8
0
100
AcDbBlockEnd
  0
BLOCK
  5
17A2D
330
17A2C
100
AcDbEntity
  8
0
100
AcDbBlockBegin
  2
*D16
 70
     1
 10
0.0
 20
0.0
 30
0.0
  3
*D16
  1

  0
LINE
  5
17B9D
330
17A2C
100
AcDbEntity
  8
003
 62
     4
370
    20
100
AcDbLine
 10
272.2827015638967
 20
269.0526617951994
 30
0.0
 11
272.2827015638967
 21
300.9923147264973
 31
0.0
  0
LINE
  5
17B9E
330
17A2C
100
AcDbEntity
  8
003
 62
     4
370
    20
100
AcDbLine
 10
302.2827015638967
 20
279.9457637344614
 30
0.0
 11
302.2827015638967
 21
300.9923147264973
 31
0.0
  0
LINE
  5
17B9F
330
17A2C
100
AcDbEntity
  8
003
 62
     4
370
    20
100
AcDbLine
 10
275.2827015638967
 20
298.9923147264973
 30
0.0
 11
299.2827015638967
 21
298.9923147264973
 31
0.0
  0
INSERT
  5
17BA0
330
17A2C
100
AcDbEntity
  8
003
 62
     4
370
    20
100
AcDbBlockReference
  2
_Open30
 10
272.2827015638967
 20
298.9923147264973
 30
0.0
 41
3.0
 42
3.0
 43
3.0
 50
180.0
  0
INSERT
  5
17BA1
330
17A2C
100
AcDbEntity
  8
003
 62
     4
370
    20
100
AcDbBlockReference
  2
_Open30
 10
302.2827015638967
 20
298.9923147264973
 30
0.0
 41
3.0
 42
3.0
 43
3.0
  0
MTEXT
  5
17BA2
330
17A2C
100
AcDbEntity
  8
003
 62
     7
100
AcDbMText
 10
287.2827015638967
 20
303.9923147264973
 30
0.0
 40
6.0
 41
0.0
 71
     5
 72
     1
  1
30
  7
DIM
 73
     1
 44
1.0
1001
ACAD
1000
MTEXTBEGIN
1070
    73
1070
     1
1070
    44
1040
1.0
1070
    74
1070
     0
1000
MTEXTEND
  0
POINT
  5
17BA3
330
17A2C
100
AcDbEntity
  8
Defpoints
 62
     0
100
AcDbPoint
 10
272.2827015638967
 20
266.0526617951993
 30
0.0
  0
POINT
  5
17BA4
330
17A2C
100
AcDbEntity
  8
Defpoints
 62
     0
100
AcDbPoint
 10
302.2827015638967
 20
276.9457637344614
 30
0.0
  0
POINT
  5
17BA5
330
17A2C
100
AcDbEntity
  8
Defpoints
 62
     0
100
AcDbPoint
 10
302.2827015638967
 20
298.9923147264973
 30
0.0
  0
ENDBLK
  5
17A2E
330
17A2C
100
AcDbEntity
  8
0
100
AcDbBlockEnd
  0
BLOCK
  5
17A39
330
17A38
100
AcDbEntity
  8
0
100
AcDbBlockBegin
  2
*D17
 70
     1
 10
0.0
 20
0.0
 30
0.0
  3
*D17
  1

  0
LINE
  5
17BA6
330
17A38
100
AcDbEntity
  8
003
 62
     4
370
    20
100
AcDbLine
 10
564.7829835638966
 20
211.9456778424929
 30
0.0
 11
562.5362178949235
 21
211.9456778424929
 31
0.0
  0
LINE
  5
17BA7
330
17A38
100
AcDbEntity
  8
003
 62
     4
370
    20
100
AcDbLine
 10
562.2829835638966
 20
276.9456778424928
 30
0.0
 11
562.5362178949236
 21
276.9456778424928
 31
0.0
  0
LINE
  5
17BA8
330
17A38
100
AcDbEntity
  8
003
 62
     4
370
    20
100
AcDbLine
 10
564.5362178949235
 20
214.945677842493
 30
0.0
 11
564.5362178949236
 21
273.9456778424929
 31
0.0
  0
INSERT
  5
17BA9
330
17A38
100
AcDbEntity
  8
003
 62
     4
370
    20
100
AcDbBlockReference
  2
_Open30
 10
564.5362178949235
 20
211.9456778424929
 30
0.0
 41
3.0
 42
3.0
 43
3.0
 50
270.0
  0
INSERT
  5
17BAA
330
17A38
100
AcDbEntity
  8
003
 62
     4
370
    20
100
AcDbBlockReference
  2
_Open30
 10
564.5362178949236
 20
276.9456778424928
 30
0.0
 41
3.0
 42
3.0
 43
3.0
 50
90.0
  0
MTEXT
  5
17BAB
330
17A38
100
AcDbEntity
  8
003
 62
     7
100
AcDbMText
 10
559.5362178949235
 20
244.445677842493
 30
0.0
 40
6.0
 41
0.0
 71
     5
 72
     1
  1
65
  7
DIM
 11
0.0000000000000001
 21
1.0
 31
0.0
 73
     1
 44
1.0
1001
ACAD
1000
MTEXTBEGIN
1070
    73
1070
     1
1070
    44
1040
1.0
1070
    74
1070
     0
1000
MTEXTEND
  0
POINT
  5
17BAC
330
17A38
100
AcDbEntity
  8
Defpoints
 62
     0
100
AcDbPoint
 10
567.7829835638966
 20
211.9456778424929
 30
0.0
  0
POINT
  5
17BAD
330
17A38
100
AcDbEntity
  8
Defpoints
 62
     0
100
AcDbPoint
 10
565.2829835638966
 20
276.9456778424928
 30
0.0
  0
POINT
  5
17BAE
330
17A38
100
AcDbEntity
  8
Defpoints
 62
     0
100
AcDbPoint
 10
564.5362178949236
 20
276.9456778424928
 30
0.0
  0
ENDBLK
  5
17A3A
330
17A38
100
AcDbEntity
  8
0
100
AcDbBlockEnd
  0
BLOCK
  5
17A45
330
17A44
100
AcDbEntity
  8
0
100
AcDbBlockBegin
  2
*D18
 70
     1
 10
0.0
 20
0.0
 30
0.0
  3
*D18
  1

  0
LINE
  5
17BAF
330
17A44
100
AcDbEntity
  8
003
 62
     4
370
    20
100
AcDbLine
 10
659.4626367167271
 20
422.4787087895085
 30
0.0
 11
697.2246485627206
 21
422.4787087895085
 31
0.0
  0
LINE
  5
17BB0
330
17A44
100
AcDbEntity
  8
003
 62
     4
370
    20
100
AcDbLine
 10
659.4626367167271
 20
531.828106355482
 30
0.0
 11
697.2246485627206
 21
531.828106355482
 31
0.0
  0
LINE
  5
17BB1
330
17A44
100
AcDbEntity
  8
003
 62
     4
370
    20
100
AcDbLine
 10
695.2246485627206
 20
425.4787087895086
 30
0.0
 11
695.2246485627206
 21
528.828106355482
 31
0.0
  0
INSERT
  5
17BB2
330
17A44
100
AcDbEntity
  8
003
 62
     4
370
    20
100
AcDbBlockReference
  2
_Open30
 10
695.2246485627206
 20
422.4787087895085
 30
0.0
 41
3.0
 42
3.0
 43
3.0
 50
270.0
  0
INSERT
  5
17BB3
330
17A44
100
AcDbEntity
  8
003
 62
     4
370
    20
100
AcDbBlockReference
  2
_Open30
 10
695.2246485627206
 20
531.828106355482
 30
0.0
 41
3.0
 42
3.0
 43
3.0
 50
90.0
  0
MTEXT
  5
17BB4
330
17A44
100
AcDbEntity
  8
003
 62
     7
100
AcDbMText
 10
690.2246485627204
 20
477.1534075724954
 30
0.0
 40
6.0
 41
0.0
 71
     5
 72
     1
  1
製品H
  7
DIM
 11
0.0000000000000001
 21
1.0
 31
0.0
 73
     1
 44
1.0
1001
ACAD
1000
MTEXTBEGIN
1070
    73
1070
     1
1070
    44
1040
1.0
1070
    74
1070
     0
1000
MTEXTEND
  0
POINT
  5
17BB5
330
17A44
100
AcDbEntity
  8
Defpoints
 62
     0
100
AcDbPoint
 10
656.4626367167271
 20
422.4787087895085
 30
0.0
  0
POINT
  5
17BB6
330
17A44
100
AcDbEntity
  8
Defpoints
 62
     0
100
AcDbPoint
 10
656.4626367167271
 20
531.828106355482
 30
0.0
  0
POINT
  5
17BB7
330
17A44
100
AcDbEntity
  8
Defpoints
 62
     0
100
AcDbPoint
 10
695.2246485627206
 20
531.828106355482
 30
0.0
  0
ENDBLK
  5
17A46
330
17A44
100
AcDbEntity
  8
0
100
AcDbBlockEnd
  0
BLOCK
  5
17A51
330
17A50
100
AcDbEntity
  8
0
100
AcDbBlockBegin
  2
*D19
 70
     1
 10
0.0
 20
0.0
 30
0.0
  3
*D19
  1

  0
LINE
  5
17BB8
330
17A50
100
AcDbEntity
  8
003
 62
     4
370
    20
100
AcDbLine
 10
564.9525842401182
 20
417.5287087897036
 30
0.0
 11
564.9525842401182
 21
393.8809083129165
 31
0.0
  0
LINE
  5
17BB9
330
17A50
100
AcDbEntity
  8
003
 62
     4
370
    20
100
AcDbLine
 10
656.4626367167271
 20
417.5287087897036
 30
0.0
 11
656.4626367167271
 21
393.8809083129165
 31
0.0
  0
LINE
  5
17BBA
330
17A50
100
AcDbEntity
  8
003
 62
     4
370
    20
100
AcDbLine
 10
567.9525842401182
 20
395.8809083129165
 30
0.0
 11
653.4626367167271
 21
395.8809083129165
 31
0.0
  0
INSERT
  5
17BBB
330
17A50
100
AcDbEntity
  8
003
 62
     4
370
    20
100
AcDbBlockReference
  2
_Open30
 10
564.9525842401182
 20
395.8809083129165
 30
0.0
 41
3.0
 42
3.0
 43
3.0
 50
180.0
  0
INSERT
  5
17BBC
330
17A50
100
AcDbEntity
  8
003
 62
     4
370
    20
100
AcDbBlockReference
  2
_Open30
 10
656.4626367167271
 20
395.8809083129165
 30
0.0
 41
3.0
 42
3.0
 43
3.0
  0
MTEXT
  5
17BBD
330
17A50
100
AcDbEntity
  8
003
 62
     7
100
AcDbMText
 10
610.7076104784226
 20
400.8809083129165
 30
0.0
 40
6.0
 41
0.0
 71
     5
 72
     1
  1
製品W
  7
DIM
 73
     1
 44
1.0
1001
ACAD
1000
MTEXTBEGIN
1070
    73
1070
     1
1070
    44
1040
1.0
1070
    74
1070
     0
1000
MTEXTEND
  0
POINT
  5
17BBE
330
17A50
100
AcDbEntity
  8
Defpoints
 62
     0
100
AcDbPoint
 10
564.9525842401182
 20
420.5287087897036
 30
0.0
  0
POINT
  5
17BBF
330
17A50
100
AcDbEntity
  8
Defpoints
 62
     0
100
AcDbPoint
 10
656.4626367167271
 20
420.5287087897036
 30
0.0
  0
POINT
  5
17BC0
330
17A50
100
AcDbEntity
  8
Defpoints
 62
     0
100
AcDbPoint
 10
656.4626367167271
 20
395.8809083129165
 30
0.0
  0
ENDBLK
  5
17A52
330
17A50
100
AcDbEntity
  8
0
100
AcDbBlockEnd
  0
BLOCK
  5
17A5D
330
17A5C
100
AcDbEntity
  8
0
100
AcDbBlockBegin
  2
*D20
 70
     1
 10
0.0
 20
0.0
 30
0.0
  3
*D20
  1

  0
LINE
  5
17BC1
330
17A5C
100
AcDbEntity
  8
003
 62
     4
370
    20
100
AcDbLine
 10
545.2829835638966
 20
279.9456778424929
 30
0.0
 11
545.2829835638966
 21
300.9923147264973
 31
0.0
  0
LINE
  5
17BC2
330
17A5C
100
AcDbEntity
  8
003
 62
     4
370
    20
100
AcDbLine
 10
575.2829835638967
 20
269.9456778424929
 30
0.0
 11
575.2829835638967
 21
300.9923147264973
 31
0.0
  0
LINE
  5
17BC3
330
17A5C
100
AcDbEntity
  8
003
 62
     4
370
    20
100
AcDbLine
 10
548.2829835638966
 20
298.9923147264973
 30
0.0
 11
572.2829835638966
 21
298.9923147264973
 31
0.0
  0
INSERT
  5
17BC4
330
17A5C
100
AcDbEntity
  8
003
 62
     4
370
    20
100
AcDbBlockReference
  2
_Open30
 10
545.2829835638966
 20
298.9923147264973
 30
0.0
 41
3.0
 42
3.0
 43
3.0
 50
180.0
  0
INSERT
  5
17BC5
330
17A5C
100
AcDbEntity
  8
003
 62
     4
370
    20
100
AcDbBlockReference
  2
_Open30
 10
575.2829835638967
 20
298.9923147264973
 30
0.0
 41
3.0
 42
3.0
 43
3.0
  0
MTEXT
  5
17BC6
330
17A5C
100
AcDbEntity
  8
003
 62
     7
100
AcDbMText
 10
560.2829835638966
 20
303.9923147264973
 30
0.0
 40
6.0
 41
0.0
 71
     5
 72
     1
  1
30
  7
DIM
 73
     1
 44
1.0
1001
ACAD
1000
MTEXTBEGIN
1070
    73
1070
     1
1070
    44
1040
1.0
1070
    74
1070
     0
1000
MTEXTEND
  0
POINT
  5
17BC7
330
17A5C
100
AcDbEntity
  8
Defpoints
 62
     0
100
AcDbPoint
 10
545.2829835638966
 20
276.9456778424928
 30
0.0
  0
POINT
  5
17BC8
330
17A5C
100
AcDbEntity
  8
Defpoints
 62
     0
100
AcDbPoint
 10
575.2829835638967
 20
266.9456778424928
 30
0.0
  0
POINT
  5
17BC9
330
17A5C
100
AcDbEntity
  8
Defpoints
 62
     0
100
AcDbPoint
 10
575.2829835638967
 20
298.9923147264973
 30
0.0
  0
ENDBLK
  5
17A5E
330
17A5C
100
AcDbEntity
  8
0
100
AcDbBlockEnd
  0
BLOCK
  5
17A69
330
17A68
100
AcDbEntity
  8
0
100
AcDbBlockBegin
  2
*D21
 70
     1
 10
0.0
 20
0.0
 30
0.0
  3
*D21
  1

  0
LINE
  5
17BCA
330
17A68
100
AcDbEntity
  8
0
 62
     4
370
    20
100
AcDbLine
 10
429.4327015638969
 20
148.9457710743641
 30
0.0
 11
484.2846394199675
 21
148.945771074364
 31
0.0
  0
LINE
  5
17BCB
330
17A68
100
AcDbEntity
  8
0
 62
     4
370
    20
100
AcDbLine
 10
573.2829835638966
 20
218.945662842493
 30
0.0
 11
480.2846394199675
 21
218.945662842493
 31
0.0
  0
LINE
  5
17BCC
330
17A68
100
AcDbEntity
  8
0
 62
     4
370
    20
100
AcDbLine
 10
482.2846394199675
 20
151.945771074364
 30
0.0
 11
482.2846394199675
 21
215.945662842493
 31
0.0
  0
INSERT
  5
17BCD
330
17A68
100
AcDbEntity
  8
0
 62
     4
370
    20
100
AcDbBlockReference
  2
_Open30
 10
482.2846394199675
 20
148.945771074364
 30
0.0
 41
3.0
 42
3.0
 43
3.0
 50
270.0
  0
INSERT
  5
17BCE
330
17A68
100
AcDbEntity
  8
0
 62
     4
370
    20
100
AcDbBlockReference
  2
_Open30
 10
482.2846394199675
 20
218.945662842493
 30
0.0
 41
3.0
 42
3.0
 43
3.0
 50
90.0
  0
MTEXT
  5
17BCF
330
17A68
100
AcDbEntity
  8
0
 62
     7
100
AcDbMText
 10
477.2846394199675
 20
183.9457169584286
 30
0.0
 40
6.0
 41
0.0
 71
     5
 72
     1
  1
70
  7
DIM
 11
0.0000000000000001
 21
1.0
 31
0.0
 73
     1
 44
1.0
1001
ACAD
1000
MTEXTBEGIN
1070
    73
1070
     1
1070
    44
1040
1.0
1070
    74
1070
     0
1000
MTEXTEND
  0
POINT
  5
17BD0
330
17A68
100
AcDbEntity
  8
Defpoints
 62
     0
100
AcDbPoint
 10
426.4327015638968
 20
148.9457710743641
 30
0.0
  0
POINT
  5
17BD1
330
17A68
100
AcDbEntity
  8
Defpoints
 62
     0
100
AcDbPoint
 10
576.2829835638966
 20
218.945662842493
 30
0.0
  0
POINT
  5
17BD2
330
17A68
100
AcDbEntity
  8
Defpoints
 62
     0
100
AcDbPoint
 10
482.2846394199675
 20
218.945662842493
 30
0.0
  0
ENDBLK
  5
17A6A
330
17A68
100
AcDbEntity
  8
0
100
AcDbBlockEnd
  0
BLOCK
  5
17A75
330
17A74
100
AcDbEntity
  8
0
100
AcDbBlockBegin
  2
*D22
 70
     1
 10
0.0
 20
0.0
 30
0.0
  3
*D22
  1

  0
LINE
  5
17BD3
330
17A74
100
AcDbEntity
  8
0
 62
     4
370
    20
100
AcDbLine
 10
573.2829835638966
 20
218.945662842493
 30
0.0
 11
480.2846394199675
 21
218.945662842493
 31
0.0
  0
LINE
  5
17BD4
330
17A74
100
AcDbEntity
  8
0
 62
     4
370
    20
100
AcDbLine
 10
542.2829835638967
 20
276.9456778424928
 30
0.0
 11
480.2846394199675
 21
276.9456778424928
 31
0.0
  0
LINE
  5
17BD5
330
17A74
100
AcDbEntity
  8
0
 62
     4
370
    20
100
AcDbLine
 10
482.2846394199675
 20
221.945662842493
 30
0.0
 11
482.2846394199675
 21
273.9456778424929
 31
0.0
  0
INSERT
  5
17BD6
330
17A74
100
AcDbEntity
  8
0
 62
     4
370
    20
100
AcDbBlockReference
  2
_Open30
 10
482.2846394199675
 20
218.945662842493
 30
0.0
 41
3.0
 42
3.0
 43
3.0
 50
270.0
  0
INSERT
  5
17BD7
330
17A74
100
AcDbEntity
  8
0
 62
     4
370
    20
100
AcDbBlockReference
  2
_Open30
 10
482.2846394199675
 20
276.9456778424928
 30
0.0
 41
3.0
 42
3.0
 43
3.0
 50
90.0
  0
MTEXT
  5
17BD8
330
17A74
100
AcDbEntity
  8
0
 62
     7
100
AcDbMText
 10
477.2846394199675
 20
247.945670342493
 30
0.0
 40
6.0
 41
0.0
 71
     5
 72
     1
  1
58
  7
DIM
 11
0.0000000000000001
 21
1.0
 31
0.0
 73
     1
 44
1.0
1001
ACAD
1000
MTEXTBEGIN
1070
    73
1070
     1
1070
    44
1040
1.0
1070
    74
1070
     0
1000
MTEXTEND
  0
POINT
  5
17BD9
330
17A74
100
AcDbEntity
  8
Defpoints
 62
     0
100
AcDbPoint
 10
576.2829835638966
 20
218.945662842493
 30
0.0
  0
POINT
  5
17BDA
330
17A74
100
AcDbEntity
  8
Defpoints
 62
     0
100
AcDbPoint
 10
545.2829835638966
 20
276.9456778424928
 30
0.0
  0
POINT
  5
17BDB
330
17A74
100
AcDbEntity
  8
Defpoints
 62
     0
100
AcDbPoint
 10
482.2846394199675
 20
276.9456778424928
 30
0.0
  0
ENDBLK
  5
17A76
330
17A74
100
AcDbEntity
  8
0
100
AcDbBlockEnd
  0
BLOCK
  5
17A81
330
17A80
100
AcDbEntity
  8
0
100
AcDbBlockBegin
  2
*D23
 70
     1
 10
0.0
 20
0.0
 30
0.0
  3
*D23
  1

  0
LINE
  5
17BDC
330
17A80
100
AcDbEntity
  8
003
 62
     4
370
    20
100
AcDbLine
 10
271.2827015638967
 20
145.9457637344612
 30
0.0
 11
271.2827015638967
 21
130.4490602072778
 31
0.0
  0
LINE
  5
17BDD
330
17A80
100
AcDbEntity
  8
003
 62
     4
370
    20
100
AcDbLine
 10
286.2827015638967
 20
204.4457637344613
 30
0.0
 11
286.2827015638967
 21
130.4490602072778
 31
0.0
  0
LINE
  5
17BDE
330
17A80
100
AcDbEntity
  8
003
 62
     4
370
    20
100
AcDbLine
 10
274.2827015638967
 20
132.4490602072778
 30
0.0
 11
283.2827015638967
 21
132.4490602072778
 31
0.0
  0
INSERT
  5
17BDF
330
17A80
100
AcDbEntity
  8
003
 62
     4
370
    20
100
AcDbBlockReference
  2
_Open30
 10
271.2827015638967
 20
132.4490602072778
 30
0.0
 41
3.0
 42
3.0
 43
3.0
 50
180.0
  0
INSERT
  5
17BE0
330
17A80
100
AcDbEntity
  8
003
 62
     4
370
    20
100
AcDbBlockReference
  2
_Open30
 10
286.2827015638967
 20
132.4490602072778
 30
0.0
 41
3.0
 42
3.0
 43
3.0
  0
MTEXT
  5
17BE1
330
17A80
100
AcDbEntity
  8
003
 62
     7
100
AcDbMText
 10
278.7827015638967
 20
137.4490602072778
 30
0.0
 40
6.0
 41
0.0
 71
     5
 72
     1
  1
15
  7
DIM
 73
     1
 44
1.0
1001
ACAD
1000
MTEXTBEGIN
1070
    73
1070
     1
1070
    44
1040
1.0
1070
    74
1070
     0
1000
MTEXTEND
  0
POINT
  5
17BE2
330
17A80
100
AcDbEntity
  8
Defpoints
 62
     0
100
AcDbPoint
 10
271.2827015638967
 20
148.9457637344612
 30
0.0
  0
POINT
  5
17BE3
330
17A80
100
AcDbEntity
  8
Defpoints
 62
     0
100
AcDbPoint
 10
286.2827015638967
 20
207.4457637344612
 30
0.0
  0
POINT
  5
17BE4
330
17A80
100
AcDbEntity
  8
Defpoints
 62
     0
100
AcDbPoint
 10
286.2827015638967
 20
132.4490602072778
 30
0.0
  0
ENDBLK
  5
17A82
330
17A80
100
AcDbEntity
  8
0
100
AcDbBlockEnd
  0
BLOCK
  5
17A8D
330
17A8C
100
AcDbEntity
  8
0
100
AcDbBlockBegin
  2
*D24
 70
     1
 10
0.0
 20
0.0
 30
0.0
  3
*D24
  1

  0
LINE
  5
17BE5
330
17A8C
100
AcDbEntity
  8
003
 62
     4
370
    20
100
AcDbLine
 10
576.2829835638966
 20
145.9457637344612
 30
0.0
 11
576.2829835638966
 21
130.4490602072778
 31
0.0
  0
LINE
  5
17BE6
330
17A8C
100
AcDbEntity
  8
003
 62
     4
370
    20
100
AcDbLine
 10
561.2829835638966
 20
204.4457637344613
 30
0.0
 11
561.2829835638966
 21
130.4490602072778
 31
0.0
  0
LINE
  5
17BE7
330
17A8C
100
AcDbEntity
  8
003
 62
     4
370
    20
100
AcDbLine
 10
573.2829835638966
 20
132.4490602072778
 30
0.0
 11
564.2829835638966
 21
132.4490602072778
 31
0.0
  0
INSERT
  5
17BE8
330
17A8C
100
AcDbEntity
  8
003
 62
     4
370
    20
100
AcDbBlockReference
  2
_Open30
 10
576.2829835638966
 20
132.4490602072778
 30
0.0
 41
3.0
 42
3.0
 43
3.0
  0
INSERT
  5
17BE9
330
17A8C
100
AcDbEntity
  8
003
 62
     4
370
    20
100
AcDbBlockReference
  2
_Open30
 10
561.2829835638966
 20
132.4490602072778
 30
0.0
 41
3.0
 42
3.0
 43
3.0
 50
180.0
  0
MTEXT
  5
17BEA
330
17A8C
100
AcDbEntity
  8
003
 62
     7
100
AcDbMText
 10
568.7829835638966
 20
137.4490602072778
 30
0.0
 40
6.0
 41
0.0
 71
     5
 72
     1
  1
15
  7
DIM
 73
     1
 44
1.0
1001
ACAD
1000
MTEXTBEGIN
1070
    73
1070
     1
1070
    44
1040
1.0
1070
    74
1070
     0
1000
MTEXTEND
  0
POINT
  5
17BEB
330
17A8C
100
AcDbEntity
  8
Defpoints
 62
     0
100
AcDbPoint
 10
576.2829835638966
 20
148.9457637344612
 30
0.0
  0
POINT
  5
17BEC
330
17A8C
100
AcDbEntity
  8
Defpoints
 62
     0
100
AcDbPoint
 10
561.2829835638966
 20
207.4457637344612
 30
0.0
  0
POINT
  5
17BED
330
17A8C
100
AcDbEntity
  8
Defpoints
 62
     0
100
AcDbPoint
 10
561.2829835638966
 20
132.4490602072778
 30
0.0
  0
ENDBLK
  5
17A8E
330
17A8C
100
AcDbEntity
  8
0
100
AcDbBlockEnd
  0
ENDSEC
  0
SECTION
  2
ENTITIES
  0
POINT
  5
F7F2
330
1F
100
AcDbEntity
  8
0
100
AcDbPoint
 10
20.0000000000001
 20
558.0
 30
0.0
  0
TEXT
  5
13278
330
1F
100
AcDbEntity
  8
0
100
AcDbText
 10
730.4146959686859
 20
23.25114259729509
 30
0.0
 40
10.0
  1
-Ａｓ４-
  7
AT_VECTOR
 72
     1
 11
760.7956483496383
 21
28.25114259729509
 31
0.0
100
AcDbText
 73
     2
  0
POINT
  5
1327A
330
1F
100
AcDbEntity
  8
0
100
AcDbPoint
 10
809.9999999999996
 20
21.00000000000003
 30
0.0
  0
TEXT
  5
1327B
330
1F
100
AcDbEntity
  8
0
100
AcDbText
 10
40.45819394134253
 20
30.38714182789866
 30
0.0
 40
4.0
  1
12.02.01　作成
  7
AT_VECTOR
 11
40.45819394134253
 21
30.38714182789866
 31
0.0
100
AcDbText
 73
     1
  0
LINE
  5
1327C
330
1F
100
AcDbEntity
  8
YKK_ZWAK
  6
Continuous
 62
   254
100
AcDbLine
 10
40.00000000000011
 20
36.00000000000014
 30
0.0
 11
741.5835985999998
 21
36.00000000000014
 31
0.0
  0
LINE
  5
1327D
330
1F
100
AcDbEntity
  8
YKK_ZWAK
  6
Continuous
 62
   131
100
AcDbLine
 10
266.9835873999997
 20
52.80070140000034
 30
0.0
 11
395.7835901999998
 21
52.80070140000034
 31
0.0
  0
LINE
  5
1327E
330
1F
100
AcDbEntity
  8
YKK_ZWAK
  6
Continuous
 62
   254
100
AcDbLine
 10
779.3835999999993
 20
72.40000140000043
 30
0.0
 11
40.00000000000011
 21
72.40000140000043
 31
0.0
  0
LINE
  5
1327F
330
1F
100
AcDbEntity
  8
YKK_ZWAK
  6
Continuous
 62
   254
100
AcDbLine
 10
741.5835985999998
 20
71.00000140000034
 30
0.0
 11
40.00000000000011
 21
71.00000140000034
 31
0.0
  0
LINE
  5
13280
330
1F
100
AcDbEntity
  8
YKK_ZWAK
  6
Continuous
 62
   254
100
AcDbLine
 10
779.3835999999995
 20
558.0
 30
0.0
 11
40.00000000000011
 21
558.0
 31
0.0
  0
LINE
  5
13281
330
1F
100
AcDbEntity
  8
YKK_ZWAK
  6
Continuous
 62
   254
100
AcDbLine
 10
40.00000000000011
 20
72.40000140000043
 30
0.0
 11
40.00000000000011
 21
558.0
 31
0.0
  0
LINE
  5
13282
330
1F
100
AcDbEntity
  8
YKK_ZWAK
  6
HIDDEN
 62
   131
100
AcDbLine
 10
44.59865000000002
 20
42.70180000000019
 30
0.0
 11
262.1745874
 21
42.70180000000041
 31
0.0
  0
LINE
  5
13283
330
1F
100
AcDbEntity
  8
YKK_ZWAK
  6
HIDDEN
 62
   131
100
AcDbLine
 10
44.59865000000002
 20
49.63040000000015
 30
0.0
 11
262.1745874
 21
49.63040000000038
 31
0.0
  0
LINE
  5
13284
330
1F
100
AcDbEntity
  8
YKK_ZWAK
  6
HIDDEN
 62
   131
100
AcDbLine
 10
44.59865000000002
 20
56.55900140000031
 30
0.0
 11
262.1745874
 21
56.55900140000031
 31
0.0
  0
LINE
  5
13285
330
1F
100
AcDbEntity
  8
YKK_ZWAK
  6
HIDDEN
 62
   131
100
AcDbLine
 10
44.59865000000002
 20
63.48760140000027
 30
0.0
 11
262.1745874
 21
63.48760140000027
 31
0.0
  0
LINE
  5
13286
330
1F
100
AcDbEntity
  8
YKK_ZWAK
  6
Continuous
 62
   254
100
AcDbLine
 10
40.00000000000011
 20
36.00000000000014
 30
0.0
 11
40.00000000000011
 21
71.00000140000034
 31
0.0
  0
TEXT
  5
13287
330
1F
100
AcDbEntity
  8
YKK_ZWAK
  6
Continuous
 62
   131
100
AcDbText
 10
44.71447200000023
 20
64.55348160000031
 30
0.0
 40
4.199999999999999
  1
変 更 記 事
 41
0.9
  7
YKK_OSSTYLE1
100
AcDbText
  0
TEXT
  5
13288
330
1F
100
AcDbEntity
  8
YKK_ZWAK
  6
Continuous
 62
   254
100
AcDbText
 10
385.9018063999998
 20
37.52051882073843
 30
0.0
 40
7.0
  1
殿
 41
0.9
  7
YKK_OSSTYLE1
100
AcDbText
  0
LINE
  5
13289
330
1F
100
AcDbEntity
  8
YKK_ZWAK
  6
Continuous
 62
   254
100
AcDbLine
 10
394.3835901999997
 20
71.00000140000034
 30
0.0
 11
394.3835901999997
 21
36.00000000000014
 31
0.0
  0
LINE
  5
1328A
330
1F
100
AcDbEntity
  8
YKK_ZWAK
  6
Continuous
 62
   254
100
AcDbLine
 10
266.9835873999997
 20
71.00000140000034
 30
0.0
 11
266.9835873999997
 21
36.00000000000014
 31
0.0
  0
TEXT
  5
1328B
330
1F
100
AcDbEntity
  8
YKK_ZWAK
  6
Continuous
 62
   131
100
AcDbText
 10
270.7528493999999
 20
48.14570140000038
 30
0.0
 40
4.199999999999999
  1
施　　工
 41
0.9
  7
YKK_OSSTYLE1
100
AcDbText
  0
TEXT
  5
1328C
330
1F
100
AcDbEntity
  8
YKK_ZWAK
  6
Continuous
 62
   131
100
AcDbText
 10
270.7528493999999
 20
65.46720420000034
 30
0.0
 40
4.199999999999999
  1
設計監理
 41
0.9
  7
YKK_OSSTYLE1
100
AcDbText
  0
TEXT
  5
1328D
330
1F
100
AcDbEntity
  8
YKK_ZWAK
  6
Continuous
 62
   254
100
AcDbText
 10
385.9018063999998
 20
54.84202022073865
 30
0.0
 40
7.0
  1
殿
 41
0.9
  7
YKK_OSSTYLE1
100
AcDbText
  0
LINE
  5
1328E
330
1F
100
AcDbEntity
  8
YKK_ZWAK
  6
Continuous
 62
   254
100
AcDbLine
 10
779.3835999999995
 20
558.0
 30
0.0
 11
779.3835999999993
 21
72.40000140000043
 31
0.0
  0
LINE
  5
1328F
330
1F
100
AcDbEntity
  8
YKK_ZWAK
  6
Continuous
 62
   254
100
AcDbLine
 10
612.7835957999997
 20
45.80000000000032
 30
0.0
 11
713.5832486
 21
45.80000000000032
 31
0.0
  0
LINE
  5
13290
330
1F
100
AcDbEntity
  8
YKK_ZWAK
  6
Continuous
 62
   131
100
AcDbLine
 10
592.7677958
 20
64.00070140000039
 30
0.0
 11
524.5835943999996
 21
64.00070140000039
 31
0.0
  0
LINE
  5
13291
330
1F
100
AcDbEntity
  8
YKK_ZWAK
  6
Continuous
 62
   254
100
AcDbLine
 10
524.5835943999996
 20
71.00000140000034
 30
0.0
 11
524.5835943999996
 21
36.00000000000014
 31
0.0
  0
LINE
  5
13292
330
1F
100
AcDbEntity
  8
YKK_ZWAK
  6
Continuous
 62
   131
100
AcDbLine
 10
395.7835901999998
 20
52.80070140000034
 30
0.0
 11
524.5835943999996
 21
52.80070140000034
 31
0.0
  0
TEXT
  5
13293
330
1F
100
AcDbEntity
  8
YKK_ZWAK
  6
Continuous
 62
   131
100
AcDbText
 10
398.0008780425184
 20
47.85170280000025
 30
0.0
 40
4.199999999999999
  1
図面内容
 41
0.9
  7
YKK_OSSTYLE1
100
AcDbText
  0
TEXT
  5
13294
330
1F
100
AcDbEntity
  8
YKK_ZWAK
  6
Continuous
 62
   131
100
AcDbText
 10
398.3958123999997
 20
65.46720420000034
 30
0.0
 40
4.199999999999999
  1
工 事 名
 41
0.9
  7
YKK_OSSTYLE1
100
AcDbText
  0
TEXT
  5
13295
330
1F
100
AcDbEntity
  8
YKK_ZWAK
  6
Continuous
 62
   254
100
AcDbText
 10
508.0150028640188
 20
54.77075850212637
 30
0.0
 40
7.0
  1
工事
 41
0.9
  7
YKK_OSSTYLE1
100
AcDbText
  0
LINE
  5
13296
330
1F
100
AcDbEntity
  8
YKK_ZWAK
  6
Continuous
 62
   254
100
AcDbLine
 10
612.7835957999997
 20
71.00000140000034
 30
0.0
 11
612.7835957999997
 21
36.00000000000014
 31
0.0
  0
LINE
  5
13297
330
1F
100
AcDbEntity
  8
YKK_ZWAK
  6
Continuous
 62
   254
100
AcDbLine
 10
591.7835957999996
 20
71.00000140000034
 30
0.0
 11
591.7835957999996
 21
36.00000000000014
 31
0.0
  0
LINE
  5
13298
330
1F
100
AcDbEntity
  8
YKK_ZWAK
  6
Continuous
 62
   131
100
AcDbLine
 10
600.2558245999997
 20
37.65496380000028
 30
0.0
 11
609.7796997999995
 21
47.17883760000032
 31
0.0
  0
LINE
  5
13299
330
1F
100
AcDbEntity
  8
YKK_ZWAK
  6
Continuous
 62
   131
100
AcDbLine
 10
569.3835943999996
 20
71.00000140000034
 30
0.0
 11
569.3835943999996
 21
36.00000000000014
 31
0.0
  0
LINE
  5
1329A
330
1F
100
AcDbEntity
  8
YKK_ZWAK
  6
Continuous
 62
   131
100
AcDbLine
 10
546.9835943999995
 20
71.00000140000034
 30
0.0
 11
546.9835943999995
 21
36.00000000000014
 31
0.0
  0
TEXT
  5
1329B
330
1F
100
AcDbEntity
  8
YKK_ZWAK
  6
Continuous
 62
   131
100
AcDbText
 10
529.0385113564176
 20
37.05395500000046
 30
0.0
 40
4.899999999999999
  1
 ． ．
 41
0.9
  7
YKK_OSSTYLE1
100
AcDbText
  0
LINE
  5
1329C
330
1F
100
AcDbEntity
  8
YKK_ZWAK
  6
Continuous
 62
   131
100
AcDbLine
 10
617.8235784399999
 20
38.10000000000028
 30
0.0
 11
617.8235784399999
 21
36.00000000000014
 31
0.0
  0
TEXT
  5
1329D
330
1F
100
AcDbEntity
  8
YKK_ZWAK
  6
Continuous
 62
   131
100
AcDbText
 10
550.9380891429283
 20
65.21975000000034
 30
0.0
 40
4.199999999999999
  1
担  当
 41
0.9
  7
YKK_OSSTYLE1
100
AcDbText
  0
TEXT
  5
1329E
330
1F
100
AcDbEntity
  8
YKK_ZWAK
  6
Continuous
 62
   131
100
AcDbText
 10
529.5727087429282
 20
65.21975000000034
 30
0.0
 40
4.199999999999999
  1
照  査
 41
0.9
  7
YKK_OSSTYLE1
100
AcDbText
  0
TEXT
  5
1329F
330
1F
100
AcDbEntity
  8
YKK_ZWAK
  6
Continuous
 62
   131
100
AcDbText
 10
573.7035563429279
 20
65.2379514000003
 30
0.0
 40
4.199999999999999
  1
作  図
 41
0.9
  7
YKK_OSSTYLE1
100
AcDbText
  0
TEXT
  5
132A0
330
1F
100
AcDbEntity
  8
YKK_ZWAK
  6
Continuous
 62
   131
100
AcDbText
 10
615.4507133999997
 20
65.46720140000039
 30
0.0
 40
4.199999999999999
  1
御承認印
 41
0.9
  7
YKK_OSSTYLE1
100
AcDbText
  0
LINE
  5
132A1
330
1F
100
AcDbEntity
  8
YKK_ZWAK
  6
Continuous
 62
   131
100
AcDbLine
 10
592.7677958
 20
64.00070140000039
 30
0.0
 11
612.7835957999997
 21
64.00070140000039
 31
0.0
  0
LINE
  5
132A2
330
1F
100
AcDbEntity
  8
YKK_ZWAK
  6
Continuous
 62
   131
100
AcDbLine
 10
594.9537445999998
 20
53.26383680000041
 30
0.0
 11
604.6471261999997
 21
62.95721840000024
 31
0.0
  0
TEXT
  5
132A3
330
1F
100
AcDbEntity
  8
YKK_ZWAK
  6
Continuous
 62
   131
100
AcDbText
 10
595.2958557429282
 20
65.46294820000017
 30
0.0
 40
4.199999999999999
  1
尺  度
 41
0.9
  7
YKK_OSSTYLE1
100
AcDbText
  0
CIRCLE
  5
132A4
330
1F
100
AcDbEntity
  8
YKK_ZWAK
  6
Continuous
 62
     8
100
AcDbCircle
 10
791.1799999999999
 20
140.6080028000002
 30
0.0
 40
8.819999999999998
  0
LINE
  5
132A5
330
1F
100
AcDbEntity
  8
YKK_ZWAK
  6
Continuous
 62
     8
100
AcDbLine
 10
782.3599999999998
 20
120.8120028000002
 30
0.0
 11
799.9999999999996
 21
120.8120028000002
 31
0.0
  0
LINE
  5
132A6
330
1F
100
AcDbEntity
  8
YKK_ZWAK
  6
Continuous
 62
     8
100
AcDbLine
 10
782.3599999999998
 20
101.0160014000004
 30
0.0
 11
799.9999999999996
 21
101.0160014000004
 31
0.0
  0
CIRCLE
  5
132A7
330
1F
100
AcDbEntity
  8
YKK_ZWAK
  6
Continuous
 62
     8
100
AcDbCircle
 10
791.1799999999999
 20
120.8120028000002
 30
0.0
 40
8.819999999999998
  0
CIRCLE
  5
132A8
330
1F
100
AcDbEntity
  8
YKK_ZWAK
  6
Continuous
 62
     8
100
AcDbCircle
 10
791.1799999999999
 20
101.0160014000004
 30
0.0
 40
8.819999999999998
  0
LINE
  5
132A9
330
1F
100
AcDbEntity
  8
YKK_ZWAK
  6
Continuous
 62
     8
100
AcDbLine
 10
782.3599999999998
 20
81.22000140000015
 30
0.0
 11
799.9999999999996
 21
81.22000140000015
 31
0.0
  0
CIRCLE
  5
132AA
330
1F
100
AcDbEntity
  8
YKK_ZWAK
  6
Continuous
 62
     8
100
AcDbCircle
 10
791.1799999999999
 20
81.22000140000015
 30
0.0
 40
8.819999999999998
  0
LINE
  5
132AB
330
1F
100
AcDbEntity
  8
YKK_ZWAK
  6
Continuous
 62
   254
100
AcDbLine
 10
741.5835985999998
 20
71.00000140000034
 30
0.0
 11
741.5835985999998
 21
36.00000000000014
 31
0.0
  0
LINE
  5
132AC
330
1F
100
AcDbEntity
  8
YKK_ZWAK
  6
Continuous
 62
   254
100
AcDbLine
 10
713.5832485999996
 20
71.00000140000034
 30
0.0
 11
713.5832485999996
 21
36.00000000000014
 31
0.0
  0
ARC
  5
132AD
330
1F
100
AcDbEntity
  8
YKK_ZWAK
  6
Continuous
 62
   254
100
AcDbCircle
 10
774.1185096151526
 20
46.25489935034207
 30
0.0
 40
4.291374954660761
100
AcDbArc
 50
285.4429145291091
 51
349.9044812349549
  0
ARC
  5
132AE
330
1F
100
AcDbEntity
  8
YKK_ZWAK
  6
Continuous
 62
   254
100
AcDbCircle
 10
755.0324199971438
 20
42.6051813832884
 30
0.0
 40
11.08246594050609
100
AcDbArc
 50
168.7637177031458
 51
199.80079152699
  0
ARC
  5
132AF
330
1F
100
AcDbEntity
  8
YKK_ZWAK
  6
Continuous
 62
   254
100
AcDbCircle
 10
751.1657775921399
 20
42.67194135901095
 30
0.0
 40
2.368496244058475
100
AcDbArc
 50
171.0820302641948
 51
216.7192279251575
  0
LINE
  5
132B0
330
1F
100
AcDbEntity
  8
YKK_ZWAK
  6
Continuous
 62
   254
100
AcDbLine
 10
767.6389061999994
 20
36.79363340000023
 30
0.0
 11
767.6389061999994
 21
51.74096860000023
 31
0.0
  0
LINE
  5
132B1
330
1F
100
AcDbEntity
  8
YKK_ZWAK
  6
Continuous
 62
   254
100
AcDbLine
 10
762.6113955999995
 20
55.90359700000013
 30
0.0
 11
762.6113955999995
 21
36.79363340000023
 31
0.0
  0
LINE
  5
132B2
330
1F
100
AcDbEntity
  8
YKK_ZWAK
  6
Continuous
 62
   254
100
AcDbLine
 10
760.5030865999993
 20
51.4166082000003
 30
0.0
 11
760.5030865999993
 21
36.82063240000039
 31
0.0
  0
LINE
  5
132B3
330
1F
100
AcDbEntity
  8
YKK_ZWAK
  6
Continuous
 62
   254
100
AcDbLine
 10
755.6107305999995
 20
40.92913680000029
 30
0.0
 11
755.6107305999995
 21
50.65982980000026
 31
0.0
  0
LINE
  5
132B4
330
1F
100
AcDbEntity
  8
YKK_ZWAK
  6
Continuous
 62
   254
100
AcDbLine
 10
760.1787303999996
 20
36.76657280000032
 30
0.0
 11
749.1506391999998
 21
36.73951080000021
 31
0.0
  0
LINE
  5
132B5
330
1F
100
AcDbEntity
  8
YKK_ZWAK
  6
Continuous
 62
   254
100
AcDbLine
 10
749.9885503999995
 20
40.92913680000029
 30
0.0
 11
755.6107305999995
 21
40.92913680000029
 31
0.0
  0
ARC
  5
132B6
330
1F
100
AcDbEntity
  8
YKK_ZWAK
  6
Continuous
 62
   254
100
AcDbCircle
 10
748.0236827759169
 20
40.55749264107262
 30
0.0
 40
3.822905774762699
100
AcDbArc
 50
207.314354146757
 51
263.5946407474023
  0
ARC
  5
132B7
330
1F
100
AcDbEntity
  8
YKK_ZWAK
  6
Continuous
 62
   254
100
AcDbCircle
 10
750.2336781667264
 20
42.4350397728505
 30
0.0
 40
1.52572188408749
100
AcDbArc
 50
230.9727955865893
 51
260.7549113263762
  0
LINE
  5
132B8
330
1F
100
AcDbEntity
  8
YKK_ZWAK
  6
Continuous
 62
   254
100
AcDbLine
 10
749.1506391999998
 20
36.73951080000021
 30
0.0
 11
747.6640169999996
 21
36.73951080000021
 31
0.0
  0
LINE
  5
132B9
330
1F
100
AcDbEntity
  8
YKK_ZWAK
  6
Continuous
 62
   254
100
AcDbLine
 10
760.5030865999993
 20
36.82063240000039
 30
0.0
 11
760.1787303999996
 21
36.76657280000032
 31
0.0
  0
LINE
  5
132BA
330
1F
100
AcDbEntity
  8
YKK_ZWAK
  6
Continuous
 62
   254
100
AcDbLine
 10
755.1782383999994
 20
40.92913680000029
 30
0.0
 11
755.5296397999996
 21
40.92913680000029
 31
0.0
  0
LINE
  5
132BB
330
1F
100
AcDbEntity
  8
YKK_ZWAK
  6
Continuous
 62
   254
100
AcDbLine
 10
755.6107305999995
 20
40.93021760000024
 30
0.0
 11
755.6118099999995
 21
40.92913680000029
 31
0.0
  0
LINE
  5
132BC
330
1F
100
AcDbEntity
  8
YKK_ZWAK
  6
Continuous
 62
   254
100
AcDbLine
 10
766.8550391999998
 20
36.79363340000023
 30
0.0
 11
767.6389061999994
 21
36.79363340000023
 31
0.0
  0
LINE
  5
132BD
330
1F
100
AcDbEntity
  8
YKK_ZWAK
  6
Continuous
 62
   254
100
AcDbLine
 10
762.6113955999995
 20
36.79363340000023
 30
0.0
 11
766.8550391999998
 21
36.79363340000023
 31
0.0
  0
TEXT
  5
132BE
330
1F
100
AcDbEntity
  8
YKK_ZWAK
  6
Continuous
 62
   131
100
AcDbText
 10
719.7812535651286
 20
65.13786681786374
 30
0.0
 40
4.479999999999999
  1
図　番
 41
0.9
  7
YKK_OSSTYLE1
100
AcDbText
  0
TEXT
  5
132BF
330
1F
100
AcDbEntity
  8
YKK_ZWAK
  6
Continuous
 62
   131
100
AcDbText
 10
717.2623240538524
 20
46.91549063572748
 30
0.0
 40
4.479999999999999
  1
通し図番
 41
0.9
  7
YKK_OSSTYLE1
100
AcDbText
  0
LINE
  5
132C0
330
1F
100
AcDbEntity
  8
YKK_ZWAK
  6
Continuous
 62
   131
100
AcDbLine
 10
713.5832486
 20
64.00000140000035
 30
0.0
 11
741.5835985999998
 21
64.00000140000035
 31
0.0
  0
LINE
  5
132C1
330
1F
100
AcDbEntity
  8
YKK_ZWAK
  6
Continuous
 62
   131
100
AcDbLine
 10
741.5835985999998
 20
45.80070000000037
 30
0.0
 11
713.5832486
 21
45.80070000000037
 31
0.0
  0
LINE
  5
132C2
330
1F
100
AcDbEntity
  8
YKK_ZWAK
  6
Continuous
 62
   254
100
AcDbLine
 10
713.5832486
 20
52.80070140000034
 30
0.0
 11
741.5835985999998
 21
52.80070140000034
 31
0.0
  0
TEXT
  5
132C3
330
1F
100
AcDbEntity
  8
YKK_ZWAK
  6
Continuous
 62
   131
100
AcDbText
 10
685.7599305487767
 20
46.83089352384391
 30
0.0
 40
3.959199999999999
  1
年   月   日
 41
0.9
  7
YKK_OSSTYLE1
100
AcDbText
  0
ARC
  5
132C4
330
1F
100
AcDbEntity
  8
YKK_ZWAK
  6
Continuous
 62
   254
100
AcDbCircle
 10
751.1039154459987
 20
35.14607220780286
 30
0.0
 40
13.3089797551028
100
AcDbArc
 50
79.38097907998503
 51
112.0582515030178
  0
ARC
  5
132C5
330
1F
100
AcDbEntity
  8
YKK_ZWAK
  6
Continuous
 62
   254
100
AcDbCircle
 10
752.8250225948842
 20
35.53689122258666
 30
0.0
 40
20.74827378314429
100
AcDbArc
 50
78.78009531611676
 51
91.46937906064948
  0
LINE
  5
132C6
330
1F
100
AcDbEntity
  8
YKK_ZWAK
  6
Continuous
 62
   254
100
AcDbLine
 10
754.5295287999993
 20
51.79502960000028
 30
0.0
 11
750.8318357586659
 21
51.72506825574024
 31
0.0
  0
LINE
  5
132C7
330
1F
100
AcDbEntity
  8
YKK_ZWAK
  6
Continuous
 62
   254
100
AcDbLine
 10
754.2592391999993
 20
44.47004200000029
 30
0.0
 11
750.2648305999993
 21
44.4654178000002
 31
0.0
  0
LINE
  5
132C8
330
1F
100
AcDbEntity
  8
YKK_ZWAK
  6
Continuous
 62
   254
100
AcDbLine
 10
755.8456967999992
 20
70.20221000000029
 30
0.0
 11
751.3130189999998
 21
62.17444200000014
 31
0.0
  0
LINE
  5
132C9
330
1F
100
AcDbEntity
  8
YKK_ZWAK
  6
Continuous
 62
   254
100
AcDbLine
 10
752.2196323999993
 20
70.20221000000029
 30
0.0
 11
755.8456967999992
 21
70.20221000000029
 31
0.0
  0
LINE
  5
132CA
330
1F
100
AcDbEntity
  8
YKK_ZWAK
  6
Continuous
 62
   254
100
AcDbLine
 10
748.0153959999999
 20
62.2014410000003
 30
0.0
 11
743.4203509999998
 21
70.09415240000013
 31
0.0
  0
ARC
  5
132CB
330
1F
100
AcDbEntity
  8
YKK_ZWAK
  6
Continuous
 62
   254
100
AcDbCircle
 10
749.542867160396
 20
51.83435215743307
 30
0.0
 40
5.037359110950339
100
AcDbArc
 50
158.4108324489194
 51
179.7177524498308
  0
ARC
  5
132CC
330
1F
100
AcDbEntity
  8
YKK_ZWAK
  6
Continuous
 62
   254
100
AcDbCircle
 10
748.0103468024277
 20
44.07254465782867
 30
0.0
 40
3.908086150713168
100
AcDbArc
 50
121.8271136512715
 51
169.0847490152593
  0
LINE
  5
132CD
330
1F
100
AcDbEntity
  8
YKK_ZWAK
  6
Continuous
 62
   254
100
AcDbLine
 10
749.1506391999998
 20
49.92998740000044
 30
0.0
 11
744.5015527999995
 21
49.92998740000044
 31
0.0
  0
LINE
  5
132CE
330
1F
100
AcDbEntity
  8
YKK_ZWAK
  6
Continuous
 62
   254
100
AcDbLine
 10
744.5015527999995
 20
49.92998740000044
 30
0.0
 11
744.5015527999995
 21
51.85916683890005
 31
0.0
  0
ARC
  5
132CF
330
1F
100
AcDbEntity
  8
YKK_ZWAK
  6
Continuous
 62
   254
100
AcDbCircle
 10
750.2733920916713
 20
43.02066509552074
 30
0.0
 40
1.444778071622274
100
AcDbArc
 50
90.33952633950248
 51
178.0363902011758
  0
ARC
  5
132D0
330
1F
100
AcDbEntity
  8
YKK_ZWAK
  6
Continuous
 62
   254
100
AcDbCircle
 10
751.2589618129792
 20
49.9930616150888
 30
0.0
 40
2.109265890543419
100
AcDbArc
 50
138.4638179599298
 51
181.7135938864657
  0
ARC
  5
132D1
330
1F
100
AcDbEntity
  8
YKK_ZWAK
  6
Continuous
 62
   254
100
AcDbCircle
 10
750.6985435078687
 20
50.02934431627924
 30
0.0
 40
1.700954585808626
100
AcDbArc
 50
85.5055111732577
 51
126.7803821238701
  0
ARC
  5
132D2
330
1F
100
AcDbEntity
  8
YKK_ZWAK
  6
Continuous
 62
   254
100
AcDbCircle
 10
747.1900477496139
 20
52.94459453367486
 30
0.0
 40
2.443647515679661
100
AcDbArc
 50
109.0212664518422
 51
161.5126404033757
  0
ARC
  5
132D3
330
1F
100
AcDbEntity
  8
YKK_ZWAK
  6
Continuous
 62
   254
100
AcDbCircle
 10
752.3057897363884
 20
38.59893492829034
 30
0.0
 40
17.68008828611943
100
AcDbArc
 50
89.89164772910941
 51
109.3084827099164
  0
LINE
  5
132D4
330
1F
100
AcDbEntity
  8
YKK_ZWAK
  6
Continuous
 62
   254
100
AcDbLine
 10
748.0153959999999
 20
57.7415772000003
 30
0.0
 11
748.0153959999999
 21
62.2014410000003
 31
0.0
  0
LINE
  5
132D5
330
1F
100
AcDbEntity
  8
YKK_ZWAK
  6
Continuous
 62
   254
100
AcDbLine
 10
751.3130189999998
 20
57.7415772000003
 30
0.0
 11
748.0153959999999
 21
57.7415772000003
 31
0.0
  0
LINE
  5
132D6
330
1F
100
AcDbEntity
  8
YKK_ZWAK
  6
Continuous
 62
   254
100
AcDbLine
 10
751.3130189999998
 20
62.17444200000014
 30
0.0
 11
751.3130189999998
 21
57.7415772000003
 31
0.0
  0
LINE
  5
132D7
330
1F
100
AcDbEntity
  8
YKK_ZWAK
  6
Continuous
 62
   254
100
AcDbLine
 10
743.4203509999998
 20
70.09415240000013
 30
0.0
 11
746.9342179999999
 21
70.09415240000013
 31
0.0
  0
LINE
  5
132D8
330
1F
100
AcDbEntity
  8
YKK_ZWAK
  6
Continuous
 62
   254
100
AcDbLine
 10
752.2196323999993
 20
70.20221000000029
 30
0.0
 11
749.6641941999997
 21
65.22880660000024
 31
0.0
  0
LINE
  5
132D9
330
1F
100
AcDbEntity
  8
YKK_ZWAK
  6
Continuous
 62
   254
100
AcDbLine
 10
749.4479725999996
 20
65.3909868000002
 30
0.0
 11
749.6641941999997
 21
65.22880660000024
 31
0.0
  0
LINE
  5
132DA
330
1F
100
AcDbEntity
  8
YKK_ZWAK
  6
Continuous
 62
   254
100
AcDbLine
 10
746.9342179999999
 20
70.09415240000013
 30
0.0
 11
749.4479725999996
 21
65.3909868000002
 31
0.0
  0
ARC
  5
132DB
330
1F
100
AcDbEntity
  8
YKK_ZWAK
  6
Continuous
 62
   254
100
AcDbCircle
 10
775.5840492334942
 20
63.01228063775639
 30
0.0
 40
2.162466367416001
100
AcDbArc
 50
0.0016629214395005
 51
89.99603715016002
  0
ARC
  5
132DC
330
1F
100
AcDbEntity
  8
YKK_ZWAK
  6
Continuous
 62
   254
100
AcDbCircle
 10
763.9627892334943
 20
62.93115903775666
 30
0.0
 40
2.162466367416001
100
AcDbArc
 50
0.0016629214395005
 51
89.99603715016002
  0
LINE
  5
132DD
330
1F
100
AcDbEntity
  8
YKK_ZWAK
  6
Continuous
 62
   254
100
AcDbLine
 10
767.5578195999998
 20
57.87669680000013
 30
0.0
 11
767.5578195999998
 21
70.28333160000025
 31
0.0
  0
LINE
  5
132DE
330
1F
100
AcDbEntity
  8
YKK_ZWAK
  6
Continuous
 62
   254
100
AcDbLine
 10
756.0431961999994
 20
57.76863780000045
 30
0.0
 11
756.0431961999994
 21
70.17521240000011
 31
0.0
  0
LINE
  5
132DF
330
1F
100
AcDbEntity
  8
YKK_ZWAK
  6
Continuous
 62
   254
100
AcDbLine
 10
770.9635239999999
 20
57.87669680000013
 30
0.0
 11
767.5578195999998
 21
57.87669680000013
 31
0.0
  0
LINE
  5
132E0
330
1F
100
AcDbEntity
  8
YKK_ZWAK
  6
Continuous
 62
   254
100
AcDbLine
 10
774.2070677999996
 20
55.90359700000013
 30
0.0
 11
762.6113955999995
 21
55.90359700000013
 31
0.0
  0
LINE
  5
132E1
330
1F
100
AcDbEntity
  8
YKK_ZWAK
  6
Continuous
 62
   254
100
AcDbLine
 10
768.8552429999996
 20
41.87522040000035
 30
0.0
 11
774.1800687999995
 21
41.87522040000035
 31
0.0
  0
LINE
  5
132E2
330
1F
100
AcDbEntity
  8
YKK_ZWAK
  6
Continuous
 62
   254
100
AcDbLine
 10
772.3960851999996
 20
46.01072380000019
 30
0.0
 11
768.8552429999996
 21
46.01072380000019
 31
0.0
  0
LINE
  5
132E3
330
1F
100
AcDbEntity
  8
YKK_ZWAK
  6
Continuous
 62
   254
100
AcDbLine
 10
767.6389061999994
 20
51.74096860000023
 30
0.0
 11
772.2879659999995
 21
51.74096860000023
 31
0.0
  0
ARC
  5
132E4
330
1F
100
AcDbEntity
  8
YKK_ZWAK
  6
Continuous
 62
   254
100
AcDbCircle
 10
755.8925043950881
 20
51.51474864947036
 30
0.0
 40
4.611623791769603
100
AcDbArc
 50
358.7805904544194
 51
38.76562607988011
  0
ARC
  5
132E5
330
1F
100
AcDbEntity
  8
YKK_ZWAK
  6
Continuous
 62
   254
100
AcDbCircle
 10
754.0396270347561
 20
50.24597950176499
 30
0.0
 40
1.624672258159005
100
AcDbArc
 50
14.75519950165374
 51
72.44994796056167
  0
LINE
  5
132E6
330
1F
100
AcDbEntity
  8
YKK_ZWAK
  6
Continuous
 62
   254
100
AcDbLine
 10
754.2592391999993
 20
48.06494520000038
 30
0.0
 11
754.2592391999993
 21
44.47004200000029
 31
0.0
  0
LINE
  5
132E7
330
1F
100
AcDbEntity
  8
YKK_ZWAK
  6
Continuous
 62
   254
100
AcDbLine
 10
753.5564629999996
 20
48.22712540000035
 30
0.0
 11
754.2592391999993
 21
48.06494520000038
 31
0.0
  0
LINE
  5
132E8
330
1F
100
AcDbEntity
  8
YKK_ZWAK
  6
Continuous
 62
   254
100
AcDbLine
 10
768.8552429999996
 20
46.01072380000019
 30
0.0
 11
768.8552429999996
 21
41.87522040000035
 31
0.0
  0
LINE
  5
132E9
330
1F
100
AcDbEntity
  8
YKK_ZWAK
  6
Continuous
 62
   254
100
AcDbLine
 10
762.5573276000001
 20
62.41768220000031
 30
0.0
 11
759.3678406
 21
62.41768220000031
 31
0.0
  0
ARC
  5
132EA
330
1F
100
AcDbEntity
  8
YKK_ZWAK
  6
Continuous
 62
   254
100
AcDbCircle
 10
756.1138951653685
 20
51.50351313816614
 30
0.0
 40
4.448479416583054
100
AcDbArc
 50
40.66422291487802
 51
80.31693568605431
  0
LINE
  5
132EB
330
1F
100
AcDbEntity
  8
YKK_ZWAK
  6
Continuous
 62
   254
100
AcDbLine
 10
759.3678406
 20
57.76863780000045
 30
0.0
 11
756.0431961999994
 21
57.76863780000045
 31
0.0
  0
LINE
  5
132EC
330
1F
100
AcDbEntity
  8
YKK_ZWAK
  6
Continuous
 62
   254
100
AcDbLine
 10
759.3678406
 20
62.41768220000031
 30
0.0
 11
759.3678406
 21
57.76863780000045
 31
0.0
  0
LINE
  5
132ED
330
1F
100
AcDbEntity
  8
YKK_ZWAK
  6
Continuous
 62
   254
100
AcDbLine
 10
766.1252387999999
 20
62.93128340000035
 30
0.0
 11
766.1252387999999
 21
57.8496978000002
 31
0.0
  0
LINE
  5
132EE
330
1F
100
AcDbEntity
  8
YKK_ZWAK
  6
Continuous
 62
   254
100
AcDbLine
 10
762.9898197999993
 20
62.25550200000035
 30
0.0
 11
762.5573276000001
 21
62.41768220000031
 31
0.0
  0
LINE
  5
132EF
330
1F
100
AcDbEntity
  8
YKK_ZWAK
  6
Continuous
 62
   254
100
AcDbLine
 10
762.9898197999993
 20
57.8496978000002
 30
0.0
 11
762.9898197999993
 21
62.25550200000035
 31
0.0
  0
LINE
  5
132F0
330
1F
100
AcDbEntity
  8
YKK_ZWAK
  6
Continuous
 62
   254
100
AcDbLine
 10
766.1252387999999
 20
57.8496978000002
 30
0.0
 11
762.9898197999993
 21
57.8496978000002
 31
0.0
  0
ARC
  5
132F1
330
1F
100
AcDbEntity
  8
YKK_ZWAK
  6
Continuous
 62
   254
100
AcDbCircle
 10
774.0553502463523
 20
51.55972370845271
 30
0.0
 40
4.341106057659208
100
AcDbArc
 50
14.44572328130045
 51
87.08746338393794
  0
ARC
  5
132F2
330
1F
100
AcDbEntity
  8
YKK_ZWAK
  6
Continuous
 62
   254
100
AcDbCircle
 10
770.0933759170371
 20
47.9590145552585
 30
0.0
 40
3.69669741183696
100
AcDbArc
 50
343.6902032742219
 51
354.7536235027176
  0
ARC
  5
132F3
330
1F
100
AcDbEntity
  8
YKK_ZWAK
  6
Continuous
 62
   254
100
AcDbCircle
 10
772.397117998311
 20
47.31647000858211
 30
0.0
 40
1.305746617034933
100
AcDbArc
 50
269.9546811075394
 51
342.9014484926447
  0
ARC
  5
132F4
330
1F
100
AcDbEntity
  8
YKK_ZWAK
  6
Continuous
 62
   254
100
AcDbCircle
 10
772.4483148110122
 20
50.52093327878416
 30
0.0
 40
1.228897466365798
100
AcDbArc
 50
16.43123456657832
 51
96.91661395567104
  0
ARC
  5
132F5
330
1F
100
AcDbEntity
  8
YKK_ZWAK
  6
Continuous
 62
   254
100
AcDbCircle
 10
770.1148127421894
 20
49.79237254736986
 30
0.0
 40
3.673387293269126
100
AcDbArc
 50
4.934227406572256
 51
17.0355196304808
  0
LINE
  5
132F6
330
1F
100
AcDbEntity
  8
YKK_ZWAK
  6
Continuous
 62
   254
100
AcDbLine
 10
774.1800687999995
 20
41.87522040000035
 30
0.0
 11
775.2612089999999
 21
42.11845920000032
 31
0.0
  0
LINE
  5
132F7
330
1F
100
AcDbEntity
  8
YKK_ZWAK
  6
Continuous
 62
   254
100
AcDbLine
 10
773.7568011999993
 20
50.24354120000035
 30
0.0
 11
773.7745867999998
 21
47.60936870703031
 31
0.0
  0
ARC
  5
132F8
330
1F
100
AcDbEntity
  8
YKK_ZWAK
  6
Continuous
 62
   254
100
AcDbCircle
 10
757.7493447225653
 20
48.81275498863297
 30
0.0
 40
20.86005999632355
100
AcDbArc
 50
350.9902681741735
 51
10.67624520887799
  0
LINE
  5
132F9
330
1F
100
AcDbEntity
  8
YKK_ZWAK
  6
Continuous
 62
   254
100
AcDbLine
 10
777.7479729999992
 20
57.90375740000027
 30
0.0
 11
774.5854878000001
 21
57.90375740000027
 31
0.0
  0
LINE
  5
132FA
330
1F
100
AcDbEntity
  8
YKK_ZWAK
  6
Continuous
 62
   254
100
AcDbLine
 10
774.5854878000001
 20
62.28256260000026
 30
0.0
 11
774.1530081999996
 21
62.44474280000045
 31
0.0
  0
LINE
  5
132FB
330
1F
100
AcDbEntity
  8
YKK_ZWAK
  6
Continuous
 62
   254
100
AcDbLine
 10
774.1530081999996
 20
62.44474280000045
 30
0.0
 11
770.9635239999999
 21
62.44474280000045
 31
0.0
  0
LINE
  5
132FC
330
1F
100
AcDbEntity
  8
YKK_ZWAK
  6
Continuous
 62
   254
100
AcDbLine
 10
770.9635239999999
 20
62.44474280000045
 30
0.0
 11
770.9635239999999
 21
57.87669680000013
 31
0.0
  0
LINE
  5
132FD
330
1F
100
AcDbEntity
  8
YKK_ZWAK
  6
Continuous
 62
   254
100
AcDbLine
 10
774.5854878000001
 20
57.90375740000027
 30
0.0
 11
774.5854878000001
 21
62.28256260000026
 31
0.0
  0
LINE
  5
132FE
330
1F
100
AcDbEntity
  8
YKK_ZWAK
  6
Continuous
 62
   254
100
AcDbLine
 10
774.5854878000001
 20
57.95435480000029
 30
0.0
 11
774.6360865999997
 21
57.90375740000027
 31
0.0
  0
LINE
  5
132FF
330
1F
100
AcDbEntity
  8
YKK_ZWAK
  6
Continuous
 62
   254
100
AcDbLine
 10
777.7479729999992
 20
62.93128340000035
 30
0.0
 11
777.7479729999992
 21
57.90375740000027
 31
0.0
  0
LINE
  5
13300
330
1F
100
AcDbEntity
  8
YKK_ZWAK
  6
Continuous
 62
   254
100
AcDbLine
 10
767.5578195999998
 20
70.28333160000025
 30
0.0
 11
770.8283427999996
 21
70.28333160000025
 31
0.0
  0
LINE
  5
13301
330
1F
100
AcDbEntity
  8
YKK_ZWAK
  6
Continuous
 62
   254
100
AcDbLine
 10
759.2597325999996
 20
65.07672740000012
 30
0.0
 11
762.6384183999999
 21
70.22927200000018
 31
0.0
  0
LINE
  5
13302
330
1F
100
AcDbEntity
  8
YKK_ZWAK
  6
Continuous
 62
   254
100
AcDbLine
 10
759.2597325999996
 20
70.17521240000011
 30
0.0
 11
759.2597325999996
 21
65.07672740000012
 31
0.0
  0
LINE
  5
13303
330
1F
100
AcDbEntity
  8
YKK_ZWAK
  6
Continuous
 62
   254
100
AcDbLine
 10
756.0431961999994
 20
70.17521240000011
 30
0.0
 11
759.2597325999996
 21
70.17521240000011
 31
0.0
  0
LINE
  5
13304
330
1F
100
AcDbEntity
  8
YKK_ZWAK
  6
Continuous
 62
   254
100
AcDbLine
 10
763.9629387999999
 20
65.09362540000044
 30
0.0
 11
762.9236991999997
 21
65.09362540000044
 31
0.0
  0
LINE
  5
13305
330
1F
100
AcDbEntity
  8
YKK_ZWAK
  6
Continuous
 62
   254
100
AcDbLine
 10
766.4634885999995
 20
70.22927200000018
 30
0.0
 11
762.9236991999997
 21
65.09362540000044
 31
0.0
  0
LINE
  5
13306
330
1F
100
AcDbEntity
  8
YKK_ZWAK
  6
Continuous
 62
   254
100
AcDbLine
 10
762.6384183999999
 20
70.22927200000018
 30
0.0
 11
766.4634885999995
 21
70.22927200000018
 31
0.0
  0
LINE
  5
13307
330
1F
100
AcDbEntity
  8
YKK_ZWAK
  6
Continuous
 62
   254
100
AcDbLine
 10
777.6668513999999
 20
69.63461080000039
 30
0.0
 11
774.5449591999991
 21
65.17474700000017
 31
0.0
  0
LINE
  5
13308
330
1F
100
AcDbEntity
  8
YKK_ZWAK
  6
Continuous
 62
   254
100
AcDbLine
 10
774.2611273999997
 20
70.28333160000025
 30
0.0
 11
778.0452713999999
 21
70.28333160000025
 31
0.0
  0
LINE
  5
13309
330
1F
100
AcDbEntity
  8
YKK_ZWAK
  6
Continuous
 62
   254
100
AcDbLine
 10
775.5841987999994
 20
65.17474700000017
 30
0.0
 11
774.5449591999991
 21
65.17474700000017
 31
0.0
  0
LINE
  5
1330A
330
1F
100
AcDbEntity
  8
YKK_ZWAK
  6
Continuous
 62
   254
100
AcDbLine
 10
770.8283427999996
 20
65.09163040000036
 30
0.0
 11
774.2611273999997
 21
70.28333160000025
 31
0.0
  0
LINE
  5
1330B
330
1F
100
AcDbEntity
  8
YKK_ZWAK
  6
Continuous
 62
   254
100
AcDbLine
 10
770.8283427999996
 20
70.28333160000025
 30
0.0
 11
770.8283427999996
 21
65.09163040000036
 31
0.0
  0
LINE
  5
1330C
330
1F
100
AcDbEntity
  8
YKK_ZWAK
  6
Continuous
 62
   254
100
AcDbLine
 10
778.0452713999999
 20
70.28333160000025
 30
0.0
 11
777.6668513999999
 21
69.63461080000039
 31
0.0
  0
LINE
  5
1330D
330
1F
100
AcDbEntity
  8
YKK_ZWAK
  6
Continuous
 62
     8
100
AcDbLine
 10
782.3599999999998
 20
259.3840056000003
 30
0.0
 11
799.9999999999996
 21
259.3840056000003
 31
0.0
  0
LINE
  5
1330E
330
1F
100
AcDbEntity
  8
YKK_ZWAK
  6
Continuous
 62
     8
100
AcDbLine
 10
782.3599999999998
 20
239.5880056000002
 30
0.0
 11
799.9999999999996
 21
239.5880056000002
 31
0.0
  0
LINE
  5
1330F
330
1F
100
AcDbEntity
  8
YKK_ZWAK
  6
Continuous
 62
     8
100
AcDbLine
 10
782.3599999999998
 20
219.7920042000002
 30
0.0
 11
799.9999999999996
 21
219.7920042000002
 31
0.0
  0
LINE
  5
13310
330
1F
100
AcDbEntity
  8
YKK_ZWAK
  6
Continuous
 62
     8
100
AcDbLine
 10
782.3599999999998
 20
199.9960042000001
 30
0.0
 11
799.9999999999996
 21
199.9960042000001
 31
0.0
  0
LINE
  5
13311
330
1F
100
AcDbEntity
  8
YKK_ZWAK
  6
Continuous
 62
     8
100
AcDbLine
 10
782.3599999999998
 20
180.2000042000003
 30
0.0
 11
799.9999999999996
 21
180.2000042000003
 31
0.0
  0
LINE
  5
13312
330
1F
100
AcDbEntity
  8
YKK_ZWAK
  6
Continuous
 62
     8
100
AcDbLine
 10
782.3599999999998
 20
160.4040028000003
 30
0.0
 11
799.9999999999996
 21
160.4040028000003
 31
0.0
  0
LINE
  5
13313
330
1F
100
AcDbEntity
  8
YKK_ZWAK
  6
Continuous
 62
     8
100
AcDbLine
 10
782.3599999999998
 20
140.6080028000002
 30
0.0
 11
799.9999999999996
 21
140.6080028000002
 31
0.0
  0
CIRCLE
  5
13314
330
1F
100
AcDbEntity
  8
YKK_ZWAK
  6
Continuous
 62
     8
100
AcDbCircle
 10
791.1799999999999
 20
259.3840056000003
 30
0.0
 40
8.819999999999998
  0
CIRCLE
  5
13315
330
1F
100
AcDbEntity
  8
YKK_ZWAK
  6
Continuous
 62
     8
100
AcDbCircle
 10
791.1799999999999
 20
219.7920042000002
 30
0.0
 40
8.819999999999998
  0
CIRCLE
  5
13316
330
1F
100
AcDbEntity
  8
YKK_ZWAK
  6
Continuous
 62
     8
100
AcDbCircle
 10
791.1799999999999
 20
180.2000042000003
 30
0.0
 40
8.819999999999998
  0
CIRCLE
  5
13317
330
1F
100
AcDbEntity
  8
YKK_ZWAK
  6
Continuous
 62
     8
100
AcDbCircle
 10
791.1799999999999
 20
239.5880056000002
 30
0.0
 40
8.819999999999998
  0
CIRCLE
  5
13318
330
1F
100
AcDbEntity
  8
YKK_ZWAK
  6
Continuous
 62
     8
100
AcDbCircle
 10
791.1799999999999
 20
199.9960042000001
 30
0.0
 40
8.819999999999998
  0
CIRCLE
  5
13319
330
1F
100
AcDbEntity
  8
YKK_ZWAK
  6
Continuous
 62
     8
100
AcDbCircle
 10
791.1799999999999
 20
160.4040028000003
 30
0.0
 40
8.819999999999998
  0
TEXT
  5
1331A
330
1F
100
AcDbEntity
  8
YKK_ZWAK
  6
Continuous
 62
   131
100
AcDbText
 10
551.4385113564177
 20
37.05395500000046
 30
0.0
 40
4.899999999999999
  1
 ． ．
 41
0.9
  7
YKK_OSSTYLE1
100
AcDbText
  0
TEXT
  5
1331B
330
1F
100
AcDbEntity
  8
YKK_ZWAK
  6
Continuous
 62
   131
100
AcDbText
 10
573.8385113564178
 20
37.05395500000046
 30
0.0
 40
4.899999999999999
  1
 ． ．
 41
0.9
  7
YKK_OSSTYLE1
100
AcDbText
  0
LINE
  5
1331C
330
1F
100
AcDbEntity
  8
YKK_ZWAK
  6
Continuous
 62
   131
100
AcDbLine
 10
622.8635610799996
 20
38.10000000000028
 30
0.0
 11
622.8635610799996
 21
36.00000000000014
 31
0.0
  0
LINE
  5
1331D
330
1F
100
AcDbEntity
  8
YKK_ZWAK
  6
Continuous
 62
   131
100
AcDbLine
 10
627.9035437199996
 20
38.10000000000028
 30
0.0
 11
627.9035437199996
 21
36.00000000000014
 31
0.0
  0
LINE
  5
1331E
330
1F
100
AcDbEntity
  8
YKK_ZWAK
  6
Continuous
 62
   131
100
AcDbLine
 10
632.9435263599999
 20
38.10000000000028
 30
0.0
 11
632.9435263599999
 21
36.00000000000014
 31
0.0
  0
LINE
  5
1331F
330
1F
100
AcDbEntity
  8
YKK_ZWAK
  6
Continuous
 62
   131
100
AcDbLine
 10
637.983509
 20
38.10000000000028
 30
0.0
 11
637.983509
 21
36.00000000000014
 31
0.0
  0
LINE
  5
13320
330
1F
100
AcDbEntity
  8
YKK_ZWAK
  6
Continuous
 62
   131
100
AcDbLine
 10
643.0234916399996
 20
38.10000000000028
 30
0.0
 11
643.0234916399996
 21
36.00000000000014
 31
0.0
  0
LINE
  5
13321
330
1F
100
AcDbEntity
  8
YKK_ZWAK
  6
Continuous
 62
   131
100
AcDbLine
 10
648.0634742799995
 20
38.10000000000028
 30
0.0
 11
648.0634742799995
 21
36.00000000000014
 31
0.0
  0
LINE
  5
13322
330
1F
100
AcDbEntity
  8
YKK_ZWAK
  6
Continuous
 62
   131
100
AcDbLine
 10
653.1034569199997
 20
38.10000000000028
 30
0.0
 11
653.1034569199997
 21
36.00000000000014
 31
0.0
  0
LINE
  5
13323
330
1F
100
AcDbEntity
  8
YKK_ZWAK
  6
Continuous
 62
   131
100
AcDbLine
 10
658.1434395599998
 20
38.10000000000028
 30
0.0
 11
658.1434395599998
 21
36.00000000000014
 31
0.0
  0
LINE
  5
13324
330
1F
100
AcDbEntity
  8
YKK_ZWAK
  6
Continuous
 62
   131
100
AcDbLine
 10
663.1834221999999
 20
38.10000000000028
 30
0.0
 11
663.1834221999999
 21
36.00000000000014
 31
0.0
  0
LINE
  5
13325
330
1F
100
AcDbEntity
  8
YKK_ZWAK
  6
Continuous
 62
   131
100
AcDbLine
 10
668.2234048399999
 20
38.10000000000028
 30
0.0
 11
668.2234048399999
 21
36.00000000000014
 31
0.0
  0
LINE
  5
13326
330
1F
100
AcDbEntity
  8
YKK_ZWAK
  6
Continuous
 62
   131
100
AcDbLine
 10
673.26338748
 20
38.10000000000028
 30
0.0
 11
673.26338748
 21
36.00000000000014
 31
0.0
  0
LINE
  5
13327
330
1F
100
AcDbEntity
  8
YKK_ZWAK
  6
Continuous
 62
   131
100
AcDbLine
 10
678.3033701199998
 20
38.10000000000028
 30
0.0
 11
678.3033701199998
 21
36.00000000000014
 31
0.0
  0
LINE
  5
13328
330
1F
100
AcDbEntity
  8
YKK_ZWAK
  6
Continuous
 62
   131
100
AcDbLine
 10
683.3433527600001
 20
38.10000000000028
 30
0.0
 11
683.3433527600001
 21
36.00000000000014
 31
0.0
  0
LINE
  5
13329
330
1F
100
AcDbEntity
  8
YKK_ZWAK
  6
Continuous
 62
   131
100
AcDbLine
 10
688.3833354
 20
38.10000000000028
 30
0.0
 11
688.3833354
 21
36.00000000000014
 31
0.0
  0
LINE
  5
1332A
330
1F
100
AcDbEntity
  8
YKK_ZWAK
  6
Continuous
 62
   131
100
AcDbLine
 10
693.4233180399997
 20
38.10000000000028
 30
0.0
 11
693.4233180399997
 21
36.00000000000014
 31
0.0
  0
LINE
  5
1332B
330
1F
100
AcDbEntity
  8
YKK_ZWAK
  6
Continuous
 62
   131
100
AcDbLine
 10
698.4633006800001
 20
38.10000000000028
 30
0.0
 11
698.4633006800001
 21
36.00000000000014
 31
0.0
  0
LINE
  5
1332C
330
1F
100
AcDbEntity
  8
YKK_ZWAK
  6
Continuous
 62
   131
100
AcDbLine
 10
703.5032833200001
 20
38.10000000000028
 30
0.0
 11
703.5032833200001
 21
36.00000000000014
 31
0.0
  0
LINE
  5
1332D
330
1F
100
AcDbEntity
  8
YKK_ZWAK
  6
Continuous
 62
   131
100
AcDbLine
 10
708.5432659600002
 20
38.10000000000028
 30
0.0
 11
708.5432659600002
 21
36.00000000000014
 31
0.0
  0
TEXT
  5
1332F
330
1F
100
AcDbEntity
  8
YKK_ZWAK
  6
Continuous
 62
   254
100
AcDbText
 10
593.3822952813767
 20
56.99387636782908
 30
0.0
 40
5.599999999999999
  1
1
 41
0.9
  7
YKK_OSSTYLE1
 72
     4
 11
595.4222952813767
 21
59.79387636782909
 31
0.0
100
AcDbText
  0
TEXT
  5
13330
330
1F
100
AcDbEntity
  8
YKK_ZWAK
  6
Continuous
 62
   254
100
AcDbText
 10
600.9338208516221
 20
52.42615495014739
 30
0.0
 40
5.599999999999999
  1
2
 41
0.9
  7
YKK_OSSTYLE1
 72
     4
 11
603.3338208516221
 21
55.22615495014739
 31
0.0
100
AcDbText
  0
TEXT
  5
15E7A
330
1F
100
AcDbEntity
  8
YKK_ZWAK
  6
Continuous
 62
   254
100
AcDbText
 10
397.8675096381488
 20
38.38034557673893
 30
0.0
 40
7.0
  1
みらんちゃんＳＰ型（姿図・横断面図）
 41
0.85
  7
YKK_OSSTYLE1
 72
     1
 11
459.5491763048154
 21
38.38034557673893
 31
0.0
100
AcDbText
 73
     1
  0
LINE
  5
17138
330
1F
100
AcDbEntity
  8
003
100
AcDbLine
 10
321.2824910642847
 20
211.9457332344611
 30
0.0
 11
421.4327015638969
 21
211.9457332344611
 31
0.0
  0
LINE
  5
17139
330
1F
100
AcDbEntity
  8
003
100
AcDbLine
 10
300.2827015638967
 20
272.9457637344613
 30
0.0
 11
421.4327015638969
 21
272.9457637344615
 31
0.0
  0
LINE
  5
1713A
330
1F
100
AcDbEntity
  8
003
100
AcDbLine
 10
300.2827015638967
 20
240.9457332344612
 30
0.0
 11
421.4327015638969
 21
240.9457332344612
 31
0.0
  0
DIMENSION
  5
1713B
330
1F
100
AcDbEntity
  8
0
100
AcDbDimension
  2
*D14
 10
576.2829835638966
 20
118.4490602072778
 30
0.0
 11
423.7828425638967
 21
123.4490602072778
 31
0.0
 70
    32
  1
SW
 71
     5
 42
305.000282
  3
DIM
100
AcDbAlignedDimension
 13
271.2827015638967
 23
148.9456645561771
 33
0.0
 14
576.2829835638966
 24
148.9456778424929
 34
0.0
100
AcDbRotatedDimension
  0
LINE
  5
1713C
330
1F
100
AcDbEntity
  8
003
100
AcDbLine
 10
421.4327015638969
 20
236.4457637344615
 30
0.0
 11
317.6827015638968
 21
236.4457637344615
 31
0.0
  0
LINE
  5
1713D
330
1F
100
AcDbEntity
  8
003
100
AcDbLine
 10
421.4327015638969
 20
235.2457637344599
 30
0.0
 11
317.6827015638968
 21
235.2457637344614
 31
0.0
  0
LINE
  5
1713E
330
1F
100
AcDbEntity
  8
007
100
AcDbLine
 10
350.8824195638964
 20
238.1457770207767
 30
0.0
 11
328.5824195638964
 21
238.1457770207767
 31
0.0
  0
LINE
  5
1713F
330
1F
100
AcDbEntity
  8
007
100
AcDbLine
 10
350.3824195638964
 20
239.6457770207767
 30
0.0
 11
329.0824195638965
 21
239.6457770207767
 31
0.0
  0
LINE
  5
17140
330
1F
100
AcDbEntity
  8
007
100
AcDbLine
 10
350.3824195638964
 20
235.1457770207767
 30
0.0
 11
329.0824195638965
 21
235.1457770207767
 31
0.0
  0
LINE
  5
17141
330
1F
100
AcDbEntity
  8
YKK_W11
 62
     2
100
AcDbLine
 10
421.4327015638969
 20
189.9456874896264
 30
0.0
 11
320.9824085638967
 21
189.9457032344612
 31
0.0
  0
LINE
  5
17142
330
1F
100
AcDbEntity
  8
YKK_W11
 62
     2
100
AcDbLine
 10
321.2824575638967
 20
209.7456902344611
 30
0.0
 11
421.4327015638969
 21
209.7456902344611
 31
0.0
  0
LINE
  5
17143
330
1F
100
AcDbEntity
  8
YKK_W11
 62
     2
100
AcDbLine
 10
320.9824085638967
 20
205.4457032344612
 30
0.0
 11
421.4327015638969
 21
205.4457032344612
 31
0.0
  0
LINE
  5
17144
330
1F
100
AcDbEntity
  8
007
100
AcDbLine
 10
351.8824195638964
 20
234.8457770207767
 30
0.0
 11
323.5824195638965
 21
234.8457770207767
 31
0.0
  0
LINE
  5
17145
330
1F
100
AcDbEntity
  8
007
100
AcDbLine
 10
351.8824195638964
 20
224.8457770207767
 30
0.0
 11
326.5824195638964
 21
224.8457770207767
 31
0.0
  0
LINE
  5
17146
330
1F
100
AcDbEntity
  8
003
100
AcDbLine
 10
302.2827015638967
 20
276.9457637344614
 30
0.0
 11
421.4327015638969
 21
276.9457637344614
 31
0.0
  0
LINE
  5
17147
330
1F
100
AcDbEntity
  8
003
100
AcDbLine
 10
302.2827015638967
 20
275.7457637344613
 30
0.0
 11
421.4327015638969
 21
275.7457637344614
 31
0.0
  0
LINE
  5
17148
330
1F
100
AcDbEntity
  8
YKK_W11
 62
     2
100
AcDbLine
 10
309.9824085638967
 20
173.9457332344611
 30
0.0
 11
421.4327015638969
 21
173.9457382325156
 31
0.0
  0
LINE
  5
17149
330
1F
100
AcDbEntity
  8
YKK_W11
 62
   130
100
AcDbLine
 10
312.2829455638968
 20
200.945777234461
 30
0.0
 11
421.4327015638968
 21
200.945777234461
 31
0.0
  0
LINE
  5
1714A
330
1F
100
AcDbEntity
  8
YKK_W11
 62
   130
100
AcDbLine
 10
312.2829455638968
 20
197.945777234461
 30
0.0
 11
421.4327015638968
 21
197.945777234461
 31
0.0
  0
LINE
  5
1714B
330
1F
100
AcDbEntity
  8
YKK_W11
 62
   255
100
AcDbLine
 10
312.2829455638968
 20
201.945777234461
 30
0.0
 11
421.4327015638968
 21
201.945777234461
 31
0.0
  0
LINE
  5
1714C
330
1F
100
AcDbEntity
  8
YKK_W11
 62
   255
100
AcDbLine
 10
312.2829455638968
 20
196.945777234461
 30
0.0
 11
421.4327015638968
 21
196.945777234461
 31
0.0
  0
LINE
  5
1714D
330
1F
100
AcDbEntity
  8
YKK_W11
 62
     2
100
AcDbLine
 10
271.2824575638967
 20
151.4457482344612
 30
0.0
 11
421.4327015638968
 21
151.4457482344612
 31
0.0
  0
LINE
  5
1714E
330
1F
100
AcDbEntity
  8
YKK_W11
 62
     2
100
AcDbLine
 10
270.9826525638967
 20
148.9457482344612
 30
0.0
 11
421.4327015638969
 21
148.9457691165344
 31
0.0
  0
DIMENSION
  5
1714F
330
1F
100
AcDbEntity
  8
003
100
AcDbDimension
  2
*D15
 10
575.2829835638967
 20
316.1248771122674
 30
0.0
 11
423.7828425638967
 21
316.1248771122674
 31
0.0
 70
   160
  1
製品W=SW-2
 71
     5
 42
303.000282
  3
DIM
100
AcDbAlignedDimension
 13
272.2827015638967
 23
266.0526617951993
 33
0.0
 14
575.2829835638967
 24
266.9456778424928
 34
0.0
100
AcDbRotatedDimension
  0
LINE
  5
17150
330
1F
100
AcDbEntity
  8
003
100
AcDbLine
 10
296.8827015638966
 20
260.7457637344613
 30
0.0
 11
296.8827015638966
 21
266.9457637344611
 31
0.0
  0
LINE
  5
17151
330
1F
100
AcDbEntity
  8
003
100
AcDbLine
 10
300.2827015638967
 20
240.9457332344612
 30
0.0
 11
300.2827015638967
 21
272.9457637344613
 31
0.0
  0
LINE
  5
17152
330
1F
100
AcDbEntity
  8
003
100
AcDbLine
 10
302.2827015638967
 20
240.9457332344612
 30
0.0
 11
302.2827015638967
 21
272.9457637344613
 31
0.0
  0
LINE
  5
17153
330
1F
100
AcDbEntity
  8
003
100
AcDbLine
 10
289.1827015638968
 20
261.9457637344614
 30
0.0
 11
289.1827015638968
 21
234.456069754907
 31
0.0
  0
LINE
  5
17154
330
1F
100
AcDbEntity
  8
003
100
AcDbLine
 10
290.3827015638971
 20
261.9457637344614
 30
0.0
 11
290.3827015638971
 21
235.6560697549071
 31
0.0
  0
LINE
  5
17155
330
1F
100
AcDbEntity
  8
003
100
AcDbLine
 10
299.2827015638967
 20
238.1457637344613
 30
0.0
 11
299.2827015638967
 21
261.9457637344611
 31
0.0
  0
LINE
  5
17156
330
1F
100
AcDbEntity
  8
003
100
AcDbLine
 10
291.382701563897
 20
261.9457637344614
 30
0.0
 11
291.382701563897
 21
241.9457637344615
 31
0.0
  0
LINE
  5
17157
330
1F
100
AcDbEntity
  8
003
100
AcDbLine
 10
296.3827015638969
 20
261.9457637344614
 30
0.0
 11
296.3827015638969
 21
241.9457637344615
 31
0.0
  0
LINE
  5
17158
330
1F
100
AcDbEntity
  8
003
100
AcDbLine
 10
273.482701563897
 20
243.4618997628872
 30
0.0
 11
273.482701563897
 21
266.9457637344613
 31
0.0
  0
LINE
  5
17159
330
1F
100
AcDbEntity
  8
003
100
AcDbLine
 10
272.2827015638967
 20
211.9457637344612
 30
0.0
 11
272.2827015638967
 21
266.9457637344613
 31
0.0
  0
INSERT
  5
1715A
330
1F
100
AcDbEntity
  8
YKK_W11
 62
     7
100
AcDbBlockReference
  2
K-86528
 10
271.2827015638967
 20
148.9457637344612
 30
0.0
  0
LINE
  5
1715B
330
1F
100
AcDbEntity
  8
003
100
AcDbLine
 10
273.4827015638968
 20
211.9457637344615
 30
0.0
 11
273.482701563897
 21
235.2457637344614
 31
0.0
  0
INSERT
  5
1715C
330
1F
100
AcDbEntity
  8
YKK_W11
 62
     7
100
AcDbBlockReference
  2
K-86579
 10
276.2824570642847
 20
173.9457332344611
 30
0.0
  0
LINE
  5
1715D
330
1F
100
AcDbEntity
  8
YKK_W11
 62
     2
100
AcDbLine
 10
282.9826525638967
 20
183.2457362344612
 30
0.0
 11
293.4824085638967
 21
183.2457362344612
 31
0.0
  0
LINE
  5
1715E
330
1F
100
AcDbEntity
  8
YKK_W11
 62
     2
100
AcDbLine
 10
282.9826525638967
 20
178.9457482344612
 30
0.0
 11
293.4824085638967
 21
178.9457482344612
 31
0.0
  0
LINE
  5
1715F
330
1F
100
AcDbEntity
  8
YKK_W11
 62
     4
100
AcDbLine
 10
280.0678575638968
 20
180.3456052344611
 30
0.0
 11
281.2678085638968
 21
181.5455872344612
 31
0.0
  0
LINE
  5
17160
330
1F
100
AcDbEntity
  8
YKK_W11
 62
     4
100
AcDbLine
 10
279.9821645638969
 20
180.3456972344611
 30
0.0
 11
281.4821645638968
 21
180.3456972344611
 31
0.0
  0
LINE
  5
17161
330
1F
100
AcDbEntity
  8
YKK_W11
 62
     4
100
AcDbLine
 10
279.9821645638969
 20
178.9457032344612
 30
0.0
 11
279.9821645638969
 21
180.3456972344611
 31
0.0
  0
LINE
  5
17162
330
1F
100
AcDbEntity
  8
YKK_W11
 62
     4
100
AcDbLine
 10
283.0512565638968
 20
177.680596234461
 30
0.0
 11
282.8513045638967
 21
177.680596234461
 31
0.0
  0
LINE
  5
17163
330
1F
100
AcDbEntity
  8
YKK_W11
 62
     4
100
AcDbLine
 10
281.4821645638968
 20
180.3456972344611
 30
0.0
 11
281.4821645638968
 21
181.5456932344611
 31
0.0
  0
LINE
  5
17164
330
1F
100
AcDbEntity
  8
YKK_W11
 62
     4
100
AcDbLine
 10
280.9755725638968
 20
177.9887632344612
 30
0.0
 11
280.7756215638968
 21
177.9887632344612
 31
0.0
  0
LINE
  5
17165
330
1F
100
AcDbEntity
  8
YKK_W11
 62
     4
100
AcDbLine
 10
281.8910995638968
 20
178.5416652344611
 30
0.0
 11
281.6911485638967
 21
178.5416652344611
 31
0.0
  0
LINE
  5
17166
330
1F
100
AcDbEntity
  8
YKK_W11
 62
     4
100
AcDbLine
 10
280.3832875638967
 20
176.1199122344612
 30
0.0
 11
280.1830915638967
 21
176.1199122344612
 31
0.0
  0
ARC
  5
17167
330
1F
100
AcDbEntity
  8
YKK_W11
 62
     4
100
AcDbCircle
 10
282.7822135638968
 20
175.745706234461
 30
0.0
 40
0.5
100
AcDbArc
 50
269.9999999991532
 51
359.9999999988796
  0
LINE
  5
17168
330
1F
100
AcDbEntity
  8
YKK_W11
 62
     4
100
AcDbLine
 10
282.7035995638968
 20
175.4491822344612
 30
0.0
 11
282.5034045638968
 21
175.4491822344612
 31
0.0
  0
LINE
  5
17169
330
1F
100
AcDbEntity
  8
YKK_W11
 62
     4
100
AcDbLine
 10
282.3229845638967
 20
176.3918242344612
 30
0.0
 11
282.1227895638969
 21
176.3918242344612
 31
0.0
  0
ARC
  5
1716A
330
1F
100
AcDbEntity
  8
YKK_W11
 62
     4
100
AcDbCircle
 10
281.5820175638968
 20
176.9457332344611
 30
0.0
 40
0.5
100
AcDbArc
 50
269.9999999991532
 51
359.9999999988796
  0
LINE
  5
1716B
330
1F
100
AcDbEntity
  8
YKK_W11
 62
     4
100
AcDbLine
 10
282.0820175638968
 20
177.7456902344611
 30
0.0
 11
282.0820175638968
 21
176.9457332344611
 31
0.0
  0
LINE
  5
1716C
330
1F
100
AcDbEntity
  8
YKK_W11
 62
     4
100
AcDbLine
 10
283.2822135638968
 20
178.9457032344612
 30
0.0
 11
283.2822135638968
 21
175.745706234461
 31
0.0
  0
LINE
  5
1716D
330
1F
100
AcDbEntity
  8
YKK_W11
 62
     4
100
AcDbLine
 10
277.2392445638967
 20
180.345437234461
 30
0.0
 11
278.4394395638968
 21
181.5455872344612
 31
0.0
  0
LINE
  5
1716E
330
1F
100
AcDbEntity
  8
YKK_W11
 62
     4
100
AcDbLine
 10
279.6884635638968
 20
178.5869992344612
 30
0.0
 11
279.4885115638968
 21
178.5869992344612
 31
0.0
  0
LINE
  5
1716F
330
1F
100
AcDbEntity
  8
YKK_W11
 62
     4
100
AcDbLine
 10
278.0842155638967
 20
178.2244352344612
 30
0.0
 11
277.8842635638968
 21
178.2244352344612
 31
0.0
  0
LINE
  5
17170
330
1F
100
AcDbEntity
  8
YKK_W11
 62
     4
100
AcDbLine
 10
276.0820175638968
 20
181.5456932344611
 30
0.0
 11
276.0820175638968
 21
180.3456972344611
 31
0.0
  0
LINE
  5
17171
330
1F
100
AcDbEntity
  8
YKK_W11
 62
     4
100
AcDbLine
 10
276.0817735638967
 20
180.6023192344612
 30
0.0
 11
277.0248885638967
 21
181.5454192344612
 31
0.0
  0
LINE
  5
17172
330
1F
100
AcDbEntity
  8
YKK_W11
 62
     4
100
AcDbLine
 10
276.0820175638968
 20
180.3456972344611
 30
0.0
 11
277.5820175638968
 21
180.3456972344611
 31
0.0
  0
LINE
  5
17173
330
1F
100
AcDbEntity
  8
YKK_W11
 62
     4
100
AcDbLine
 10
278.1838245638968
 20
177.1201112344611
 30
0.0
 11
277.9838735638967
 21
177.1201112344611
 31
0.0
  0
LINE
  5
17174
330
1F
100
AcDbEntity
  8
YKK_W11
 62
     4
100
AcDbLine
 10
278.7822135638968
 20
177.7456902344611
 30
0.0
 11
278.7822135638968
 21
177.045602234461
 31
0.0
  0
LINE
  5
17175
330
1F
100
AcDbEntity
  8
YKK_W11
 62
     4
100
AcDbLine
 10
277.5820175638968
 20
177.0455872344612
 30
0.0
 11
277.5820175638968
 21
180.3456972344611
 31
0.0
  0
LINE
  5
17176
330
1F
100
AcDbEntity
  8
YKK_W11
 62
     2
100
AcDbLine
 10
274.7824575638968
 20
183.2457212344611
 30
0.0
 11
271.2824575638967
 21
183.2457212344611
 31
0.0
  0
LINE
  5
17177
330
1F
100
AcDbEntity
  8
YKK_W11
 62
     4
100
AcDbLine
 10
278.4977895638968
 20
175.8479852344612
 30
0.0
 11
278.2975935638968
 21
175.8479852344612
 31
0.0
  0
LINE
  5
17178
330
1F
100
AcDbEntity
  8
YKK_W11
 62
     4
100
AcDbLine
 10
279.4587265638967
 20
175.4310392344612
 30
0.0
 11
279.2585315638968
 21
175.4310392344612
 31
0.0
  0
ARC
  5
17179
330
1F
100
AcDbEntity
  8
YKK_W11
 62
     4
100
AcDbCircle
 10
278.2814805638967
 20
175.8455592344612
 30
0.0
 40
0.599838
100
AcDbArc
 50
89.9999999997134
 51
269.9999999991532
  0
ARC
  5
1717A
330
1F
100
AcDbEntity
  8
YKK_W11
 62
     4
100
AcDbCircle
 10
278.1821155638968
 20
177.045602234461
 30
0.0
 40
0.6000980000000001
100
AcDbArc
 50
180.0014570005532
 51
359.9999938590595
  0
LINE
  5
1717B
330
1F
100
AcDbEntity
  8
YKK_W11
 62
     4
100
AcDbLine
 10
281.4821645638968
 20
181.5456932344611
 30
0.0
 11
276.0820175638968
 21
181.5456932344611
 31
0.0
  0
LINE
  5
1717C
330
1F
100
AcDbEntity
  8
YKK_W11
 62
     4
100
AcDbLine
 10
278.2814805638967
 20
176.4457482344612
 30
0.0
 11
281.5820175638968
 21
176.4457482344612
 31
0.0
  0
LINE
  5
1717D
330
1F
100
AcDbEntity
  8
YKK_W11
 62
     4
100
AcDbLine
 10
278.7822135638968
 20
177.7456902344611
 30
0.0
 11
282.0820175638968
 21
177.7456902344611
 31
0.0
  0
LINE
  5
1717E
330
1F
100
AcDbEntity
  8
YKK_W11
 62
     4
100
AcDbLine
 10
282.7822135638968
 20
175.2457212344611
 30
0.0
 11
278.2814805638967
 21
175.2457212344611
 31
0.0
  0
LINE
  5
1717F
330
1F
100
AcDbEntity
  8
YKK_W11
 62
     4
100
AcDbLine
 10
277.5820175638968
 20
178.9457032344612
 30
0.0
 11
283.2822135638968
 21
178.9457032344612
 31
0.0
  0
LINE
  5
17180
330
1F
100
AcDbEntity
  8
YKK_W11
 62
     4
100
AcDbLine
 10
277.5817735638967
 20
179.273904234461
 30
0.0
 11
279.8535025638968
 21
181.5455872344612
 31
0.0
  0
LINE
  5
17181
330
1F
100
AcDbEntity
  8
YKK_W11
 62
     4
100
AcDbLine
 10
278.6677115638968
 20
178.9455502344613
 30
0.0
 11
279.9819205638968
 21
180.2598202344611
 31
0.0
  0
LINE
  5
17182
330
1F
100
AcDbEntity
  8
YKK_W11
 62
     4
100
AcDbLine
 10
283.0822005638968
 20
207.0456932344612
 30
0.0
 11
285.6821915638967
 21
207.0456932344612
 31
0.0
  0
LINE
  5
17183
330
1F
100
AcDbEntity
  8
YKK_W11
 62
     4
100
AcDbLine
 10
280.4821485638968
 20
205.8456812344612
 30
0.0
 11
291.6321275638967
 21
205.8456202344612
 31
0.0
  0
LINE
  5
17184
330
1F
100
AcDbEntity
  8
YKK_W11
 62
     2
100
AcDbLine
 10
271.2824575638967
 20
200.9457332344612
 30
0.0
 11
293.4824085638967
 21
200.9457332344612
 31
0.0
  0
LINE
  5
17185
330
1F
100
AcDbEntity
  8
YKK_W11
 62
     4
100
AcDbLine
 10
282.3679975638968
 20
207.7456602344612
 30
0.0
 11
284.2680225638968
 21
209.6456842344612
 31
0.0
  0
LINE
  5
17186
330
1F
100
AcDbEntity
  8
YKK_W11
 62
     4
100
AcDbLine
 10
284.4822105638968
 20
209.6456842344612
 30
0.0
 11
284.4822105638968
 21
208.4456722344612
 31
0.0
  0
LINE
  5
17187
330
1F
100
AcDbEntity
  8
YKK_W11
 62
     4
100
AcDbLine
 10
280.9537825638967
 20
207.7456602344612
 30
0.0
 11
282.8538075638968
 21
209.6456692344611
 31
0.0
  0
LINE
  5
17188
330
1F
100
AcDbEntity
  8
YKK_W11
 62
     4
100
AcDbLine
 10
284.4822105638968
 20
208.4456722344612
 30
0.0
 11
283.0822005638968
 21
208.4456572344611
 31
0.0
  0
LINE
  5
17189
330
1F
100
AcDbEntity
  8
YKK_W11
 62
     4
100
AcDbLine
 10
283.0822005638968
 20
208.4456722344612
 30
0.0
 11
283.0822005638968
 21
207.0456932344612
 31
0.0
  0
LINE
  5
1718A
330
1F
100
AcDbEntity
  8
YKK_W11
 62
     4
100
AcDbLine
 10
278.0819565638968
 20
209.1164792344612
 30
0.0
 11
278.6109025638968
 21
209.6454402344611
 31
0.0
  0
LINE
  5
1718B
330
1F
100
AcDbEntity
  8
YKK_W11
 62
     4
100
AcDbLine
 10
278.0822165638968
 20
209.6457002344612
 30
0.0
 11
278.0822165638968
 21
208.4456722344612
 31
0.0
  0
LINE
  5
1718C
330
1F
100
AcDbEntity
  8
YKK_W11
 62
     4
100
AcDbLine
 10
279.4822105638967
 20
208.4456572344611
 30
0.0
 11
278.0822165638968
 21
208.4456872344613
 31
0.0
  0
LINE
  5
1718D
330
1F
100
AcDbEntity
  8
YKK_W11
 62
     4
100
AcDbLine
 10
279.4821945638968
 20
208.4456422344611
 30
0.0
 11
279.4821795638967
 21
206.8456352344611
 31
0.0
  0
LINE
  5
1718E
330
1F
100
AcDbEntity
  8
YKK_W11
 62
     4
100
AcDbLine
 10
279.5395675638967
 20
207.7456602344612
 30
0.0
 11
281.4395925638968
 21
209.6456692344611
 31
0.0
  0
LINE
  5
1718F
330
1F
100
AcDbEntity
  8
YKK_W11
 62
     4
100
AcDbLine
 10
284.4822105638968
 20
209.6456842344612
 30
0.0
 11
278.0822165638968
 21
209.6457002344612
 31
0.0
  0
LINE
  5
17190
330
1F
100
AcDbEntity
  8
YKK_W11
 62
     4
100
AcDbLine
 10
283.0822005638968
 20
207.7456752344613
 30
0.0
 11
279.4821945638968
 21
207.7456752344613
 31
0.0
  0
LINE
  5
17191
330
1F
100
AcDbEntity
  8
YKK_W11
 62
     4
100
AcDbLine
 10
278.8251365638968
 20
208.4454582344611
 30
0.0
 11
280.0251175638967
 21
209.6454252344611
 31
0.0
  0
ARC
  5
17192
330
1F
100
AcDbEntity
  8
YKK_W11
 62
     4
100
AcDbCircle
 10
280.4821645638968
 20
206.8456662344611
 30
0.0
 40
1.0
100
AcDbArc
 50
180.0017489994389
 51
269.9999999991532
  0
LINE
  5
17193
330
1F
100
AcDbEntity
  8
003
100
AcDbLine
 10
286.2827015638967
 20
211.9457637344612
 30
0.0
 11
291.2824910642847
 21
211.9457182344611
 31
0.0
  0
ARC
  5
17194
330
1F
100
AcDbEntity
  8
YKK_W11
 62
     4
100
AcDbCircle
 10
291.6322195638967
 20
206.0956972344611
 30
0.0
 40
0.25
100
AcDbArc
 50
269.9999999991532
 51
86.503948998607
  0
ARC
  5
17195
330
1F
100
AcDbEntity
  8
YKK_W11
 62
     4
100
AcDbCircle
 10
286.2821975638969
 20
207.0456932344612
 30
0.0
 40
0.6
100
AcDbArc
 50
179.9999999994398
 51
318.1873739989975
  0
LINE
  5
17196
330
1F
100
AcDbEntity
  8
YKK_W11
 62
     4
100
AcDbLine
 10
286.7294025638967
 20
206.6456842344612
 30
0.0
 11
291.6474625638967
 21
206.3452232344612
 31
0.0
  0
LINE
  5
17197
330
1F
100
AcDbEntity
  8
YKK_W11
 62
   130
100
AcDbLine
 10
321.2468885638967
 20
189.9456062344611
 30
0.0
 11
322.7410445638968
 21
196.586479234461
 31
0.0
  0
LINE
  5
17198
330
1F
100
AcDbEntity
  8
YKK_W11
 62
     4
100
AcDbLine
 10
312.2822105638967
 20
191.9457352344611
 30
0.0
 11
305.2822105638967
 21
199.9457352344611
 31
0.0
  0
LINE
  5
17199
330
1F
100
AcDbEntity
  8
YKK_W11
 62
     4
100
AcDbLine
 10
305.2822105638967
 20
191.9457352344611
 30
0.0
 11
312.2822105638967
 21
199.9457352344611
 31
0.0
  0
LINE
  5
1719A
330
1F
100
AcDbEntity
  8
YKK_W11
 62
     4
100
AcDbLine
 10
305.2822105638967
 20
199.9457352344611
 30
0.0
 11
305.2822105638967
 21
191.9457352344611
 31
0.0
  0
LINE
  5
1719B
330
1F
100
AcDbEntity
  8
YKK_W11
 62
     4
100
AcDbLine
 10
312.2822105638967
 20
191.9457352344611
 30
0.0
 11
312.2822105638967
 21
199.9457352344611
 31
0.0
  0
INSERT
  5
1719C
330
1F
100
AcDbEntity
  8
YKK_W11
 62
     7
100
AcDbBlockReference
  2
K-86576
 10
305.2824875638968
 20
176.145728734461
 30
0.0
 41
-1.0
 50
270.0
  0
LINE
  5
1719D
330
1F
100
AcDbEntity
  8
YKK_W11
 62
     4
100
AcDbLine
 10
305.2822105638967
 20
191.9457352344611
 30
0.0
 11
312.2822105638967
 21
191.9457352344611
 31
0.0
  0
LINE
  5
1719E
330
1F
100
AcDbEntity
  8
YKK_W11
 62
     4
100
AcDbLine
 10
312.2822105638967
 20
199.9457352344611
 30
0.0
 11
305.2822105638967
 21
199.9457352344611
 31
0.0
  0
LINE
  5
1719F
330
1F
100
AcDbEntity
  8
YKK_W11
 62
   255
100
AcDbLine
 10
312.2829455638968
 20
196.945777234461
 30
0.0
 11
312.2829455638968
 21
201.945777234461
 31
0.0
  0
LINE
  5
171A0
330
1F
100
AcDbEntity
  8
YKK_W11
 62
   130
100
AcDbLine
 10
321.2469185638969
 20
205.445591234461
 30
0.0
 11
322.2326555638968
 21
202.336252234461
 31
0.0
  0
ARC
  5
171A1
330
1F
100
AcDbEntity
  8
YKK_W11
 62
   130
100
AcDbCircle
 10
321.9466825638968
 20
202.245591234461
 30
0.0
 40
0.3
100
AcDbArc
 50
239.9957609999955
 51
17.58988500000539
  0
ARC
  5
171A2
330
1F
100
AcDbEntity
  8
YKK_W11
 62
   130
100
AcDbCircle
 10
322.4469315638968
 20
196.6455302344611
 30
0.0
 40
0.3
100
AcDbArc
 50
348.6472010000003
 51
119.9982389999957
  0
LINE
  5
171A3
330
1F
100
AcDbEntity
  8
003
100
AcDbLine
 10
316.482701563897
 20
236.9457637344613
 30
0.0
 11
280.5827015638969
 21
236.9457637344613
 31
0.0
  0
LINE
  5
171A4
330
1F
100
AcDbEntity
  8
003
100
AcDbLine
 10
325.482701563897
 20
238.1457637344613
 30
0.0
 11
299.2827015638967
 21
238.1457637344613
 31
0.0
  0
LINE
  5
171A5
330
1F
100
AcDbEntity
  8
003
100
AcDbLine
 10
285.2827015638967
 20
238.1457637344613
 30
0.0
 11
285.2827015638967
 21
239.3457637344614
 31
0.0
  0
LINE
  5
171A6
330
1F
100
AcDbEntity
  8
003
100
AcDbLine
 10
298.0827015638969
 20
238.1457637344613
 30
0.0
 11
298.0827015638969
 21
260.7457637344613
 31
0.0
  0
LINE
  5
171A7
330
1F
100
AcDbEntity
  8
006
100
AcDbLine
 10
275.7827015638967
 20
237.5357637344614
 30
0.0
 11
275.7827015638967
 21
245.5357637344614
 31
0.0
  0
LINE
  5
171A8
330
1F
100
AcDbEntity
  8
003
100
AcDbLine
 10
285.2827015638967
 20
238.1457637344613
 30
0.0
 11
280.5827015638969
 21
238.1457637344613
 31
0.0
  0
LINE
  5
171A9
330
1F
100
AcDbEntity
  8
003
100
AcDbLine
 10
298.0627015638969
 20
238.1457637344613
 30
0.0
 11
273.482701563897
 21
238.1457637344613
 31
0.0
  0
LINE
  5
171AA
330
1F
100
AcDbEntity
  8
003
100
AcDbLine
 10
276.482701563897
 20
236.4457637344615
 30
0.0
 11
273.482701563897
 21
236.4457637344615
 31
0.0
  0
LINE
  5
171AB
330
1F
100
AcDbEntity
  8
003
100
AcDbLine
 10
279.9827015638967
 20
238.1457637344613
 30
0.0
 11
273.482701563897
 21
238.1457637344613
 31
0.0
  0
LINE
  5
171AC
330
1F
100
AcDbEntity
  8
003
100
AcDbLine
 10
279.982701563897
 20
236.9457637344613
 30
0.0
 11
273.482701563897
 21
236.9457637344613
 31
0.0
  0
LINE
  5
171AD
330
1F
100
AcDbEntity
  8
003
100
AcDbLine
 10
276.482701563897
 20
235.2457637344614
 30
0.0
 11
273.482701563897
 21
235.2457637344614
 31
0.0
  0
LINE
  5
171AE
330
1F
100
AcDbEntity
  8
003
100
AcDbLine
 10
273.482701563897
 20
236.4457637344615
 30
0.0
 11
273.482701563897
 21
238.1457637344613
 31
0.0
  0
LINE
  5
171AF
330
1F
100
AcDbEntity
  8
003
100
AcDbLine
 10
273.482701563897
 20
236.9457637344613
 30
0.0
 11
273.482701563897
 21
238.1457637344613
 31
0.0
  0
ARC
  5
171B0
330
1F
100
AcDbEntity
  8
003
100
AcDbCircle
 10
280.2827015638967
 20
238.1457637344613
 30
0.0
 40
0.3000000000000682
100
AcDbArc
 50
0.0000000000260551
 51
179.999999999987
  0
ARC
  5
171B1
330
1F
100
AcDbEntity
  8
003
100
AcDbCircle
 10
280.2827015638967
 20
236.9457637344615
 30
0.0
 40
0.2999999999999829
100
AcDbArc
 50
0.0
 51
180.0
  0
LINE
  5
171B2
330
1F
100
AcDbEntity
  8
003
100
AcDbLine
 10
276.482701563897
 20
235.2457637344614
 30
0.0
 11
276.482701563897
 21
236.9457637344613
 31
0.0
  0
LINE
  5
171B3
330
1F
100
AcDbEntity
  8
003
100
AcDbLine
 10
285.2827015638967
 20
239.3457637344614
 30
0.0
 11
277.8330429988776
 21
239.3457637344614
 31
0.0
  0
ARC
  5
171B4
330
1F
100
AcDbEntity
  8
003
100
AcDbCircle
 10
275.7827015638967
 20
241.5357637344616
 30
0.0
 40
1.8
100
AcDbArc
 50
29.98163936884621
 51
330.1585454638315
  0
ARC
  5
171B5
330
1F
100
AcDbEntity
  8
003
100
AcDbCircle
 10
275.7827015638967
 20
241.5357637344616
 30
0.0
 40
3.0
100
AcDbArc
 50
29.98163936884621
 51
140.0554948101842
  0
LINE
  5
171B6
330
1F
100
AcDbEntity
  8
003
100
AcDbLine
 10
278.3812583220428
 20
243.0349310949302
 30
0.0
 11
277.3418356187857
 21
242.4352641507435
 31
0.0
  0
ARC
  5
171B7
330
1F
100
AcDbEntity
  8
003
100
AcDbCircle
 10
275.7827015638967
 20
241.5357637344616
 30
0.0
 40
3.0
100
AcDbArc
 50
313.1136059458953
 51
330.0184772568382
  0
LINE
  5
171B8
330
1F
100
AcDbEntity
  8
003
100
AcDbLine
 10
278.3812613735957
 20
240.0366016633638
 30
0.0
 11
277.3440317457656
 21
240.6400807195559
 31
0.0
  0
LINE
  5
171B9
330
1F
100
AcDbEntity
  8
006
100
AcDbLine
 10
279.7827015638967
 20
241.5357637344614
 30
0.0
 11
271.7827015638967
 21
241.5357637344614
 31
0.0
  0
LINE
  5
171BA
330
1F
100
AcDbEntity
  8
003
100
AcDbLine
 10
298.0827015638969
 20
260.4457637344613
 30
0.0
 11
296.3827015638969
 21
260.4457637344613
 31
0.0
  0
LINE
  5
171BB
330
1F
100
AcDbEntity
  8
003
100
AcDbLine
 10
298.0827015638969
 20
260.7457637344613
 30
0.0
 11
296.8827015638966
 21
260.7457637344613
 31
0.0
  0
LINE
  5
171BC
330
1F
100
AcDbEntity
  8
003
100
AcDbLine
 10
296.3827015638969
 20
241.9457637344615
 30
0.0
 11
291.382701563897
 21
241.9457637344615
 31
0.0
  0
LINE
  5
171BD
330
1F
100
AcDbEntity
  8
003
100
AcDbLine
 10
298.0827015638969
 20
253.4457637344615
 30
0.0
 11
296.3827015638969
 21
253.4457637344615
 31
0.0
  0
LINE
  5
171BE
330
1F
100
AcDbEntity
  8
007
100
AcDbLine
 10
328.5824195638964
 20
239.1457770207767
 30
0.0
 11
328.5824195638964
 21
235.6457770207767
 31
0.0
  0
LINE
  5
171BF
330
1F
100
AcDbEntity
  8
003
100
AcDbLine
 10
317.6827015638968
 20
231.9457637344612
 30
0.0
 11
316.482701563897
 21
231.9457637344612
 31
0.0
  0
LINE
  5
171C0
330
1F
100
AcDbEntity
  8
003
100
AcDbLine
 10
316.482701563897
 20
231.9457637344612
 30
0.0
 11
316.482701563897
 21
236.9457637344613
 31
0.0
  0
ARC
  5
171C1
330
1F
100
AcDbEntity
  8
007
100
AcDbCircle
 10
329.0824195638965
 20
235.6457770207767
 30
0.0
 40
0.5
100
AcDbArc
 50
180.0
 51
270.0
  0
LINE
  5
171C2
330
1F
100
AcDbEntity
  8
003
100
AcDbLine
 10
325.482701563897
 20
236.9457637344613
 30
0.0
 11
325.482701563897
 21
238.1457637344613
 31
0.0
  0
LINE
  5
171C3
330
1F
100
AcDbEntity
  8
003
100
AcDbLine
 10
325.482701563897
 20
236.9457637344613
 30
0.0
 11
317.6827015638968
 21
236.9457637344613
 31
0.0
  0
LINE
  5
171C4
330
1F
100
AcDbEntity
  8
007
100
AcDbLine
 10
323.5824195638965
 20
234.8457770207767
 30
0.0
 11
323.5824195638965
 21
227.8457770207767
 31
0.0
  0
ARC
  5
171C5
330
1F
100
AcDbEntity
  8
007
100
AcDbCircle
 10
326.5824195638964
 20
227.8457770207767
 30
0.0
 40
3.0
100
AcDbArc
 50
180.0
 51
270.0
  0
LINE
  5
171C6
330
1F
100
AcDbEntity
  8
003
100
AcDbLine
 10
317.6827015638968
 20
231.9457637344612
 30
0.0
 11
317.6827015638968
 21
236.9457637344613
 31
0.0
  0
ARC
  5
171C7
330
1F
100
AcDbEntity
  8
007
100
AcDbCircle
 10
329.0824195638965
 20
239.1457770207767
 30
0.0
 40
0.5
100
AcDbArc
 50
90.0
 51
180.0
  0
DIMENSION
  5
171C8
330
1F
100
AcDbEntity
  8
003
100
AcDbDimension
  2
*D16
 10
302.2827015638967
 20
298.9923147264973
 30
0.0
 11
287.2827015638967
 21
303.9923147264973
 31
0.0
 70
    32
 71
     5
 42
30.0
  3
DIM
100
AcDbAlignedDimension
 13
272.2827015638967
 23
266.0526617951993
 33
0.0
 14
302.2827015638967
 24
276.9457637344614
 34
0.0
100
AcDbRotatedDimension
  0
LINE
  5
171C9
330
1F
100
AcDbEntity
  8
003
100
AcDbLine
 10
302.2827015638967
 20
275.7457637344613
 30
0.0
 11
299.2827015638967
 21
275.7457637344613
 31
0.0
  0
LINE
  5
171CA
330
1F
100
AcDbEntity
  8
003
100
AcDbLine
 10
302.2827015638967
 20
276.9457637344614
 30
0.0
 11
282.2827015638967
 21
276.9457637344614
 31
0.0
  0
LINE
  5
171CB
330
1F
100
AcDbEntity
  8
003
100
AcDbLine
 10
293.8565655354708
 20
275.7457637344613
 30
0.0
 11
282.2827015638967
 21
275.7457637344613
 31
0.0
  0
ARC
  5
171CC
330
1F
100
AcDbEntity
  8
003
100
AcDbCircle
 10
282.2827015638967
 20
266.9457637344613
 30
0.0
 40
8.8
100
AcDbArc
 50
90.0
 51
180.0
  0
ARC
  5
171CD
330
1F
100
AcDbEntity
  8
003
100
AcDbCircle
 10
282.2827015638967
 20
266.9457637344613
 30
0.0
 40
10.0
100
AcDbArc
 50
90.0
 51
180.0
  0
LINE
  5
171CE
330
1F
100
AcDbEntity
  8
003
100
AcDbLine
 10
298.0827015638969
 20
261.9457637344614
 30
0.0
 11
298.0827015638969
 21
266.9457637344613
 31
0.0
  0
LINE
  5
171CF
330
1F
100
AcDbEntity
  8
003
100
AcDbLine
 10
298.0827015638969
 20
261.9457637344611
 30
0.0
 11
298.0827015638969
 21
266.9457637344611
 31
0.0
  0
LINE
  5
171D0
330
1F
100
AcDbEntity
  8
003
100
AcDbLine
 10
299.2827015638967
 20
261.9457637344614
 30
0.0
 11
298.0827015638969
 21
261.9457637344614
 31
0.0
  0
LINE
  5
171D1
330
1F
100
AcDbEntity
  8
003
100
AcDbLine
 10
299.2827015638967
 20
261.9457637344611
 30
0.0
 11
298.0827015638969
 21
261.9457637344611
 31
0.0
  0
LINE
  5
171D2
330
1F
100
AcDbEntity
  8
003
100
AcDbLine
 10
299.2827015638967
 20
261.9457637344614
 30
0.0
 11
299.2827015638967
 21
275.7457637344613
 31
0.0
  0
LINE
  5
171D3
330
1F
100
AcDbEntity
  8
003
100
AcDbLine
 10
295.0053099677106
 20
270.5482368051336
 30
0.0
 11
295.3120179382594
 21
271.7083930415573
 31
0.0
  0
ARC
  5
171D4
330
1F
100
AcDbEntity
  8
003
100
AcDbCircle
 10
295.7827015638967
 20
273.4457637344614
 30
0.0
 40
3.0
100
AcDbArc
 50
254.9815227431649
 51
266.1774462707292
  0
ARC
  5
171D5
330
1F
100
AcDbEntity
  8
003
100
AcDbCircle
 10
295.7827015638967
 20
273.4457637344614
 30
0.0
 40
3.0
100
AcDbArc
 50
129.9445051898157
 51
195.0183606311526
  0
LINE
  5
171D6
330
1F
100
AcDbEntity
  8
003
100
AcDbLine
 10
292.8851730521927
 20
272.6683780361994
 30
0.0
 11
294.044184456873
 21
272.9793323155037
 31
0.0
  0
LINE
  5
171D7
330
1F
100
AcDbEntity
  8
003
100
AcDbLine
 10
289.1827015638968
 20
261.9457637344614
 30
0.0
 11
290.3827015638971
 21
261.9457637344614
 31
0.0
  0
LINE
  5
171D8
330
1F
100
AcDbEntity
  8
003
100
AcDbLine
 10
295.1827015638968
 20
263.9457637344614
 30
0.0
 11
295.1827015638968
 21
268.1457637344612
 31
0.0
  0
LINE
  5
171D9
330
1F
100
AcDbEntity
  8
003
100
AcDbLine
 10
295.5827015638969
 20
268.1457637344612
 30
0.0
 11
295.1827015638968
 21
268.1457637344612
 31
0.0
  0
LINE
  5
171DA
330
1F
100
AcDbEntity
  8
003
100
AcDbLine
 10
296.3827015638969
 20
263.9457637344614
 30
0.0
 11
296.3827015638969
 21
266.9457637344613
 31
0.0
  0
LINE
  5
171DB
330
1F
100
AcDbEntity
  8
003
100
AcDbLine
 10
296.3827015638969
 20
263.9457637344614
 30
0.0
 11
295.1827015638968
 21
263.9457637344614
 31
0.0
  0
LINE
  5
171DC
330
1F
100
AcDbEntity
  8
003
100
AcDbLine
 10
296.3827015638969
 20
261.9457637344614
 30
0.0
 11
291.382701563897
 21
261.9457637344614
 31
0.0
  0
LINE
  5
171DD
330
1F
100
AcDbEntity
  8
003
100
AcDbLine
 10
295.5827015638969
 20
268.1457637344612
 30
0.0
 11
295.5827015638969
 21
270.4524378250422
 31
0.0
  0
LINE
  5
171DE
330
1F
100
AcDbEntity
  8
006
100
AcDbLine
 10
292.9542744391507
 20
270.6173366097151
 30
0.0
 11
298.6111286886429
 21
276.2741908592074
 31
0.0
  0
LINE
  5
171DF
330
1F
100
AcDbEntity
  8
006
100
AcDbLine
 10
298.6111286886429
 20
270.6173366097151
 30
0.0
 11
292.9542744391507
 21
276.2741908592076
 31
0.0
  0
LINE
  5
171E0
330
1F
100
AcDbEntity
  8
003
100
AcDbLine
 10
298.0827015638969
 20
266.9457637344613
 30
0.0
 11
296.3827015638969
 21
266.9457637344613
 31
0.0
  0
LINE
  5
171E1
330
1F
100
AcDbEntity
  8
003
100
AcDbLine
 10
298.0827015638969
 20
266.9457637344611
 30
0.0
 11
296.8827015638966
 21
266.9457637344611
 31
0.0
  0
ARC
  5
171E2
330
1F
100
AcDbEntity
  8
003
100
AcDbCircle
 10
295.7827015638967
 20
273.4457637344614
 30
0.0
 40
1.8
100
AcDbArc
 50
254.8414545361748
 51
195.0183606311526
  0
LINE
  5
171E3
330
1F
100
AcDbEntity
  8
003
100
AcDbLine
 10
302.2827015638967
 20
275.7457637344613
 30
0.0
 11
302.2827015638967
 21
276.9457637344614
 31
0.0
  0
DIMENSION
  5
171E4
330
1F
100
AcDbEntity
  8
003
100
AcDbDimension
  2
*D17
 10
564.5362178949236
 20
276.9456778424928
 30
0.0
 11
559.5362178949235
 21
244.445677842493
 31
0.0
 70
    32
 71
     5
 42
64.99999999999989
  3
DIM
100
AcDbAlignedDimension
 13
567.7829835638966
 23
211.9456778424929
 33
0.0
 14
565.2829835638966
 24
276.9456778424928
 34
0.0
 50
90.0
100
AcDbRotatedDimension
  0
MTEXT
  5
171E5
102
{ACAD_REACTORS
330
1720E
102
}
330
1F
100
AcDbEntity
  8
003
 62
     7
100
AcDbMText
 10
374.6239293971803
 20
258.0980250169995
 30
0.0
 40
6.0
 41
0.0
 71
     7
 72
     1
  1
羽根
  7
DIM
 73
     1
 44
1.0
1001
ACAD
1000
MTEXTBEGIN
1070
    73
1070
     1
1070
    44
1040
1.0
1070
    74
1070
     0
1000
MTEXTEND
  0
LINE
  5
171E6
330
1F
100
AcDbEntity
  8
003
100
AcDbLine
 10
547.2829835638966
 20
240.945634056177
 30
0.0
 11
547.2829835638966
 21
272.9456645561772
 31
0.0
  0
LINE
  5
171E7
330
1F
100
AcDbEntity
  8
003
100
AcDbLine
 10
545.2829835638966
 20
240.9456340561771
 30
0.0
 11
545.2829835638966
 21
272.9456645561772
 31
0.0
  0
LINE
  5
171E8
330
1F
100
AcDbEntity
  8
003
100
AcDbLine
 10
551.1829835638967
 20
261.9456778424928
 30
0.0
 11
551.1829835638967
 21
241.9456778424928
 31
0.0
  0
LINE
  5
171E9
330
1F
100
AcDbEntity
  8
003
100
AcDbLine
 10
556.1829835638967
 20
261.9456778424928
 30
0.0
 11
556.1829835638967
 21
251.9456778424928
 31
0.0
  0
LINE
  5
171EA
330
1F
100
AcDbEntity
  8
003
100
AcDbLine
 10
574.0829835638968
 20
243.4618138709186
 30
0.0
 11
574.0829835638968
 21
266.9456778424928
 31
0.0
  0
LINE
  5
171EB
330
1F
100
AcDbEntity
  8
003
100
AcDbLine
 10
575.2829835638967
 20
211.9456778424928
 30
0.0
 11
575.2829835638967
 21
266.9456778424928
 31
0.0
  0
LINE
  5
171EC
330
1F
100
AcDbEntity
  8
003
100
AcDbLine
 10
550.6829835638967
 20
260.7456778424928
 30
0.0
 11
550.6829835638967
 21
266.9456778424926
 31
0.0
  0
LINE
  5
171ED
330
1F
100
AcDbEntity
  8
003
100
AcDbLine
 10
548.2829835638966
 20
238.1456778424927
 30
0.0
 11
548.2829835638966
 21
261.9456778424926
 31
0.0
  0
LINE
  5
171EE
330
1F
100
AcDbEntity
  8
003
100
AcDbLine
 10
547.2829835638966
 20
240.945634056177
 30
0.0
 11
426.4327015638968
 21
240.9456340561769
 31
0.0
  0
LINE
  5
171EF
330
1F
100
AcDbEntity
  8
003
100
AcDbLine
 10
522.0829835638968
 20
238.1456778424927
 30
0.0
 11
548.2829835638966
 21
238.1456778424927
 31
0.0
  0
LINE
  5
171F0
330
1F
100
AcDbEntity
  8
003
100
AcDbLine
 10
531.0829835638968
 20
236.9456778424926
 30
0.0
 11
566.9829835638969
 21
236.9456778424926
 31
0.0
  0
LINE
  5
171F1
330
1F
100
AcDbEntity
  8
YKK_W17
 62
     2
100
AcDbLine
 10
426.4327015638968
 20
151.445711342493
 30
0.0
 11
576.2826535638968
 21
151.4457113424929
 31
0.0
  0
LINE
  5
171F2
330
1F
100
AcDbEntity
  8
YKK_W17
 62
     2
100
AcDbLine
 10
426.4327015638968
 20
148.9457710743641
 30
0.0
 11
576.5827015638966
 21
148.9458023424928
 31
0.0
  0
INSERT
  5
171F3
330
1F
100
AcDbEntity
  8
YKK_W17
 62
     7
100
AcDbBlockReference
  2
K-86579
 10
571.2833955635089
 20
173.9456773424928
 30
0.0
 41
-1.0
  0
LINE
  5
171F4
330
1F
100
AcDbEntity
  8
003
100
AcDbLine
 10
526.2833615635089
 20
211.9456773424928
 30
0.0
 11
426.4327015638968
 21
211.9456773424929
 31
0.0
  0
LINE
  5
171F5
330
1F
100
AcDbEntity
  8
007
100
AcDbLine
 10
426.4327015638969
 20
239.0456778424927
 30
0.0
 11
495.9829835638974
 21
239.0456778424927
 31
0.0
  0
LINE
  5
171F6
330
1F
100
AcDbEntity
  8
007
100
AcDbLine
 10
426.4327015638969
 20
238.1455778424927
 30
0.0
 11
495.9829835638974
 21
238.1455778424927
 31
0.0
  0
LINE
  5
171F7
330
1F
100
AcDbEntity
  8
007
100
AcDbLine
 10
426.4327015638969
 20
234.8456778424928
 30
0.0
 11
495.9829835638974
 21
234.8456778424927
 31
0.0
  0
LINE
  5
171F8
330
1F
100
AcDbEntity
  8
003
100
AcDbLine
 10
426.4327015638968
 20
236.4456778424929
 30
0.0
 11
529.8829835638965
 21
236.4456778424929
 31
0.0
  0
LINE
  5
171F9
330
1F
100
AcDbEntity
  8
003
100
AcDbLine
 10
426.4327015638969
 20
235.2456778424912
 30
0.0
 11
529.8829835638965
 21
235.2456778424928
 31
0.0
  0
LINE
  5
171FA
330
1F
100
AcDbEntity
  8
007
100
AcDbLine
 10
495.9829835638974
 20
225.3456778424927
 30
0.0
 11
426.4327015638969
 21
225.3456778424927
 31
0.0
  0
LINE
  5
171FB
330
1F
100
AcDbEntity
  8
YKK_W17
 62
     2
100
AcDbLine
 10
426.4327015638968
 20
205.4457406369784
 30
0.0
 11
526.5834345638967
 21
205.4457563424928
 31
0.0
  0
LINE
  5
171FC
330
1F
100
AcDbEntity
  8
YKK_W17
 62
     2
100
AcDbLine
 10
426.4327015638968
 20
209.7456453526627
 30
0.0
 11
526.2833855638968
 21
209.7456533424927
 31
0.0
  0
LINE
  5
171FD
330
1F
100
AcDbEntity
  8
YKK_W17
 62
     2
100
AcDbLine
 10
526.5831905638966
 20
189.9456953424928
 30
0.0
 11
426.4327015638968
 21
189.9456874896264
 31
0.0
  0
LINE
  5
171FE
330
1F
100
AcDbEntity
  8
YKK_W17
 62
   130
100
AcDbLine
 10
535.2832275638967
 20
200.9456793424929
 30
0.0
 11
426.4327015638968
 21
200.9456793424929
 31
0.0
  0
LINE
  5
171FF
330
1F
100
AcDbEntity
  8
YKK_W17
 62
   130
100
AcDbLine
 10
535.2832275638967
 20
197.9456793424929
 30
0.0
 11
426.4327015638968
 21
197.945679342493
 31
0.0
  0
LINE
  5
17200
330
1F
100
AcDbEntity
  8
YKK_W17
 62
   255
100
AcDbLine
 10
535.2832275638967
 20
201.9456793424929
 30
0.0
 11
426.4327015638968
 21
201.9456793424934
 31
0.0
  0
LINE
  5
17201
330
1F
100
AcDbEntity
  8
YKK_W17
 62
   255
100
AcDbLine
 10
535.2832275638967
 20
196.9456793424929
 30
0.0
 11
426.4327015638968
 21
196.9456793424926
 31
0.0
  0
LINE
  5
17202
330
1F
100
AcDbEntity
  8
YKK_W17
 62
     2
100
AcDbLine
 10
426.4327015638968
 20
173.9457463691499
 30
0.0
 11
537.5831905638967
 21
173.9457563424929
 31
0.0
  0
LINE
  5
17203
330
1F
100
AcDbEntity
  8
007
100
AcDbLine
 10
421.4327015638969
 20
225.3457770207767
 30
0.0
 11
351.8824195638964
 21
225.3457770207768
 31
0.0
  0
LINE
  5
17204
330
1F
100
AcDbEntity
  8
007
100
AcDbLine
 10
351.8824195638964
 20
238.1456770207767
 30
0.0
 11
421.4327015638969
 21
238.1456770207767
 31
0.0
  0
LINE
  5
17205
330
1F
100
AcDbEntity
  8
007
100
AcDbLine
 10
351.8824195638964
 20
239.0457770207768
 30
0.0
 11
421.4327015638969
 21
239.0457770207768
 31
0.0
  0
LINE
  5
17206
330
1F
100
AcDbEntity
  8
007
100
AcDbLine
 10
351.8824195638964
 20
234.8457770207767
 30
0.0
 11
421.4327015638969
 21
234.8457770207768
 31
0.0
  0
LEADER
  5
17207
330
1F
100
AcDbEntity
  8
003
100
AcDbLeader
  3
DIM
 73
     0
 74
     0
 40
6.000000000000002
 41
14.7
 76
     3
 10
348.9976480957768
 20
226.5261620629673
 30
0.0
 10
355.7943605235398
 20
214.7539108136467
 30
0.0
 10
360.1801187476855
 20
214.7539108136467
 30
0.0
340
17208
1001
ACAD
1000
DSTYLE
1002
{
1070
   147
1040
1.0
1070
    77
1070
     1
1002
}
  0
MTEXT
  5
17208
102
{ACAD_REACTORS
330
17207
102
}
330
1F
100
AcDbEntity
  8
003
 62
     7
100
AcDbMText
 10
362.1801187476855
 20
216.7539108136467
 30
0.0
 40
6.0
 41
0.0
 71
     7
 72
     1
  1
内網戸
  7
DIM
 73
     1
 44
1.0
1001
ACAD
1000
MTEXTBEGIN
1070
    73
1070
     1
1070
    44
1040
1.0
1070
    74
1070
     0
1000
MTEXTEND
  0
LINE
  5
17209
330
1F
100
AcDbEntity
  8
007
100
AcDbLine
 10
350.8824195638964
 20
239.1457770207767
 30
0.0
 11
350.8824195638964
 21
235.6457770207767
 31
0.0
  0
LINE
  5
1720A
330
1F
100
AcDbEntity
  8
007
100
AcDbLine
 10
351.8824195638964
 20
239.0457770207768
 30
0.0
 11
351.8824195638964
 21
224.8457770207767
 31
0.0
  0
LINE
  5
1720B
330
1F
100
AcDbEntity
  8
007
100
AcDbLine
 10
351.8824195638964
 20
236.0457770207768
 30
0.0
 11
350.8824195638964
 21
236.0457770207768
 31
0.0
  0
ARC
  5
1720C
330
1F
100
AcDbEntity
  8
007
100
AcDbCircle
 10
350.3824195638964
 20
235.6457770207767
 30
0.0
 40
0.5
100
AcDbArc
 50
270.0
 51
0.0
  0
ARC
  5
1720D
330
1F
100
AcDbEntity
  8
007
100
AcDbCircle
 10
350.3824195638964
 20
239.1457770207767
 30
0.0
 40
0.5
100
AcDbArc
 50
0.0
 51
90.0
  0
LEADER
  5
1720E
330
1F
100
AcDbEntity
  8
003
100
AcDbLeader
  3
DIM
 73
     0
 74
     0
 40
6.000000000000001
 41
9.600000000000001
 76
     3
 10
365.4296359325926
 20
248.7029127676767
 30
0.0
 10
369.6992059804268
 20
256.0980250169995
 30
0.0
 10
372.6239293971803
 20
256.0980250169995
 30
0.0
340
171E5
1001
ACAD
1000
DSTYLE
1002
{
1070
   147
1040
1.0
1070
    77
1070
     1
1002
}
  0
LINE
  5
1720F
330
1F
100
AcDbEntity
  8
YKK_W17
 62
   130
100
AcDbLine
 10
526.3192845638967
 20
189.9455083424927
 30
0.0
 11
524.8251285638968
 21
196.5863813424928
 31
0.0
  0
INSERT
  5
17210
330
1F
100
AcDbEntity
  8
YKK_W17
 62
     7
100
AcDbBlockReference
  2
K-86576
 10
542.2833650638966
 20
176.1456728424928
 30
0.0
 50
90.0
  0
LINE
  5
17211
330
1F
100
AcDbEntity
  8
YKK_W17
 62
   130
100
AcDbLine
 10
526.3192545638968
 20
205.4454933424927
 30
0.0
 11
525.3335175638969
 21
202.3361543424928
 31
0.0
  0
ARC
  5
17212
330
1F
100
AcDbEntity
  8
YKK_W17
 62
   130
100
AcDbCircle
 10
525.6194905638966
 20
202.2454933424929
 30
0.0
 40
0.3
100
AcDbArc
 50
162.4101149999946
 51
300.0042390000044
  0
ARC
  5
17213
330
1F
100
AcDbEntity
  8
YKK_W17
 62
   130
100
AcDbCircle
 10
525.1192415638967
 20
196.6454323424927
 30
0.0
 40
0.3
100
AcDbArc
 50
60.00176100000421
 51
191.3527989999996
  0
LINE
  5
17214
330
1F
100
AcDbEntity
  8
YKK_W17
 62
   255
100
AcDbLine
 10
535.2832275638967
 20
196.9456793424929
 30
0.0
 11
535.2832275638967
 21
201.9456793424929
 31
0.0
  0
LINE
  5
17215
330
1F
100
AcDbEntity
  8
007
100
AcDbLine
 10
496.9829835638973
 20
238.1456778424927
 30
0.0
 11
519.2829835638971
 21
238.1456778424927
 31
0.0
  0
LINE
  5
17216
330
1F
100
AcDbEntity
  8
007
100
AcDbLine
 10
497.4829835638973
 20
239.6456778424926
 30
0.0
 11
518.7829835638971
 21
239.6456778424926
 31
0.0
  0
LINE
  5
17217
330
1F
100
AcDbEntity
  8
007
100
AcDbLine
 10
497.4829835638973
 20
235.1456778424926
 30
0.0
 11
518.7829835638971
 21
235.1456778424926
 31
0.0
  0
LINE
  5
17218
330
1F
100
AcDbEntity
  8
007
100
AcDbLine
 10
495.9829835638974
 20
234.8456778424927
 30
0.0
 11
524.282983563897
 21
234.8456778424927
 31
0.0
  0
LINE
  5
17219
330
1F
100
AcDbEntity
  8
007
100
AcDbLine
 10
495.9829835638974
 20
224.8456778424927
 30
0.0
 11
521.2829835638971
 21
224.8456778424927
 31
0.0
  0
LINE
  5
1721A
330
1F
100
AcDbEntity
  8
007
100
AcDbLine
 10
496.9829835638973
 20
239.1456778424926
 30
0.0
 11
496.9829835638973
 21
235.6456778424927
 31
0.0
  0
LINE
  5
1721B
330
1F
100
AcDbEntity
  8
007
100
AcDbLine
 10
495.9829835638974
 20
239.0456778424927
 30
0.0
 11
495.9829835638974
 21
224.8456778424927
 31
0.0
  0
ARC
  5
1721C
330
1F
100
AcDbEntity
  8
007
100
AcDbCircle
 10
497.4829835638973
 20
235.6456778424927
 30
0.0
 40
0.5
100
AcDbArc
 50
180.0
 51
270.0
  0
LINE
  5
1721D
330
1F
100
AcDbEntity
  8
007
100
AcDbLine
 10
495.9829835638974
 20
236.0456778424928
 30
0.0
 11
496.9829835638973
 21
236.0456778424928
 31
0.0
  0
ARC
  5
1721E
330
1F
100
AcDbEntity
  8
007
100
AcDbCircle
 10
497.4829835638973
 20
239.1456778424926
 30
0.0
 40
0.5
100
AcDbArc
 50
90.0
 51
180.0
  0
LINE
  5
1721F
330
1F
100
AcDbEntity
  8
007
100
AcDbLine
 10
519.2829835638971
 20
239.1456778424926
 30
0.0
 11
519.2829835638971
 21
235.6456778424927
 31
0.0
  0
LINE
  5
17220
330
1F
100
AcDbEntity
  8
003
100
AcDbLine
 10
522.0829835638968
 20
236.9456778424926
 30
0.0
 11
529.8829835638965
 21
236.9456778424926
 31
0.0
  0
ARC
  5
17221
330
1F
100
AcDbEntity
  8
007
100
AcDbCircle
 10
518.7829835638971
 20
235.6456778424927
 30
0.0
 40
0.5
100
AcDbArc
 50
270.0
 51
0.0
  0
LINE
  5
17222
330
1F
100
AcDbEntity
  8
003
100
AcDbLine
 10
522.0829835638968
 20
238.1456778424927
 30
0.0
 11
522.0829835638968
 21
236.9456778424926
 31
0.0
  0
LINE
  5
17223
330
1F
100
AcDbEntity
  8
007
100
AcDbLine
 10
524.282983563897
 20
234.8456778424927
 30
0.0
 11
524.282983563897
 21
227.8456778424927
 31
0.0
  0
ARC
  5
17224
330
1F
100
AcDbEntity
  8
007
100
AcDbCircle
 10
521.2829835638971
 20
227.8456778424927
 30
0.0
 40
3.0
100
AcDbArc
 50
270.0
 51
0.0
  0
LINE
  5
17225
330
1F
100
AcDbEntity
  8
003
100
AcDbLine
 10
529.8829835638965
 20
231.9456778424926
 30
0.0
 11
531.0829835638968
 21
231.9456778424926
 31
0.0
  0
LINE
  5
17226
330
1F
100
AcDbEntity
  8
003
100
AcDbLine
 10
531.0829835638968
 20
231.9456778424926
 30
0.0
 11
531.0829835638968
 21
236.9456778424926
 31
0.0
  0
LINE
  5
17227
330
1F
100
AcDbEntity
  8
003
100
AcDbLine
 10
529.8829835638965
 20
231.9456778424926
 30
0.0
 11
529.8829835638965
 21
236.9456778424926
 31
0.0
  0
ARC
  5
17228
330
1F
100
AcDbEntity
  8
007
100
AcDbCircle
 10
518.7829835638971
 20
239.1456778424926
 30
0.0
 40
0.5
100
AcDbArc
 50
0.0
 51
90.0
  0
INSERT
  5
17229
330
1F
100
AcDbEntity
  8
YKK_W17
 62
     7
100
AcDbBlockReference
  2
K-86528
 10
576.2829835638966
 20
148.9456778424929
 30
0.0
 41
-1.0
  0
LINE
  5
1722A
330
1F
100
AcDbEntity
  8
003
100
AcDbLine
 10
574.0829835638968
 20
211.9456778424928
 30
0.0
 11
574.0829835638968
 21
235.2456778424928
 31
0.0
  0
LINE
  5
1722B
330
1F
100
AcDbEntity
  8
YKK_W17
 62
     2
100
AcDbLine
 10
554.0834345638967
 20
200.9457413424927
 30
0.0
 11
576.2828975638966
 21
200.9457413424927
 31
0.0
  0
LINE
  5
1722C
330
1F
100
AcDbEntity
  8
YKK_W17
 62
     2
100
AcDbLine
 10
572.7828975638966
 20
183.2458513424928
 30
0.0
 11
576.2828975638966
 21
183.2458823424927
 31
0.0
  0
LINE
  5
1722D
330
1F
100
AcDbEntity
  8
YKK_W17
 62
     2
100
AcDbLine
 10
564.5829465638968
 20
183.2458823424927
 30
0.0
 11
554.0834345638967
 21
183.2458663424927
 31
0.0
  0
LINE
  5
1722E
330
1F
100
AcDbEntity
  8
YKK_W17
 62
     2
100
AcDbLine
 10
564.5829465638968
 20
178.9458943424927
 30
0.0
 11
554.0834345638967
 21
178.9458633424929
 31
0.0
  0
LINE
  5
1722F
330
1F
100
AcDbEntity
  8
YKK_W17
 62
     4
100
AcDbLine
 10
568.6691275638967
 20
178.9457413424927
 30
0.0
 11
569.9828485638967
 21
180.2594623424927
 31
0.0
  0
LINE
  5
17230
330
1F
100
AcDbEntity
  8
YKK_W17
 62
     4
100
AcDbLine
 10
569.4811395638968
 20
178.2245343424927
 30
0.0
 11
569.6810905638966
 21
178.2245343424927
 31
0.0
  0
LINE
  5
17231
330
1F
100
AcDbEntity
  8
YKK_W17
 62
     4
100
AcDbLine
 10
570.0690305638967
 20
180.3456433424928
 30
0.0
 11
571.2689815638968
 21
181.5455953424928
 31
0.0
  0
LINE
  5
17232
330
1F
100
AcDbEntity
  8
YKK_W17
 62
     4
100
AcDbLine
 10
571.4835805638966
 20
180.3457963424928
 30
0.0
 11
569.9835805638967
 21
180.3457963424928
 31
0.0
  0
LINE
  5
17233
330
1F
100
AcDbEntity
  8
YKK_W17
 62
     4
100
AcDbLine
 10
571.4835805638966
 20
181.5457933424927
 30
0.0
 11
571.4835805638966
 21
180.3457963424928
 31
0.0
  0
LINE
  5
17234
330
1F
100
AcDbEntity
  8
YKK_W17
 62
     4
100
AcDbLine
 10
569.3815305638967
 20
177.1202103424928
 30
0.0
 11
569.5814815638967
 21
177.1202103424928
 31
0.0
  0
LINE
  5
17235
330
1F
100
AcDbEntity
  8
YKK_W17
 62
     4
100
AcDbLine
 10
568.7831415638966
 20
177.7457903424927
 30
0.0
 11
568.7831415638966
 21
177.0457013424927
 31
0.0
  0
LINE
  5
17236
330
1F
100
AcDbEntity
  8
YKK_W17
 62
     4
100
AcDbLine
 10
569.9833365638968
 20
177.0456863424929
 30
0.0
 11
569.9835805638967
 21
180.3457963424928
 31
0.0
  0
LINE
  5
17237
330
1F
100
AcDbEntity
  8
YKK_W17
 62
     4
100
AcDbLine
 10
569.0675655638966
 20
175.8480853424929
 30
0.0
 11
569.2677605638968
 21
175.8480853424929
 31
0.0
  0
ARC
  5
17238
330
1F
100
AcDbEntity
  8
YKK_W17
 62
     4
100
AcDbCircle
 10
569.2838735638966
 20
175.8456593424929
 30
0.0
 40
0.599838
100
AcDbArc
 50
269.9999999991532
 51
89.99999999859303
  0
ARC
  5
17239
330
1F
100
AcDbEntity
  8
YKK_W17
 62
     4
100
AcDbCircle
 10
569.3832395638968
 20
177.0457013424927
 30
0.0
 40
0.6000980000000001
100
AcDbArc
 50
179.9999999994398
 51
359.9985429988735
  0
LINE
  5
1723A
330
1F
100
AcDbEntity
  8
YKK_W17
 62
     4
100
AcDbLine
 10
564.5140985638967
 20
177.6807113424927
 30
0.0
 11
564.7140495638967
 21
177.6807113424927
 31
0.0
  0
LINE
  5
1723B
330
1F
100
AcDbEntity
  8
YKK_W17
 62
     4
100
AcDbLine
 10
566.0829465638967
 20
180.6022203424927
 30
0.0
 11
567.0263055638967
 21
181.5455793424928
 31
0.0
  0
LINE
  5
1723C
330
1F
100
AcDbEntity
  8
YKK_W17
 62
     4
100
AcDbLine
 10
565.6742545638969
 20
178.5417653424929
 30
0.0
 11
565.8742055638966
 21
178.5417653424929
 31
0.0
  0
LINE
  5
1723D
330
1F
100
AcDbEntity
  8
YKK_W17
 62
     4
100
AcDbLine
 10
567.8768915638967
 20
178.5870993424928
 30
0.0
 11
568.0768425638968
 21
178.5870993424928
 31
0.0
  0
LINE
  5
1723E
330
1F
100
AcDbEntity
  8
YKK_W17
 62
     4
100
AcDbLine
 10
567.5834345638967
 20
180.3457963424928
 30
0.0
 11
566.0834345638967
 21
180.3457963424928
 31
0.0
  0
LINE
  5
1723F
330
1F
100
AcDbEntity
  8
YKK_W17
 62
     4
100
AcDbLine
 10
567.5831905638967
 20
178.9458023424927
 30
0.0
 11
567.5834345638967
 21
180.3457963424928
 31
0.0
  0
LINE
  5
17240
330
1F
100
AcDbEntity
  8
YKK_W17
 62
     4
100
AcDbLine
 10
566.0834345638967
 20
180.3457963424928
 30
0.0
 11
566.0834345638967
 21
181.5457933424927
 31
0.0
  0
LINE
  5
17241
330
1F
100
AcDbEntity
  8
YKK_W17
 62
     4
100
AcDbLine
 10
566.5897815638967
 20
177.9888623424926
 30
0.0
 11
566.7897335638967
 21
177.9888623424926
 31
0.0
  0
LINE
  5
17242
330
1F
100
AcDbEntity
  8
YKK_W17
 62
     4
100
AcDbLine
 10
564.8617545638968
 20
175.4492963424928
 30
0.0
 11
565.0619495638967
 21
175.4492963424928
 31
0.0
  0
ARC
  5
17243
330
1F
100
AcDbEntity
  8
YKK_W17
 62
     4
100
AcDbCircle
 10
564.7831415638967
 20
175.7458203424929
 30
0.0
 40
0.5
100
AcDbArc
 50
179.9999999994398
 51
269.9999999991532
  0
LINE
  5
17244
330
1F
100
AcDbEntity
  8
YKK_W17
 62
     4
100
AcDbLine
 10
567.1820675638968
 20
176.1200273424929
 30
0.0
 11
567.3822625638966
 21
176.1200123424928
 31
0.0
  0
LINE
  5
17245
330
1F
100
AcDbEntity
  8
YKK_W17
 62
     4
100
AcDbLine
 10
565.2423695638966
 20
176.3919393424928
 30
0.0
 11
565.4425655638966
 21
176.3919393424928
 31
0.0
  0
ARC
  5
17246
330
1F
100
AcDbEntity
  8
YKK_W17
 62
     4
100
AcDbCircle
 10
565.9833365638968
 20
176.9458483424928
 30
0.0
 40
0.5
100
AcDbArc
 50
179.9999999994398
 51
269.9999999991532
  0
LINE
  5
17247
330
1F
100
AcDbEntity
  8
YKK_W17
 62
     4
100
AcDbLine
 10
564.2831415638966
 20
178.9458023424927
 30
0.0
 11
564.2831415638966
 21
175.7458203424929
 31
0.0
  0
LINE
  5
17248
330
1F
100
AcDbEntity
  8
YKK_W17
 62
     4
100
AcDbLine
 10
565.4833365638968
 20
177.7458053424927
 30
0.0
 11
565.4833365638968
 21
176.9458483424928
 31
0.0
  0
LINE
  5
17249
330
1F
100
AcDbEntity
  8
YKK_W17
 62
     4
100
AcDbLine
 10
569.9833365638968
 20
178.9458023424927
 30
0.0
 11
564.2831415638966
 21
178.9458023424927
 31
0.0
  0
LINE
  5
1724A
330
1F
100
AcDbEntity
  8
YKK_W17
 62
     4
100
AcDbLine
 10
564.7831415638967
 20
175.2458363424929
 30
0.0
 11
569.2838735638966
 21
175.2458203424929
 31
0.0
  0
LINE
  5
1724B
330
1F
100
AcDbEntity
  8
YKK_W17
 62
     4
100
AcDbLine
 10
566.0834345638967
 20
181.5457933424927
 30
0.0
 11
571.4835805638966
 21
181.5457933424927
 31
0.0
  0
LINE
  5
1724C
330
1F
100
AcDbEntity
  8
YKK_W17
 62
     4
100
AcDbLine
 10
567.2404165638966
 20
180.3455523424927
 30
0.0
 11
568.4403675638967
 21
181.5455033424928
 31
0.0
  0
LINE
  5
1724D
330
1F
100
AcDbEntity
  8
YKK_W17
 62
     4
100
AcDbLine
 10
567.5827015638966
 20
179.2734543424928
 30
0.0
 11
569.8549185638968
 21
181.5456713424928
 31
0.0
  0
LINE
  5
1724E
330
1F
100
AcDbEntity
  8
YKK_W17
 62
     4
100
AcDbLine
 10
568.1066275638967
 20
175.431138342493
 30
0.0
 11
568.3068225638968
 21
175.431138342493
 31
0.0
  0
LINE
  5
1724F
330
1F
100
AcDbEntity
  8
YKK_W17
 62
     4
100
AcDbLine
 10
568.7831415638966
 20
177.7457903424927
 30
0.0
 11
565.4833365638968
 21
177.7458053424927
 31
0.0
  0
LINE
  5
17250
330
1F
100
AcDbEntity
  8
YKK_W17
 62
     4
100
AcDbLine
 10
569.2838735638966
 20
176.4458483424928
 30
0.0
 11
565.9833365638968
 21
176.4458633424928
 31
0.0
  0
LINE
  5
17251
330
1F
100
AcDbEntity
  8
003
100
AcDbLine
 10
556.2833615635089
 20
211.9456623424928
 30
0.0
 11
561.2829835638966
 21
211.9456778424929
 31
0.0
  0
LINE
  5
17252
330
1F
100
AcDbEntity
  8
YKK_W17
 62
     4
100
AcDbLine
 10
567.0836865638968
 20
205.8453993424928
 30
0.0
 11
555.9337095638967
 21
205.8453593424929
 31
0.0
  0
LINE
  5
17253
330
1F
100
AcDbEntity
  8
YKK_W17
 62
     4
100
AcDbLine
 10
560.8364365638967
 20
206.6454143424928
 30
0.0
 11
555.9183745638967
 21
206.3449633424927
 31
0.0
  0
ARC
  5
17254
330
1F
100
AcDbEntity
  8
YKK_W17
 62
     4
100
AcDbCircle
 10
555.9336175638967
 20
206.0954363424928
 30
0.0
 40
0.25
100
AcDbArc
 50
93.49605099970963
 51
269.9999999991532
  0
LINE
  5
17255
330
1F
100
AcDbEntity
  8
YKK_W17
 62
     4
100
AcDbLine
 10
569.4836265638968
 20
209.6454123424928
 30
0.0
 11
569.4836225638968
 21
208.4453843424928
 31
0.0
  0
LINE
  5
17256
330
1F
100
AcDbEntity
  8
YKK_W17
 62
     4
100
AcDbLine
 10
563.8261105638967
 20
208.4449323424928
 30
0.0
 11
565.0263055638967
 21
209.6451283424928
 31
0.0
  0
LINE
  5
17257
330
1F
100
AcDbEntity
  8
YKK_W17
 62
     4
100
AcDbLine
 10
563.0831905638967
 20
209.1161513424927
 30
0.0
 11
563.6122425638967
 21
209.6452043424929
 31
0.0
  0
LINE
  5
17258
330
1F
100
AcDbEntity
  8
YKK_W17
 62
     4
100
AcDbLine
 10
563.0836345638966
 20
209.6454083424928
 30
0.0
 11
563.0836305638966
 21
208.4453983424928
 31
0.0
  0
LINE
  5
17259
330
1F
100
AcDbEntity
  8
YKK_W17
 62
     4
100
AcDbLine
 10
564.5407095638967
 20
207.7451493424928
 30
0.0
 11
566.4408565638967
 21
209.6452963424927
 31
0.0
  0
LINE
  5
1725A
330
1F
100
AcDbEntity
  8
YKK_W17
 62
     4
100
AcDbLine
 10
565.9547725638966
 20
207.7450733424928
 30
0.0
 11
567.8546745638967
 21
209.6449753424927
 31
0.0
  0
LINE
  5
1725B
330
1F
100
AcDbEntity
  8
YKK_W17
 62
     4
100
AcDbLine
 10
564.4836395638966
 20
207.7453973424929
 30
0.0
 11
568.0836445638966
 21
207.7453913424929
 31
0.0
  0
LINE
  5
1725C
330
1F
100
AcDbEntity
  8
YKK_W17
 62
     4
100
AcDbLine
 10
563.0836305638966
 20
208.4453983424928
 30
0.0
 11
564.4836395638966
 21
208.4453793424927
 31
0.0
  0
LINE
  5
1725D
330
1F
100
AcDbEntity
  8
YKK_W17
 62
     4
100
AcDbLine
 10
564.4836395638966
 20
208.4453943424928
 30
0.0
 11
564.4836385638967
 21
207.0454153424928
 31
0.0
  0
ARC
  5
1725E
330
1F
100
AcDbEntity
  8
YKK_W17
 62
     4
100
AcDbCircle
 10
561.2836415638968
 20
207.0454213424928
 30
0.0
 40
0.6
100
AcDbArc
 50
221.8124900004233
 51
359.9999938590595
  0
LINE
  5
1725F
330
1F
100
AcDbEntity
  8
YKK_W17
 62
     4
100
AcDbLine
 10
564.4836385638967
 20
207.0454153424928
 30
0.0
 11
561.8836475638967
 21
207.0454213424928
 31
0.0
  0
LINE
  5
17260
330
1F
100
AcDbEntity
  8
YKK_W17
 62
     4
100
AcDbLine
 10
568.0836445638966
 20
208.4453583424927
 30
0.0
 11
568.0836575638967
 21
206.8453523424928
 31
0.0
  0
LINE
  5
17261
330
1F
100
AcDbEntity
  8
YKK_W17
 62
     4
100
AcDbLine
 10
567.3688345638967
 20
207.7449963424929
 30
0.0
 11
569.2687375638967
 21
209.6448993424929
 31
0.0
  0
ARC
  5
17262
330
1F
100
AcDbEntity
  8
YKK_W17
 62
     4
100
AcDbCircle
 10
567.0836735638967
 20
206.8453843424927
 30
0.0
 40
1.0
100
AcDbArc
 50
269.9999999991532
 51
359.9981419988773
  0
LINE
  5
17263
330
1F
100
AcDbEntity
  8
YKK_W17
 62
     4
100
AcDbLine
 10
568.0836285638966
 20
208.4453733424928
 30
0.0
 11
569.4836225638968
 21
208.4454003424928
 31
0.0
  0
LINE
  5
17264
330
1F
100
AcDbEntity
  8
YKK_W17
 62
     4
100
AcDbLine
 10
563.0836345638966
 20
209.6454083424928
 30
0.0
 11
569.4836265638968
 21
209.6454123424928
 31
0.0
  0
LINE
  5
17265
330
1F
100
AcDbEntity
  8
006
100
AcDbLine
 10
567.7829835638966
 20
241.5356778424928
 30
0.0
 11
575.7829835638966
 21
241.5356778424928
 31
0.0
  0
LINE
  5
17266
330
1F
100
AcDbEntity
  8
006
100
AcDbLine
 10
571.7829835638966
 20
237.5356778424928
 30
0.0
 11
571.7829835638966
 21
245.5356778424928
 31
0.0
  0
LINE
  5
17267
330
1F
100
AcDbEntity
  8
003
100
AcDbLine
 10
562.2829835638966
 20
238.1456778424927
 30
0.0
 11
562.2829835638966
 21
239.3456778424927
 31
0.0
  0
LINE
  5
17268
330
1F
100
AcDbEntity
  8
003
100
AcDbLine
 10
549.4829835638969
 20
238.1456778424927
 30
0.0
 11
549.4829835638969
 21
260.7456778424928
 31
0.0
  0
LINE
  5
17269
330
1F
100
AcDbEntity
  8
003
100
AcDbLine
 10
549.5029835638969
 20
238.1456778424927
 30
0.0
 11
574.0829835638968
 21
238.1456778424927
 31
0.0
  0
LINE
  5
1726A
330
1F
100
AcDbEntity
  8
003
100
AcDbLine
 10
567.5829835638968
 20
238.1456778424927
 30
0.0
 11
574.0829835638968
 21
238.1456778424927
 31
0.0
  0
LINE
  5
1726B
330
1F
100
AcDbEntity
  8
003
100
AcDbLine
 10
567.5829835638968
 20
236.9456778424926
 30
0.0
 11
574.0829835638968
 21
236.9456778424926
 31
0.0
  0
LINE
  5
1726C
330
1F
100
AcDbEntity
  8
003
100
AcDbLine
 10
574.0829835638968
 20
236.9456778424926
 30
0.0
 11
574.0829835638968
 21
238.1456778424927
 31
0.0
  0
LINE
  5
1726D
330
1F
100
AcDbEntity
  8
003
100
AcDbLine
 10
574.0829835638968
 20
236.4456778424929
 30
0.0
 11
574.0829835638968
 21
238.1456778424927
 31
0.0
  0
LINE
  5
1726E
330
1F
100
AcDbEntity
  8
003
100
AcDbLine
 10
571.0829835638968
 20
236.4456778424929
 30
0.0
 11
574.0829835638968
 21
236.4456778424929
 31
0.0
  0
LINE
  5
1726F
330
1F
100
AcDbEntity
  8
003
100
AcDbLine
 10
571.0829835638968
 20
235.2456778424928
 30
0.0
 11
574.0829835638968
 21
235.2456778424928
 31
0.0
  0
LINE
  5
17270
330
1F
100
AcDbEntity
  8
003
100
AcDbLine
 10
571.0829835638968
 20
235.2456778424928
 30
0.0
 11
571.0829835638968
 21
236.9456778424926
 31
0.0
  0
LINE
  5
17271
330
1F
100
AcDbEntity
  8
003
100
AcDbLine
 10
562.2829835638966
 20
238.1456778424927
 30
0.0
 11
566.9829835638966
 21
238.1456778424927
 31
0.0
  0
ARC
  5
17272
330
1F
100
AcDbEntity
  8
003
100
AcDbCircle
 10
567.2829835638967
 20
236.9456778424928
 30
0.0
 40
0.2999999999999829
100
AcDbArc
 50
0.0
 51
180.0
  0
ARC
  5
17273
330
1F
100
AcDbEntity
  8
003
100
AcDbCircle
 10
567.2829835638971
 20
238.1456778424927
 30
0.0
 40
0.3000000000000682
100
AcDbArc
 50
0.0000000000130276
 51
179.9999999999739
  0
LINE
  5
17274
330
1F
100
AcDbEntity
  8
003
100
AcDbLine
 10
551.1829835638967
 20
241.9456778424928
 30
0.0
 11
553.6829835638967
 21
241.9456778424928
 31
0.0
  0
LINE
  5
17275
330
1F
100
AcDbEntity
  8
003
100
AcDbLine
 10
549.4829835638969
 20
260.7456778424928
 30
0.0
 11
550.6829835638967
 21
260.7456778424928
 31
0.0
  0
LINE
  5
17276
330
1F
100
AcDbEntity
  8
003
100
AcDbLine
 10
549.4829835638967
 20
253.4456778424929
 30
0.0
 11
551.1829835638967
 21
253.4456778424929
 31
0.0
  0
LINE
  5
17277
330
1F
100
AcDbEntity
  8
003
100
AcDbLine
 10
549.4829835638967
 20
260.4456778424928
 30
0.0
 11
551.1829835638967
 21
260.4456778424928
 31
0.0
  0
LINE
  5
17278
330
1F
100
AcDbEntity
  8
003
100
AcDbLine
 10
569.1844237541978
 20
240.0365157713952
 30
0.0
 11
570.2216533820277
 21
240.6399948275873
 31
0.0
  0
ARC
  5
17279
330
1F
100
AcDbEntity
  8
003
100
AcDbCircle
 10
571.7829835638966
 20
241.535677842493
 30
0.0
 40
3.0
100
AcDbArc
 50
209.9815227431618
 51
226.8863940541047
  0
LINE
  5
1727A
330
1F
100
AcDbEntity
  8
003
100
AcDbLine
 10
569.184426805751
 20
243.0348452029616
 30
0.0
 11
570.2238495090078
 21
242.4351782587748
 31
0.0
  0
ARC
  5
1727B
330
1F
100
AcDbEntity
  8
003
100
AcDbCircle
 10
571.7829835638966
 20
241.535677842493
 30
0.0
 40
3.0
100
AcDbArc
 50
39.94450518981577
 51
150.0183606311538
  0
ARC
  5
1727C
330
1F
100
AcDbEntity
  8
003
100
AcDbCircle
 10
571.7829835638966
 20
241.535677842493
 30
0.0
 40
1.8
100
AcDbArc
 50
209.8414545361686
 51
150.0183606311538
  0
LINE
  5
1727D
330
1F
100
AcDbEntity
  8
003
100
AcDbLine
 10
562.2829835638966
 20
239.3456778424927
 30
0.0
 11
569.7326421289156
 21
239.3456778424927
 31
0.0
  0
LINE
  5
1727E
330
1F
100
AcDbEntity
  8
003
100
AcDbLine
 10
547.2829835638966
 20
272.9456645561772
 30
0.0
 11
426.4327015638968
 21
272.9456645561774
 31
0.0
  0
LINE
  5
1727F
330
1F
100
AcDbEntity
  8
003
100
AcDbLine
 10
545.2829835638966
 20
276.9456778424928
 30
0.0
 11
426.4327015638968
 21
276.9456778424925
 31
0.0
  0
LINE
  5
17280
330
1F
100
AcDbEntity
  8
003
100
AcDbLine
 10
545.2829835638966
 20
275.7456778424928
 30
0.0
 11
426.4327015638968
 21
275.7456778424928
 31
0.0
  0
DIMENSION
  5
17281
330
1F
100
AcDbEntity
  8
003
100
AcDbDimension
  2
*D18
 10
695.2246485627206
 20
531.828106355482
 30
0.0
 11
690.2246485627204
 21
477.1534075724954
 31
0.0
 70
    32
  1
製品H
 71
     5
 42
109.3493975659734
  3
DIM
100
AcDbAlignedDimension
 13
656.4626367167271
 23
422.4787087895085
 33
0.0
 14
656.4626367167271
 24
531.828106355482
 34
0.0
 50
90.0
100
AcDbRotatedDimension
  0
DIMENSION
  5
17282
330
1F
100
AcDbEntity
  8
003
100
AcDbDimension
  2
*D19
 10
656.4626367167271
 20
395.8809083129165
 30
0.0
 11
610.7076104784226
 21
400.8809083129165
 31
0.0
 70
    32
  1
製品W
 71
     5
 42
91.51005247660895
  3
DIM
100
AcDbAlignedDimension
 13
564.9525842401182
 23
420.5287087897036
 33
0.0
 14
656.4626367167271
 24
420.5287087897036
 34
0.0
100
AcDbRotatedDimension
  0
LINE
  5
17283
330
1F
100
AcDbEntity
  8
003
100
AcDbLine
 10
570.7076104784227
 20
365.7995361874546
 30
0.0
 11
650.7076104784227
 21
365.7995361874546
 31
0.0
  0
LINE
  5
17284
330
1F
100
AcDbEntity
  8
003
100
AcDbLine
 10
570.7076104784227
 20
380.7995361874546
 30
0.0
 11
650.7076104784227
 21
380.7995361874546
 31
0.0
  0
TEXT
  5
17285
330
1F
100
AcDbEntity
  8
0
100
AcDbText
 10
592.840943811756
 20
369.2995361874546
 30
0.0
 40
8.0
  1
外観姿図
  7
AT_VECTOR
 72
     1
 11
610.7076104784226
 21
373.2995361874546
 31
0.0
100
AcDbText
 73
     2
  0
LINE
  5
17286
330
1F
100
AcDbEntity
  8
003
100
AcDbLine
 10
570.7076104784227
 20
380.7995361874546
 30
0.0
 11
570.7076104784227
 21
365.7995361874546
 31
0.0
  0
MTEXT
  5
17287
102
{ACAD_REACTORS
330
17288
102
}
330
1F
100
AcDbEntity
  8
003
 62
     7
100
AcDbMText
 10
664.2337740310766
 20
379.3492566627517
 30
0.0
 40
6.0
 41
0.0
 71
     7
 72
     1
  1
取付金具（下部）
  7
DIM
 73
     1
 44
1.0
1001
ACAD
1000
MTEXTBEGIN
1070
    73
1070
     1
1070
    44
1040
1.0
1070
    74
1070
     0
1000
MTEXTEND
  0
LEADER
  5
17288
330
1F
100
AcDbEntity
  8
003
100
AcDbLeader
  3
DIM
 73
     0
 74
     0
 40
6.000000000000001
 41
39.29999999999998
 76
     3
 10
633.4118716048067
 20
422.3492280126599
 30
0.0
 10
660.7823541824274
 20
377.3492566627517
 30
0.0
 10
662.2337740310767
 20
377.3492566627517
 30
0.0
340
17287
1001
ACAD
1000
DSTYLE
1002
{
1070
   147
1040
1.0
1070
    77
1070
     1
1002
}
  0
LINE
  5
17289
330
1F
100
AcDbEntity
  8
003
100
AcDbLine
 10
650.7076104784227
 20
380.7995361874546
 30
0.0
 11
650.7076104784227
 21
365.7995361874546
 31
0.0
  0
LEADER
  5
1728A
330
1F
100
AcDbEntity
  8
003
100
AcDbLeader
  3
DIM
 73
     0
 74
     0
 40
6.000000000000001
 41
9.600000000000001
 76
     3
 10
628.0042992451746
 20
484.6082932363085
 30
0.0
 10
634.2652161092615
 20
495.4525193468721
 30
0.0
 10
662.7659387768186
 20
495.4525193468721
 30
0.0
340
1728B
1001
ACAD
1000
DSTYLE
1002
{
1070
   147
1040
1.0
1070
    77
1070
     1
1002
}
  0
MTEXT
  5
1728B
102
{ACAD_REACTORS
330
1728A
102
}
330
1F
100
AcDbEntity
  8
003
 62
     7
100
AcDbMText
 10
664.7659387768186
 20
497.452519346872
 30
0.0
 40
6.0
 41
0.0
 71
     7
 72
     1
  1
羽根
  7
DIM
 73
     1
 44
1.0
1001
ACAD
1000
MTEXTBEGIN
1070
    73
1070
     1
1070
    44
1040
1.0
1070
    74
1070
     0
1000
MTEXTEND
  0
LEADER
  5
1728C
330
1F
100
AcDbEntity
  8
003
100
AcDbLeader
  3
DIM
 73
     0
 40
6.0
 41
18.68571428571429
 76
     3
 10
570.0471249017454
 20
476.1107958228335
 30
0.0
 10
558.4458192827423
 20
496.2048465890811
 30
0.0
 10
554.6080450081898
 20
496.2048465890811
 30
0.0
340
1728D
1001
ACAD
1000
DSTYLE
1002
{
1070
   147
1040
1.0
1070
    77
1070
     1
1002
}
  0
MTEXT
  5
1728D
102
{ACAD_REACTORS
330
1728C
102
}
330
1F
100
AcDbEntity
  8
003
 62
     7
100
AcDbMText
 10
552.6080450081898
 20
498.2048465890811
 30
0.0
 40
6.0
 41
0.0
 71
     9
 72
     1
  1
Ｈ材1型
  7
DIM
 73
     1
 44
1.0
1001
ACAD
1000
MTEXTBEGIN
1070
    73
1070
     1
1070
    44
1040
1.0
1070
    74
1070
     0
1000
MTEXTEND
  0
LEADER
  5
1728E
330
1F
100
AcDbEntity
  8
003
100
AcDbLeader
  3
DIM
 73
     0
 40
6.000000000000003
 41
54.38571428571428
 76
     3
 10
566.5511922009313
 20
530.2614703813974
 30
0.0
 10
560.366990105861
 20
540.9728226143329
 30
0.0
 10
559.9479114314735
 20
540.9728226143329
 30
0.0
340
1728F
1001
ACAD
1000
DSTYLE
1002
{
1070
   147
1040
1.0
1070
    77
1070
     1
1002
}
  0
MTEXT
  5
1728F
102
{ACAD_REACTORS
330
1728E
102
}
330
1F
100
AcDbEntity
  8
003
 62
     7
100
AcDbMText
 10
557.9479114314735
 20
542.9728226143329
 30
0.0
 40
6.0
 41
0.0
 71
     9
 72
     1
  1
安全キャップ（4ヶ所）
  7
DIM
 73
     1
 44
1.0
1001
ACAD
1000
MTEXTBEGIN
1070
    73
1070
     1
1070
    44
1040
1.0
1070
    74
1070
     0
1000
MTEXTEND
  0
MTEXT
  5
17290
102
{ACAD_REACTORS
330
17291
102
}
330
1F
100
AcDbEntity
  8
003
 62
     7
100
AcDbMText
 10
645.9265133804073
 20
544.5993738080499
 30
0.0
 40
6.0
 41
0.0
 71
     7
 72
     1
  1
取付金具（上部）
  7
DIM
 73
     1
 44
1.0
1001
ACAD
1000
MTEXTBEGIN
1070
    73
1070
     1
1070
    44
1040
1.0
1070
    74
1070
     0
1000
MTEXTEND
  0
LEADER
  5
17291
330
1F
100
AcDbEntity
  8
003
100
AcDbLeader
  3
DIM
 73
     0
 74
     0
 40
6.000000000000001
 41
39.29999999999998
 76
     3
 10
633.7572533616527
 20
532.8019678445023
 30
0.0
 10
639.413788332067
 20
542.5993738080499
 30
0.0
 10
643.9265133804074
 20
542.5993738080499
 30
0.0
340
17290
1001
ACAD
1000
DSTYLE
1002
{
1070
   147
1040
1.0
1070
    77
1070
     1
1002
}
  0
DIMENSION
  5
17292
330
1F
100
AcDbEntity
  8
003
100
AcDbDimension
  2
*D20
 10
575.2829835638967
 20
298.9923147264973
 30
0.0
 11
560.2829835638966
 21
303.9923147264973
 31
0.0
 70
    32
 71
     5
 42
30.0
  3
DIM
100
AcDbAlignedDimension
 13
545.2829835638966
 23
276.9456778424928
 33
0.0
 14
575.2829835638967
 24
266.9456778424928
 34
0.0
100
AcDbRotatedDimension
  0
MTEXT
  5
17293
102
{ACAD_REACTORS
330
17294
102
}
330
1F
100
AcDbEntity
  8
003
 62
     7
100
AcDbMText
 10
597.1241954009493
 20
250.4851077711377
 30
0.0
 40
6.0
 41
0.0
 71
     7
 72
     1
  1
Ｈ材1型
  7
DIM
 73
     1
 44
1.0
1001
ACAD
1000
MTEXTBEGIN
1070
    73
1070
     1
1070
    44
1040
1.0
1070
    74
1070
     0
1000
MTEXTEND
  0
LEADER
  5
17294
330
1F
100
AcDbEntity
  8
003
100
AcDbLeader
  3
DIM
 73
     0
 74
     0
 40
6.0
 41
18.68571428571429
 76
     3
 10
575.2829835638967
 20
227.6528407999191
 30
0.0
 10
587.3104985075595
 20
248.4851077711377
 30
0.0
 10
595.1241954009494
 20
248.4851077711377
 30
0.0
340
17293
1001
ACAD
1000
DSTYLE
1002
{
1070
   147
1040
1.0
1070
    77
1070
     1
1002
}
  0
ARC
  5
17295
330
1F
100
AcDbEntity
  8
003
100
AcDbCircle
 10
565.2829835638966
 20
266.9456778424928
 30
0.0
 40
8.8
100
AcDbArc
 50
0.0
 51
90.0
  0
ARC
  5
17296
330
1F
100
AcDbEntity
  8
003
100
AcDbCircle
 10
565.2829835638966
 20
266.9456778424928
 30
0.0
 40
10.0
100
AcDbArc
 50
0.0
 51
90.0
  0
LINE
  5
17297
330
1F
100
AcDbEntity
  8
003
100
AcDbLine
 10
553.7091195923225
 20
275.7456778424928
 30
0.0
 11
565.2829835638966
 21
275.7456778424928
 31
0.0
  0
LINE
  5
17298
330
1F
100
AcDbEntity
  8
003
100
AcDbLine
 10
545.2829835638966
 20
276.9456778424928
 30
0.0
 11
565.2829835638966
 21
276.9456778424928
 31
0.0
  0
LINE
  5
17299
330
1F
100
AcDbEntity
  8
003
100
AcDbLine
 10
552.560375160083
 20
270.548150913165
 30
0.0
 11
552.2536671895339
 21
271.7083071495888
 31
0.0
  0
ARC
  5
1729A
330
1F
100
AcDbEntity
  8
003
100
AcDbCircle
 10
551.7829835638971
 20
273.4456778424928
 30
0.0
 40
3.0
100
AcDbArc
 50
273.8225537292708
 51
285.0184772568351
  0
LINE
  5
1729B
330
1F
100
AcDbEntity
  8
003
100
AcDbLine
 10
554.6805120756006
 20
272.6682921442309
 30
0.0
 11
553.5215006709205
 21
272.9792464235352
 31
0.0
  0
ARC
  5
1729C
330
1F
100
AcDbEntity
  8
003
100
AcDbCircle
 10
551.7829835638971
 20
273.4456778424928
 30
0.0
 40
3.0
100
AcDbArc
 50
344.9816393688474
 51
50.05549481018423
  0
LINE
  5
1729D
330
1F
100
AcDbEntity
  8
003
100
AcDbLine
 10
551.9829835638967
 20
268.1456778424927
 30
0.0
 11
552.3829835638967
 21
268.1456778424927
 31
0.0
  0
LINE
  5
1729E
330
1F
100
AcDbEntity
  8
003
100
AcDbLine
 10
551.1829835638967
 20
263.9456778424928
 30
0.0
 11
552.3829835638966
 21
263.9456778424928
 31
0.0
  0
LINE
  5
1729F
330
1F
100
AcDbEntity
  8
003
100
AcDbLine
 10
551.1829835638967
 20
263.9456778424928
 30
0.0
 11
551.1829835638967
 21
266.9456778424928
 31
0.0
  0
LINE
  5
172A0
330
1F
100
AcDbEntity
  8
003
100
AcDbLine
 10
552.3829835638966
 20
263.9456778424928
 30
0.0
 11
552.3829835638967
 21
268.1456778424927
 31
0.0
  0
LINE
  5
172A1
330
1F
100
AcDbEntity
  8
003
100
AcDbLine
 10
551.1829835638967
 20
261.9456778424928
 30
0.0
 11
556.1829835638967
 21
261.9456778424928
 31
0.0
  0
LINE
  5
172A2
330
1F
100
AcDbEntity
  8
003
100
AcDbLine
 10
551.9829835638967
 20
268.1456778424927
 30
0.0
 11
551.9829835638967
 21
270.4523519330737
 31
0.0
  0
LINE
  5
172A3
330
1F
100
AcDbEntity
  8
003
100
AcDbLine
 10
545.2829835638966
 20
275.7456778424928
 30
0.0
 11
545.2829835638966
 21
276.9456778424928
 31
0.0
  0
LINE
  5
172A4
330
1F
100
AcDbEntity
  8
003
100
AcDbLine
 10
545.2829835638966
 20
275.7456778424928
 30
0.0
 11
548.2829835638966
 21
275.7456778424928
 31
0.0
  0
LINE
  5
172A5
330
1F
100
AcDbEntity
  8
003
100
AcDbLine
 10
549.4829835638969
 20
266.9456778424926
 30
0.0
 11
550.6829835638967
 21
266.9456778424926
 31
0.0
  0
LINE
  5
172A6
330
1F
100
AcDbEntity
  8
003
100
AcDbLine
 10
549.4829835638969
 20
261.9456778424926
 30
0.0
 11
549.4829835638969
 21
266.9456778424926
 31
0.0
  0
LINE
  5
172A7
330
1F
100
AcDbEntity
  8
003
100
AcDbLine
 10
549.4829835638967
 20
261.9456778424928
 30
0.0
 11
549.4829835638967
 21
266.9456778424928
 31
0.0
  0
LINE
  5
172A8
330
1F
100
AcDbEntity
  8
003
100
AcDbLine
 10
548.2829835638966
 20
261.9456778424926
 30
0.0
 11
549.4829835638969
 21
261.9456778424926
 31
0.0
  0
LINE
  5
172A9
330
1F
100
AcDbEntity
  8
003
100
AcDbLine
 10
548.2829835638966
 20
261.9456778424928
 30
0.0
 11
549.4829835638967
 21
261.9456778424928
 31
0.0
  0
LINE
  5
172AA
330
1F
100
AcDbEntity
  8
003
100
AcDbLine
 10
548.2829835638966
 20
261.9456778424928
 30
0.0
 11
548.2829835638966
 21
275.7456778424928
 31
0.0
  0
LINE
  5
172AB
330
1F
100
AcDbEntity
  8
006
100
AcDbLine
 10
548.9545564391506
 20
270.6172507177466
 30
0.0
 11
554.6114106886428
 21
276.2741049672391
 31
0.0
  0
LINE
  5
172AC
330
1F
100
AcDbEntity
  8
006
100
AcDbLine
 10
554.6114106886428
 20
270.6172507177466
 30
0.0
 11
548.9545564391504
 21
276.2741049672388
 31
0.0
  0
LINE
  5
172AD
330
1F
100
AcDbEntity
  8
003
100
AcDbLine
 10
549.4829835638967
 20
266.9456778424928
 30
0.0
 11
551.1829835638967
 21
266.9456778424928
 31
0.0
  0
ARC
  5
172AE
330
1F
100
AcDbEntity
  8
003
100
AcDbCircle
 10
551.7829835638971
 20
273.4456778424928
 30
0.0
 40
1.8
100
AcDbArc
 50
344.9816393688474
 51
285.1585454638252
  0
TEXT
  5
172AF
330
1F
100
AcDbEntity
  8
0
100
AcDbText
 10
44.00000000000011
 20
537.0
 30
0.0
 40
6.0
  1
名称
  7
AT_VECTOR
 11
44.00000000000011
 21
540.0
 31
0.0
100
AcDbText
 73
     2
  0
TEXT
  5
172B0
330
1F
100
AcDbEntity
  8
0
100
AcDbText
 10
44.00000000000011
 20
549.0
 30
0.0
 40
6.0
  1
形式
  7
AT_VECTOR
 11
44.00000000000011
 21
552.0
 31
0.0
100
AcDbText
 73
     2
  0
LINE
  5
172B1
330
1F
100
AcDbEntity
  8
003
100
AcDbLine
 10
40.00000000000011
 20
546.0
 30
0.0
 11
175.0000000000002
 21
546.0
 31
0.0
  0
LINE
  5
172B2
330
1F
100
AcDbEntity
  8
003
100
AcDbLine
 10
40.00000000000011
 20
534.0
 30
0.0
 11
175.0000000000002
 21
534.0
 31
0.0
  0
TEXT
  5
172B3
330
1F
100
AcDbEntity
  8
0
100
AcDbText
 10
44.00000000000011
 20
501.0
 30
0.0
 40
6.0
  1
付属品
  7
AT_VECTOR
 11
44.00000000000011
 21
504.0
 31
0.0
100
AcDbText
 73
     2
  0
LINE
  5
172B4
330
1F
100
AcDbEntity
  8
003
100
AcDbLine
 10
40.00000000000011
 20
510.0
 30
0.0
 11
175.0000000000002
 21
510.0
 31
0.0
  0
LINE
  5
172B5
330
1F
100
AcDbEntity
  8
003
100
AcDbLine
 10
40.00000000000011
 20
498.0
 30
0.0
 11
175.0000000000002
 21
498.0
 31
0.0
  0
LINE
  5
172B6
330
1F
100
AcDbEntity
  8
003
100
AcDbLine
 10
40.00000000000011
 20
438.0
 30
0.0
 11
175.0000000000002
 21
438.0
 31
0.0
  0
TEXT
  5
172B7
330
1F
100
AcDbEntity
  8
0
100
AcDbText
 10
44.00000000000011
 20
489.0
 30
0.0
 40
6.0
  1
備考
  7
AT_VECTOR
 11
44.00000000000011
 21
492.0
 31
0.0
100
AcDbText
 73
     2
  0
TEXT
  5
172B8
330
1F
100
AcDbEntity
  8
0
100
AcDbText
 10
44.00000000000011
 20
513.0
 30
0.0
 40
6.0
  1
製品色
  7
AT_VECTOR
 11
44.00000000000011
 21
516.0
 31
0.0
100
AcDbText
 73
     2
  0
LINE
  5
172B9
330
1F
100
AcDbEntity
  8
003
100
AcDbLine
 10
40.00000000000011
 20
522.0
 30
0.0
 11
175.0000000000002
 21
522.0
 31
0.0
  0
TEXT
  5
172BA
330
1F
100
AcDbEntity
  8
0
100
AcDbText
 10
44.00000000000011
 20
525.0
 30
0.0
 40
6.0
  1
ｻｯｼﾒｰｶｰ
  7
AT_VECTOR
 11
44.00000000000011
 21
528.0
 31
0.0
100
AcDbText
 73
     2
  0
LINE
  5
172BB
330
1F
100
AcDbEntity
  8
003
100
AcDbLine
 10
175.0000000000002
 20
558.0
 30
0.0
 11
175.0000000000002
 21
438.0
 31
0.0
  0
LINE
  5
172BC
330
1F
100
AcDbEntity
  8
003
100
AcDbLine
 10
75.00000000000011
 20
558.0
 30
0.0
 11
75.00000000000011
 21
498.0
 31
0.0
  0
TEXT
  5
172BD
330
1F
100
AcDbEntity
  8
0
100
AcDbText
 10
93.40000000000022
 20
537.0
 30
0.0
 40
6.0
  1
みらんちゃんＳＰ型
  7
AT_VECTOR
 72
     1
 11
125.0000000000002
 21
540.0
 31
0.0
100
AcDbText
 73
     2
  0
TEXT
  5
172BE
330
1F
100
AcDbEntity
  8
0
100
AcDbText
 10
79.00000000000011
 20
501.0
 30
0.0
 40
6.0
  1
取付金具
  7
AT_VECTOR
 11
79.00000000000011
 21
504.0
 31
0.0
100
AcDbText
 73
     2
  0
TEXT
  5
172BF
330
1F
100
AcDbEntity
  8
0
100
AcDbText
 10
79.00000000000011
 20
525.0
 30
0.0
 40
6.0
  1
ＹＫＫ
  7
AT_VECTOR
 11
79.00000000000011
 21
528.0
 31
0.0
100
AcDbText
 73
     2
  0
TEXT
  5
172C0
330
1F
100
AcDbEntity
  8
0
100
AcDbText
 10
78.80000000000025
 20
549.0
 30
0.0
 40
6.0
  1
内倒し窓専用自動可変面格子
  7
AT_VECTOR
 72
     1
 11
125.0000000000002
 21
552.0
 31
0.0
100
AcDbText
 73
     2
  0
TEXT
  5
172C1
330
1F
100
AcDbEntity
  8
0
100
AcDbText
 10
194.7479322779403
 20
517.9332677470681
 30
0.0
 40
8.0
  1
※製作範囲
  7
AT_VECTOR
100
AcDbText
  0
TEXT
  5
172C2
330
1F
100
AcDbEntity
  8
0
100
AcDbText
 10
204.4458488650174
 20
502.9332677470679
 30
0.0
 40
8.0
  1
サッシＷ＝２５２～８０２
  7
AT_VECTOR
100
AcDbText
  0
TEXT
  5
172C3
330
1F
100
AcDbEntity
  8
0
100
AcDbText
 10
204.4458488650174
 20
487.9332677470679
 30
0.0
 40
8.0
  1
サッシＨ＝３００～９６２
  7
AT_VECTOR
100
AcDbText
  0
LINE
  5
172C4
330
1F
100
AcDbEntity
  8
003
100
AcDbLine
 10
199.0212626666847
 20
515.4661076327386
 30
0.0
 11
199.0212626666847
 21
481.708116720541
 31
0.0
  0
LINE
  5
172C5
330
1F
100
AcDbEntity
  8
003
100
AcDbLine
 10
199.0212626666847
 20
481.708116720541
 30
0.0
 11
322.6549025812214
 21
481.708116720541
 31
0.0
  0
LINE
  5
172C6
330
1F
100
AcDbEntity
  8
003
100
AcDbLine
 10
322.6549025812214
 20
481.708116720541
 30
0.0
 11
322.6549025812214
 21
521.4050126380008
 31
0.0
  0
LINE
  5
172C7
330
1F
100
AcDbEntity
  8
003
100
AcDbLine
 10
243.1311383070196
 20
521.4050126380008
 30
0.0
 11
322.6549025812214
 21
521.4050126380008
 31
0.0
  0
DIMENSION
  5
172C8
330
1F
100
AcDbEntity
  8
0
100
AcDbDimension
  2
*D21
 10
482.2846394199675
 20
218.945662842493
 30
0.0
 11
477.2846394199675
 21
183.9457169584286
 31
0.0
 70
    32
 71
     5
 42
69.99989176812897
  3
DIM
100
AcDbAlignedDimension
 13
426.4327015638968
 23
148.9457710743641
 33
0.0
 14
576.2829835638966
 24
218.945662842493
 34
0.0
 50
90.0
100
AcDbRotatedDimension
  0
DIMENSION
  5
172C9
330
1F
100
AcDbEntity
  8
0
100
AcDbDimension
  2
*D22
 10
482.2846394199675
 20
276.9456778424928
 30
0.0
 11
477.2846394199675
 21
247.945670342493
 31
0.0
 70
    32
 71
     5
 42
58.00001499999982
  3
DIM
100
AcDbAlignedDimension
 13
576.2829835638966
 23
218.945662842493
 33
0.0
 14
545.2829835638966
 24
276.9456778424928
 34
0.0
 50
90.0
100
AcDbRotatedDimension
  0
LINE
  5
172CA
330
1F
100
AcDbEntity
  8
0
100
AcDbLine
 10
426.4327015638969
 20
330.9456501617199
 30
0.0
 11
606.2829835638966
 21
330.9456501617197
 31
0.0
  0
LINE
  5
172CB
330
1F
100
AcDbEntity
  8
0
100
AcDbLine
 10
606.2829835638966
 20
330.9456501617197
 30
0.0
 11
606.2829835638966
 21
318.9456501617197
 31
0.0
  0
LINE
  5
172CC
330
1F
100
AcDbEntity
  8
0
100
AcDbLine
 10
591.2829835638966
 20
308.9456501617198
 30
0.0
 11
591.2829835638966
 21
233.9456501617198
 31
0.0
  0
LINE
  5
172CD
330
1F
100
AcDbEntity
  8
0
100
AcDbLine
 10
623.4529835638962
 20
290.5668461519304
 30
0.0
 11
591.2829835638966
 21
258.3968461519301
 31
0.0
  0
LINE
  5
172CE
330
1F
100
AcDbEntity
  8
0
100
AcDbLine
 10
623.4529835638962
 20
293.3868461519302
 30
0.0
 11
591.2829835638966
 21
261.2168461519301
 31
0.0
  0
LINE
  5
172CF
330
1F
100
AcDbEntity
  8
0
100
AcDbLine
 10
623.4529835638962
 20
296.2068461519304
 30
0.0
 11
591.2829835638966
 21
264.0368461519301
 31
0.0
  0
LINE
  5
172D0
330
1F
100
AcDbEntity
  8
0
100
AcDbLine
 10
601.2829835638966
 20
318.9456501617197
 30
0.0
 11
619.3329835638963
 21
318.9456501617197
 31
0.0
  0
LINE
  5
172D1
330
1F
100
AcDbEntity
  8
0
100
AcDbLine
 10
601.2829835638966
 20
318.9456501617197
 30
0.0
 11
591.2829835638966
 21
308.9456501617198
 31
0.0
  0
LINE
  5
172D2
330
1F
100
AcDbEntity
  8
0
100
AcDbLine
 10
619.3329835638963
 20
318.9456501617197
 30
0.0
 11
623.4529835638962
 21
318.9456501617197
 31
0.0
  0
LINE
  5
172D3
330
1F
100
AcDbEntity
  8
0
100
AcDbLine
 10
591.2829835638966
 20
233.9456501617198
 30
0.0
 11
623.4529835638962
 21
233.9456501617198
 31
0.0
  0
LINE
  5
172D4
330
1F
100
AcDbEntity
  8
0
100
AcDbLine
 10
592.2829835638967
 20
232.9456501617197
 30
0.0
 11
592.2829835638967
 21
219.9456501617195
 31
0.0
  0
LINE
  5
172D5
330
1F
100
AcDbEntity
  8
0
100
AcDbLine
 10
592.2829835638967
 20
223.6172230369736
 30
0.0
 11
601.2829835638966
 21
232.6172230369733
 31
0.0
  0
LINE
  5
172D6
330
1F
100
AcDbEntity
  8
0
100
AcDbLine
 10
592.2829835638967
 20
226.4456501617195
 30
0.0
 11
599.7829835638967
 21
233.9456501617195
 31
0.0
  0
LINE
  5
172D7
330
1F
100
AcDbEntity
  8
0
100
AcDbLine
 10
592.2829835638967
 20
229.2740772864657
 30
0.0
 11
596.9545564391506
 21
233.9456501617195
 31
0.0
  0
LINE
  5
172D8
330
1F
100
AcDbEntity
  8
0
100
AcDbLine
 10
596.0966920628814
 20
233.9456501617198
 30
0.0
 11
601.2829835638966
 21
228.7593586607046
 31
0.0
  0
LINE
  5
172D9
330
1F
100
AcDbEntity
  8
0
100
AcDbLine
 10
593.2682649381351
 20
233.9456501617198
 30
0.0
 11
601.2829835638966
 21
225.9309315359584
 31
0.0
  0
LINE
  5
172DA
330
1F
100
AcDbEntity
  8
0
100
AcDbLine
 10
592.2829835638967
 20
232.1025044112119
 30
0.0
 11
601.2829835638966
 21
223.1025044112122
 31
0.0
  0
LINE
  5
172DB
330
1F
100
AcDbEntity
  8
0
100
AcDbLine
 10
592.2829835638967
 20
232.1025044112119
 30
0.0
 11
594.1261293144044
 21
233.9456501617195
 31
0.0
  0
LINE
  5
172DC
330
1F
100
AcDbEntity
  8
0
100
AcDbLine
 10
598.9251191876277
 20
233.9456501617198
 30
0.0
 11
601.2829835638966
 21
231.5877857854508
 31
0.0
  0
LINE
  5
172DD
330
1F
100
AcDbEntity
  8
0
100
AcDbLine
 10
592.2829835638967
 20
232.9456501617197
 30
0.0
 11
591.2829835638966
 21
233.9456501617198
 31
0.0
  0
LINE
  5
172DE
330
1F
100
AcDbEntity
  8
0
100
AcDbLine
 10
592.2829835638967
 20
220.7887959122273
 30
0.0
 11
601.2829835638966
 21
229.7887959122271
 31
0.0
  0
LINE
  5
172DF
330
1F
100
AcDbEntity
  8
0
100
AcDbLine
 10
592.2829835638967
 20
229.2740772864657
 30
0.0
 11
601.2829835638966
 21
220.274077286466
 31
0.0
  0
LINE
  5
172E0
330
1F
100
AcDbEntity
  8
0
100
AcDbLine
 10
592.2829835638967
 20
219.9456501617195
 30
0.0
 11
591.2829835638966
 21
218.9456501617197
 31
0.0
  0
LINE
  5
172E1
330
1F
100
AcDbEntity
  8
0
100
AcDbLine
 10
598.9251191876277
 20
218.9456501617195
 30
0.0
 11
601.2829835638966
 21
221.3035145379885
 31
0.0
  0
LINE
  5
172E2
330
1F
100
AcDbEntity
  8
0
100
AcDbLine
 10
593.2682649381351
 20
218.9456501617195
 30
0.0
 11
601.2829835638966
 21
226.9603687874809
 31
0.0
  0
LINE
  5
172E3
330
1F
100
AcDbEntity
  8
0
100
AcDbLine
 10
596.0966920628814
 20
218.9456501617195
 30
0.0
 11
601.2829835638966
 21
224.1319416627347
 31
0.0
  0
LINE
  5
172E4
330
1F
100
AcDbEntity
  8
0
100
AcDbLine
 10
592.2829835638967
 20
223.6172230369736
 30
0.0
 11
596.9545564391506
 21
218.9456501617197
 31
0.0
  0
LINE
  5
172E5
330
1F
100
AcDbEntity
  8
0
100
AcDbLine
 10
592.2829835638967
 20
220.7887959122273
 30
0.0
 11
594.1261293144044
 21
218.9456501617197
 31
0.0
  0
LINE
  5
172E6
330
1F
100
AcDbEntity
  8
0
100
AcDbLine
 10
592.2829835638967
 20
226.4456501617198
 30
0.0
 11
599.7829835638967
 21
218.9456501617197
 31
0.0
  0
LINE
  5
172E7
330
1F
100
AcDbEntity
  8
007
100
AcDbLine
 10
603.1329895638966
 20
153.3355234148662
 30
0.0
 11
603.1329895638966
 21
213.3355234148662
 31
0.0
  0
LINE
  5
172E8
330
1F
100
AcDbEntity
  8
007
100
AcDbLine
 10
601.1329895638966
 20
160.3855234148661
 30
0.0
 11
601.1329895638966
 21
207.3055234148662
 31
0.0
  0
LINE
  5
172E9
330
1F
100
AcDbEntity
  8
007
100
AcDbLine
 10
603.1329895638966
 20
153.3355234148662
 30
0.0
 11
603.1329895638966
 21
213.3355234148662
 31
0.0
  0
LINE
  5
172EA
330
1F
100
AcDbEntity
  8
007
100
AcDbLine
 10
601.1329895638966
 20
160.3855234148661
 30
0.0
 11
597.6329895638967
 21
158.3655234148662
 31
0.0
  0
LINE
  5
172EB
330
1F
100
AcDbEntity
  8
007
100
AcDbLine
 10
599.6329895638966
 20
153.3355234148662
 30
0.0
 11
597.6329895638967
 21
153.3355234148662
 31
0.0
  0
LINE
  5
172EC
330
1F
100
AcDbEntity
  8
007
100
AcDbLine
 10
597.6329895638967
 20
153.3355234148662
 30
0.0
 11
597.6329895638967
 21
158.3655234148662
 31
0.0
  0
LINE
  5
172ED
330
1F
100
AcDbEntity
  8
007
100
AcDbLine
 10
599.6329895638966
 20
157.3355234148662
 30
0.0
 11
599.6329895638966
 21
157.9055234148661
 31
0.0
  0
LINE
  5
172EE
330
1F
100
AcDbEntity
  8
007
100
AcDbLine
 10
601.1329895638966
 20
157.3355234148662
 30
0.0
 11
601.1329895638966
 21
158.7755234148662
 31
0.0
  0
LINE
  5
172EF
330
1F
100
AcDbEntity
  8
007
100
AcDbLine
 10
601.1329895638966
 20
158.7755234148662
 30
0.0
 11
599.6329895638966
 21
157.9055234148661
 31
0.0
  0
LINE
  5
172F0
330
1F
100
AcDbEntity
  8
007
100
AcDbLine
 10
603.1329895638966
 20
153.3355234148662
 30
0.0
 11
601.1329895638966
 21
153.3355234148662
 31
0.0
  0
LINE
  5
172F1
330
1F
100
AcDbEntity
  8
007
100
AcDbLine
 10
612.1329895638966
 20
173.3355234148662
 30
0.0
 11
612.1329895638966
 21
193.3355234148662
 31
0.0
  0
LINE
  5
172F2
330
1F
100
AcDbEntity
  8
007
100
AcDbLine
 10
618.4629895638965
 20
178.8355234148662
 30
0.0
 11
603.1329895638966
 21
178.8355234148662
 31
0.0
  0
LINE
  5
172F3
330
1F
100
AcDbEntity
  8
007
100
AcDbLine
 10
612.1329895638966
 20
173.3355234148662
 30
0.0
 11
603.1329895638966
 21
173.3355234148662
 31
0.0
  0
LINE
  5
172F4
330
1F
100
AcDbEntity
  8
007
100
AcDbLine
 10
618.4629895638965
 20
187.8355234148662
 30
0.0
 11
603.1329895638966
 21
187.8355234148662
 31
0.0
  0
LINE
  5
172F5
330
1F
100
AcDbEntity
  8
007
100
AcDbLine
 10
612.1329895638966
 20
193.3355234148662
 30
0.0
 11
603.1329895638966
 21
193.3355234148662
 31
0.0
  0
LINE
  5
172F6
330
1F
100
AcDbEntity
  8
007
100
AcDbLine
 10
601.1329895638966
 20
207.3055234148662
 30
0.0
 11
597.6329895638967
 21
209.3255234148662
 31
0.0
  0
LINE
  5
172F7
330
1F
100
AcDbEntity
  8
007
100
AcDbLine
 10
599.6329895638966
 20
213.3355234148662
 30
0.0
 11
597.6329895638967
 21
213.3355234148662
 31
0.0
  0
LINE
  5
172F8
330
1F
100
AcDbEntity
  8
007
100
AcDbLine
 10
597.6329895638967
 20
209.3255234148662
 30
0.0
 11
597.6329895638967
 21
213.3355234148662
 31
0.0
  0
LINE
  5
172F9
330
1F
100
AcDbEntity
  8
007
100
AcDbLine
 10
601.1329895638966
 20
208.8355234148662
 30
0.0
 11
601.1329895638966
 21
210.3355234148662
 31
0.0
  0
LINE
  5
172FA
330
1F
100
AcDbEntity
  8
007
100
AcDbLine
 10
601.1329895638966
 20
208.8355234148662
 30
0.0
 11
599.6329895638966
 21
209.7055234148661
 31
0.0
  0
LINE
  5
172FB
330
1F
100
AcDbEntity
  8
007
100
AcDbLine
 10
599.6329895638966
 20
209.7055234148661
 30
0.0
 11
599.6329895638966
 21
210.3355234148662
 31
0.0
  0
LINE
  5
172FC
330
1F
100
AcDbEntity
  8
007
100
AcDbLine
 10
603.1329895638966
 20
213.3355234148662
 30
0.0
 11
601.1329895638966
 21
213.3355234148662
 31
0.0
  0
LINE
  5
172FD
330
1F
100
AcDbEntity
  8
0
100
AcDbLine
 10
421.1329835638963
 20
330.9456501617199
 30
0.0
 11
241.2827015638967
 21
330.9456501617197
 31
0.0
  0
LINE
  5
172FE
330
1F
100
AcDbEntity
  8
0
100
AcDbLine
 10
241.2827015638967
 20
330.9456501617197
 30
0.0
 11
241.2827015638967
 21
318.9456501617197
 31
0.0
  0
LINE
  5
172FF
330
1F
100
AcDbEntity
  8
0
100
AcDbLine
 10
256.2827015638967
 20
308.9456501617198
 30
0.0
 11
256.2827015638967
 21
233.9456501617198
 31
0.0
  0
LINE
  5
17300
330
1F
100
AcDbEntity
  8
0
100
AcDbLine
 10
246.2827015638967
 20
318.9456501617197
 30
0.0
 11
228.232701563897
 21
318.9456501617197
 31
0.0
  0
LINE
  5
17301
330
1F
100
AcDbEntity
  8
0
100
AcDbLine
 10
246.2827015638967
 20
318.9456501617197
 30
0.0
 11
256.2827015638967
 21
308.9456501617198
 31
0.0
  0
LINE
  5
17302
330
1F
100
AcDbEntity
  8
0
100
AcDbLine
 10
228.232701563897
 20
318.9456501617197
 30
0.0
 11
224.1127015638971
 21
318.9456501617197
 31
0.0
  0
LINE
  5
17303
330
1F
100
AcDbEntity
  8
0
100
AcDbLine
 10
256.2827015638967
 20
233.9456501617198
 30
0.0
 11
224.1127015638971
 21
233.9456501617198
 31
0.0
  0
LINE
  5
17304
330
1F
100
AcDbEntity
  8
0
100
AcDbLine
 10
255.2827015638967
 20
232.9456501617197
 30
0.0
 11
255.2827015638967
 21
219.9456501617195
 31
0.0
  0
LINE
  5
17305
330
1F
100
AcDbEntity
  8
0
100
AcDbLine
 10
255.2827015638967
 20
223.6172230369736
 30
0.0
 11
246.2827015638967
 21
232.6172230369733
 31
0.0
  0
LINE
  5
17306
330
1F
100
AcDbEntity
  8
0
100
AcDbLine
 10
255.2827015638967
 20
226.4456501617195
 30
0.0
 11
247.7827015638967
 21
233.9456501617195
 31
0.0
  0
LINE
  5
17307
330
1F
100
AcDbEntity
  8
0
100
AcDbLine
 10
255.2827015638967
 20
229.2740772864657
 30
0.0
 11
250.6111286886427
 21
233.9456501617195
 31
0.0
  0
LINE
  5
17308
330
1F
100
AcDbEntity
  8
0
100
AcDbLine
 10
251.4689930649118
 20
233.9456501617198
 30
0.0
 11
246.2827015638967
 21
228.7593586607046
 31
0.0
  0
LINE
  5
17309
330
1F
100
AcDbEntity
  8
0
100
AcDbLine
 10
254.2974201896583
 20
233.9456501617198
 30
0.0
 11
246.2827015638967
 21
225.9309315359584
 31
0.0
  0
LINE
  5
1730A
330
1F
100
AcDbEntity
  8
0
100
AcDbLine
 10
255.2827015638967
 20
232.1025044112119
 30
0.0
 11
246.2827015638967
 21
223.1025044112122
 31
0.0
  0
LINE
  5
1730B
330
1F
100
AcDbEntity
  8
0
100
AcDbLine
 10
255.2827015638967
 20
232.1025044112119
 30
0.0
 11
253.4395558133889
 21
233.9456501617195
 31
0.0
  0
LINE
  5
1730C
330
1F
100
AcDbEntity
  8
0
100
AcDbLine
 10
248.6405659401656
 20
233.9456501617198
 30
0.0
 11
246.2827015638967
 21
231.5877857854508
 31
0.0
  0
LINE
  5
1730D
330
1F
100
AcDbEntity
  8
0
100
AcDbLine
 10
255.2827015638967
 20
232.9456501617197
 30
0.0
 11
256.2827015638967
 21
233.9456501617198
 31
0.0
  0
LINE
  5
1730E
330
1F
100
AcDbEntity
  8
0
100
AcDbLine
 10
255.2827015638967
 20
220.7887959122273
 30
0.0
 11
246.2827015638967
 21
229.7887959122271
 31
0.0
  0
LINE
  5
1730F
330
1F
100
AcDbEntity
  8
0
100
AcDbLine
 10
255.2827015638967
 20
229.2740772864657
 30
0.0
 11
246.2827015638967
 21
220.274077286466
 31
0.0
  0
LINE
  5
17310
330
1F
100
AcDbEntity
  8
0
100
AcDbLine
 10
255.2827015638967
 20
219.9456501617195
 30
0.0
 11
256.2827015638967
 21
218.9456501617197
 31
0.0
  0
LINE
  5
17311
330
1F
100
AcDbEntity
  8
0
100
AcDbLine
 10
248.6405659401656
 20
218.9456501617195
 30
0.0
 11
246.2827015638967
 21
221.3035145379885
 31
0.0
  0
LINE
  5
17312
330
1F
100
AcDbEntity
  8
0
100
AcDbLine
 10
254.2974201896583
 20
218.9456501617195
 30
0.0
 11
246.2827015638967
 21
226.9603687874809
 31
0.0
  0
LINE
  5
17313
330
1F
100
AcDbEntity
  8
0
100
AcDbLine
 10
251.4689930649118
 20
218.9456501617195
 30
0.0
 11
246.2827015638967
 21
224.1319416627347
 31
0.0
  0
LINE
  5
17314
330
1F
100
AcDbEntity
  8
0
100
AcDbLine
 10
255.2827015638967
 20
223.6172230369736
 30
0.0
 11
250.6111286886427
 21
218.9456501617197
 31
0.0
  0
LINE
  5
17315
330
1F
100
AcDbEntity
  8
0
100
AcDbLine
 10
255.2827015638967
 20
220.7887959122273
 30
0.0
 11
253.4395558133889
 21
218.9456501617197
 31
0.0
  0
LINE
  5
17316
330
1F
100
AcDbEntity
  8
0
100
AcDbLine
 10
255.2827015638967
 20
226.4456501617198
 30
0.0
 11
247.7827015638967
 21
218.9456501617197
 31
0.0
  0
LINE
  5
17317
330
1F
100
AcDbEntity
  8
007
100
AcDbLine
 10
244.4326955638967
 20
153.3355234148662
 30
0.0
 11
244.4326955638967
 21
193.5989035253344
 31
0.0
  0
LINE
  5
17318
330
1F
100
AcDbEntity
  8
007
100
AcDbLine
 10
244.4326955638967
 20
204.8001048979872
 30
0.0
 11
244.4326955638967
 21
213.3355234148662
 31
0.0
  0
LINE
  5
17319
330
1F
100
AcDbEntity
  8
007
100
AcDbLine
 10
246.4326955638967
 20
160.3855234148661
 30
0.0
 11
246.4326955638967
 21
193.5989035253344
 31
0.0
  0
LINE
  5
1731A
330
1F
100
AcDbEntity
  8
007
100
AcDbLine
 10
246.4326955638967
 20
204.8001048979872
 30
0.0
 11
246.4326955638967
 21
207.3055234148662
 31
0.0
  0
LINE
  5
1731B
330
1F
100
AcDbEntity
  8
007
100
AcDbLine
 10
244.4326955638967
 20
153.3355234148662
 30
0.0
 11
244.4326955638967
 21
193.5989035253344
 31
0.0
  0
LINE
  5
1731C
330
1F
100
AcDbEntity
  8
007
100
AcDbLine
 10
244.4326955638967
 20
204.8001048979872
 30
0.0
 11
244.4326955638967
 21
213.3355234148662
 31
0.0
  0
LINE
  5
1731D
330
1F
100
AcDbEntity
  8
007
100
AcDbLine
 10
246.4326955638967
 20
160.3855234148661
 30
0.0
 11
249.9326955638967
 21
158.3655234148662
 31
0.0
  0
LINE
  5
1731E
330
1F
100
AcDbEntity
  8
007
100
AcDbLine
 10
247.9326955638967
 20
153.3355234148662
 30
0.0
 11
249.9326955638967
 21
153.3355234148662
 31
0.0
  0
LINE
  5
1731F
330
1F
100
AcDbEntity
  8
007
100
AcDbLine
 10
249.9326955638967
 20
153.3355234148662
 30
0.0
 11
249.9326955638967
 21
158.3655234148662
 31
0.0
  0
LINE
  5
17320
330
1F
100
AcDbEntity
  8
007
100
AcDbLine
 10
247.9326955638967
 20
157.3355234148662
 30
0.0
 11
247.9326955638967
 21
157.9055234148661
 31
0.0
  0
LINE
  5
17321
330
1F
100
AcDbEntity
  8
007
100
AcDbLine
 10
246.4326955638967
 20
157.3355234148662
 30
0.0
 11
246.4326955638967
 21
158.7755234148662
 31
0.0
  0
LINE
  5
17322
330
1F
100
AcDbEntity
  8
007
100
AcDbLine
 10
246.4326955638967
 20
158.7755234148662
 30
0.0
 11
247.9326955638967
 21
157.9055234148661
 31
0.0
  0
LINE
  5
17323
330
1F
100
AcDbEntity
  8
007
100
AcDbLine
 10
244.4326955638967
 20
153.3355234148662
 30
0.0
 11
246.4326955638967
 21
153.3355234148662
 31
0.0
  0
LINE
  5
17324
330
1F
100
AcDbEntity
  8
007
100
AcDbLine
 10
235.4326955638967
 20
173.3355234148662
 30
0.0
 11
235.4326955638967
 21
193.3355234148662
 31
0.0
  0
LINE
  5
17325
330
1F
100
AcDbEntity
  8
007
100
AcDbLine
 10
229.1026955638967
 20
178.8355234148662
 30
0.0
 11
244.4326955638967
 21
178.8355234148662
 31
0.0
  0
LINE
  5
17326
330
1F
100
AcDbEntity
  8
007
100
AcDbLine
 10
235.4326955638967
 20
173.3355234148662
 30
0.0
 11
244.4326955638967
 21
173.3355234148662
 31
0.0
  0
LINE
  5
17327
330
1F
100
AcDbEntity
  8
007
100
AcDbLine
 10
229.1026955638967
 20
187.8355234148662
 30
0.0
 11
244.4326955638967
 21
187.8355234148662
 31
0.0
  0
LINE
  5
17328
330
1F
100
AcDbEntity
  8
007
100
AcDbLine
 10
235.4326955638967
 20
193.3355234148662
 30
0.0
 11
244.4326955638967
 21
193.3355234148662
 31
0.0
  0
LINE
  5
17329
330
1F
100
AcDbEntity
  8
007
100
AcDbLine
 10
246.4326955638967
 20
207.3055234148662
 30
0.0
 11
249.9326955638967
 21
209.3255234148662
 31
0.0
  0
LINE
  5
1732A
330
1F
100
AcDbEntity
  8
007
100
AcDbLine
 10
247.9326955638967
 20
213.3355234148662
 30
0.0
 11
249.9326955638967
 21
213.3355234148662
 31
0.0
  0
LINE
  5
1732B
330
1F
100
AcDbEntity
  8
007
100
AcDbLine
 10
249.9326955638967
 20
209.3255234148662
 30
0.0
 11
249.9326955638967
 21
213.3355234148662
 31
0.0
  0
LINE
  5
1732C
330
1F
100
AcDbEntity
  8
007
100
AcDbLine
 10
246.4326955638967
 20
208.8355234148662
 30
0.0
 11
246.4326955638967
 21
210.3355234148662
 31
0.0
  0
LINE
  5
1732D
330
1F
100
AcDbEntity
  8
007
100
AcDbLine
 10
246.4326955638967
 20
208.8355234148662
 30
0.0
 11
247.9326955638967
 21
209.7055234148661
 31
0.0
  0
LINE
  5
1732E
330
1F
100
AcDbEntity
  8
007
100
AcDbLine
 10
247.9326955638967
 20
209.7055234148661
 30
0.0
 11
247.9326955638967
 21
210.3355234148662
 31
0.0
  0
LINE
  5
1732F
330
1F
100
AcDbEntity
  8
007
100
AcDbLine
 10
244.4326955638967
 20
213.3355234148662
 30
0.0
 11
246.4326955638967
 21
213.3355234148662
 31
0.0
  0
LINE
  5
17330
330
1F
100
AcDbEntity
  8
0
100
AcDbLine
 10
256.2827015638967
 20
286.8341360924638
 30
0.0
 11
224.1127015638971
 21
254.6641360924636
 31
0.0
  0
LINE
  5
17331
330
1F
100
AcDbEntity
  8
0
100
AcDbLine
 10
256.2827015638967
 20
289.6541360924635
 30
0.0
 11
224.1127015638971
 21
257.4841360924636
 31
0.0
  0
LINE
  5
17332
330
1F
100
AcDbEntity
  8
0
100
AcDbLine
 10
256.2827015638967
 20
292.4741360924637
 30
0.0
 11
224.1127015638971
 21
260.3041360924635
 31
0.0
  0
LINE
  5
17333
330
1F
100
AcDbEntity
  8
003
100
AcDbLine
 10
456.5069899992614
 20
85.65864961868511
 30
0.0
 11
536.506989999261
 21
85.65864961868511
 31
0.0
  0
LINE
  5
17334
330
1F
100
AcDbEntity
  8
003
100
AcDbLine
 10
456.5069899992614
 20
98.99198295201836
 30
0.0
 11
536.5069899992614
 21
98.99198295201836
 31
0.0
  0
LINE
  5
17335
330
1F
100
AcDbEntity
  8
003
100
AcDbLine
 10
456.5069899992614
 20
85.65864961868511
 30
0.0
 11
456.5069899992614
 21
98.99198295201836
 31
0.0
  0
TEXT
  5
17336
330
1F
100
AcDbEntity
  8
0
100
AcDbText
 10
478.6403233325947
 20
88.32531628535162
 30
0.0
 40
7.999999999999998
  1
横断面図
  7
AT_VECTOR
 72
     1
 11
496.5069899992614
 21
92.32531628535161
 31
0.0
100
AcDbText
 73
     2
  0
LINE
  5
17337
330
1F
100
AcDbEntity
  8
003
100
AcDbLine
 10
536.506989999261
 20
85.65864961868511
 30
0.0
 11
536.5069899992614
 21
98.99198295201836
 31
0.0
  0
LINE
  5
17338
330
1F
100
AcDbEntity
  8
003
100
AcDbLine
 10
438.7828425638966
 20
107.7922871470692
 30
0.0
 11
438.7828425638966
 21
98.79228714706925
 31
0.0
  0
TEXT
  5
17339
330
1F
100
AcDbEntity
  8
0
100
AcDbText
 10
413.5828425638966
 20
100.2922871470692
 30
0.0
 40
6.0
  1
内　部
  7
AT_VECTOR
 72
     1
 11
423.7828425638967
 21
103.2922871470692
 31
0.0
100
AcDbText
 73
     2
  0
LINE
  5
1733A
330
1F
100
AcDbEntity
  8
003
100
AcDbLine
 10
408.7828425638966
 20
107.7922871470692
 30
0.0
 11
408.7828425638966
 21
98.79228714706925
 31
0.0
  0
LINE
  5
1733B
330
1F
100
AcDbEntity
  8
003
100
AcDbLine
 10
408.7828425638966
 20
98.79228714706925
 30
0.0
 11
438.7828425638966
 21
98.79228714706925
 31
0.0
  0
LINE
  5
1733C
330
1F
100
AcDbEntity
  8
003
100
AcDbLine
 10
408.7828425638966
 20
107.7922871470692
 30
0.0
 11
438.7828425638966
 21
107.7922871470692
 31
0.0
  0
TEXT
  5
1733D
330
1F
100
AcDbEntity
  8
0
100
AcDbText
 10
413.7828425638966
 20
340.2234797262994
 30
0.0
 40
6.0
  1
外　部
  7
AT_VECTOR
 72
     1
 11
423.7828425638967
 21
343.2234797262994
 31
0.0
100
AcDbText
 73
     2
  0
LINE
  5
1733E
330
1F
100
AcDbEntity
  8
003
100
AcDbLine
 10
408.7828425638966
 20
347.7234797262994
 30
0.0
 11
438.7828425638966
 21
347.7234797262994
 31
0.0
  0
LINE
  5
1733F
330
1F
100
AcDbEntity
  8
003
100
AcDbLine
 10
408.7828425638966
 20
338.7234797262994
 30
0.0
 11
438.7828425638966
 21
338.7234797262994
 31
0.0
  0
LINE
  5
17340
330
1F
100
AcDbEntity
  8
003
100
AcDbLine
 10
408.7828425638966
 20
347.7234797262994
 30
0.0
 11
408.7828425638966
 21
338.7234797262994
 31
0.0
  0
LINE
  5
17341
330
1F
100
AcDbEntity
  8
003
100
AcDbLine
 10
438.7828425638966
 20
347.7234797262994
 30
0.0
 11
438.7828425638966
 21
338.7234797262994
 31
0.0
  0
LINE
  5
17342
330
1F
100
AcDbEntity
  8
003
100
AcDbLine
 10
656.4626367167271
 20
424.4287087893135
 30
0.0
 11
564.9525842401182
 21
424.4287087893135
 31
0.0
  0
LINE
  5
17343
330
1F
100
AcDbEntity
  8
003
100
AcDbLine
 10
656.4626367167271
 20
421.7287087895833
 30
0.0
 11
564.9525842401182
 21
421.7287087895833
 31
0.0
  0
LINE
  5
17344
330
1F
100
AcDbEntity
  8
003
100
AcDbLine
 10
656.4626367167271
 20
420.5287087897036
 30
0.0
 11
564.9525842401182
 21
420.5287087897036
 31
0.0
  0
LINE
  5
17345
330
1F
100
AcDbEntity
  8
003
100
AcDbLine
 10
656.4626367167271
 20
427.4287087890134
 30
0.0
 11
564.9525842401182
 21
427.4287087890134
 31
0.0
  0
LINE
  5
17346
330
1F
100
AcDbEntity
  8
003
100
AcDbLine
 10
635.2376367197497
 20
421.9037087895162
 30
0.0
 11
626.2376367197497
 21
421.9037087895162
 31
0.0
  0
LINE
  5
17347
330
1F
100
AcDbEntity
  8
003
100
AcDbLine
 10
626.2376367197497
 20
424.253708789381
 30
0.0
 11
635.2376367197497
 21
424.253708789381
 31
0.0
  0
LINE
  5
17348
330
1F
100
AcDbEntity
  8
003
100
AcDbLine
 10
624.5312367199202
 20
422.5218337895044
 30
0.0
 11
624.5312367199202
 21
423.6355837893929
 31
0.0
  0
ARC
  5
17349
330
1F
100
AcDbEntity
  8
003
100
AcDbCircle
 10
624.5994539074132
 20
423.0787087894486
 30
0.0
 40
0.9592171874040412
100
AcDbArc
 50
144.510656749895
 51
215.4893432501217
  0
LINE
  5
1734A
330
1F
100
AcDbEntity
  8
003
100
AcDbLine
 10
624.7094367199023
 20
422.5218337895044
 30
0.0
 11
623.8184367199915
 21
422.5218337895044
 31
0.0
  0
LINE
  5
1734B
330
1F
100
AcDbEntity
  8
003
100
AcDbLine
 10
624.7094367199023
 20
422.5218337895044
 30
0.0
 11
624.7094367199023
 21
423.6355837893929
 31
0.0
  0
LINE
  5
1734C
330
1F
100
AcDbEntity
  8
003
100
AcDbLine
 10
624.7094367199023
 20
423.6355837893929
 30
0.0
 11
623.8184367199915
 21
423.6355837893929
 31
0.0
  0
LINE
  5
1734D
330
1F
100
AcDbEntity
  8
003
100
AcDbLine
 10
596.7057842369428
 20
423.6355837893929
 30
0.0
 11
597.5967842368536
 21
423.6355837893929
 31
0.0
  0
LINE
  5
1734E
330
1F
100
AcDbEntity
  8
003
100
AcDbLine
 10
596.7057842369428
 20
422.5218337895044
 30
0.0
 11
596.7057842369428
 21
423.6355837893929
 31
0.0
  0
LINE
  5
1734F
330
1F
100
AcDbEntity
  8
003
100
AcDbLine
 10
596.7057842369428
 20
422.5218337895044
 30
0.0
 11
597.5967842368536
 21
422.5218337895044
 31
0.0
  0
ARC
  5
17350
330
1F
100
AcDbEntity
  8
003
100
AcDbCircle
 10
596.815767049432
 20
423.0787087894486
 30
0.0
 40
0.9592171874040412
100
AcDbArc
 50
324.5106567498782
 51
35.48934325010496
  0
LINE
  5
17351
330
1F
100
AcDbEntity
  8
003
100
AcDbLine
 10
596.8839842369251
 20
422.5218337895044
 30
0.0
 11
596.8839842369251
 21
423.6355837893929
 31
0.0
  0
LINE
  5
17352
330
1F
100
AcDbEntity
  8
003
100
AcDbLine
 10
656.4626367167271
 20
531.8281063554818
 30
0.0
 11
564.9525842401182
 21
531.828106355482
 31
0.0
  0
LINE
  5
17353
330
1F
100
AcDbEntity
  8
003
100
AcDbLine
 10
656.4626367167271
 20
530.628106355482
 30
0.0
 11
564.9525842401182
 21
530.628106355482
 31
0.0
  0
LINE
  5
17354
330
1F
100
AcDbEntity
  8
003
100
AcDbLine
 10
656.4626367167271
 20
527.928106355482
 30
0.0
 11
564.9525842401182
 21
527.928106355482
 31
0.0
  0
LINE
  5
17355
330
1F
100
AcDbEntity
  8
003
100
AcDbLine
 10
656.4626367167271
 20
524.9281063554819
 30
0.0
 11
564.9525842401182
 21
524.9281063554822
 31
0.0
  0
LINE
  5
17356
330
1F
100
AcDbEntity
  8
003
100
AcDbLine
 10
564.9525842401182
 20
420.5287087897036
 30
0.0
 11
564.9525842401182
 21
531.828106355482
 31
0.0
  0
LINE
  5
17357
330
1F
100
AcDbEntity
  8
003
100
AcDbLine
 10
573.9525842401182
 20
427.4287087890134
 30
0.0
 11
573.9525842401182
 21
524.9281063554822
 31
0.0
  0
LINE
  5
17358
330
1F
100
AcDbEntity
  8
003
100
AcDbLine
 10
656.4626367167271
 20
420.5287087897036
 30
0.0
 11
656.4626367167271
 21
531.828106355482
 31
0.0
  0
LINE
  5
17359
330
1F
100
AcDbEntity
  8
003
100
AcDbLine
 10
647.4626367167271
 20
427.4287087890134
 30
0.0
 11
647.4626367167271
 21
524.9281063554822
 31
0.0
  0
LINE
  5
1735A
330
1F
100
AcDbEntity
  8
003
100
AcDbLine
 10
573.9525842401182
 20
471.2284075722477
 30
0.0
 11
647.4626367167271
 21
471.2284075722477
 31
0.0
  0
LINE
  5
1735B
330
1F
100
AcDbEntity
  8
003
100
AcDbLine
 10
573.9525842401182
 20
481.1284075722478
 30
0.0
 11
647.4626367167271
 21
481.1284075722478
 31
0.0
  0
LINE
  5
1735C
330
1F
100
AcDbEntity
  8
003
100
AcDbLine
 10
573.9525842401182
 20
500.9284075722478
 30
0.0
 11
647.4626367167271
 21
500.9284075722478
 31
0.0
  0
LINE
  5
1735D
330
1F
100
AcDbEntity
  8
003
100
AcDbLine
 10
573.9525842401182
 20
510.8284075722479
 30
0.0
 11
647.4626367167271
 21
510.8284075722479
 31
0.0
  0
LINE
  5
1735E
330
1F
100
AcDbEntity
  8
003
100
AcDbLine
 10
573.9525842401182
 20
520.7284075722477
 30
0.0
 11
647.4626367167271
 21
520.7284075722477
 31
0.0
  0
LINE
  5
1735F
330
1F
100
AcDbEntity
  8
003
100
AcDbLine
 10
573.9525842401182
 20
441.5284075722479
 30
0.0
 11
647.4626367167271
 21
441.5284075722479
 31
0.0
  0
LINE
  5
17360
330
1F
100
AcDbEntity
  8
003
100
AcDbLine
 10
573.9525842401182
 20
451.4284075722478
 30
0.0
 11
647.4626367167271
 21
451.4284075722478
 31
0.0
  0
LINE
  5
17361
330
1F
100
AcDbEntity
  8
003
100
AcDbLine
 10
573.9525842401182
 20
461.3284075722476
 30
0.0
 11
647.4626367167271
 21
461.3284075722476
 31
0.0
  0
LINE
  5
17362
330
1F
100
AcDbEntity
  8
003
100
AcDbLine
 10
573.9525842401182
 20
431.6284075722478
 30
0.0
 11
647.4626367167271
 21
431.6284075722478
 31
0.0
  0
LINE
  5
17363
330
1F
100
AcDbEntity
  8
003
100
AcDbLine
 10
579.9525842251182
 20
534.8281063524821
 30
0.0
 11
591.9525842131182
 21
534.8281063524821
 31
0.0
  0
LINE
  5
17364
330
1F
100
AcDbEntity
  8
003
100
AcDbLine
 10
579.9525842251182
 20
531.828106355482
 30
0.0
 11
579.9525842251182
 21
534.8281063524821
 31
0.0
  0
LINE
  5
17365
330
1F
100
AcDbEntity
  8
003
100
AcDbLine
 10
591.9525842131182
 20
531.828106355482
 30
0.0
 11
591.9525842131182
 21
534.8281063524821
 31
0.0
  0
LINE
  5
17366
330
1F
100
AcDbEntity
  8
003
100
AcDbLine
 10
641.462636731727
 20
534.8281063524821
 30
0.0
 11
629.462636743727
 21
534.8281063524821
 31
0.0
  0
LINE
  5
17367
330
1F
100
AcDbEntity
  8
003
100
AcDbLine
 10
641.462636731727
 20
531.828106355482
 30
0.0
 11
641.462636731727
 21
534.8281063524821
 31
0.0
  0
LINE
  5
17368
330
1F
100
AcDbEntity
  8
003
100
AcDbLine
 10
629.462636743727
 20
531.828106355482
 30
0.0
 11
629.462636743727
 21
534.8281063524821
 31
0.0
  0
LINE
  5
17369
330
1F
100
AcDbEntity
  8
003
100
AcDbLine
 10
573.9525842401183
 20
491.0284075722479
 30
0.0
 11
647.4626367167271
 21
491.0284075722479
 31
0.0
  0
CIRCLE
  5
1736A
330
1F
100
AcDbEntity
  8
003
100
AcDbCircle
 10
628.2376367197497
 20
423.0787087894486
 30
0.0
 40
0.74999999925
  0
CIRCLE
  5
1736B
330
1F
100
AcDbEntity
  8
003
100
AcDbCircle
 10
633.2376367197497
 20
423.0787087894486
 30
0.0
 40
0.74999999925
  0
LINE
  5
1736C
330
1F
100
AcDbEntity
  8
003
100
AcDbLine
 10
635.2376367197497
 20
424.253708789381
 30
0.0
 11
635.2376367197497
 21
421.9037087895162
 31
0.0
  0
LINE
  5
1736D
330
1F
100
AcDbEntity
  8
003
100
AcDbLine
 10
626.2376367197497
 20
424.253708789381
 30
0.0
 11
626.2376367197497
 21
421.9037087895162
 31
0.0
  0
LINE
  5
1736E
330
1F
100
AcDbEntity
  8
003
100
AcDbLine
 10
586.1775842370954
 20
421.9037087895162
 30
0.0
 11
595.1775842370953
 21
421.9037087895162
 31
0.0
  0
LINE
  5
1736F
330
1F
100
AcDbEntity
  8
003
100
AcDbLine
 10
595.1775842370953
 20
424.253708789381
 30
0.0
 11
586.1775842370954
 21
424.253708789381
 31
0.0
  0
CIRCLE
  5
17370
330
1F
100
AcDbEntity
  8
003
100
AcDbCircle
 10
593.1775842370954
 20
423.0787087894486
 30
0.0
 40
0.74999999925
  0
CIRCLE
  5
17371
330
1F
100
AcDbEntity
  8
003
100
AcDbCircle
 10
588.1775842370954
 20
423.0787087894486
 30
0.0
 40
0.74999999925
  0
LINE
  5
17372
330
1F
100
AcDbEntity
  8
003
100
AcDbLine
 10
586.1775842370954
 20
424.253708789381
 30
0.0
 11
586.1775842370954
 21
421.9037087895162
 31
0.0
  0
LINE
  5
17373
330
1F
100
AcDbEntity
  8
003
100
AcDbLine
 10
595.1775842370953
 20
424.253708789381
 30
0.0
 11
595.1775842370953
 21
421.9037087895162
 31
0.0
  0
TEXT
  5
17374
330
1F
100
AcDbEntity
  8
0
100
AcDbText
 10
67.81722297933981
 20
489.0
 30
0.0
 40
6.0
  1
内・外網戸（網色：ブラック・グレー）
 41
0.85
  7
AT_VECTOR
 11
67.81722297933981
 21
492.0
 31
0.0
100
AcDbText
 73
     2
  0
TEXT
  5
17375
330
1F
100
AcDbEntity
  8
0
100
AcDbText
 10
205.3571236321622
 20
443.4647244922421
 30
0.0
 40
8.0
  1
特記事項
  7
AT_VECTOR
100
AcDbText
  0
TEXT
  5
17376
330
1F
100
AcDbEntity
  8
0
100
AcDbText
 10
219.9982392998787
 20
430.5147298961651
 30
0.0
 40
6.0
  1
ご注文の際には網戸の仕様（内・外）及び網色（ブラック・グレー）のご指示お願いします
 41
0.9
  7
AT_VECTOR
 11
219.9982392998787
 21
433.5147298961651
 31
0.0
100
AcDbText
 73
     2
  0
TEXT
  5
17377
330
1F
100
AcDbEntity
  8
0
100
AcDbText
 10
219.9982392998787
 20
418.5147298961651
 30
0.0
 40
6.0
  1
本図以外のサッシの場合、納まりが変更となる場合ありますのでご確認お願いします
 41
0.9
  7
AT_VECTOR
 11
219.9982392998787
 21
421.5147298961651
 31
0.0
100
AcDbText
 73
     2
  0
TEXT
  5
17378
330
1F
100
AcDbEntity
  8
0
100
AcDbText
 10
207.9361824660777
 20
430.5147298961651
 30
0.0
 40
6.0
  1
1
 41
0.9
  7
AT_VECTOR
 11
207.9361824660777
 21
433.5147298961651
 31
0.0
100
AcDbText
 73
     2
  0
TEXT
  5
17379
330
1F
100
AcDbEntity
  8
0
100
AcDbText
 10
207.9361824660777
 20
418.5147298961651
 30
0.0
 40
6.0
  1
2
 41
0.9
  7
AT_VECTOR
 11
207.9361824660777
 21
421.5147298961651
 31
0.0
100
AcDbText
 73
     2
  0
CIRCLE
  5
1737A
330
1F
100
AcDbEntity
  8
010
100
AcDbCircle
 10
210.9181020216273
 20
421.4966494517147
 30
0.0
 40
4.410730708366473
  0
CIRCLE
  5
1737B
330
1F
100
AcDbEntity
  8
010
100
AcDbCircle
 10
210.9181020216273
 20
433.4966494517147
 30
0.0
 40
4.410730708366473
  0
LINE
  5
1737C
330
1F
100
AcDbEntity
  8
003
100
AcDbLine
 10
202.4421484457529
 20
447.0430615799791
 30
0.0
 11
199.0212626666847
 21
447.0430615799791
 31
0.0
  0
LINE
  5
1737D
330
1F
100
AcDbEntity
  8
003
100
AcDbLine
 10
199.0212626666847
 20
447.0430615799791
 30
0.0
 11
199.0212626666847
 21
411.5372569385795
 31
0.0
  0
LINE
  5
1737E
330
1F
100
AcDbEntity
  8
003
100
AcDbLine
 10
199.0212626666847
 20
411.5372569385795
 30
0.0
 11
491.7351060924869
 21
411.5372569385795
 31
0.0
  0
LINE
  5
1737F
330
1F
100
AcDbEntity
  8
003
100
AcDbLine
 10
491.7351060924869
 20
411.5372569385795
 30
0.0
 11
491.7351060924869
 21
446.8840717029689
 31
0.0
  0
LINE
  5
17380
330
1F
100
AcDbEntity
  8
003
100
AcDbLine
 10
491.7351060924869
 20
447.0430615799791
 30
0.0
 11
245.1658153724037
 21
447.0430615799791
 31
0.0
  0
LINE
  5
17381
330
1F
100
AcDbEntity
  8
007
100
AcDbLine
 10
327.6824195638961
 20
274.045750448146
 30
0.0
 11
305.3824195638962
 21
274.045750448146
 31
0.0
  0
LINE
  5
17382
330
1F
100
AcDbEntity
  8
007
100
AcDbLine
 10
327.1824195638961
 20
272.545750448146
 30
0.0
 11
305.8824195638962
 21
272.545750448146
 31
0.0
  0
LINE
  5
17383
330
1F
100
AcDbEntity
  8
007
100
AcDbLine
 10
327.1824195638961
 20
277.045750448146
 30
0.0
 11
305.8824195638962
 21
277.045750448146
 31
0.0
  0
LINE
  5
17384
330
1F
100
AcDbEntity
  8
007
100
AcDbLine
 10
328.6824195638961
 20
277.345750448146
 30
0.0
 11
300.3824195638962
 21
277.345750448146
 31
0.0
  0
LINE
  5
17385
330
1F
100
AcDbEntity
  8
007
100
AcDbLine
 10
328.6824195638961
 20
287.345750448146
 30
0.0
 11
303.3824195638962
 21
287.345750448146
 31
0.0
  0
LINE
  5
17386
330
1F
100
AcDbEntity
  8
007
100
AcDbLine
 10
305.3824195638962
 20
273.045750448146
 30
0.0
 11
305.3824195638962
 21
276.545750448146
 31
0.0
  0
ARC
  5
17387
330
1F
100
AcDbEntity
  8
007
100
AcDbCircle
 10
305.8824195638962
 20
276.545750448146
 30
0.0
 40
0.5
100
AcDbArc
 50
90.0
 51
180.0
  0
LINE
  5
17388
330
1F
100
AcDbEntity
  8
007
100
AcDbLine
 10
300.3824195638962
 20
277.345750448146
 30
0.0
 11
300.3824195638962
 21
284.345750448146
 31
0.0
  0
ARC
  5
17389
330
1F
100
AcDbEntity
  8
007
100
AcDbCircle
 10
303.3824195638962
 20
284.345750448146
 30
0.0
 40
3.0
100
AcDbArc
 50
90.0
 51
180.0
  0
ARC
  5
1738A
330
1F
100
AcDbEntity
  8
007
100
AcDbCircle
 10
305.8824195638962
 20
273.045750448146
 30
0.0
 40
0.5
100
AcDbArc
 50
180.0
 51
270.0
  0
LINE
  5
1738B
330
1F
100
AcDbEntity
  8
007
100
AcDbLine
 10
421.4327015638969
 20
286.8457504481461
 30
0.0
 11
328.6824195638961
 21
286.8457504481458
 31
0.0
  0
LINE
  5
1738C
330
1F
100
AcDbEntity
  8
007
100
AcDbLine
 10
328.6824195638961
 20
274.045850448146
 30
0.0
 11
421.4327015638969
 21
274.045850448146
 31
0.0
  0
LINE
  5
1738D
330
1F
100
AcDbEntity
  8
007
100
AcDbLine
 10
328.6824195638961
 20
273.1457504481459
 30
0.0
 11
421.4327015638969
 21
273.1457504481459
 31
0.0
  0
LINE
  5
1738E
330
1F
100
AcDbEntity
  8
007
100
AcDbLine
 10
328.6824195638961
 20
277.345750448146
 30
0.0
 11
421.4327015638969
 21
277.3457504481458
 31
0.0
  0
LINE
  5
1738F
330
1F
100
AcDbEntity
  8
007
100
AcDbLine
 10
327.6824195638961
 20
273.045750448146
 30
0.0
 11
327.6824195638961
 21
276.545750448146
 31
0.0
  0
LINE
  5
17390
330
1F
100
AcDbEntity
  8
007
100
AcDbLine
 10
328.6824195638961
 20
273.1457504481459
 30
0.0
 11
328.6824195638961
 21
287.345750448146
 31
0.0
  0
LINE
  5
17391
330
1F
100
AcDbEntity
  8
007
100
AcDbLine
 10
328.6824195638961
 20
276.1457504481459
 30
0.0
 11
327.6824195638961
 21
276.1457504481459
 31
0.0
  0
ARC
  5
17392
330
1F
100
AcDbEntity
  8
007
100
AcDbCircle
 10
327.1824195638961
 20
276.545750448146
 30
0.0
 40
0.5
100
AcDbArc
 50
0.0
 51
90.0
  0
ARC
  5
17393
330
1F
100
AcDbEntity
  8
007
100
AcDbCircle
 10
327.1824195638961
 20
273.045750448146
 30
0.0
 40
0.5
100
AcDbArc
 50
270.0
 51
0.0
  0
LINE
  5
17394
330
1F
100
AcDbEntity
  8
007
100
AcDbLine
 10
519.8832655638972
 20
274.045750448146
 30
0.0
 11
542.1832655638971
 21
274.045750448146
 31
0.0
  0
LINE
  5
17395
330
1F
100
AcDbEntity
  8
007
100
AcDbLine
 10
520.3832655638972
 20
272.545750448146
 30
0.0
 11
541.6832655638971
 21
272.545750448146
 31
0.0
  0
LINE
  5
17396
330
1F
100
AcDbEntity
  8
007
100
AcDbLine
 10
520.3832655638972
 20
277.045750448146
 30
0.0
 11
541.6832655638971
 21
277.045750448146
 31
0.0
  0
LINE
  5
17397
330
1F
100
AcDbEntity
  8
007
100
AcDbLine
 10
518.8832655638972
 20
277.345750448146
 30
0.0
 11
547.1832655638971
 21
277.345750448146
 31
0.0
  0
LINE
  5
17398
330
1F
100
AcDbEntity
  8
007
100
AcDbLine
 10
518.8832655638972
 20
287.345750448146
 30
0.0
 11
544.1832655638972
 21
287.345750448146
 31
0.0
  0
LINE
  5
17399
330
1F
100
AcDbEntity
  8
007
100
AcDbLine
 10
542.1832655638971
 20
273.045750448146
 30
0.0
 11
542.1832655638971
 21
276.545750448146
 31
0.0
  0
ARC
  5
1739A
330
1F
100
AcDbEntity
  8
007
100
AcDbCircle
 10
541.6832655638971
 20
276.545750448146
 30
0.0
 40
0.5
100
AcDbArc
 50
0.0
 51
90.0
  0
LINE
  5
1739B
330
1F
100
AcDbEntity
  8
007
100
AcDbLine
 10
547.1832655638971
 20
277.345750448146
 30
0.0
 11
547.1832655638971
 21
284.345750448146
 31
0.0
  0
ARC
  5
1739C
330
1F
100
AcDbEntity
  8
007
100
AcDbCircle
 10
544.1832655638972
 20
284.345750448146
 30
0.0
 40
3.0
100
AcDbArc
 50
0.0
 51
90.0
  0
ARC
  5
1739D
330
1F
100
AcDbEntity
  8
007
100
AcDbCircle
 10
541.6832655638971
 20
273.045750448146
 30
0.0
 40
0.5
100
AcDbArc
 50
270.0
 51
0.0
  0
LINE
  5
1739E
330
1F
100
AcDbEntity
  8
007
100
AcDbLine
 10
426.1329835638965
 20
286.8457504481461
 30
0.0
 11
518.8832655638972
 21
286.8457504481458
 31
0.0
  0
LINE
  5
1739F
330
1F
100
AcDbEntity
  8
007
100
AcDbLine
 10
518.8832655638972
 20
274.045850448146
 30
0.0
 11
426.1329835638965
 21
274.045850448146
 31
0.0
  0
LINE
  5
173A0
330
1F
100
AcDbEntity
  8
007
100
AcDbLine
 10
518.8832655638972
 20
273.1457504481459
 30
0.0
 11
426.1329835638965
 21
273.1457504481459
 31
0.0
  0
LINE
  5
173A1
330
1F
100
AcDbEntity
  8
007
100
AcDbLine
 10
518.8832655638972
 20
277.345750448146
 30
0.0
 11
426.1329835638965
 21
277.3457504481458
 31
0.0
  0
LINE
  5
173A2
330
1F
100
AcDbEntity
  8
007
100
AcDbLine
 10
519.8832655638972
 20
273.045750448146
 30
0.0
 11
519.8832655638972
 21
276.545750448146
 31
0.0
  0
LINE
  5
173A3
330
1F
100
AcDbEntity
  8
007
100
AcDbLine
 10
518.8832655638972
 20
273.1457504481459
 30
0.0
 11
518.8832655638972
 21
287.345750448146
 31
0.0
  0
LINE
  5
173A4
330
1F
100
AcDbEntity
  8
007
100
AcDbLine
 10
518.8832655638972
 20
276.1457504481459
 30
0.0
 11
519.8832655638972
 21
276.1457504481459
 31
0.0
  0
ARC
  5
173A5
330
1F
100
AcDbEntity
  8
007
100
AcDbCircle
 10
520.3832655638972
 20
276.545750448146
 30
0.0
 40
0.5
100
AcDbArc
 50
90.0
 51
180.0
  0
ARC
  5
173A6
330
1F
100
AcDbEntity
  8
007
100
AcDbCircle
 10
520.3832655638972
 20
273.045750448146
 30
0.0
 40
0.5
100
AcDbArc
 50
180.0
 51
270.0
  0
DIMENSION
  5
173A7
330
1F
100
AcDbEntity
  8
003
100
AcDbDimension
  2
*D23
 10
286.2827015638967
 20
132.4490602072778
 30
0.0
 11
278.7827015638967
 21
137.4490602072778
 31
0.0
 70
    32
 71
     5
 42
15.0
  3
DIM
100
AcDbAlignedDimension
 13
271.2827015638967
 23
148.9457637344612
 33
0.0
 14
286.2827015638967
 24
207.4457637344612
 34
0.0
100
AcDbRotatedDimension
  0
DIMENSION
  5
173A8
330
1F
100
AcDbEntity
  8
003
100
AcDbDimension
  2
*D24
 10
561.2829835638966
 20
132.4490602072778
 30
0.0
 11
568.7829835638966
 21
137.4490602072778
 31
0.0
 70
    32
  1
<>
 71
     5
 42
15.0
  3
DIM
100
AcDbAlignedDimension
 13
576.2829835638966
 23
148.9457637344612
 33
0.0
 14
561.2829835638966
 24
207.4457637344612
 34
0.0
 50
180.0
100
AcDbRotatedDimension
  0
LINE
  5
17908
330
1F
100
AcDbEntity
  8
006
100
AcDbLine
 10
314.3785718529615
 20
228.1560697549071
 30
0.0
 11
298.9276768092585
 21
228.1560697549071
 31
0.0
  0
LWPOLYLINE
  5
17909
330
1F
100
AcDbEntity
  8
003
100
AcDbPolyline
 90
        4
 70
     1
 43
0.0
 10
306.282691581354
 20
235.6560697549071
 10
308.282691581354
 20
235.6560697549071
 10
308.282691581354
 20
220.6560697549071
 10
306.282691581354
 20
220.6560697549071
  0
LINE
  5
1790A
330
1F
100
AcDbEntity
  8
003
100
AcDbLine
 10
306.282691581354
 20
235.6560697549071
 30
0.0
 11
306.2826915813543
 21
224.8064606186051
 31
0.0
  0
LINE
  5
1790B
330
1F
100
AcDbEntity
  8
003
100
AcDbLine
 10
305.0826915813542
 20
234.456069754907
 30
0.0
 11
305.0826915813542
 21
222.8140373734959
 31
0.0
  0
LINE
  5
1790C
330
1F
100
AcDbEntity
  8
003
100
AcDbLine
 10
304.2826915813543
 20
232.6560697549071
 30
0.0
 11
305.0826915813542
 21
232.6560697549066
 31
0.0
  0
LINE
  5
1790D
330
1F
100
AcDbEntity
  8
003
100
AcDbLine
 10
304.2826915813543
 20
232.1560697549071
 30
0.0
 11
301.2826915813542
 21
232.1560697549071
 31
0.0
  0
LINE
  5
1790E
330
1F
100
AcDbEntity
  8
003
100
AcDbLine
 10
306.282691581354
 20
222.8140373734959
 30
0.0
 11
305.0826915813542
 21
222.8140373734959
 31
0.0
  0
LINE
  5
1790F
330
1F
100
AcDbEntity
  8
003
100
AcDbLine
 10
304.2826915813543
 20
223.6560697549071
 30
0.0
 11
305.0826915813542
 21
223.6560697549069
 31
0.0
  0
LINE
  5
17910
330
1F
100
AcDbEntity
  8
003
100
AcDbLine
 10
304.2826915813543
 20
226.1460697549069
 30
0.0
 11
301.2826915813542
 21
226.1460697549069
 31
0.0
  0
LINE
  5
17911
330
1F
100
AcDbEntity
  8
003
100
AcDbLine
 10
304.2826915813543
 20
224.1560697549071
 30
0.0
 11
301.2826915813542
 21
224.1560697549068
 31
0.0
  0
LINE
  5
17912
330
1F
100
AcDbEntity
  8
003
100
AcDbLine
 10
304.2826915813543
 20
230.1460697549069
 30
0.0
 11
301.2826915813542
 21
230.1460697549069
 31
0.0
  0
LINE
  5
17913
330
1F
100
AcDbEntity
  8
003
100
AcDbLine
 10
301.2826915813542
 20
232.1560697549071
 30
0.0
 11
301.2826915813542
 21
224.1560697549068
 31
0.0
  0
LINE
  5
17914
330
1F
100
AcDbEntity
  8
003
100
AcDbLine
 10
304.2826915813543
 20
223.6560697549071
 30
0.0
 11
304.2826915813543
 21
232.6560697549071
 31
0.0
  0
LINE
  5
17915
330
1F
100
AcDbEntity
  8
003
100
AcDbLine
 10
289.1827015638968
 20
234.456069754907
 30
0.0
 11
305.0826915813542
 21
234.456069754907
 31
0.0
  0
LINE
  5
17916
330
1F
100
AcDbEntity
  8
003
100
AcDbLine
 10
290.3827015638971
 20
235.6560697549071
 30
0.0
 11
306.282691581354
 21
235.6560697549071
 31
0.0
  0
LINE
  5
17917
330
1F
100
AcDbEntity
  8
003
100
AcDbLine
 10
310.2826946194424
 20
235.6560697549069
 30
0.0
 11
310.2826946194426
 21
211.945729234563
 31
0.0
  0
LINE
  5
17918
330
1F
100
AcDbEntity
  8
003
100
AcDbLine
 10
308.2826884720854
 20
214.9457656344578
 30
0.0
 11
308.2826941976326
 21
235.6560697549071
 31
0.0
  0
LINE
  5
17919
330
1F
100
AcDbEntity
  8
003
100
AcDbLine
 10
315.2827015638967
 20
212.945763734461
 30
0.0
 11
315.2827015638967
 21
236.9457637344613
 31
0.0
  0
LINE
  5
1791A
330
1F
100
AcDbEntity
  8
003
100
AcDbLine
 10
313.2826946194426
 20
211.945729234563
 30
0.0
 11
313.2827015638967
 21
236.9457637344613
 31
0.0
  0
LINE
  5
1791B
330
1F
100
AcDbEntity
  8
003
100
AcDbLine
 10
310.2826946194426
 20
214.9457656344578
 30
0.0
 11
308.2826884720854
 21
214.9457656344578
 31
0.0
  0
ARC
  5
1791C
330
1F
100
AcDbEntity
  8
2
  6
Continuous
 62
     2
100
AcDbCircle
 10
310.7826946194426
 20
231.1960697549068
 30
0.0
 40
0.5
100
AcDbArc
 50
90.0
 51
180.0
  0
LINE
  5
1791D
330
1F
100
AcDbEntity
  8
2
  6
Continuous
 62
     2
100
AcDbLine
 10
310.7826946194426
 20
231.696069754907
 30
0.0
 11
311.4826946194424
 21
231.696069754907
 31
0.0
  0
LINE
  5
1791E
330
1F
100
AcDbEntity
  8
2
  6
Continuous
 62
     2
100
AcDbLine
 10
312.4826946194425
 20
230.7160697549071
 30
0.0
 11
312.4826946194425
 21
225.5960697549069
 31
0.0
  0
ARC
  5
1791F
330
1F
100
AcDbEntity
  8
2
  6
Continuous
 62
     2
100
AcDbCircle
 10
310.7826946194426
 20
225.0960697549069
 30
0.0
 40
0.5
100
AcDbArc
 50
180.0
 51
270.0
  0
LINE
  5
17920
330
1F
100
AcDbEntity
  8
2
  6
Continuous
 62
     2
100
AcDbLine
 10
310.7826946194426
 20
224.5960697549069
 30
0.0
 11
311.4826946194424
 21
224.5960697549069
 31
0.0
  0
ARC
  5
17921
330
1F
100
AcDbEntity
  8
2
  6
Continuous
 62
     2
100
AcDbCircle
 10
311.4826946194424
 20
225.5960697549069
 30
0.0
 40
1.0
100
AcDbArc
 50
270.0
 51
0.0
  0
ARC
  5
17922
330
1F
100
AcDbEntity
  8
2
  6
Continuous
 62
     2
100
AcDbCircle
 10
311.4826946194424
 20
230.6960697549068
 30
0.0
 40
1.0
100
AcDbArc
 50
0.0
 51
90.0
  0
LINE
  5
17923
330
1F
100
AcDbEntity
  8
003
100
AcDbLine
 10
310.2826946194426
 20
211.945729234563
 30
0.0
 11
313.2826946194426
 21
211.945729234563
 31
0.0
  0
LINE
  5
17924
330
1F
100
AcDbEntity
  8
003
100
AcDbLine
 10
310.2826946194426
 20
231.945729234563
 30
0.0
 11
313.2826946194426
 21
231.945729234563
 31
0.0
  0
LINE
  5
17925
330
1F
100
AcDbEntity
  8
003
100
AcDbLine
 10
313.2827015638967
 20
212.945763734461
 30
0.0
 11
315.2827015638967
 21
212.945763734461
 31
0.0
  0
LINE
  5
17926
330
1F
100
AcDbEntity
  8
003
100
AcDbLine
 10
308.2826941976326
 20
235.6560697549071
 30
0.0
 11
310.2826946194424
 21
235.6560697549069
 31
0.0
  0
LEADER
  5
1794E
330
1F
100
AcDbEntity
  8
003
100
AcDbLeader
  3
DIM
 73
     0
 40
6.000000000000001
 41
15.0
 76
     3
 10
374.9172162572592
 20
282.7900395309516
 30
0.0
 10
368.7551614300847
 20
293.4630315706428
 30
0.0
 10
367.6038100030502
 20
293.4630315706428
 30
0.0
340
1794F
1001
ACAD
1000
DSTYLE
1002
{
1070
   147
1040
1.0
1070
    77
1070
     1
1002
}
  0
MTEXT
  5
1794F
102
{ACAD_REACTORS
330
1794E
102
}
330
1F
100
AcDbEntity
  8
003
 62
     7
100
AcDbMText
 10
365.6038100030502
 20
295.4630315706428
 30
0.0
 40
6.0
 41
0.0
 71
     9
 72
     1
  1
外網戸
  7
DIM
 73
     1
 44
1.0
1001
ACAD
1000
MTEXTBEGIN
1070
    73
1070
     1
1070
    44
1040
1.0
1070
    74
1070
     0
1000
MTEXTEND
  0
ENDSEC
  0
SECTION
  2
OBJECTS
  0
DICTIONARY
  5
C
330
0
100
AcDbDictionary
281
     1
  3
ACAD_COLOR
350
E400
  3
ACAD_GROUP
350
D
  3
ACAD_LAYOUT
350
1A
  3
ACAD_MATERIAL
350
E3D6
  3
ACAD_MLEADERSTYLE
350
E425
  3
ACAD_MLINESTYLE
350
17
  3
ACAD_PLOTSETTINGS
350
19
  3
ACAD_PLOTSTYLENAME
350
E
  3
ACAD_SCALELIST
350
E403
  3
ACAD_TABLESTYLE
350
E401
  3
ACAD_VISUALSTYLE
350
E3EF
  3
AcadDim
350
1652B
  3
ACDB_RECOMPOSE_DATA
350
103AB
  3
AcDbVariableDictionary
350
103AC
  3
DWGPROPS
350
17C8D
  0
DICTIONARY
  5
162EC
330
8
100
AcDbDictionary
280
     1
281
     1
  0
DICTIONARY
  5
2859
330
2
100
AcDbDictionary
280
     1
281
     1
  3
ACAD_LAYERFILTERS
360
128C4
  3
ACAD_LAYERSTATES
360
285A
  3
ACLYDICTIONARY
360
128C3
  0
DICTIONARY
  5
F074
330
10
100
AcDbDictionary
280
     1
281
     1
  3
ADSK_XREC_LAYER_RECONCILED
360
F075
  0
DICTIONARY
  5
F07A
330
33
100
AcDbDictionary
280
     1
281
     1
  3
ADSK_XREC_LAYER_RECONCILED
360
F07B
  0
DICTIONARY
  5
F080
330
1A4
100
AcDbDictionary
280
     1
281
     1
  3
ADSK_XREC_LAYER_RECONCILED
360
F081
  0
DICTIONARY
  5
F082
330
1A5
100
AcDbDictionary
280
     1
281
     1
  3
ADSK_XREC_LAYER_RECONCILED
360
F083
  0
DICTIONARY
  5
F088
330
2B1
100
AcDbDictionary
280
     1
281
     1
  3
ADSK_XREC_LAYER_RECONCILED
360
F089
  0
DICTIONARY
  5
F144
330
1F
100
AcDbDictionary
280
     1
281
     1
  3
ACAD_SORTENTS
360
F145
  0
DICTIONARY
  5
E400
102
{ACAD_REACTORS
330
C
102
}
330
C
100
AcDbDictionary
281
     1
  0
DICTIONARY
  5
D
102
{ACAD_REACTORS
330
C
102
}
330
C
100
AcDbDictionary
281
     1
  0
DICTIONARY
  5
1A
102
{ACAD_REACTORS
330
C
102
}
330
C
100
AcDbDictionary
281
     1
  3
Model
350
22
  3
ﾚｲｱｳﾄ1
350
1E
  3
ﾚｲｱｳﾄ2
350
26
  0
DICTIONARY
  5
E3D6
102
{ACAD_REACTORS
330
C
102
}
330
C
100
AcDbDictionary
281
     1
  3
ByBlock
350
E3DF
  3
ByLayer
350
E3D7
  3
Global
350
E3E7
  0
DICTIONARY
  5
E425
102
{ACAD_REACTORS
330
C
102
}
330
C
100
AcDbDictionary
281
     1
  3
Standard
350
E426
  0
DICTIONARY
  5
17
102
{ACAD_REACTORS
330
C
102
}
330
C
100
AcDbDictionary
281
     1
  3
Standard
350
18
  0
DICTIONARY
  5
19
102
{ACAD_REACTORS
330
C
102
}
330
C
100
AcDbDictionary
281
     1
  0
ACDBDICTIONARYWDFLT
  5
E
102
{ACAD_REACTORS
330
C
102
}
330
C
100
AcDbDictionary
281
     1
  3
Normal
350
F
100
AcDbDictionaryWithDefault
340
F
  0
DICTIONARY
  5
E403
102
{ACAD_REACTORS
330
C
102
}
330
C
100
AcDbDictionary
281
     1
  3
A0
350
E404
  3
A1
350
E405
  3
A2
350
E406
  3
A3
350
E407
  3
A4
350
E408
  3
A5
350
E409
  3
A6
350
E40A
  3
A7
350
E40B
  3
A8
350
E40C
  3
A9
350
E40D
  3
B0
350
E40E
  3
B1
350
E40F
  3
B2
350
E410
  3
B3
350
E411
  3
B4
350
E412
  3
B5
350
E413
  3
B6
350
E414
  3
B7
350
E415
  3
B8
350
E416
  3
B9
350
E417
  3
C0
350
E418
  3
C1
350
E419
  3
C2
350
E41A
  3
C3
350
E41B
  3
C4
350
E41C
  3
C5
350
E41D
  3
C6
350
E41E
  3
C7
350
E41F
  3
C8
350
E420
  3
C9
350
E421
  3
D0
350
E422
  3
D1
350
E423
  3
D2
350
E424
  0
DICTIONARY
  5
E401
102
{ACAD_REACTORS
330
C
102
}
330
C
100
AcDbDictionary
281
     1
  3
Standard
350
E402
  0
DICTIONARY
  5
E3EF
102
{ACAD_REACTORS
330
C
102
}
330
C
100
AcDbDictionary
281
     1
  3
2dWireframe
350
E3F5
  3
3D Hidden
350
E3F7
  3
3dWireframe
350
E3F6
  3
Basic
350
E3F4
  3
Brighten
350
E3FB
  3
ColorChange
350
E3FF
  3
Conceptual
350
E3F8
  3
Dim
350
E3FA
  3
Facepattern
350
E3FE
  3
Flat
350
E3F0
  3
FlatWithEdges
350
E3F1
  3
Gouraud
350
E3F2
  3
GouraudWithEdges
350
E3F3
  3
Linepattern
350
E3FD
  3
Realistic
350
E3F9
  3
Thicken
350
E3FC
  0
XRECORD
  5
1652B
102
{ACAD_REACTORS
330
C
102
}
330
C
100
AcDbXrecord
280
     1
 90
   990106
  3

 60
     0
 61
     0
 62
     4
 63
     4
 64
     1
 65
     0
 66
     0
 67
     3
 68
     1
 69
     0
 70
     0
 71
     0
 72
     0
 40
0.0
170
     2
340
0
  0
XRECORD
  5
103AB
102
{ACAD_REACTORS
330
C
102
}
330
C
100
AcDbXrecord
280
     1
 90
        1
330
E402
  0
DICTIONARY
  5
103AC
102
{ACAD_REACTORS
330
C
102
}
330
C
100
AcDbDictionary
281
     1
  3
CANNOSCALE
350
103B0
  3
CMLEADERSTYLE
350
103AE
  3
CTABLESTYLE
350
103AD
  3
DIMASSOC
350
16336
  3
INDEXCTL
350
16335
  3
LIGHTINGUNITS
350
103B1
  3
MSLTSCALE
350
103AF
  3
SORTENTS
350
16334
  0
XRECORD
  5
17C8D
102
{ACAD_REACTORS
330
C
102
}
330
C
100
AcDbXrecord
280
     1
  1
DWGPROPS COOKIE
  2

  3

  4

  6

  7

  8
koba
  9

300
=
301
=
302
=
303
=
304
=
305
=
306
=
307
=
308
=
309
=
 40
0.4313322337962963
 41
2452888.42884919
 42
2455959.423049641
  1

 90
        0
  0
DICTIONARY
  5
128C4
102
{ACAD_REACTORS
330
2859
102
}
330
2859
100
AcDbDictionary
281
     1
  0
DICTIONARY
  5
285A
102
{ACAD_REACTORS
330
2859
102
}
330
2859
100
AcDbDictionary
281
     1
  0
DICTIONARY
  5
128C3
102
{ACAD_REACTORS
330
2859
102
}
330
2859
100
AcDbDictionary
281
     1
1001
ACAD
1000
<All
  0
XRECORD
  5
F075
102
{ACAD_REACTORS
330
F074
102
}
330
F074
100
AcDbXrecord
280
     1
290
     1
  0
XRECORD
  5
F07B
102
{ACAD_REACTORS
330
F07A
102
}
330
F07A
100
AcDbXrecord
280
     1
290
     1
  0
XRECORD
  5
F081
102
{ACAD_REACTORS
330
F080
102
}
330
F080
100
AcDbXrecord
280
     1
290
     1
  0
XRECORD
  5
F083
102
{ACAD_REACTORS
330
F082
102
}
330
F082
100
AcDbXrecord
280
     1
290
     1
  0
XRECORD
  5
F089
102
{ACAD_REACTORS
330
F088
102
}
330
F088
100
AcDbXrecord
280
     1
290
     1
  0
SORTENTSTABLE
  5
F145
102
{ACAD_REACTORS
330
F144
102
}
330
F144
100
AcDbSortentsTable
330
1F
331
13278
  5
13278
331
1332D
  5
1332D
331
132F6
  5
132F6
331
132B7
  5
132B7
331
13280
  5
13280
331
132FE
  5
132FE
331
132BF
  5
132BF
331
13288
  5
13288
331
13306
  5
13306
331
132C7
  5
132C7
331
13290
  5
13290
331
1330E
  5
1330E
331
132CF
  5
132CF
331
13298
  5
13298
331
13316
  5
13316
331
132D7
  5
132D7
331
132A0
  5
132A0
331
1331E
  5
1331E
331
132DF
  5
132DF
331
132A8
  5
132A8
331
13326
  5
13326
331
132E7
  5
132E7
331
132EF
  5
132EF
331
132B0
  5
132B0
331
132F7
  5
132F7
331
132B8
  5
132B8
331
13281
  5
13281
331
132FF
  5
132FF
331
132C0
  5
132C0
331
13289
  5
13289
331
13307
  5
13307
331
132C8
  5
132C8
331
13291
  5
13291
331
1330F
  5
1330F
331
132D0
  5
132D0
331
13299
  5
13299
331
13317
  5
13317
331
132D8
  5
132D8
331
132A1
  5
132A1
331
1331F
  5
1331F
331
132E0
  5
132E0
331
132A9
  5
132A9
331
13327
  5
13327
331
132E8
  5
132E8
331
132F0
  5
132F0
331
132B1
  5
132B1
331
1327A
  5
1327A
331
1332F
  5
1332F
331
132F8
  5
132F8
331
132B9
  5
132B9
331
13282
  5
13282
331
13300
  5
13300
331
132C1
  5
132C1
331
1328A
  5
1328A
331
13308
  5
13308
331
132C9
  5
132C9
331
13292
  5
13292
331
13310
  5
13310
331
132D1
  5
132D1
331
1329A
  5
1329A
331
13318
  5
13318
331
132D9
  5
132D9
331
132A2
  5
132A2
331
13320
  5
13320
331
132E1
  5
132E1
331
132AA
  5
132AA
331
132E9
  5
132E9
331
13328
  5
13328
331
132F1
  5
132F1
331
132B2
  5
132B2
331
1327B
  5
1327B
331
13330
  5
13330
331
132F9
  5
132F9
331
132BA
  5
132BA
331
13283
  5
13283
331
13301
  5
13301
331
132C2
  5
132C2
331
1328B
  5
1328B
331
13309
  5
13309
331
132CA
  5
132CA
331
13293
  5
13293
331
13311
  5
13311
331
132D2
  5
132D2
331
1329B
  5
1329B
331
13319
  5
13319
331
132DA
  5
132DA
331
132A3
  5
132A3
331
132E2
  5
132E2
331
13321
  5
13321
331
132AB
  5
132AB
331
132EA
  5
132EA
331
13329
  5
13329
331
132F2
  5
132F2
331
132B3
  5
132B3
331
1327C
  5
1327C
331
132FA
  5
132FA
331
132BB
  5
132BB
331
13284
  5
13284
331
132C3
  5
132C3
331
13302
  5
13302
331
1328C
  5
1328C
331
1330A
  5
1330A
331
132CB
  5
132CB
331
13294
  5
13294
331
13312
  5
13312
331
132D3
  5
132D3
331
1329C
  5
1329C
331
1331A
  5
1331A
331
132DB
  5
132DB
331
132A4
  5
132A4
331
13322
  5
13322
331
132E3
  5
132E3
331
132AC
  5
132AC
331
132EB
  5
132EB
331
1332A
  5
1332A
331
132F3
  5
132F3
331
132B4
  5
132B4
331
1327D
  5
1327D
331
132FB
  5
132FB
331
132BC
  5
132BC
331
13285
  5
13285
331
13303
  5
13303
331
132C4
  5
132C4
331
1328D
  5
1328D
331
1330B
  5
1330B
331
132CC
  5
132CC
331
15E7A
  5
160ED
331
13295
  5
13295
331
13313
  5
13313
331
132D4
  5
132D4
331
1329D
  5
1329D
331
1331B
  5
1331B
331
132DC
  5
132DC
331
132A5
  5
132A5
331
13323
  5
13323
331
132E4
  5
132E4
331
132AD
  5
132AD
331
132EC
  5
132EC
331
1332B
  5
1332B
331
132F4
  5
132F4
331
1327E
  5
1327E
331
132B5
  5
132B5
331
132FC
  5
132FC
331
13286
  5
13286
331
F7F2
  5
F806
331
132BD
  5
132BD
331
13304
  5
13304
331
1328E
  5
1328E
331
132C5
  5
132C5
331
1330C
  5
1330C
331
13296
  5
13296
331
132CD
  5
132CD
331
13314
  5
13314
331
1329E
  5
1329E
331
132D5
  5
132D5
331
1331C
  5
1331C
331
132A6
  5
132A6
331
132DD
  5
132DD
331
13324
  5
13324
331
132AE
  5
132AE
331
132E5
  5
132E5
331
132ED
  5
132ED
331
1332C
  5
1332C
331
132F5
  5
132F5
331
1327F
  5
1327F
331
132B6
  5
132B6
331
132FD
  5
132FD
331
13287
  5
13287
331
132BE
  5
132BE
331
13305
  5
13305
331
1328F
  5
1328F
331
132C6
  5
132C6
331
1330D
  5
1330D
331
13297
  5
13297
331
132CE
  5
132CE
331
13315
  5
13315
331
1329F
  5
1329F
331
132D6
  5
132D6
331
1331D
  5
1331D
331
132A7
  5
132A7
331
132DE
  5
132DE
331
13325
  5
13325
331
132AF
  5
132AF
331
132E6
  5
132E6
331
132EE
  5
132EE
  0
LAYOUT
  5
22
102
{ACAD_XDICTIONARY
360
17C90
102
}
102
{ACAD_REACTORS
330
1A
102
}
330
1A
100
AcDbPlotSettings
  1

  2
Brother HL-2170W series
  4
A4
  6

 40
5.027082920074462
 41
5.027085781097412
 42
5.027069091796875
 43
5.027069091796875
 44
209.9733276367187
 45
296.9259948730469
 46
2.459475103511039
 47
0.0
 48
20.0000000000001
 49
21.00000000000003
140
809.9999999999996
141
558.0
142
1.0
143
2.753842970434391
 70
 11956
 72
     1
 73
     1
 74
     4
  7
EPSON.ctb
 75
     0
147
0.3631289113925984
148
-20.0000000000001
149
-21.00000000000003
100
AcDbLayout
  1
Model
 70
     1
 71
     0
 10
0.0
 20
0.0
 11
12.0
 21
9.0
 12
0.0
 22
0.0
 32
0.0
 14
0.0
 24
0.0
 34
0.0
 15
0.0
 25
0.0
 35
0.0
146
0.0
 13
0.0
 23
0.0
 33
0.0
 16
1.0
 26
0.0
 36
0.0
 17
0.0
 27
1.0
 37
0.0
 76
     0
330
1F
331
E3D4
1001
ACAD_PSEXT
1000
Brother HL-2170W series
1000
Brother HL-2170W series
1000
USB002
1000

1070
     0
  0
LAYOUT
  5
1E
102
{ACAD_XDICTIONARY
360
17C8E
102
}
102
{ACAD_REACTORS
330
1A
102
}
330
1A
100
AcDbPlotSettings
  1

  2
C:\PROGRAM FILES\AUTOCAD LT 2000I\plotters\HP DesignJet 430 A3.pc3
  4

  6

 40
0.0
 41
0.0
 42
0.0
 43
0.0
 44
0.0
 45
0.0
 46
0.0
 47
0.0
 48
0.0
 49
0.0
140
0.0
141
0.0
142
1.0
143
1.0
 70
   688
 72
     0
 73
     0
 74
     5
  7
EPSON.ctb
 75
    16
147
1.0
148
0.0
149
0.0
100
AcDbLayout
  1
ﾚｲｱｳﾄ1
 70
     1
 71
     1
 10
0.0
 20
0.0
 11
420.0
 21
297.0
 12
0.0
 22
0.0
 32
0.0
 14
1.000000000000000E+20
 24
1.000000000000000E+20
 34
1.000000000000000E+20
 15
-1.000000000000000E+20
 25
-1.000000000000000E+20
 35
-1.000000000000000E+20
146
0.0
 13
0.0
 23
0.0
 33
0.0
 16
1.0
 26
0.0
 36
0.0
 17
0.0
 27
1.0
 37
0.0
 76
     0
330
1B
  0
LAYOUT
  5
26
102
{ACAD_XDICTIONARY
360
17C92
102
}
102
{ACAD_REACTORS
330
1A
102
}
330
1A
100
AcDbPlotSettings
  1

  2
C:\PROGRAM FILES\AUTOCAD LT 2000I\plotters\HP DesignJet 430 A3.pc3
  4

  6

 40
0.0
 41
0.0
 42
0.0
 43
0.0
 44
0.0
 45
0.0
 46
0.0
 47
0.0
 48
0.0
 49
0.0
140
0.0
141
0.0
142
1.0
143
1.0
 70
   688
 72
     0
 73
     0
 74
     5
  7
EPSON.ctb
 75
    16
147
1.0
148
0.0
149
0.0
100
AcDbLayout
  1
ﾚｲｱｳﾄ2
 70
     1
 71
     2
 10
0.0
 20
0.0
 11
12.0
 21
9.0
 12
0.0
 22
0.0
 32
0.0
 14
0.0
 24
0.0
 34
0.0
 15
0.0
 25
0.0
 35
0.0
146
0.0
 13
0.0
 23
0.0
 33
0.0
 16
1.0
 26
0.0
 36
0.0
 17
0.0
 27
1.0
 37
0.0
 76
     0
330
23
  0
MATERIAL
  5
E3DF
102
{ACAD_XDICTIONARY
360
E3E0
102
}
102
{ACAD_REACTORS
330
E3D6
102
}
330
E3D6
100
AcDbMaterial
  1
ByBlock
 72
     0
 43
0.0008202099737533
 43
0.0
 43
0.0
 43
0.0
 43
0.0
 43
0.0008202099737533
 43
0.0
 43
0.0
 43
0.0
 43
0.0
 43
1.0
 43
0.0
 43
0.0
 43
0.0
 43
0.0
 43
1.0
 77
     0
 47
0.0008202099737533
 47
0.0
 47
0.0
 47
0.0
 47
0.0
 47
0.0008202099737533
 47
0.0
 47
0.0
 47
0.0
 47
0.0
 47
1.0
 47
0.0
 47
0.0
 47
0.0
 47
0.0
 47
1.0
171
     0
 49
0.0008202099737533
 49
0.0
 49
0.0
 49
0.0
 49
0.0
 49
0.0008202099737533
 49
0.0
 49
0.0
 49
0.0
 49
0.0
 49
1.0
 49
0.0
 49
0.0
 49
0.0
 49
0.0
 49
1.0
175
     0
142
0.0008202099737533
142
0.0
142
0.0
142
0.0
142
0.0
142
0.0008202099737533
142
0.0
142
0.0
142
0.0
142
0.0
142
1.0
142
0.0
142
0.0
142
0.0
142
0.0
142
1.0
179
     0
144
0.0008202099737533
144
0.0
144
0.0
144
0.0
144
0.0
144
0.0008202099737533
144
0.0
144
0.0
144
0.0
144
0.0
144
1.0
144
0.0
144
0.0
144
0.0
144
0.0
144
1.0
147
0.0008202099737533
147
0.0
147
0.0
147
0.0
147
0.0
147
0.0008202099737533
147
0.0
147
0.0
147
0.0
147
0.0
147
1.0
147
0.0
147
0.0
147
0.0
147
0.0
147
1.0
  0
MATERIAL
  5
E3D7
102
{ACAD_XDICTIONARY
360
E3D8
102
}
102
{ACAD_REACTORS
330
E3D6
102
}
330
E3D6
100
AcDbMaterial
  1
ByLayer
 72
     0
 43
0.0008202099737533
 43
0.0
 43
0.0
 43
0.0
 43
0.0
 43
0.0008202099737533
 43
0.0
 43
0.0
 43
0.0
 43
0.0
 43
1.0
 43
0.0
 43
0.0
 43
0.0
 43
0.0
 43
1.0
 77
     0
 47
0.0008202099737533
 47
0.0
 47
0.0
 47
0.0
 47
0.0
 47
0.0008202099737533
 47
0.0
 47
0.0
 47
0.0
 47
0.0
 47
1.0
 47
0.0
 47
0.0
 47
0.0
 47
0.0
 47
1.0
171
     0
 49
0.0008202099737533
 49
0.0
 49
0.0
 49
0.0
 49
0.0
 49
0.0008202099737533
 49
0.0
 49
0.0
 49
0.0
 49
0.0
 49
1.0
 49
0.0
 49
0.0
 49
0.0
 49
0.0
 49
1.0
175
     0
142
0.0008202099737533
142
0.0
142
0.0
142
0.0
142
0.0
142
0.0008202099737533
142
0.0
142
0.0
142
0.0
142
0.0
142
1.0
142
0.0
142
0.0
142
0.0
142
0.0
142
1.0
179
     0
144
0.0008202099737533
144
0.0
144
0.0
144
0.0
144
0.0
144
0.0008202099737533
144
0.0
144
0.0
144
0.0
144
0.0
144
1.0
144
0.0
144
0.0
144
0.0
144
0.0
144
1.0
147
0.0008202099737533
147
0.0
147
0.0
147
0.0
147
0.0
147
0.0008202099737533
147
0.0
147
0.0
147
0.0
147
0.0
147
1.0
147
0.0
147
0.0
147
0.0
147
0.0
147
1.0
  0
MATERIAL
  5
E3E7
102
{ACAD_XDICTIONARY
360
E3E8
102
}
102
{ACAD_REACTORS
330
E3D6
102
}
330
E3D6
100
AcDbMaterial
  1
Global
 72
     0
 43
0.0008202099737533
 43
0.0
 43
0.0
 43
0.0
 43
0.0
 43
0.0008202099737533
 43
0.0
 43
0.0
 43
0.0
 43
0.0
 43
1.0
 43
0.0
 43
0.0
 43
0.0
 43
0.0
 43
1.0
 77
     0
 47
0.0008202099737533
 47
0.0
 47
0.0
 47
0.0
 47
0.0
 47
0.0008202099737533
 47
0.0
 47
0.0
 47
0.0
 47
0.0
 47
1.0
 47
0.0
 47
0.0
 47
0.0
 47
0.0
 47
1.0
171
     0
 49
0.0008202099737533
 49
0.0
 49
0.0
 49
0.0
 49
0.0
 49
0.0008202099737533
 49
0.0
 49
0.0
 49
0.0
 49
0.0
 49
1.0
 49
0.0
 49
0.0
 49
0.0
 49
0.0
 49
1.0
175
     0
142
0.0008202099737533
142
0.0
142
0.0
142
0.0
142
0.0
142
0.0008202099737533
142
0.0
142
0.0
142
0.0
142
0.0
142
1.0
142
0.0
142
0.0
142
0.0
142
0.0
142
1.0
179
     0
144
0.0008202099737533
144
0.0
144
0.0
144
0.0
144
0.0
144
0.0008202099737533
144
0.0
144
0.0
144
0.0
144
0.0
144
1.0
144
0.0
144
0.0
144
0.0
144
0.0
144
1.0
147
0.0008202099737533
147
0.0
147
0.0
147
0.0
147
0.0
147
0.0008202099737533
147
0.0
147
0.0
147
0.0
147
0.0
147
1.0
147
0.0
147
0.0
147
0.0
147
0.0
147
1.0
  0
MLEADERSTYLE
  5
E426
102
{ACAD_REACTORS
330
E425
102
}
330
E425
100
AcDbMLeaderStyle
170
     2
171
     1
172
     0
 90
        2
 40
0.0
 41
0.0
173
     1
 91
-1023410172
340
15
 92
       20
290
     1
 42
0.09
291
     1
 43
-0.36
  3
Standard
341
2B
 44
3.0
300

342
34
174
     6
178
     6
175
     1
176
     0
 93
-1023410169
 45
6.0
292
     0
297
     0
 46
0.18
 94
-1056964608
 47
1.0
 49
1.0
140
1.0
293
     1
141
0.0
294
     1
177
     0
142
1.0
295
     0
296
     0
143
0.125
1001
ACAD_MLEADERVER
1070
     2
  0
MLINESTYLE
  5
18
102
{ACAD_REACTORS
330
17
102
}
330
17
100
AcDbMlineStyle
  2
STANDARD
 70
     0
  3

 62
   256
 51
90.0
 52
90.0
 71
     2
 49
0.5
 62
   256
  6
BYLAYER
 49
-0.5
 62
   256
  6
BYLAYER
  0
ACDBPLACEHOLDER
  5
F
102
{ACAD_REACTORS
330
E
102
}
330
E
  0
SCALE
  5
E404
102
{ACAD_REACTORS
330
E403
102
}
330
E403
100
AcDbScale
 70
     0
300
1:1
140
1.0
141
1.0
290
     1
  0
SCALE
  5
E405
102
{ACAD_REACTORS
330
E403
102
}
330
E403
100
AcDbScale
 70
     0
300
1:2
140
1.0
141
2.0
290
     0
  0
SCALE
  5
E406
102
{ACAD_REACTORS
330
E403
102
}
330
E403
100
AcDbScale
 70
     0
300
1:4
140
1.0
141
4.0
290
     0
  0
SCALE
  5
E407
102
{ACAD_REACTORS
330
E403
102
}
330
E403
100
AcDbScale
 70
     0
300
1:5
140
1.0
141
5.0
290
     0
  0
SCALE
  5
E408
102
{ACAD_REACTORS
330
E403
102
}
330
E403
100
AcDbScale
 70
     0
300
1:8
140
1.0
141
8.0
290
     0
  0
SCALE
  5
E409
102
{ACAD_REACTORS
330
E403
102
}
330
E403
100
AcDbScale
 70
     0
300
1:10
140
1.0
141
10.0
290
     0
  0
SCALE
  5
E40A
102
{ACAD_REACTORS
330
E403
102
}
330
E403
100
AcDbScale
 70
     0
300
1:16
140
1.0
141
16.0
290
     0
  0
SCALE
  5
E40B
102
{ACAD_REACTORS
330
E403
102
}
330
E403
100
AcDbScale
 70
     0
300
1:20
140
1.0
141
20.0
290
     0
  0
SCALE
  5
E40C
102
{ACAD_REACTORS
330
E403
102
}
330
E403
100
AcDbScale
 70
     0
300
1:30
140
1.0
141
30.0
290
     0
  0
SCALE
  5
E40D
102
{ACAD_REACTORS
330
E403
102
}
330
E403
100
AcDbScale
 70
     0
300
1:40
140
1.0
141
40.0
290
     0
  0
SCALE
  5
E40E
102
{ACAD_REACTORS
330
E403
102
}
330
E403
100
AcDbScale
 70
     0
300
1:50
140
1.0
141
50.0
290
     0
  0
SCALE
  5
E40F
102
{ACAD_REACTORS
330
E403
102
}
330
E403
100
AcDbScale
 70
     0
300
1:100
140
1.0
141
100.0
290
     0
  0
SCALE
  5
E410
102
{ACAD_REACTORS
330
E403
102
}
330
E403
100
AcDbScale
 70
     0
300
2:1
140
2.0
141
1.0
290
     0
  0
SCALE
  5
E411
102
{ACAD_REACTORS
330
E403
102
}
330
E403
100
AcDbScale
 70
     0
300
4:1
140
4.0
141
1.0
290
     0
  0
SCALE
  5
E412
102
{ACAD_REACTORS
330
E403
102
}
330
E403
100
AcDbScale
 70
     0
300
8:1
140
8.0
141
1.0
290
     0
  0
SCALE
  5
E413
102
{ACAD_REACTORS
330
E403
102
}
330
E403
100
AcDbScale
 70
     0
300
10:1
140
10.0
141
1.0
290
     0
  0
SCALE
  5
E414
102
{ACAD_REACTORS
330
E403
102
}
330
E403
100
AcDbScale
 70
     0
300
100:1
140
100.0
141
1.0
290
     0
  0
SCALE
  5
E415
102
{ACAD_REACTORS
330
E403
102
}
330
E403
100
AcDbScale
 70
     0
300
1/128" = 1'-0"
140
0.0078125
141
12.0
290
     0
  0
SCALE
  5
E416
102
{ACAD_REACTORS
330
E403
102
}
330
E403
100
AcDbScale
 70
     0
300
1/64" = 1'-0"
140
0.015625
141
12.0
290
     0
  0
SCALE
  5
E417
102
{ACAD_REACTORS
330
E403
102
}
330
E403
100
AcDbScale
 70
     0
300
1/32" = 1'-0"
140
0.03125
141
12.0
290
     0
  0
SCALE
  5
E418
102
{ACAD_REACTORS
330
E403
102
}
330
E403
100
AcDbScale
 70
     0
300
1/16" = 1'-0"
140
0.0625
141
12.0
290
     0
  0
SCALE
  5
E419
102
{ACAD_REACTORS
330
E403
102
}
330
E403
100
AcDbScale
 70
     0
300
3/32" = 1'-0"
140
0.09375
141
12.0
290
     0
  0
SCALE
  5
E41A
102
{ACAD_REACTORS
330
E403
102
}
330
E403
100
AcDbScale
 70
     0
300
1/8" = 1'-0"
140
0.125
141
12.0
290
     0
  0
SCALE
  5
E41B
102
{ACAD_REACTORS
330
E403
102
}
330
E403
100
AcDbScale
 70
     0
300
3/16" = 1'-0"
140
0.1875
141
12.0
290
     0
  0
SCALE
  5
E41C
102
{ACAD_REACTORS
330
E403
102
}
330
E403
100
AcDbScale
 70
     0
300
1/4" = 1'-0"
140
0.25
141
12.0
290
     0
  0
SCALE
  5
E41D
102
{ACAD_REACTORS
330
E403
102
}
330
E403
100
AcDbScale
 70
     0
300
3/8" = 1'-0"
140
0.375
141
12.0
290
     0
  0
SCALE
  5
E41E
102
{ACAD_REACTORS
330
E403
102
}
330
E403
100
AcDbScale
 70
     0
300
1/2" = 1'-0"
140
0.5
141
12.0
290
     0
  0
SCALE
  5
E41F
102
{ACAD_REACTORS
330
E403
102
}
330
E403
100
AcDbScale
 70
     0
300
3/4" = 1'-0"
140
0.75
141
12.0
290
     0
  0
SCALE
  5
E420
102
{ACAD_REACTORS
330
E403
102
}
330
E403
100
AcDbScale
 70
     0
300
1" = 1'-0"
140
1.0
141
12.0
290
     0
  0
SCALE
  5
E421
102
{ACAD_REACTORS
330
E403
102
}
330
E403
100
AcDbScale
 70
     0
300
1-1/2" = 1'-0"
140
1.5
141
12.0
290
     0
  0
SCALE
  5
E422
102
{ACAD_REACTORS
330
E403
102
}
330
E403
100
AcDbScale
 70
     0
300
3" = 1'-0"
140
3.0
141
12.0
290
     0
  0
SCALE
  5
E423
102
{ACAD_REACTORS
330
E403
102
}
330
E403
100
AcDbScale
 70
     0
300
6" = 1'-0"
140
6.0
141
12.0
290
     0
  0
SCALE
  5
E424
102
{ACAD_REACTORS
330
E403
102
}
330
E403
100
AcDbScale
 70
     0
300
1'-0" = 1'-0"
140
12.0
141
12.0
290
     0
  0
TABLESTYLE
  5
E402
102
{ACAD_XDICTIONARY
360
103A9
102
}
102
{ACAD_REACTORS
330
E401
102
}
330
E401
100
AcDbTableStyle
  3
Standard
 70
     0
 71
     0
 40
0.06
 41
0.06
280
     0
281
     0
  7
Standard
140
0.18
170
     2
 62
     0
 63
     7
283
     0
274
    -2
284
     1
 64
     0
275
    -2
285
     1
 65
     0
276
    -2
286
     1
 66
     0
277
    -2
287
     1
 67
     0
278
    -2
288
     1
 68
     0
279
    -2
289
     1
 69
     0
  7
Standard
140
0.25
170
     5
 62
     0
 63
     7
283
     0
274
    -2
284
     1
 64
     0
275
    -2
285
     1
 65
     0
276
    -2
286
     1
 66
     0
277
    -2
287
     1
 67
     0
278
    -2
288
     1
 68
     0
279
    -2
289
     1
 69
     0
  7
Standard
140
0.18
170
     5
 62
     0
 63
     7
283
     0
274
    -2
284
     1
 64
     0
275
    -2
285
     1
 65
     0
276
    -2
286
     1
 66
     0
277
    -2
287
     1
 67
     0
278
    -2
288
     1
 68
     0
279
    -2
289
     1
 69
     0
  0
VISUALSTYLE
  5
E3F5
102
{ACAD_REACTORS
330
E3EF
102
}
330
E3EF
100
AcDbVisualStyle
  2
2dWireframe
 70
     4
 71
     0
 72
     2
 73
     0
 90
        0
 40
-0.6
 41
-30.0
 62
     5
 63
     7
 74
     1
 91
        4
 64
     7
 65
   257
 75
     1
175
     1
 42
1.0
 92
        0
 66
   257
 43
1.0
 76
     1
 77
     6
 78
     2
 67
     7
 79
     5
170
     0
171
     0
290
     0
174
     0
 93
        1
 44
0.0
173
     0
291
     0
 45
0.0
1001
ACAD
1000
AcDbSavedByObjectVersion
1070
     0
  0
VISUALSTYLE
  5
E3F7
102
{ACAD_REACTORS
330
E3EF
102
}
330
E3EF
100
AcDbVisualStyle
  2
3D Hidden
 70
     6
 71
     1
 72
     2
 73
     2
 90
        0
 40
-0.6
 41
-30.0
 62
     5
 63
     7
 74
     2
 91
        2
 64
     7
 65
   257
 75
     2
175
     1
 42
40.0
 92
        0
 66
   257
 43
1.0
 76
     1
 77
     6
 78
     2
 67
     7
 79
     3
170
     0
171
     0
290
     0
174
     0
 93
        1
 44
0.0
173
     0
291
     0
 45
0.0
1001
ACAD
1000
AcDbSavedByObjectVersion
1070
     0
  0
VISUALSTYLE
  5
E3F6
102
{ACAD_REACTORS
330
E3EF
102
}
330
E3EF
100
AcDbVisualStyle
  2
3dWireframe
 70
     5
 71
     0
 72
     2
 73
     0
 90
        0
 40
-0.6
 41
-30.0
 62
     5
 63
     7
 74
     1
 91
        4
 64
     7
 65
   257
 75
     1
175
     1
 42
1.0
 92
        0
 66
   257
 43
1.0
 76
     1
 77
     6
 78
     2
 67
     7
 79
     5
170
     0
171
     0
290
     0
174
     0
 93
        1
 44
0.0
173
     0
291
     0
 45
0.0
1001
ACAD
1000
AcDbSavedByObjectVersion
1070
     0
  0
VISUALSTYLE
  5
E3F4
102
{ACAD_REACTORS
330
E3EF
102
}
330
E3EF
100
AcDbVisualStyle
  2
Basic
 70
     7
 71
     1
 72
     0
 73
     1
 90
        0
 40
-0.6
 41
-30.0
 62
     5
 63
     7
 74
     0
 91
        4
 64
     7
 65
   257
 75
     1
175
     1
 42
1.0
 92
        8
 66
     7
 43
1.0
 76
     1
 77
     6
 78
     2
 67
     7
 79
     5
170
     0
171
     0
290
     0
174
     0
 93
        1
 44
0.0
173
     0
291
     1
 45
0.0
1001
ACAD
1000
AcDbSavedByObjectVersion
1070
     0
  0
VISUALSTYLE
  5
E3FB
102
{ACAD_REACTORS
330
E3EF
102
}
330
E3EF
100
AcDbVisualStyle
  2
Brighten
 70
    12
 71
     2
 72
     2
 73
     0
 90
        0
 40
-0.6
 41
-30.0
 62
     5
 63
     7
 74
     1
 91
        4
 64
     7
 65
   257
 75
     1
175
     1
 42
1.0
 92
        8
 66
     7
 43
1.0
 76
     1
 77
     6
 78
     2
 67
     7
 79
     5
170
     0
171
     0
290
     0
174
     0
 93
        1
 44
50.0
173
     0
291
     1
 45
0.0
1001
ACAD
1000
AcDbSavedByObjectVersion
1070
     0
  0
VISUALSTYLE
  5
E3FF
102
{ACAD_REACTORS
330
E3EF
102
}
330
E3EF
100
AcDbVisualStyle
  2
ColorChange
 70
    16
 71
     2
 72
     2
 73
     3
 90
        0
 40
-0.6
 41
-30.0
 62
     5
 63
     8
 74
     1
 91
        4
 64
     7
 65
   257
 75
     1
175
     1
 42
1.0
 92
        8
 66
     8
 43
1.0
 76
     1
 77
     6
 78
     2
 67
     7
 79
     5
170
     0
171
     0
290
     0
174
     0
 93
        1
 44
0.0
173
     0
291
     1
 45
0.0
1001
ACAD
1000
AcDbSavedByObjectVersion
1070
     0
  0
VISUALSTYLE
  5
E3F8
102
{ACAD_REACTORS
330
E3EF
102
}
330
E3EF
100
AcDbVisualStyle
  2
Conceptual
 70
     9
 71
     3
 72
     2
 73
     0
 90
        0
 40
-0.6
 41
-30.0
 62
     5
 63
     7
 74
     2
 91
        2
 64
     7
 65
   257
 75
     1
175
     1
 42
40.0
 92
        8
 66
     7
 43
1.0
 76
     1
 77
     6
 78
     2
 67
     7
 79
     3
170
     0
171
     0
290
     0
174
     0
 93
        1
 44
0.0
173
     0
291
     0
 45
0.0
1001
ACAD
1000
AcDbSavedByObjectVersion
1070
     0
  0
VISUALSTYLE
  5
E3FA
102
{ACAD_REACTORS
330
E3EF
102
}
330
E3EF
100
AcDbVisualStyle
  2
Dim
 70
    11
 71
     2
 72
     2
 73
     0
 90
        0
 40
-0.6
 41
-30.0
 62
     5
 63
     7
 74
     1
 91
        4
 64
     7
 65
   257
 75
     1
175
     1
 42
1.0
 92
        8
 66
     7
 43
1.0
 76
     1
 77
     6
 78
     2
 67
     7
 79
     5
170
     0
171
     0
290
     0
174
     0
 93
        1
 44
-50.0
173
     0
291
     1
 45
0.0
1001
ACAD
1000
AcDbSavedByObjectVersion
1070
     0
  0
VISUALSTYLE
  5
E3FE
102
{ACAD_REACTORS
330
E3EF
102
}
330
E3EF
100
AcDbVisualStyle
  2
Facepattern
 70
    15
 71
     2
 72
     2
 73
     0
 90
        0
 40
-0.6
 41
-30.0
 62
     5
 63
     7
 74
     1
 91
        4
 64
     7
 65
   257
 75
     1
175
     1
 42
1.0
 92
        8
 66
     7
 43
1.0
 76
     1
 77
     6
 78
     2
 67
     7
 79
     5
170
     0
171
     0
290
     0
174
     0
 93
        1
 44
0.0
173
     0
291
     1
 45
0.0
1001
ACAD
1000
AcDbSavedByObjectVersion
1070
     0
  0
VISUALSTYLE
  5
E3F0
102
{ACAD_REACTORS
330
E3EF
102
}
330
E3EF
100
AcDbVisualStyle
  2
Flat
 70
     0
 71
     2
 72
     1
 73
     1
 90
        2
 40
-0.6
 41
30.0
 62
     5
 63
     7
 74
     0
 91
        4
 64
     7
 65
   257
 75
     1
175
     1
 42
1.0
 92
        8
 66
     7
 43
1.0
 76
     1
 77
     6
 78
     2
 67
     7
 79
     5
170
     0
171
     0
290
     0
174
     0
 93
       13
 44
0.0
173
     0
291
     1
 45
0.0
1001
ACAD
1000
AcDbSavedByObjectVersion
1070
     0
  0
VISUALSTYLE
  5
E3F1
102
{ACAD_REACTORS
330
E3EF
102
}
330
E3EF
100
AcDbVisualStyle
  2
FlatWithEdges
 70
     1
 71
     2
 72
     1
 73
     1
 90
        2
 40
-0.6
 41
30.0
 62
     5
 63
     7
 74
     1
 91
        4
 64
     7
 65
   257
 75
     1
175
     1
 42
1.0
 92
        0
 66
   257
 43
1.0
 76
     1
 77
     6
 78
     2
 67
     7
 79
     5
170
     0
171
     0
290
     0
174
     0
 93
       13
 44
0.0
173
     0
291
     1
 45
0.0
1001
ACAD
1000
AcDbSavedByObjectVersion
1070
     0
  0
VISUALSTYLE
  5
E3F2
102
{ACAD_REACTORS
330
E3EF
102
}
330
E3EF
100
AcDbVisualStyle
  2
Gouraud
 70
     2
 71
     2
 72
     2
 73
     1
 90
        2
 40
-0.6
 41
30.0
 62
     5
 63
     7
 74
     0
 91
        4
 64
     7
 65
   257
 75
     1
175
     1
 42
1.0
 92
        0
 66
     7
 43
1.0
 76
     1
 77
     6
 78
     2
 67
     7
 79
     5
170
     0
171
     0
290
     0
174
     0
 93
       13
 44
0.0
173
     0
291
     1
 45
0.0
1001
ACAD
1000
AcDbSavedByObjectVersion
1070
     0
  0
VISUALSTYLE
  5
E3F3
102
{ACAD_REACTORS
330
E3EF
102
}
330
E3EF
100
AcDbVisualStyle
  2
GouraudWithEdges
 70
     3
 71
     2
 72
     2
 73
     1
 90
        2
 40
-0.6
 41
30.0
 62
     5
 63
     7
 74
     1
 91
        4
 64
     7
 65
   257
 75
     1
175
     1
 42
1.0
 92
        0
 66
   257
 43
1.0
 76
     1
 77
     6
 78
     2
 67
     7
 79
     5
170
     0
171
     0
290
     0
174
     0
 93
       13
 44
0.0
173
     0
291
     1
 45
0.0
1001
ACAD
1000
AcDbSavedByObjectVersion
1070
     0
  0
VISUALSTYLE
  5
E3FD
102
{ACAD_REACTORS
330
E3EF
102
}
330
E3EF
100
AcDbVisualStyle
  2
Linepattern
 70
    14
 71
     2
 72
     2
 73
     0
 90
        0
 40
-0.6
 41
-30.0
 62
     5
 63
     7
 74
     1
 91
        4
 64
     7
 65
   257
 75
     7
175
     7
 42
1.0
 92
        8
 66
     7
 43
1.0
 76
     1
 77
     6
 78
     2
 67
     7
 79
     5
170
     0
171
     0
290
     0
174
     0
 93
        1
 44
0.0
173
     0
291
     1
 45
0.0
1001
ACAD
1000
AcDbSavedByObjectVersion
1070
     0
  0
VISUALSTYLE
  5
E3F9
102
{ACAD_REACTORS
330
E3EF
102
}
330
E3EF
100
AcDbVisualStyle
  2
Realistic
 70
     8
 71
     2
 72
     2
 73
     0
 90
        0
 40
-0.6
 41
-30.0
 62
     5
 63
     7
 74
     1
 91
        0
 64
     7
 65
   257
 75
     1
175
     1
 42
1.0
 92
        8
 66
     8
 43
1.0
 76
     1
 77
     6
 78
     2
 67
     7
 79
     5
170
     0
171
     0
290
     0
174
     0
 93
       13
 44
0.0
173
     0
291
     0
 45
0.0
1001
ACAD
1000
AcDbSavedByObjectVersion
1070
     0
  0
VISUALSTYLE
  5
E3FC
102
{ACAD_REACTORS
330
E3EF
102
}
330
E3EF
100
AcDbVisualStyle
  2
Thicken
 70
    13
 71
     2
 72
     2
 73
     0
 90
        0
 40
-0.6
 41
-30.0
 62
     5
 63
     7
 74
     1
 91
        4
 64
     7
 65
   257
 75
     1
175
     1
 42
1.0
 92
       12
 66
     7
 43
1.0
 76
     1
 77
     6
 78
     2
 67
     7
 79
     5
170
     0
171
     0
290
     0
174
     0
 93
        1
 44
0.0
173
     0
291
     1
 45
0.0
1001
ACAD
1000
AcDbSavedByObjectVersion
1070
     0
  0
DICTIONARYVAR
  5
103B0
102
{ACAD_REACTORS
330
103AC
102
}
330
103AC
100
DictionaryVariables
280
     0
  1
1:1
  0
DICTIONARYVAR
  5
103AE
102
{ACAD_REACTORS
330
103AC
102
}
330
103AC
100
DictionaryVariables
280
     0
  1
STANDARD
  0
DICTIONARYVAR
  5
103AD
102
{ACAD_REACTORS
330
103AC
102
}
330
103AC
100
DictionaryVariables
280
     0
  1
STANDARD
  0
DICTIONARYVAR
  5
16336
102
{ACAD_REACTORS
330
103AC
102
}
330
103AC
100
DictionaryVariables
280
     0
  1
1
  0
DICTIONARYVAR
  5
16335
102
{ACAD_REACTORS
330
103AC
102
}
330
103AC
100
DictionaryVariables
280
     0
  1
0
  0
DICTIONARYVAR
  5
103B1
102
{ACAD_REACTORS
330
103AC
102
}
330
103AC
100
DictionaryVariables
280
     0
  1
0
  0
DICTIONARYVAR
  5
103AF
102
{ACAD_REACTORS
330
103AC
102
}
330
103AC
100
DictionaryVariables
280
     0
  1
0
  0
DICTIONARYVAR
  5
16334
102
{ACAD_REACTORS
330
103AC
102
}
330
103AC
100
DictionaryVariables
280
     0
  1
127
  0
DICTIONARY
  5
17C90
330
22
100
AcDbDictionary
280
     1
281
     1
  3
ACAD_XREC_ROUNDTRIP
360
17C91
  0
DICTIONARY
  5
17C8E
330
1E
100
AcDbDictionary
280
     1
281
     1
  3
ACAD_XREC_ROUNDTRIP
360
17C8F
  0
DICTIONARY
  5
17C92
330
26
100
AcDbDictionary
280
     1
281
     1
  3
ACAD_XREC_ROUNDTRIP
360
17C93
  0
DICTIONARY
  5
E3E0
330
E3DF
100
AcDbDictionary
280
     1
281
     1
  3
ACAD_XREC_ROUNDTRIP
360
17C95
  3
BUMPTILE
360
E3E2
  3
DIFFUSETILE
360
E3E1
  3
OPACITYTILE
360
E3E5
  3
REFLECTIONTILE
360
E3E4
  3
REFRACTIONTILE
360
E3E6
  3
SPECULARTILE
360
E3E3
  0
DICTIONARY
  5
E3D8
330
E3D7
100
AcDbDictionary
280
     1
281
     1
  3
ACAD_XREC_ROUNDTRIP
360
17C94
  3
BUMPTILE
360
E3DA
  3
DIFFUSETILE
360
E3D9
  3
OPACITYTILE
360
E3DD
  3
REFLECTIONTILE
360
E3DC
  3
REFRACTIONTILE
360
E3DE
  3
SPECULARTILE
360
E3DB
  0
DICTIONARY
  5
E3E8
330
E3E7
100
AcDbDictionary
280
     1
281
     1
  3
ACAD_XREC_ROUNDTRIP
360
17C96
  3
BUMPTILE
360
E3EA
  3
DIFFUSETILE
360
E3E9
  3
OPACITYTILE
360
E3ED
  3
REFLECTIONTILE
360
E3EC
  3
REFRACTIONTILE
360
E3EE
  3
SPECULARTILE
360
E3EB
  0
DICTIONARY
  5
103A9
330
E402
100
AcDbDictionary
280
     1
281
     1
  3
ACAD_ROUNDTRIP_2008_TABLESTYLE_CELLSTYLEMAP
360
17C8C
  3
ACAD_XREC_ROUNDTRIP
360
17C97
  0
XRECORD
  5
17C91
102
{ACAD_REACTORS
330
17C90
102
}
330
17C90
100
AcDbXrecord
280
     1
102
SHADEPLOT
 70
     0
102
SHADEPLOTRESLEVEL
 70
     2
102
SHADEPLOTCUSTOMDPI
 70
   300
  0
XRECORD
  5
17C8F
102
{ACAD_REACTORS
330
17C8E
102
}
330
17C8E
100
AcDbXrecord
280
     1
102
SHADEPLOT
 70
     0
102
SHADEPLOTRESLEVEL
 70
     2
102
SHADEPLOTCUSTOMDPI
 70
   300
  0
XRECORD
  5
17C93
102
{ACAD_REACTORS
330
17C92
102
}
330
17C92
100
AcDbXrecord
280
     1
102
SHADEPLOT
 70
     0
102
SHADEPLOTRESLEVEL
 70
     2
102
SHADEPLOTCUSTOMDPI
 70
   300
  0
XRECORD
  5
17C95
102
{ACAD_REACTORS
330
E3E0
102
}
330
E3E0
100
AcDbXrecord
280
     1
102
MATERIAL
148
0.0
149
0.0
149
0.0
 93
        0
 94
      127
282
     0
 72
     0
 77
     0
171
     0
175
     0
179
     0
273
     0
  0
XRECORD
  5
E3E2
102
{ACAD_REACTORS
330
E3E0
102
}
330
E3E0
100
AcDbXrecord
280
     1
270
     1
271
     1
  0
XRECORD
  5
E3E1
102
{ACAD_REACTORS
330
E3E0
102
}
330
E3E0
100
AcDbXrecord
280
     1
270
     1
271
     1
  0
XRECORD
  5
E3E5
102
{ACAD_REACTORS
330
E3E0
102
}
330
E3E0
100
AcDbXrecord
280
     1
270
     1
271
     1
  0
XRECORD
  5
E3E4
102
{ACAD_REACTORS
330
E3E0
102
}
330
E3E0
100
AcDbXrecord
280
     1
270
     1
271
     1
  0
XRECORD
  5
E3E6
102
{ACAD_REACTORS
330
E3E0
102
}
330
E3E0
100
AcDbXrecord
280
     1
270
     1
271
     1
  0
XRECORD
  5
E3E3
102
{ACAD_REACTORS
330
E3E0
102
}
330
E3E0
100
AcDbXrecord
280
     1
270
     1
271
     1
  0
XRECORD
  5
17C94
102
{ACAD_REACTORS
330
E3D8
102
}
330
E3D8
100
AcDbXrecord
280
     1
102
MATERIAL
148
0.0
149
0.0
149
0.0
 93
        0
 94
      127
282
     0
 72
     0
 77
     0
171
     0
175
     0
179
     0
273
     0
  0
XRECORD
  5
E3DA
102
{ACAD_REACTORS
330
E3D8
102
}
330
E3D8
100
AcDbXrecord
280
     1
270
     1
271
     1
  0
XRECORD
  5
E3D9
102
{ACAD_REACTORS
330
E3D8
102
}
330
E3D8
100
AcDbXrecord
280
     1
270
     1
271
     1
  0
XRECORD
  5
E3DD
102
{ACAD_REACTORS
330
E3D8
102
}
330
E3D8
100
AcDbXrecord
280
     1
270
     1
271
     1
  0
XRECORD
  5
E3DC
102
{ACAD_REACTORS
330
E3D8
102
}
330
E3D8
100
AcDbXrecord
280
     1
270
     1
271
     1
  0
XRECORD
  5
E3DE
102
{ACAD_REACTORS
330
E3D8
102
}
330
E3D8
100
AcDbXrecord
280
     1
270
     1
271
     1
  0
XRECORD
  5
E3DB
102
{ACAD_REACTORS
330
E3D8
102
}
330
E3D8
100
AcDbXrecord
280
     1
270
     1
271
     1
  0
XRECORD
  5
17C96
102
{ACAD_REACTORS
330
E3E8
102
}
330
E3E8
100
AcDbXrecord
280
     1
102
MATERIAL
148
0.0
149
0.0
149
0.0
 93
        0
 94
      127
282
     0
 72
     0
 77
     0
171
     0
175
     0
179
     0
273
     0
  0
XRECORD
  5
E3EA
102
{ACAD_REACTORS
330
E3E8
102
}
330
E3E8
100
AcDbXrecord
280
     1
270
     1
271
     1
  0
XRECORD
  5
E3E9
102
{ACAD_REACTORS
330
E3E8
102
}
330
E3E8
100
AcDbXrecord
280
     1
270
     1
271
     1
  0
XRECORD
  5
E3ED
102
{ACAD_REACTORS
330
E3E8
102
}
330
E3E8
100
AcDbXrecord
280
     1
270
     1
271
     1
  0
XRECORD
  5
E3EC
102
{ACAD_REACTORS
330
E3E8
102
}
330
E3E8
100
AcDbXrecord
280
     1
270
     1
271
     1
  0
XRECORD
  5
E3EE
102
{ACAD_REACTORS
330
E3E8
102
}
330
E3E8
100
AcDbXrecord
280
     1
270
     1
271
     1
  0
XRECORD
  5
E3EB
102
{ACAD_REACTORS
330
E3E8
102
}
330
E3E8
100
AcDbXrecord
280
     1
270
     1
271
     1
  0
CELLSTYLEMAP
  5
17C8C
102
{ACAD_REACTORS
330
103A9
102
}
330
103A9
100
AcDbCellStyleMap
 90
        3
300
CELLSTYLE
  1
TABLEFORMAT_BEGIN
 90
        5
170
     1
 91
        0
 92
    32768
 62
   257
 93
        1
300
CONTENTFORMAT
  1
CONTENTFORMAT_BEGIN
 90
        0
 91
        0
 92
      512
 93
        0
300

 40
0.0
140
1.0
 94
        5
 62
     0
340
11
144
0.25
309
CONTENTFORMAT_END
171
     0
 94
        0
309
TABLEFORMAT_END
  1
CELLSTYLE_BEGIN
 90
        1
 91
        1
300
_TITLE
309
CELLSTYLE_END
300
CELLSTYLE
  1
TABLEFORMAT_BEGIN
 90
        5
170
     1
 91
        0
 92
        0
 62
   257
 93
        1
300
CONTENTFORMAT
  1
CONTENTFORMAT_BEGIN
 90
        0
 91
        0
 92
      512
 93
        0
300

 40
0.0
140
1.0
 94
        5
 62
     0
340
11
144
0.18
309
CONTENTFORMAT_END
171
     0
 94
        0
309
TABLEFORMAT_END
  1
CELLSTYLE_BEGIN
 90
        2
 91
        1
300
_HEADER
309
CELLSTYLE_END
300
CELLSTYLE
  1
TABLEFORMAT_BEGIN
 90
        5
170
     1
 91
        0
 92
        0
 62
   257
 93
        1
300
CONTENTFORMAT
  1
CONTENTFORMAT_BEGIN
 90
        0
 91
        0
 92
      512
 93
        0
300

 40
0.0
140
1.0
 94
        2
 62
     0
340
11
144
0.18
309
CONTENTFORMAT_END
171
     0
 94
        0
309
TABLEFORMAT_END
  1
CELLSTYLE_BEGIN
 90
        3
 91
        2
300
_DATA
309
CELLSTYLE_END
  0
XRECORD
  5
17C97
102
{ACAD_REACTORS
330
103A9
102
}
330
103A9
100
AcDbXrecord
280
     1
102
ACAD_ROUNDTRIP_PRE2007_TABLESTYLE
 90
      512
 91
        0
  1

 92
      512
 93
        0
  2

 94
      512
 95
        0
  3

  0
ENDSEC
  0
EOF
