  0
SECTION
  2
HEADER
  9
$ACADVER
  1
AC1015
  9
$ACADMAINTVER
 70
    20
  9
$DWGCODEPAGE
  3
ANSI_932
  9
$INSBASE
 10
0.0
 20
0.0
 30
0.0
  9
$EXTMIN
 10
20.0000000000001
 20
21.0
 30
0.0
  9
$EXTMAX
 10
808.0000000000033
 20
558.0
 30
0.0
  9
$LIMMIN
 10
0.0
 20
0.0
  9
$LIMMAX
 10
840.0
 20
594.0
  9
$ORTHOMODE
 70
     0
  9
$REGENMODE
 70
     1
  9
$FILLMODE
 70
     1
  9
$QTEXTMODE
 70
     0
  9
$MIRRTEXT
 70
     0
  9
$LTSCALE
 40
1.0
  9
$ATTMODE
 70
     1
  9
$TEXTSIZE
 40
3.0
  9
$TRACEWID
 40
1.0
  9
$TEXTSTYLE
  7
AT_VECTOR
  9
$CLAYER
  8
003
  9
$CELTYPE
  6
ByLayer
  9
$CECOLOR
 62
   256
  9
$CELTSCALE
 40
1.0
  9
$DISPSILH
 70
     0
  9
$DIMSCALE
 40
2.0
  9
$DIMASZ
 40
1.5
  9
$DIMEXO
 40
1.5
  9
$DIMDLI
 40
7.0
  9
$DIMRND
 40
0.0
  9
$DIMDLE
 40
0.0
  9
$DIMEXE
 40
1.0
  9
$DIMTP
 40
0.0
  9
$DIMTM
 40
0.0
  9
$DIMTXT
 40
3.0
  9
$DIMCEN
 40
0.0
  9
$DIMTSZ
 40
0.0
  9
$DIMTOL
 70
     0
  9
$DIMLIM
 70
     0
  9
$DIMTIH
 70
     0
  9
$DIMTOH
 70
     0
  9
$DIMSE1
 70
     0
  9
$DIMSE2
 70
     0
  9
$DIMTAD
 70
     1
  9
$DIMZIN
 70
     8
  9
$DIMBLK
  1
Open30
  9
$DIMASO
 70
     1
  9
$DIMSHO
 70
     1
  9
$DIMPOST
  1

  9
$DIMAPOST
  1

  9
$DIMALT
 70
     0
  9
$DIMALTD
 70
     3
  9
$DIMALTF
 40
0.03937007874016
  9
$DIMLFAC
 40
1.0
  9
$DIMTOFL
 70
     1
  9
$DIMTVP
 40
0.0
  9
$DIMTIX
 70
     0
  9
$DIMSOXD
 70
     0
  9
$DIMSAH
 70
     0
  9
$DIMBLK1
  1

  9
$DIMBLK2
  1

  9
$DIMSTYLE
  2
DIM
  9
$DIMCLRD
 70
     4
  9
$DIMCLRE
 70
     4
  9
$DIMCLRT
 70
     7
  9
$DIMTFAC
 40
1.0
  9
$DIMGAP
 40
1.0
  9
$DIMJUST
 70
     0
  9
$DIMSD1
 70
     0
  9
$DIMSD2
 70
     0
  9
$DIMTOLJ
 70
     0
  9
$DIMTZIN
 70
     8
  9
$DIMALTZ
 70
     0
  9
$DIMALTTZ
 70
     0
  9
$DIMUPT
 70
     0
  9
$DIMDEC
 70
     2
  9
$DIMTDEC
 70
     2
  9
$DIMALTU
 70
     2
  9
$DIMALTTD
 70
     3
  9
$DIMTXSTY
  7
DIM
  9
$DIMAUNIT
 70
     0
  9
$DIMADEC
 70
     0
  9
$DIMALTRND
 40
0.0
  9
$DIMAZIN
 70
     0
  9
$DIMDSEP
 70
    46
  9
$DIMATFIT
 70
     3
  9
$DIMFRAC
 70
     0
  9
$DIMLDRBLK
  1
Open30
  9
$DIMLUNIT
 70
     2
  9
$DIMLWD
 70
    20
  9
$DIMLWE
 70
    20
  9
$DIMTMOVE
 70
     0
  9
$LUNITS
 70
     2
  9
$LUPREC
 70
     4
  9
$SKETCHINC
 40
1.0
  9
$FILLETRAD
 40
0.0
  9
$AUNITS
 70
     0
  9
$AUPREC
 70
     0
  9
$MENU
  1
.
  9
$ELEVATION
 40
0.0
  9
$PELEVATION
 40
0.0
  9
$THICKNESS
 40
0.0
  9
$LIMCHECK
 70
     0
  9
$CHAMFERA
 40
10.0
  9
$CHAMFERB
 40
10.0
  9
$CHAMFERC
 40
20.0
  9
$CHAMFERD
 40
0.0
  9
$SKPOLY
 70
     0
  9
$TDCREATE
 40
2452888.428849190
  9
$TDUCREATE
 40
2452888.053849190
  9
$TDUPDATE
 40
2455959.427787824
  9
$TDUUPDATE
 40
2455959.052787824
  9
$TDINDWG
 40
0.4615546296
  9
$TDUSRTIMER
 40
0.4615546296
  9
$USRTIMER
 70
     1
  9
$ANGBASE
 50
0.0
  9
$ANGDIR
 70
     0
  9
$PDMODE
 70
     0
  9
$PDSIZE
 40
0.0
  9
$PLINEWID
 40
0.0
  9
$SPLFRAME
 70
     0
  9
$SPLINETYPE
 70
     6
  9
$SPLINESEGS
 70
     8
  9
$HANDSEED
  5
18CDD
  9
$SURFTAB1
 70
     6
  9
$SURFTAB2
 70
     6
  9
$SURFTYPE
 70
     6
  9
$SURFU
 70
     6
  9
$SURFV
 70
     6
  9
$UCSBASE
  2

  9
$UCSNAME
  2

  9
$UCSORG
 10
0.0
 20
0.0
 30
0.0
  9
$UCSXDIR
 10
1.0
 20
0.0
 30
0.0
  9
$UCSYDIR
 10
0.0
 20
1.0
 30
0.0
  9
$UCSORTHOREF
  2

  9
$UCSORTHOVIEW
 70
     0
  9
$UCSORGTOP
 10
0.0
 20
0.0
 30
0.0
  9
$UCSORGBOTTOM
 10
0.0
 20
0.0
 30
0.0
  9
$UCSORGLEFT
 10
0.0
 20
0.0
 30
0.0
  9
$UCSORGRIGHT
 10
0.0
 20
0.0
 30
0.0
  9
$UCSORGFRONT
 10
0.0
 20
0.0
 30
0.0
  9
$UCSORGBACK
 10
0.0
 20
0.0
 30
0.0
  9
$PUCSBASE
  2

  9
$PUCSNAME
  2

  9
$PUCSORG
 10
0.0
 20
0.0
 30
0.0
  9
$PUCSXDIR
 10
1.0
 20
0.0
 30
0.0
  9
$PUCSYDIR
 10
0.0
 20
1.0
 30
0.0
  9
$PUCSORTHOREF
  2

  9
$PUCSORTHOVIEW
 70
     0
  9
$PUCSORGTOP
 10
0.0
 20
0.0
 30
0.0
  9
$PUCSORGBOTTOM
 10
0.0
 20
0.0
 30
0.0
  9
$PUCSORGLEFT
 10
0.0
 20
0.0
 30
0.0
  9
$PUCSORGRIGHT
 10
0.0
 20
0.0
 30
0.0
  9
$PUCSORGFRONT
 10
0.0
 20
0.0
 30
0.0
  9
$PUCSORGBACK
 10
0.0
 20
0.0
 30
0.0
  9
$USERI1
 70
     0
  9
$USERI2
 70
     0
  9
$USERI3
 70
     0
  9
$USERI4
 70
     0
  9
$USERI5
 70
     0
  9
$USERR1
 40
0.0
  9
$USERR2
 40
0.0
  9
$USERR3
 40
0.0
  9
$USERR4
 40
0.0
  9
$USERR5
 40
0.0
  9
$WORLDVIEW
 70
     1
  9
$SHADEDGE
 70
     3
  9
$SHADEDIF
 70
    70
  9
$TILEMODE
 70
     1
  9
$MAXACTVP
 70
    64
  9
$PINSBASE
 10
0.0
 20
0.0
 30
0.0
  9
$PLIMCHECK
 70
     0
  9
$PEXTMIN
 10
1.000000000000000E+20
 20
1.000000000000000E+20
 30
1.000000000000000E+20
  9
$PEXTMAX
 10
-1.000000000000000E+20
 20
-1.000000000000000E+20
 30
-1.000000000000000E+20
  9
$PLIMMIN
 10
0.0
 20
0.0
  9
$PLIMMAX
 10
420.0
 20
297.0
  9
$UNITMODE
 70
     0
  9
$VISRETAIN
 70
     1
  9
$PLINEGEN
 70
     0
  9
$PSLTSCALE
 70
     1
  9
$TREEDEPTH
 70
  3020
  9
$CMLSTYLE
  2
Standard
  9
$CMLJUST
 70
     0
  9
$CMLSCALE
 40
20.0
  9
$PROXYGRAPHICS
 70
     1
  9
$MEASUREMENT
 70
     0
  9
$CELWEIGHT
370
    -1
  9
$ENDCAPS
280
     0
  9
$JOINSTYLE
280
     0
  9
$LWDISPLAY
290
     0
  9
$INSUNITS
 70
     4
  9
$HYPERLINKBASE
  1

  9
$STYLESHEET
  1
EPSON.ctb
  9
$XEDIT
290
     1
  9
$CEPSNTYPE
380
     0
  9
$PSTYLEMODE
290
     1
  9
$FINGERPRINTGUID
  2
{9AEAB59C-DF80-11D7-8237-004026CDA8AB}
  9
$VERSIONGUID
  2
{8C18ACA2-10C2-46F5-89EF-96F5F5267423}
  9
$EXTNAMES
290
     1
  9
$PSVPSCALE
 40
0.0
  9
$OLESTARTUP
290
     0
  0
ENDSEC
  0
SECTION
  2
CLASSES
  0
CLASS
  1
ACDBDICTIONARYWDFLT
  2
AcDbDictionaryWithDefault
  3
ObjectDBX Classes
 90
        0
280
     0
281
     0
  0
CLASS
  1
ACDBPLACEHOLDER
  2
AcDbPlaceHolder
  3
ObjectDBX Classes
 90
        0
280
     0
281
     0
  0
CLASS
  1
LAYOUT
  2
AcDbLayout
  3
ObjectDBX Classes
 90
        0
280
     0
281
     0
  0
CLASS
  1
MATERIAL
  2
AcDbMaterial
  3
ObjectDBX Classes
 90
     1153
280
     0
281
     0
  0
CLASS
  1
VISUALSTYLE
  2
AcDbVisualStyle
  3
ObjectDBX Classes
 90
     4095
280
     0
281
     0
  0
CLASS
  1
TABLESTYLE
  2
AcDbTableStyle
  3
ObjectDBX Classes
 90
     4095
280
     0
281
     0
  0
CLASS
  1
SCALE
  2
AcDbScale
  3
ObjectDBX Classes
 90
     1153
280
     0
281
     0
  0
CLASS
  1
MLEADERSTYLE
  2
AcDbMLeaderStyle
  3
ACDB_MLEADERSTYLE_CLASS
 90
     4095
280
     0
281
     0
  0
CLASS
  1
SORTENTSTABLE
  2
AcDbSortentsTable
  3
ObjectDBX Classes
 90
        0
280
     0
281
     0
  0
CLASS
  1
CELLSTYLEMAP
  2
AcDbCellStyleMap
  3
ObjectDBX Classes
 90
     1152
280
     0
281
     0
  0
CLASS
  1
DICTIONARYVAR
  2
AcDbDictionaryVar
  3
ObjectDBX Classes
 90
        0
280
     0
281
     0
  0
CLASS
  1
MULTILEADER
  2
AcDbMLeader
  3
ACDB_MLEADER_CLASS
 90
    33793
280
     0
281
     1
  0
ENDSEC
  0
SECTION
  2
TABLES
  0
TABLE
  2
VPORT
  5
8
102
{ACAD_XDICTIONARY
360
18A0D
102
}
330
0
100
AcDbSymbolTable
 70
     1
  0
VPORT
  5
E3D4
330
8
100
AcDbSymbolTableRecord
100
AcDbViewportTableRecord
  2
*Active
 70
     0
 10
0.0
 20
0.0
 11
1.0
 21
1.0
 12
429.2026628646777
 22
301.2591534041338
 13
0.0
 23
0.0
 14
10.0
 24
10.0
 15
10.0
 25
10.0
 16
0.0
 26
0.0
 36
1.0
 17
0.0
 27
0.0
 37
0.0
 40
607.5373843845972
 41
1.590250329380764
 42
50.0
 43
0.0
 44
0.0
 50
0.0
 51
0.0
 71
     0
 72
   100
 73
     1
 74
     3
 75
     0
 76
     0
 77
     0
 78
     0
281
     0
 65
     1
110
0.0
120
0.0
130
0.0
111
1.0
121
0.0
131
0.0
112
0.0
122
1.0
132
0.0
 79
     0
146
0.0
  0
ENDTAB
  0
TABLE
  2
LTYPE
  5
5
330
0
100
AcDbSymbolTable
 70
     4
  0
LTYPE
  5
14
330
5
100
AcDbSymbolTableRecord
100
AcDbLinetypeTableRecord
  2
ByBlock
 70
     0
  3

 72
    65
 73
     0
 40
0.0
  0
LTYPE
  5
15
330
5
100
AcDbSymbolTableRecord
100
AcDbLinetypeTableRecord
  2
ByLayer
 70
     0
  3

 72
    65
 73
     0
 40
0.0
  0
LTYPE
  5
16
330
5
100
AcDbSymbolTableRecord
100
AcDbLinetypeTableRecord
  2
Continuous
 70
     0
  3
Solid line
 72
    65
 73
     0
 40
0.0
  0
LTYPE
  5
19D
330
5
100
AcDbSymbolTableRecord
100
AcDbLinetypeTableRecord
  2
ACAD_ISO04W100
 70
     0
  3
ISO long-dash dot ____ . ____ . ____ . ____ . _
 72
    65
 73
     4
 40
30.0
 49
24.0
 74
     0
 49
-3.0
 74
     0
 49
0.0
 74
     0
 49
-3.0
 74
     0
  0
LTYPE
  5
19E
330
5
100
AcDbSymbolTableRecord
100
AcDbLinetypeTableRecord
  2
ACAD_ISO02W100
 70
     0
  3
ISO dash __ __ __ __ __ __ __ __ __ __ __ __ __
 72
    65
 73
     2
 40
15.0
 49
12.0
 74
     0
 49
-3.0
 74
     0
  0
LTYPE
  5
3BD
330
5
100
AcDbSymbolTableRecord
100
AcDbLinetypeTableRecord
  2
DASHED
 70
     0
  3
__ __ __ __ __ __ __ __ __ __ __ __ __ __ __ __
 72
    65
 73
     2
 40
0.75
 49
0.5
 74
     0
 49
-0.25
 74
     0
  0
ENDTAB
  0
TABLE
  2
LAYER
  5
2
102
{ACAD_XDICTIONARY
360
2859
102
}
330
0
100
AcDbSymbolTable
 70
     9
  0
LAYER
  5
10
102
{ACAD_XDICTIONARY
360
F074
102
}
330
2
100
AcDbSymbolTableRecord
100
AcDbLayerTableRecord
  2
0
 70
     0
 62
     7
  6
Continuous
370
    25
390
F
  0
LAYER
  5
33
102
{ACAD_XDICTIONARY
360
F07A
102
}
330
2
100
AcDbSymbolTableRecord
100
AcDbLayerTableRecord
  2
003
 70
     0
 62
     2
  6
Continuous
370
    25
390
F
  0
LAYER
  5
1A4
102
{ACAD_XDICTIONARY
360
F080
102
}
330
2
100
AcDbSymbolTableRecord
100
AcDbLayerTableRecord
  2
006
 70
     0
 62
     4
  6
ACAD_ISO04W100
370
    20
390
F
  0
LAYER
  5
1A5
102
{ACAD_XDICTIONARY
360
F082
102
}
330
2
100
AcDbSymbolTableRecord
100
AcDbLayerTableRecord
  2
007
 70
     0
 62
     4
  6
ACAD_ISO02W100
370
    20
390
F
  0
LAYER
  5
1A8
330
2
100
AcDbSymbolTableRecord
100
AcDbLayerTableRecord
  2
Defpoints
 70
     0
 62
     7
  6
Continuous
290
     0
370
    25
390
F
  0
LAYER
  5
2B1
102
{ACAD_XDICTIONARY
360
F088
102
}
330
2
100
AcDbSymbolTableRecord
100
AcDbLayerTableRecord
  2
010
 70
     0
 62
     4
  6
Continuous
370
    20
390
F
  0
LAYER
  5
16250
330
2
100
AcDbSymbolTableRecord
100
AcDbLayerTableRecord
  2
_13極細線
 70
     0
 62
   181
  6
Continuous
370
     5
390
F
  0
LAYER
  5
168AB
330
2
100
AcDbSymbolTableRecord
100
AcDbLayerTableRecord
  2
KI
 70
     0
 62
     7
  6
Continuous
370
    -3
390
F
  0
LAYER
  5
168AD
330
2
100
AcDbSymbolTableRecord
100
AcDbLayerTableRecord
  2
OS
 70
     0
 62
     7
  6
Continuous
370
    -3
390
F
  0
ENDTAB
  0
TABLE
  2
STYLE
  5
3
330
0
100
AcDbSymbolTable
 70
     4
  0
STYLE
  5
11
330
3
100
AcDbSymbolTableRecord
100
AcDbTextStyleTableRecord
  2
Standard
 70
     0
 40
0.0
 41
1.0
 50
0.0
 71
     0
 42
2.5
  3
txt
  4

  0
STYLE
  5
34
330
3
100
AcDbSymbolTableRecord
100
AcDbTextStyleTableRecord
  2
DIM
 70
     0
 40
0.0
 41
0.75
 50
0.0
 71
     0
 42
60.0
  3
romans.shx
  4
extfont.shx
  0
STYLE
  5
35
330
3
100
AcDbSymbolTableRecord
100
AcDbTextStyleTableRecord
  2
AT_VECTOR
 70
     0
 40
0.0
 41
1.0
 50
0.0
 71
     0
 42
3.0
  3
romans.shx
  4
extfont.shx
  0
STYLE
  5
16252
330
3
100
AcDbSymbolTableRecord
100
AcDbTextStyleTableRecord
  2
ST_Design
 70
     0
 40
4.0
 41
0.8
 50
0.0
 71
     0
 42
4.0
  3
romans.shx
  4
extfont2.shx
  0
ENDTAB
  0
TABLE
  2
VIEW
  5
6
330
0
100
AcDbSymbolTable
 70
     0
  0
ENDTAB
  0
TABLE
  2
UCS
  5
7
330
0
100
AcDbSymbolTable
 70
     0
  0
ENDTAB
  0
TABLE
  2
APPID
  5
9
330
0
100
AcDbSymbolTable
 70
    14
  0
APPID
  5
12
330
9
100
AcDbSymbolTableRecord
100
AcDbRegAppTableRecord
  2
ACAD
 70
     0
  0
APPID
  5
3DA
330
9
100
AcDbSymbolTableRecord
100
AcDbRegAppTableRecord
  2
BS2_OSAMARI_KUTAI
 70
     0
  0
APPID
  5
3DB
330
9
100
AcDbSymbolTableRecord
100
AcDbRegAppTableRecord
  2
BS2_OSAMARI_ISIAGE
 70
     0
  0
APPID
  5
3DC
330
9
100
AcDbSymbolTableRecord
100
AcDbRegAppTableRecord
  2
BS2_OSAMARI_IMOKU
 70
     0
  0
APPID
  5
3DD
330
9
100
AcDbSymbolTableRecord
100
AcDbRegAppTableRecord
  2
BS2_OSAMARI_OSIAGE
 70
     0
  0
APPID
  5
3DE
330
9
100
AcDbSymbolTableRecord
100
AcDbRegAppTableRecord
  2
BS2_OSAMARI_OFZK
 70
     0
  0
APPID
  5
E427
330
9
100
AcDbSymbolTableRecord
100
AcDbRegAppTableRecord
  2
ACAD_MLEADERVER
 70
     0
  0
APPID
  5
F13C
330
9
100
AcDbSymbolTableRecord
100
AcDbRegAppTableRecord
  2
ACAD_EXEMPT_FROM_CAD_STANDARDS
 70
     0
  0
APPID
  5
F7FB
330
9
100
AcDbSymbolTableRecord
100
AcDbRegAppTableRecord
  2
ACAD_PSEXT
 70
     0
  0
APPID
  5
12721
330
9
100
AcDbSymbolTableRecord
100
AcDbRegAppTableRecord
  2
ACAD_DSTYLE_DIMJAG
 70
     0
  0
APPID
  5
12722
330
9
100
AcDbSymbolTableRecord
100
AcDbRegAppTableRecord
  2
ACAD_DSTYLE_DIMTALN
 70
     0
  0
APPID
  5
1393B
330
9
100
AcDbSymbolTableRecord
100
AcDbRegAppTableRecord
  2
YALIB
 70
     0
  0
APPID
  5
168AF
330
9
100
AcDbSymbolTableRecord
100
AcDbRegAppTableRecord
  2
GENIUS_GENODEF_13
 70
     0
  0
APPID
  5
168B0
330
9
100
AcDbSymbolTableRecord
100
AcDbRegAppTableRecord
  2
GENIUS_GENOBJ-N-FIL_13
 70
     0
  0
ENDTAB
  0
TABLE
  2
DIMSTYLE
  5
A
330
0
100
AcDbSymbolTable
 70
     2
100
AcDbDimStyleTable
 71
     2
340
38
340
1A9
  0
DIMSTYLE
105
38
102
{ACAD_REACTORS
330
17745
330
177AF
330
177B0
330
177CF
330
17632
330
17633
330
176AC
330
18386
330
1838B
330
188ED
330
188FA
102
}
330
A
100
AcDbSymbolTableRecord
100
AcDbDimStyleTableRecord
  2
DIM
 70
     0
 40
2.0
 41
1.5
 42
1.5
 43
7.0
 44
1.0
 73
     0
 74
     0
 77
     1
 78
     8
140
3.0
141
0.0
143
0.03937007874016
147
1.0
171
     3
172
     1
176
     4
177
     4
178
     7
271
     2
272
     2
274
     3
283
     0
284
     8
340
34
341
2B
342
2B
371
    20
372
    20
  0
DIMSTYLE
105
1A9
330
A
100
AcDbSymbolTableRecord
100
AcDbDimStyleTableRecord
  2
Standard
 70
     0
340
11
  0
ENDTAB
  0
TABLE
  2
BLOCK_RECORD
  5
1
330
0
100
AcDbSymbolTable
 70
    13
  0
BLOCK_RECORD
  5
1F
102
{ACAD_XDICTIONARY
360
F144
102
}
330
1
100
AcDbSymbolTableRecord
100
AcDbBlockTableRecord
  2
*Model_Space
340
22
  0
BLOCK_RECORD
  5
1B
330
1
100
AcDbSymbolTableRecord
100
AcDbBlockTableRecord
  2
*Paper_Space
340
1E
  0
BLOCK_RECORD
  5
23
330
1
100
AcDbSymbolTableRecord
100
AcDbBlockTableRecord
  2
*Paper_Space0
340
26
  0
BLOCK_RECORD
  5
2B
330
1
100
AcDbSymbolTableRecord
100
AcDbBlockTableRecord
  2
_Open30
340
0
102
{BLKREFS
331
184BF
331
184C0
331
184C8
331
184C9
331
18978
331
18979
331
18983
331
18984
331
1898C
331
1898D
331
18995
331
18996
331
189A0
331
189A1
331
189A9
331
189AA
331
189B2
331
189B3
331
189C3
331
189C4
331
189CC
331
189CD
102
}
  0
BLOCK_RECORD
  5
180DD
330
1
100
AcDbSymbolTableRecord
100
AcDbBlockTableRecord
  2
*D2
340
0
  0
BLOCK_RECORD
  5
180E9
330
1
100
AcDbSymbolTableRecord
100
AcDbBlockTableRecord
  2
*D3
340
0
  0
BLOCK_RECORD
  5
180F5
330
1
100
AcDbSymbolTableRecord
100
AcDbBlockTableRecord
  2
*D4
340
0
  0
BLOCK_RECORD
  5
18103
330
1
100
AcDbSymbolTableRecord
100
AcDbBlockTableRecord
  2
*D5
340
0
  0
BLOCK_RECORD
  5
18157
330
1
100
AcDbSymbolTableRecord
100
AcDbBlockTableRecord
  2
*D6
340
0
  0
BLOCK_RECORD
  5
18163
330
1
100
AcDbSymbolTableRecord
100
AcDbBlockTableRecord
  2
*D7
340
0
  0
BLOCK_RECORD
  5
1816F
330
1
100
AcDbSymbolTableRecord
100
AcDbBlockTableRecord
  2
*D8
340
0
  0
BLOCK_RECORD
  5
183C4
330
1
100
AcDbSymbolTableRecord
100
AcDbBlockTableRecord
  2
*D9
340
0
  0
BLOCK_RECORD
  5
183D0
330
1
100
AcDbSymbolTableRecord
100
AcDbBlockTableRecord
  2
*D10
340
0
  0
BLOCK_RECORD
  5
188EE
330
1
100
AcDbSymbolTableRecord
100
AcDbBlockTableRecord
  2
*D11
340
0
  0
BLOCK_RECORD
  5
188FB
330
1
100
AcDbSymbolTableRecord
100
AcDbBlockTableRecord
  2
*D12
340
0
  0
ENDTAB
  0
ENDSEC
  0
SECTION
  2
BLOCKS
  0
BLOCK
  5
20
330
1F
100
AcDbEntity
  8
0
100
AcDbBlockBegin
  2
*Model_Space
 70
     0
 10
0.0
 20
0.0
 30
0.0
  3
*Model_Space
  1

  0
ENDBLK
  5
21
330
1F
100
AcDbEntity
  8
0
100
AcDbBlockEnd
  0
BLOCK
  5
1C
330
1B
100
AcDbEntity
 67
     1
  8
0
100
AcDbBlockBegin
  2
*Paper_Space
 70
     0
 10
0.0
 20
0.0
 30
0.0
  3
*Paper_Space
  1

  0
ENDBLK
  5
1D
330
1B
100
AcDbEntity
 67
     1
  8
0
100
AcDbBlockEnd
  0
BLOCK
  5
24
330
23
100
AcDbEntity
 67
     1
  8
0
100
AcDbBlockBegin
  2
*Paper_Space0
 70
     0
 10
0.0
 20
0.0
 30
0.0
  3
*Paper_Space0
  1

  0
ENDBLK
  5
25
330
23
100
AcDbEntity
 67
     1
  8
0
100
AcDbBlockEnd
  0
BLOCK
  5
2F
330
2B
100
AcDbEntity
  8
0
100
AcDbBlockBegin
  2
_Open30
 70
     0
 10
0.0
 20
0.0
 30
0.0
  3
_Open30
  1

  0
LINE
  5
2C
330
2B
100
AcDbEntity
  8
0
  6
ByBlock
 62
     0
370
    -2
100
AcDbLine
 10
-1.0
 20
0.26794919
 30
0.0
 11
0.0
 21
0.0
 31
0.0
  0
LINE
  5
2D
330
2B
100
AcDbEntity
  8
0
  6
ByBlock
 62
     0
370
    -2
100
AcDbLine
 10
0.0
 20
0.0
 30
0.0
 11
-1.0
 21
-0.26794919
 31
0.0
  0
LINE
  5
2E
330
2B
100
AcDbEntity
  8
0
  6
ByBlock
 62
     0
370
    -2
100
AcDbLine
 10
0.0
 20
0.0
 30
0.0
 11
-1.0
 21
0.0
 31
0.0
  0
ENDBLK
  5
30
330
2B
100
AcDbEntity
  8
0
100
AcDbBlockEnd
  0
BLOCK
  5
180DE
330
180DD
100
AcDbEntity
  8
0
100
AcDbBlockBegin
  2
*D2
 70
     1
 10
0.0
 20
0.0
 30
0.0
  3
*D2
  1

  0
LINE
  5
18992
330
180DD
100
AcDbEntity
  8
003
 62
     4
370
    20
100
AcDbLine
 10
574.9582168559184
 20
227.7827050314336
 30
0.0
 11
579.19206269758
 21
227.7827050314336
 31
0.0
  0
LINE
  5
18993
330
180DD
100
AcDbEntity
  8
003
 62
     4
370
    20
100
AcDbLine
 10
577.4330710027973
 20
157.782705031434
 30
0.0
 11
579.19206269758
 21
157.782705031434
 31
0.0
  0
LINE
  5
18994
330
180DD
100
AcDbEntity
  8
003
 62
     4
370
    20
100
AcDbLine
 10
577.1920626975799
 20
224.7827050314335
 30
0.0
 11
577.1920626975799
 21
160.782705031434
 31
0.0
  0
INSERT
  5
18995
330
180DD
100
AcDbEntity
  8
003
 62
     4
370
    20
100
AcDbBlockReference
  2
_Open30
 10
577.1920626975799
 20
227.7827050314336
 30
0.0
 41
3.0
 42
3.0
 43
3.0
 50
90.0
  0
INSERT
  5
18996
330
180DD
100
AcDbEntity
  8
003
 62
     4
370
    20
100
AcDbBlockReference
  2
_Open30
 10
577.1920626975799
 20
157.782705031434
 30
0.0
 41
3.0
 42
3.0
 43
3.0
 50
270.0
  0
MTEXT
  5
18997
330
180DD
100
AcDbEntity
  8
003
 62
     7
100
AcDbMText
 10
572.19206269758
 20
192.7827050314339
 30
0.0
 40
6.0
 41
0.0
 71
     5
 72
     1
  1
70
  7
DIM
 11
0.0000000000000001
 21
1.0
 31
0.0
 73
     1
 44
1.0
1001
ACAD
1000
MTEXTBEGIN
1070
    73
1070
     1
1070
    44
1040
1.0
1070
    74
1070
     0
1000
MTEXTEND
  0
POINT
  5
18998
330
180DD
100
AcDbEntity
  8
Defpoints
 62
     0
100
AcDbPoint
 10
571.9582168559184
 20
227.7827050314336
 30
0.0
  0
POINT
  5
18999
330
180DD
100
AcDbEntity
  8
Defpoints
 62
     0
100
AcDbPoint
 10
574.4330710027973
 20
157.782705031434
 30
0.0
  0
POINT
  5
1899A
330
180DD
100
AcDbEntity
  8
Defpoints
 62
     0
100
AcDbPoint
 10
577.1920626975799
 20
157.782705031434
 30
0.0
  0
ENDBLK
  5
180DF
330
180DD
100
AcDbEntity
  8
0
100
AcDbBlockEnd
  0
BLOCK
  5
180EA
330
180E9
100
AcDbEntity
  8
0
100
AcDbBlockBegin
  2
*D3
 70
     1
 10
0.0
 20
0.0
 30
0.0
  3
*D3
  1

  0
LINE
  5
18989
330
180E9
100
AcDbEntity
  8
003
 62
     4
370
    20
100
AcDbLine
 10
559.0152399062664
 20
287.2827050314336
 30
0.0
 11
579.1920626975801
 21
287.2827050314336
 31
0.0
  0
LINE
  5
1898A
330
180E9
100
AcDbEntity
  8
003
 62
     4
370
    20
100
AcDbLine
 10
574.9582168559184
 20
227.7827050314336
 30
0.0
 11
579.19206269758
 21
227.7827050314336
 31
0.0
  0
LINE
  5
1898B
330
180E9
100
AcDbEntity
  8
003
 62
     4
370
    20
100
AcDbLine
 10
577.1920626975801
 20
284.2827050314336
 30
0.0
 11
577.1920626975799
 21
230.7827050314335
 31
0.0
  0
INSERT
  5
1898C
330
180E9
100
AcDbEntity
  8
003
 62
     4
370
    20
100
AcDbBlockReference
  2
_Open30
 10
577.1920626975801
 20
287.2827050314336
 30
0.0
 41
3.0
 42
3.0
 43
3.0
 50
90.0
  0
INSERT
  5
1898D
330
180E9
100
AcDbEntity
  8
003
 62
     4
370
    20
100
AcDbBlockReference
  2
_Open30
 10
577.1920626975799
 20
227.7827050314336
 30
0.0
 41
3.0
 42
3.0
 43
3.0
 50
270.0
  0
MTEXT
  5
1898E
330
180E9
100
AcDbEntity
  8
003
 62
     7
100
AcDbMText
 10
572.19206269758
 20
257.5327050314336
 30
0.0
 40
6.0
 41
0.0
 71
     5
 72
     1
  1
59.5
  7
DIM
 11
0.0000000000000001
 21
1.0
 31
0.0
 73
     1
 44
1.0
1001
ACAD
1000
MTEXTBEGIN
1070
    73
1070
     1
1070
    44
1040
1.0
1070
    74
1070
     0
1000
MTEXTEND
  0
POINT
  5
1898F
330
180E9
100
AcDbEntity
  8
Defpoints
 62
     0
100
AcDbPoint
 10
556.0152399062664
 20
287.2827050314336
 30
0.0
  0
POINT
  5
18990
330
180E9
100
AcDbEntity
  8
Defpoints
 62
     0
100
AcDbPoint
 10
571.9582168559184
 20
227.7827050314336
 30
0.0
  0
POINT
  5
18991
330
180E9
100
AcDbEntity
  8
Defpoints
 62
     0
100
AcDbPoint
 10
577.1920626975799
 20
227.7827050314336
 30
0.0
  0
ENDBLK
  5
180EB
330
180E9
100
AcDbEntity
  8
0
100
AcDbBlockEnd
  0
BLOCK
  5
180F6
330
180F5
100
AcDbEntity
  8
0
100
AcDbBlockBegin
  2
*D4
 70
     1
 10
0.0
 20
0.0
 30
0.0
  3
*D4
  1

  0
LINE
  5
1897E
330
180F5
100
AcDbEntity
  8
003
 62
     4
370
    20
100
AcDbLine
 10
565.0152399062664
 20
280.2827050314336
 30
0.0
 11
565.0152399062664
 21
324.6406588029395
 31
0.0
  0
LINE
  5
1897F
330
180F5
100
AcDbEntity
  8
003
 62
     4
370
    20
100
AcDbLine
 10
566.0152399062665
 20
230.2827049441671
 30
0.0
 11
566.0152399062665
 21
324.6406588029395
 31
0.0
  0
LINE
  5
18980
330
180F5
100
AcDbEntity
  8
003
 62
     4
370
    20
100
AcDbLine
 10
562.0152399062665
 20
322.6406588029395
 30
0.0
 11
559.0152399062665
 21
322.6406588029395
 31
0.0
  0
LINE
  5
18981
330
180F5
100
AcDbEntity
  8
003
 62
     4
370
    20
100
AcDbLine
 10
569.0152399062665
 20
322.6406588029395
 30
0.0
 11
577.086668477695
 21
322.6406588029395
 31
0.0
  0
LINE
  5
18982
330
180F5
100
AcDbEntity
  8
003
 62
     4
370
    20
100
AcDbLine
 10
565.0152399062664
 20
322.6406588029395
 30
0.0
 11
566.0152399062665
 21
322.6406588029395
 31
0.0
  0
INSERT
  5
18983
330
180F5
100
AcDbEntity
  8
003
 62
     4
370
    20
100
AcDbBlockReference
  2
_Open30
 10
565.0152399062664
 20
322.6406588029395
 30
0.0
 41
3.0
 42
3.0
 43
3.0
  0
INSERT
  5
18984
330
180F5
100
AcDbEntity
  8
003
 62
     4
370
    20
100
AcDbBlockReference
  2
_Open30
 10
566.0152399062665
 20
322.6406588029395
 30
0.0
 41
3.0
 42
3.0
 43
3.0
 50
180.0
  0
MTEXT
  5
18985
330
180F5
100
AcDbEntity
  8
003
 62
     7
100
AcDbMText
 10
574.5509541919808
 20
327.6406588029395
 30
0.0
 40
6.0
 41
0.0
 71
     5
 72
     1
  1
1
  7
DIM
 73
     1
 44
1.0
1001
ACAD
1000
MTEXTBEGIN
1070
    73
1070
     1
1070
    44
1040
1.0
1070
    74
1070
     0
1000
MTEXTEND
  0
POINT
  5
18986
330
180F5
100
AcDbEntity
  8
Defpoints
 62
     0
100
AcDbPoint
 10
565.0152399062664
 20
277.2827050314336
 30
0.0
  0
POINT
  5
18987
330
180F5
100
AcDbEntity
  8
Defpoints
 62
     0
100
AcDbPoint
 10
566.0152399062665
 20
227.2827049441671
 30
0.0
  0
POINT
  5
18988
330
180F5
100
AcDbEntity
  8
Defpoints
 62
     0
100
AcDbPoint
 10
566.0152399062665
 20
322.6406588029395
 30
0.0
  0
ENDBLK
  5
180F7
330
180F5
100
AcDbEntity
  8
0
100
AcDbBlockEnd
  0
BLOCK
  5
18104
330
18103
100
AcDbEntity
  8
0
100
AcDbBlockBegin
  2
*D5
 70
     1
 10
0.0
 20
0.0
 30
0.0
  3
*D5
  1

  0
LINE
  5
18975
330
18103
100
AcDbEntity
  8
003
 62
     4
370
    20
100
AcDbLine
 10
553.5902499062668
 20
222.2827050314336
 30
0.0
 11
552.5343847853664
 21
222.2827050314336
 31
0.0
  0
LINE
  5
18976
330
18103
100
AcDbEntity
  8
003
 62
     4
370
    20
100
AcDbLine
 10
549.0152399062663
 20
287.2827050314336
 30
0.0
 11
556.5343847853665
 21
287.2827050314336
 31
0.0
  0
LINE
  5
18977
330
18103
100
AcDbEntity
  8
003
 62
     4
370
    20
100
AcDbLine
 10
554.5343847853664
 20
225.2827050314336
 30
0.0
 11
554.5343847853665
 21
284.2827050314336
 31
0.0
  0
INSERT
  5
18978
330
18103
100
AcDbEntity
  8
003
 62
     4
370
    20
100
AcDbBlockReference
  2
_Open30
 10
554.5343847853664
 20
222.2827050314336
 30
0.0
 41
3.0
 42
3.0
 43
3.0
 50
270.0
  0
INSERT
  5
18979
330
18103
100
AcDbEntity
  8
003
 62
     4
370
    20
100
AcDbBlockReference
  2
_Open30
 10
554.5343847853665
 20
287.2827050314336
 30
0.0
 41
3.0
 42
3.0
 43
3.0
 50
90.0
  0
MTEXT
  5
1897A
330
18103
100
AcDbEntity
  8
003
 62
     7
100
AcDbMText
 10
549.5343847853664
 20
254.7827050314336
 30
0.0
 40
6.0
 41
0.0
 71
     5
 72
     1
  1
65
  7
DIM
 11
0.0000000000000001
 21
1.0
 31
0.0
 73
     1
 44
1.0
1001
ACAD
1000
MTEXTBEGIN
1070
    73
1070
     1
1070
    44
1040
1.0
1070
    74
1070
     0
1000
MTEXTEND
  0
POINT
  5
1897B
330
18103
100
AcDbEntity
  8
Defpoints
 62
     0
100
AcDbPoint
 10
556.5902499062668
 20
222.2827050314336
 30
0.0
  0
POINT
  5
1897C
330
18103
100
AcDbEntity
  8
Defpoints
 62
     0
100
AcDbPoint
 10
546.0152399062663
 20
287.2827050314336
 30
0.0
  0
POINT
  5
1897D
330
18103
100
AcDbEntity
  8
Defpoints
 62
     0
100
AcDbPoint
 10
554.5343847853665
 20
287.2827050314336
 30
0.0
  0
ENDBLK
  5
18105
330
18103
100
AcDbEntity
  8
0
100
AcDbBlockEnd
  0
BLOCK
  5
18158
330
18157
100
AcDbEntity
  8
0
100
AcDbBlockBegin
  2
*D6
 70
     1
 10
0.0
 20
0.0
 30
0.0
  3
*D6
  1

  0
LINE
  5
189AF
330
18157
100
AcDbEntity
  8
003
 62
     4
370
    20
100
AcDbLine
 10
299.0152399062667
 20
155.2827051187005
 30
0.0
 11
299.0152399062667
 21
118.6001278518657
 31
0.0
  0
LINE
  5
189B0
330
18157
100
AcDbEntity
  8
003
 62
     4
370
    20
100
AcDbLine
 10
566.0152399062665
 20
155.2827051187005
 30
0.0
 11
566.0152399062665
 21
118.6001278518657
 31
0.0
  0
LINE
  5
189B1
330
18157
100
AcDbEntity
  8
003
 62
     4
370
    20
100
AcDbLine
 10
302.0152399062667
 20
120.6001278518657
 30
0.0
 11
563.0152399062665
 21
120.6001278518657
 31
0.0
  0
INSERT
  5
189B2
330
18157
100
AcDbEntity
  8
003
 62
     4
370
    20
100
AcDbBlockReference
  2
_Open30
 10
299.0152399062667
 20
120.6001278518657
 30
0.0
 41
3.0
 42
3.0
 43
3.0
 50
180.0
  0
INSERT
  5
189B3
330
18157
100
AcDbEntity
  8
003
 62
     4
370
    20
100
AcDbBlockReference
  2
_Open30
 10
566.0152399062665
 20
120.6001278518657
 30
0.0
 41
3.0
 42
3.0
 43
3.0
  0
MTEXT
  5
189B4
330
18157
100
AcDbEntity
  8
003
 62
     7
100
AcDbMText
 10
432.5152399062666
 20
125.6001278518657
 30
0.0
 40
6.0
 41
0.0
 71
     5
 72
     1
  1
SW
  7
DIM
 73
     1
 44
1.0
1001
ACAD
1000
MTEXTBEGIN
1070
    73
1070
     1
1070
    44
1040
1.0
1070
    74
1070
     0
1000
MTEXTEND
  0
POINT
  5
189B5
330
18157
100
AcDbEntity
  8
Defpoints
 62
     0
100
AcDbPoint
 10
299.0152399062667
 20
158.2827051187005
 30
0.0
  0
POINT
  5
189B6
330
18157
100
AcDbEntity
  8
Defpoints
 62
     0
100
AcDbPoint
 10
566.0152399062665
 20
158.2827051187005
 30
0.0
  0
POINT
  5
189B7
330
18157
100
AcDbEntity
  8
Defpoints
 62
     0
100
AcDbPoint
 10
566.0152399062665
 20
120.6001278518657
 30
0.0
  0
ENDBLK
  5
18159
330
18157
100
AcDbEntity
  8
0
100
AcDbBlockEnd
  0
BLOCK
  5
18164
330
18163
100
AcDbEntity
  8
0
100
AcDbBlockBegin
  2
*D7
 70
     1
 10
0.0
 20
0.0
 30
0.0
  3
*D7
  1

  0
LINE
  5
189A6
330
18163
100
AcDbEntity
  8
003
 62
     4
370
    20
100
AcDbLine
 10
300.0152399062667
 20
280.282705031434
 30
0.0
 11
300.0152399062667
 21
324.6406588029395
 31
0.0
  0
LINE
  5
189A7
330
18163
100
AcDbEntity
  8
003
 62
     4
370
    20
100
AcDbLine
 10
565.0152399062664
 20
280.2827050314336
 30
0.0
 11
565.0152399062664
 21
324.6406588029395
 31
0.0
  0
LINE
  5
189A8
330
18163
100
AcDbEntity
  8
003
 62
     4
370
    20
100
AcDbLine
 10
303.0152399062667
 20
322.6406588029395
 30
0.0
 11
562.0152399062665
 21
322.6406588029395
 31
0.0
  0
INSERT
  5
189A9
330
18163
100
AcDbEntity
  8
003
 62
     4
370
    20
100
AcDbBlockReference
  2
_Open30
 10
300.0152399062667
 20
322.6406588029395
 30
0.0
 41
3.0
 42
3.0
 43
3.0
 50
180.0
  0
INSERT
  5
189AA
330
18163
100
AcDbEntity
  8
003
 62
     4
370
    20
100
AcDbBlockReference
  2
_Open30
 10
565.0152399062664
 20
322.6406588029395
 30
0.0
 41
3.0
 42
3.0
 43
3.0
  0
MTEXT
  5
189AB
330
18163
100
AcDbEntity
  8
003
 62
     7
100
AcDbMText
 10
432.5152399062666
 20
327.6406588029395
 30
0.0
 40
6.0
 41
0.0
 71
     5
 72
     1
  1
製品W=SW-2
  7
DIM
 73
     1
 44
1.0
1001
ACAD
1000
MTEXTBEGIN
1070
    73
1070
     1
1070
    44
1040
1.0
1070
    74
1070
     0
1000
MTEXTEND
  0
POINT
  5
189AC
330
18163
100
AcDbEntity
  8
Defpoints
 62
     0
100
AcDbPoint
 10
300.0152399062667
 20
277.282705031434
 30
0.0
  0
POINT
  5
189AD
330
18163
100
AcDbEntity
  8
Defpoints
 62
     0
100
AcDbPoint
 10
565.0152399062664
 20
277.2827050314336
 30
0.0
  0
POINT
  5
189AE
330
18163
100
AcDbEntity
  8
Defpoints
 62
     0
100
AcDbPoint
 10
565.0152399062664
 20
322.6406588029395
 30
0.0
  0
ENDBLK
  5
18165
330
18163
100
AcDbEntity
  8
0
100
AcDbBlockEnd
  0
BLOCK
  5
18170
330
1816F
100
AcDbEntity
  8
0
100
AcDbBlockBegin
  2
*D8
 70
     1
 10
0.0
 20
0.0
 30
0.0
  3
*D8
  1

  0
LINE
  5
1899B
330
1816F
100
AcDbEntity
  8
003
 62
     4
370
    20
100
AcDbLine
 10
299.0152399062667
 20
230.2827049441671
 30
0.0
 11
299.0152399062667
 21
324.6406588029395
 31
0.0
  0
LINE
  5
1899C
330
1816F
100
AcDbEntity
  8
003
 62
     4
370
    20
100
AcDbLine
 10
300.0152399062667
 20
325.6406588029395
 30
0.0
 11
300.0152399062667
 21
324.6406588029395
 31
0.0
  0
LINE
  5
1899D
330
1816F
100
AcDbEntity
  8
003
 62
     4
370
    20
100
AcDbLine
 10
303.0152399062667
 20
322.6406588029395
 30
0.0
 11
306.0152399062667
 21
322.6406588029395
 31
0.0
  0
LINE
  5
1899E
330
1816F
100
AcDbEntity
  8
003
 62
     4
370
    20
100
AcDbLine
 10
296.0152399062668
 20
322.6406588029395
 30
0.0
 11
287.9438113348378
 21
322.6406588029395
 31
0.0
  0
LINE
  5
1899F
330
1816F
100
AcDbEntity
  8
003
 62
     4
370
    20
100
AcDbLine
 10
300.0152399062667
 20
322.6406588029395
 30
0.0
 11
299.0152399062667
 21
322.6406588029395
 31
0.0
  0
INSERT
  5
189A0
330
1816F
100
AcDbEntity
  8
003
 62
     4
370
    20
100
AcDbBlockReference
  2
_Open30
 10
300.0152399062667
 20
322.6406588029395
 30
0.0
 41
3.0
 42
3.0
 43
3.0
 50
180.0
  0
INSERT
  5
189A1
330
1816F
100
AcDbEntity
  8
003
 62
     4
370
    20
100
AcDbBlockReference
  2
_Open30
 10
299.0152399062667
 20
322.6406588029395
 30
0.0
 41
3.0
 42
3.0
 43
3.0
  0
MTEXT
  5
189A2
330
1816F
100
AcDbEntity
  8
003
 62
     7
100
AcDbMText
 10
290.4795256205521
 20
327.6406588029395
 30
0.0
 40
6.0
 41
0.0
 71
     5
 72
     1
  1
1
  7
DIM
 73
     1
 44
1.0
1001
ACAD
1000
MTEXTBEGIN
1070
    73
1070
     1
1070
    44
1040
1.0
1070
    74
1070
     0
1000
MTEXTEND
  0
POINT
  5
189A3
330
1816F
100
AcDbEntity
  8
Defpoints
 62
     0
100
AcDbPoint
 10
299.0152399062667
 20
227.2827049441671
 30
0.0
  0
POINT
  5
189A4
330
1816F
100
AcDbEntity
  8
Defpoints
 62
     0
100
AcDbPoint
 10
300.0152399062667
 20
322.6406588029395
 30
0.0
  0
POINT
  5
189A5
330
1816F
100
AcDbEntity
  8
Defpoints
 62
     0
100
AcDbPoint
 10
300.0152399062667
 20
322.6406588029395
 30
0.0
  0
ENDBLK
  5
18171
330
1816F
100
AcDbEntity
  8
0
100
AcDbBlockEnd
  0
BLOCK
  5
183C5
330
183C4
100
AcDbEntity
  8
0
100
AcDbBlockBegin
  2
*D9
 70
     1
 10
0.0
 20
0.0
 30
0.0
  3
*D9
  1

  0
LINE
  5
184BC
330
183C4
100
AcDbEntity
  8
003
 62
     4
370
    20
100
AcDbLine
 10
683.790587796177
 20
418.2401181554426
 30
0.0
 11
721.5525996421706
 21
418.2401181554426
 31
0.0
  0
LINE
  5
184BD
330
183C4
100
AcDbEntity
  8
003
 62
     4
370
    20
100
AcDbLine
 10
683.790587796177
 20
528.3401181554426
 30
0.0
 11
721.5525996421706
 21
528.3401181554426
 31
0.0
  0
LINE
  5
184BE
330
183C4
100
AcDbEntity
  8
003
 62
     4
370
    20
100
AcDbLine
 10
719.5525996421706
 20
421.2401181554425
 30
0.0
 11
719.5525996421706
 21
525.3401181554425
 31
0.0
  0
INSERT
  5
184BF
330
183C4
100
AcDbEntity
  8
003
 62
     4
370
    20
100
AcDbBlockReference
  2
_Open30
 10
719.5525996421706
 20
418.2401181554426
 30
0.0
 41
3.0
 42
3.0
 43
3.0
 50
270.0
  0
INSERT
  5
184C0
330
183C4
100
AcDbEntity
  8
003
 62
     4
370
    20
100
AcDbBlockReference
  2
_Open30
 10
719.5525996421706
 20
528.3401181554426
 30
0.0
 41
3.0
 42
3.0
 43
3.0
 50
90.0
  0
MTEXT
  5
184C1
330
183C4
100
AcDbEntity
  8
003
 62
     7
100
AcDbMText
 10
714.5525996421705
 20
473.2901181554427
 30
0.0
 40
6.0
 41
0.0
 71
     5
 72
     1
  1
製品H
  7
DIM
 11
0.0000000000000001
 21
1.0
 31
0.0
 73
     1
 44
1.0
1001
ACAD
1000
MTEXTBEGIN
1070
    73
1070
     1
1070
    44
1040
1.0
1070
    74
1070
     0
1000
MTEXTEND
  0
POINT
  5
184C2
330
183C4
100
AcDbEntity
  8
Defpoints
 62
     0
100
AcDbPoint
 10
680.790587796177
 20
418.2401181554426
 30
0.0
  0
POINT
  5
184C3
330
183C4
100
AcDbEntity
  8
Defpoints
 62
     0
100
AcDbPoint
 10
680.790587796177
 20
528.3401181554426
 30
0.0
  0
POINT
  5
184C4
330
183C4
100
AcDbEntity
  8
Defpoints
 62
     0
100
AcDbPoint
 10
719.5525996421706
 20
528.3401181554426
 30
0.0
  0
ENDBLK
  5
183C6
330
183C4
100
AcDbEntity
  8
0
100
AcDbBlockEnd
  0
BLOCK
  5
183D1
330
183D0
100
AcDbEntity
  8
0
100
AcDbBlockBegin
  2
*D10
 70
     1
 10
0.0
 20
0.0
 30
0.0
  3
*D10
  1

  0
LINE
  5
184C5
330
183D0
100
AcDbEntity
  8
003
 62
     4
370
    20
100
AcDbLine
 10
590.7905877961771
 20
415.2401181554425
 30
0.0
 11
590.7905877961771
 21
393.9218147561323
 31
0.0
  0
LINE
  5
184C6
330
183D0
100
AcDbEntity
  8
003
 62
     4
370
    20
100
AcDbLine
 10
680.790587796177
 20
415.2401181554425
 30
0.0
 11
680.790587796177
 21
393.9218147561323
 31
0.0
  0
LINE
  5
184C7
330
183D0
100
AcDbEntity
  8
003
 62
     4
370
    20
100
AcDbLine
 10
593.790587796177
 20
395.9218147561323
 30
0.0
 11
677.7905877961771
 21
395.9218147561323
 31
0.0
  0
INSERT
  5
184C8
330
183D0
100
AcDbEntity
  8
003
 62
     4
370
    20
100
AcDbBlockReference
  2
_Open30
 10
590.7905877961771
 20
395.9218147561323
 30
0.0
 41
3.0
 42
3.0
 43
3.0
 50
180.0
  0
INSERT
  5
184C9
330
183D0
100
AcDbEntity
  8
003
 62
     4
370
    20
100
AcDbBlockReference
  2
_Open30
 10
680.790587796177
 20
395.9218147561323
 30
0.0
 41
3.0
 42
3.0
 43
3.0
  0
MTEXT
  5
184CA
330
183D0
100
AcDbEntity
  8
003
 62
     7
100
AcDbMText
 10
635.790587796177
 20
400.9218147561323
 30
0.0
 40
6.0
 41
0.0
 71
     5
 72
     1
  1
製品W
  7
DIM
 73
     1
 44
1.0
1001
ACAD
1000
MTEXTBEGIN
1070
    73
1070
     1
1070
    44
1040
1.0
1070
    74
1070
     0
1000
MTEXTEND
  0
POINT
  5
184CB
330
183D0
100
AcDbEntity
  8
Defpoints
 62
     0
100
AcDbPoint
 10
590.7905877961771
 20
418.2401181554426
 30
0.0
  0
POINT
  5
184CC
330
183D0
100
AcDbEntity
  8
Defpoints
 62
     0
100
AcDbPoint
 10
680.790587796177
 20
418.2401181554426
 30
0.0
  0
POINT
  5
184CD
330
183D0
100
AcDbEntity
  8
Defpoints
 62
     0
100
AcDbPoint
 10
680.790587796177
 20
395.9218147561323
 30
0.0
  0
ENDBLK
  5
183D2
330
183D0
100
AcDbEntity
  8
0
100
AcDbBlockEnd
  0
BLOCK
  5
188EF
330
188EE
100
AcDbEntity
  8
0
100
AcDbBlockBegin
  2
*D11
 70
     1
 10
0.0
 20
0.0
 30
0.0
  3
*D11
  1

  0
LINE
  5
189C9
330
188EE
100
AcDbEntity
  8
003
 62
     4
370
    20
100
AcDbLine
 10
299.0152399062667
 20
155.282705031434
 30
0.0
 11
299.0152399062667
 21
132.6001278518657
 31
0.0
  0
LINE
  5
189CA
330
188EE
100
AcDbEntity
  8
003
 62
     4
370
    20
100
AcDbLine
 10
319.0152399062668
 20
214.9827150314336
 30
0.0
 11
319.0152399062668
 21
132.6001278518657
 31
0.0
  0
LINE
  5
189CB
330
188EE
100
AcDbEntity
  8
003
 62
     4
370
    20
100
AcDbLine
 10
302.0152399062667
 20
134.6001278518657
 30
0.0
 11
316.0152399062667
 21
134.6001278518657
 31
0.0
  0
INSERT
  5
189CC
330
188EE
100
AcDbEntity
  8
003
 62
     4
370
    20
100
AcDbBlockReference
  2
_Open30
 10
299.0152399062667
 20
134.6001278518657
 30
0.0
 41
3.0
 42
3.0
 43
3.0
 50
180.0
  0
INSERT
  5
189CD
330
188EE
100
AcDbEntity
  8
003
 62
     4
370
    20
100
AcDbBlockReference
  2
_Open30
 10
319.0152399062668
 20
134.6001278518657
 30
0.0
 41
3.0
 42
3.0
 43
3.0
  0
MTEXT
  5
189CE
330
188EE
100
AcDbEntity
  8
003
 62
     7
100
AcDbMText
 10
309.0152399062668
 20
139.6001278518657
 30
0.0
 40
6.0
 41
0.0
 71
     5
 72
     1
  1
20
  7
DIM
 73
     1
 44
1.0
1001
ACAD
1000
MTEXTBEGIN
1070
    73
1070
     1
1070
    44
1040
1.0
1070
    74
1070
     0
1000
MTEXTEND
  0
POINT
  5
189CF
330
188EE
100
AcDbEntity
  8
Defpoints
 62
     0
100
AcDbPoint
 10
299.0152399062667
 20
158.282705031434
 30
0.0
  0
POINT
  5
189D0
330
188EE
100
AcDbEntity
  8
Defpoints
 62
     0
100
AcDbPoint
 10
319.0152399062668
 20
217.9827150314336
 30
0.0
  0
POINT
  5
189D1
330
188EE
100
AcDbEntity
  8
Defpoints
 62
     0
100
AcDbPoint
 10
319.0152399062668
 20
134.6001278518657
 30
0.0
  0
ENDBLK
  5
188F0
330
188EE
100
AcDbEntity
  8
0
100
AcDbBlockEnd
  0
BLOCK
  5
188FC
330
188FB
100
AcDbEntity
  8
0
100
AcDbBlockBegin
  2
*D12
 70
     1
 10
0.0
 20
0.0
 30
0.0
  3
*D12
  1

  0
LINE
  5
189C0
330
188FB
100
AcDbEntity
  8
003
 62
     4
370
    20
100
AcDbLine
 10
566.0152399062665
 20
155.282705031434
 30
0.0
 11
566.0152399062665
 21
132.6001278518657
 31
0.0
  0
LINE
  5
189C1
330
188FB
100
AcDbEntity
  8
003
 62
     4
370
    20
100
AcDbLine
 10
546.0152399062665
 20
214.9827150314336
 30
0.0
 11
546.0152399062665
 21
132.6001278518657
 31
0.0
  0
LINE
  5
189C2
330
188FB
100
AcDbEntity
  8
003
 62
     4
370
    20
100
AcDbLine
 10
563.0152399062665
 20
134.6001278518657
 30
0.0
 11
549.0152399062664
 21
134.6001278518657
 31
0.0
  0
INSERT
  5
189C3
330
188FB
100
AcDbEntity
  8
003
 62
     4
370
    20
100
AcDbBlockReference
  2
_Open30
 10
566.0152399062665
 20
134.6001278518657
 30
0.0
 41
3.0
 42
3.0
 43
3.0
  0
INSERT
  5
189C4
330
188FB
100
AcDbEntity
  8
003
 62
     4
370
    20
100
AcDbBlockReference
  2
_Open30
 10
546.0152399062665
 20
134.6001278518657
 30
0.0
 41
3.0
 42
3.0
 43
3.0
 50
180.0
  0
MTEXT
  5
189C5
330
188FB
100
AcDbEntity
  8
003
 62
     7
100
AcDbMText
 10
556.0152399062665
 20
139.6001278518657
 30
0.0
 40
6.0
 41
0.0
 71
     5
 72
     1
  1
20
  7
DIM
 73
     1
 44
1.0
1001
ACAD
1000
MTEXTBEGIN
1070
    73
1070
     1
1070
    44
1040
1.0
1070
    74
1070
     0
1000
MTEXTEND
  0
POINT
  5
189C6
330
188FB
100
AcDbEntity
  8
Defpoints
 62
     0
100
AcDbPoint
 10
566.0152399062665
 20
158.282705031434
 30
0.0
  0
POINT
  5
189C7
330
188FB
100
AcDbEntity
  8
Defpoints
 62
     0
100
AcDbPoint
 10
546.0152399062665
 20
217.9827150314336
 30
0.0
  0
POINT
  5
189C8
330
188FB
100
AcDbEntity
  8
Defpoints
 62
     0
100
AcDbPoint
 10
546.0152399062665
 20
134.6001278518657
 30
0.0
  0
ENDBLK
  5
188FD
330
188FB
100
AcDbEntity
  8
0
100
AcDbBlockEnd
  0
ENDSEC
  0
SECTION
  2
ENTITIES
  0
POINT
  5
F7F2
330
1F
100
AcDbEntity
  8
0
100
AcDbPoint
 10
20.0000000000001
 20
558.0
 30
0.0
  0
TEXT
  5
164F0
330
1F
100
AcDbEntity
  8
0
100
AcDbText
 10
44.00000000000011
 20
537.0
 30
0.0
 40
6.0
  1
名称
  7
AT_VECTOR
 11
44.00000000000011
 21
540.0
 31
0.0
100
AcDbText
 73
     2
  0
TEXT
  5
164F1
330
1F
100
AcDbEntity
  8
0
100
AcDbText
 10
44.00000000000011
 20
549.0
 30
0.0
 40
6.0
  1
形式
  7
AT_VECTOR
 11
44.00000000000011
 21
552.0
 31
0.0
100
AcDbText
 73
     2
  0
LINE
  5
164F2
330
1F
100
AcDbEntity
  8
003
100
AcDbLine
 10
40.00000000000011
 20
546.0
 30
0.0
 11
175.0000000000001
 21
546.0
 31
0.0
  0
LINE
  5
164F3
330
1F
100
AcDbEntity
  8
003
100
AcDbLine
 10
40.00000000000011
 20
534.0
 30
0.0
 11
175.0000000000001
 21
534.0
 31
0.0
  0
TEXT
  5
164F4
330
1F
100
AcDbEntity
  8
0
100
AcDbText
 10
44.00000000000011
 20
501.0
 30
0.0
 40
6.0
  1
付属品
  7
AT_VECTOR
 11
44.00000000000011
 21
504.0
 31
0.0
100
AcDbText
 73
     2
  0
LINE
  5
164F5
330
1F
100
AcDbEntity
  8
003
100
AcDbLine
 10
40.00000000000011
 20
510.0
 30
0.0
 11
175.0000000000001
 21
510.0
 31
0.0
  0
LINE
  5
164F6
330
1F
100
AcDbEntity
  8
003
100
AcDbLine
 10
40.00000000000011
 20
498.0
 30
0.0
 11
175.0000000000001
 21
498.0
 31
0.0
  0
LINE
  5
164F7
330
1F
100
AcDbEntity
  8
003
100
AcDbLine
 10
40.00000000000011
 20
438.0
 30
0.0
 11
175.0000000000001
 21
438.0
 31
0.0
  0
TEXT
  5
164F8
330
1F
100
AcDbEntity
  8
0
100
AcDbText
 10
44.00000000000011
 20
489.0
 30
0.0
 40
6.0
  1
備考
  7
AT_VECTOR
 11
44.00000000000011
 21
492.0
 31
0.0
100
AcDbText
 73
     2
  0
TEXT
  5
164F9
330
1F
100
AcDbEntity
  8
0
100
AcDbText
 10
44.00000000000011
 20
513.0
 30
0.0
 40
6.0
  1
製品色
  7
AT_VECTOR
 11
44.00000000000011
 21
516.0
 31
0.0
100
AcDbText
 73
     2
  0
LINE
  5
164FA
330
1F
100
AcDbEntity
  8
003
100
AcDbLine
 10
40.00000000000011
 20
522.0
 30
0.0
 11
175.0000000000001
 21
522.0
 31
0.0
  0
TEXT
  5
164FB
330
1F
100
AcDbEntity
  8
0
100
AcDbText
 10
44.00000000000011
 20
525.0
 30
0.0
 40
6.0
  1
ｻｯｼﾒｰｶｰ
  7
AT_VECTOR
 11
44.00000000000011
 21
528.0
 31
0.0
100
AcDbText
 73
     2
  0
LINE
  5
164FC
330
1F
100
AcDbEntity
  8
003
100
AcDbLine
 10
175.0000000000001
 20
558.0
 30
0.0
 11
175.0000000000001
 21
438.0
 31
0.0
  0
LINE
  5
164FD
330
1F
100
AcDbEntity
  8
003
100
AcDbLine
 10
75.00000000000011
 20
558.0
 30
0.0
 11
75.00000000000011
 21
498.0
 31
0.0
  0
TEXT
  5
164FE
330
1F
100
AcDbEntity
  8
0
100
AcDbText
 10
93.40000000000012
 20
537.0
 30
0.0
 40
6.0
  1
みらんちゃんＤＸ型
  7
AT_VECTOR
 72
     1
 11
125.0000000000001
 21
540.0
 31
0.0
100
AcDbText
 73
     2
  0
TEXT
  5
164FF
330
1F
100
AcDbEntity
  8
0
100
AcDbText
 10
79.00000000000011
 20
501.0
 30
0.0
 40
6.0
  1
取付金具
  7
AT_VECTOR
 11
79.00000000000011
 21
504.0
 31
0.0
100
AcDbText
 73
     2
  0
TEXT
  5
16500
330
1F
100
AcDbEntity
  8
0
100
AcDbText
 10
79.00000000000011
 20
525.0
 30
0.0
 40
6.0
  1
三協立山アルミ
  7
AT_VECTOR
 11
79.00000000000011
 21
528.0
 31
0.0
100
AcDbText
 73
     2
  0
TEXT
  5
16501
330
1F
100
AcDbEntity
  8
0
100
AcDbText
 10
78.80000000000014
 20
549.0
 30
0.0
 40
6.0
  1
内倒し窓専用自動可変面格子
  7
AT_VECTOR
 72
     1
 11
125.0000000000001
 21
552.0
 31
0.0
100
AcDbText
 73
     2
  0
LINE
  5
16505
330
1F
100
AcDbEntity
  8
003
100
AcDbLine
 10
199.0212626666846
 20
515.4661076327386
 30
0.0
 11
199.0212626666846
 21
481.708116720541
 31
0.0
  0
LINE
  5
1650B
330
1F
100
AcDbEntity
  8
0
100
AcDbLine
 10
437.5152399062669
 20
339.7827050314338
 30
0.0
 11
596.0152399062665
 21
339.7827050314338
 31
0.0
  0
LINE
  5
1650C
330
1F
100
AcDbEntity
  8
0
100
AcDbLine
 10
596.0152399062665
 20
339.7827050314338
 30
0.0
 11
596.0152399062665
 21
327.7827050314338
 31
0.0
  0
LINE
  5
1650D
330
1F
100
AcDbEntity
  8
0
100
AcDbLine
 10
581.0152399062665
 20
317.7827050314338
 30
0.0
 11
581.0152399062665
 21
242.7827050314338
 31
0.0
  0
LINE
  5
1650E
330
1F
100
AcDbEntity
  8
0
100
AcDbLine
 10
613.1852399062661
 20
299.4039010216445
 30
0.0
 11
581.0152399062665
 21
267.2339010216442
 31
0.0
  0
LINE
  5
1650F
330
1F
100
AcDbEntity
  8
0
100
AcDbLine
 10
613.1852399062661
 20
302.2239010216442
 30
0.0
 11
581.0152399062665
 21
270.0539010216441
 31
0.0
  0
LINE
  5
16510
330
1F
100
AcDbEntity
  8
0
100
AcDbLine
 10
613.1852399062661
 20
305.0439010216444
 30
0.0
 11
581.0152399062665
 21
272.8739010216441
 31
0.0
  0
LINE
  5
16511
330
1F
100
AcDbEntity
  8
0
100
AcDbLine
 10
591.0152399062665
 20
327.7827050314338
 30
0.0
 11
613.1852399062661
 21
327.7827050314339
 31
0.0
  0
LINE
  5
16512
330
1F
100
AcDbEntity
  8
0
100
AcDbLine
 10
591.0152399062665
 20
327.7827050314338
 30
0.0
 11
581.0152399062665
 21
317.7827050314338
 31
0.0
  0
LINE
  5
16514
330
1F
100
AcDbEntity
  8
0
100
AcDbLine
 10
581.0152399062665
 20
242.7827050314338
 30
0.0
 11
613.1852399062661
 21
242.7827050314338
 31
0.0
  0
LINE
  5
16515
330
1F
100
AcDbEntity
  8
0
100
AcDbLine
 10
582.0152399062664
 20
241.7827050314338
 30
0.0
 11
582.0152399062664
 21
228.7827050314336
 31
0.0
  0
LINE
  5
16516
330
1F
100
AcDbEntity
  8
0
100
AcDbLine
 10
582.0152399062664
 20
232.4542779066876
 30
0.0
 11
591.0152399062665
 21
241.4542779066874
 31
0.0
  0
LINE
  5
16517
330
1F
100
AcDbEntity
  8
0
100
AcDbLine
 10
582.0152399062664
 20
235.2827050314336
 30
0.0
 11
589.5152399062665
 21
242.7827050314336
 31
0.0
  0
LINE
  5
16518
330
1F
100
AcDbEntity
  8
0
100
AcDbLine
 10
582.0152399062664
 20
238.1111321561798
 30
0.0
 11
586.6868127815205
 21
242.7827050314336
 31
0.0
  0
LINE
  5
16519
330
1F
100
AcDbEntity
  8
0
100
AcDbLine
 10
585.8289484052513
 20
242.7827050314338
 30
0.0
 11
591.0152399062665
 21
237.5964135304187
 31
0.0
  0
LINE
  5
1651A
330
1F
100
AcDbEntity
  8
0
100
AcDbLine
 10
583.0005212805049
 20
242.7827050314338
 30
0.0
 11
591.0152399062665
 21
234.7679864056725
 31
0.0
  0
LINE
  5
1651B
330
1F
100
AcDbEntity
  8
0
100
AcDbLine
 10
582.0152399062664
 20
240.939559280926
 30
0.0
 11
591.0152399062665
 21
231.9395592809262
 31
0.0
  0
LINE
  5
1651C
330
1F
100
AcDbEntity
  8
0
100
AcDbLine
 10
582.0152399062664
 20
240.939559280926
 30
0.0
 11
583.8583856567743
 21
242.7827050314336
 31
0.0
  0
LINE
  5
1651D
330
1F
100
AcDbEntity
  8
0
100
AcDbLine
 10
588.6573755299975
 20
242.7827050314338
 30
0.0
 11
591.0152399062665
 21
240.4248406551649
 31
0.0
  0
LINE
  5
1651E
330
1F
100
AcDbEntity
  8
0
100
AcDbLine
 10
582.0152399062664
 20
241.7827050314338
 30
0.0
 11
581.0152399062665
 21
242.7827050314338
 31
0.0
  0
LINE
  5
1651F
330
1F
100
AcDbEntity
  8
0
100
AcDbLine
 10
582.0152399062664
 20
229.6258507819414
 30
0.0
 11
591.0152399062665
 21
238.6258507819412
 31
0.0
  0
LINE
  5
16520
330
1F
100
AcDbEntity
  8
0
100
AcDbLine
 10
582.0152399062664
 20
238.1111321561798
 30
0.0
 11
591.0152399062665
 21
229.11113215618
 31
0.0
  0
LINE
  5
16521
330
1F
100
AcDbEntity
  8
0
100
AcDbLine
 10
582.0152399062664
 20
228.7827050314336
 30
0.0
 11
581.0152399062665
 21
227.7827050314338
 31
0.0
  0
LINE
  5
16522
330
1F
100
AcDbEntity
  8
0
100
AcDbLine
 10
588.6573755299975
 20
227.7827050314336
 30
0.0
 11
591.0152399062665
 21
230.1405694077025
 31
0.0
  0
LINE
  5
16523
330
1F
100
AcDbEntity
  8
0
100
AcDbLine
 10
583.0005212805049
 20
227.7827050314336
 30
0.0
 11
591.0152399062665
 21
235.797423657195
 31
0.0
  0
LINE
  5
16524
330
1F
100
AcDbEntity
  8
0
100
AcDbLine
 10
585.8289484052513
 20
227.7827050314336
 30
0.0
 11
591.0152399062665
 21
232.9689965324487
 31
0.0
  0
LINE
  5
16525
330
1F
100
AcDbEntity
  8
0
100
AcDbLine
 10
582.0152399062664
 20
232.4542779066876
 30
0.0
 11
586.6868127815205
 21
227.7827050314338
 31
0.0
  0
LINE
  5
16526
330
1F
100
AcDbEntity
  8
0
100
AcDbLine
 10
582.0152399062664
 20
229.6258507819414
 30
0.0
 11
583.8583856567743
 21
227.7827050314338
 31
0.0
  0
LINE
  5
16527
330
1F
100
AcDbEntity
  8
0
100
AcDbLine
 10
582.0152399062664
 20
235.2827050314338
 30
0.0
 11
589.5152399062665
 21
227.7827050314338
 31
0.0
  0
TEXT
  5
165B6
330
1F
100
AcDbEntity
  8
0
100
AcDbText
 10
67.81722297933971
 20
489.0
 30
0.0
 40
6.0
  1
内・外網戸（網色：ブラック・グレー）
 41
0.85
  7
AT_VECTOR
 11
67.81722297933971
 21
492.0
 31
0.0
100
AcDbText
 73
     2
  0
TEXT
  5
165B8
330
1F
100
AcDbEntity
  8
0
100
AcDbText
 10
205.357123632162
 20
443.4647244922421
 30
0.0
 40
8.0
  1
特記事項
  7
AT_VECTOR
100
AcDbText
  0
TEXT
  5
165B9
330
1F
100
AcDbEntity
  8
0
100
AcDbText
 10
219.9982392998786
 20
430.5147298961651
 30
0.0
 40
6.0
  1
ご注文の際には網戸の仕様（内・外）及び網色（ブラック・グレー）のご指示お願いします
 41
0.9
  7
AT_VECTOR
 11
219.9982392998786
 21
433.5147298961651
 31
0.0
100
AcDbText
 73
     2
  0
TEXT
  5
165BA
330
1F
100
AcDbEntity
  8
0
100
AcDbText
 10
219.9982392998786
 20
418.5147298961651
 30
0.0
 40
6.0
  1
本図以外のサッシの場合、納まりが変更となる場合ありますのでご確認お願いします
 41
0.9
  7
AT_VECTOR
 11
219.9982392998786
 21
421.5147298961651
 31
0.0
100
AcDbText
 73
     2
  0
TEXT
  5
165BB
330
1F
100
AcDbEntity
  8
0
100
AcDbText
 10
207.9361824660775
 20
430.5147298961651
 30
0.0
 40
6.0
  1
1
 41
0.9
  7
AT_VECTOR
 11
207.9361824660775
 21
433.5147298961651
 31
0.0
100
AcDbText
 73
     2
  0
TEXT
  5
165BC
330
1F
100
AcDbEntity
  8
0
100
AcDbText
 10
207.9361824660775
 20
418.5147298961651
 30
0.0
 40
6.0
  1
2
 41
0.9
  7
AT_VECTOR
 11
207.9361824660775
 21
421.5147298961651
 31
0.0
100
AcDbText
 73
     2
  0
CIRCLE
  5
165BD
330
1F
100
AcDbEntity
  8
010
100
AcDbCircle
 10
210.9181020216272
 20
421.4966494517147
 30
0.0
 40
4.410730708366473
  0
CIRCLE
  5
165BE
330
1F
100
AcDbEntity
  8
010
100
AcDbCircle
 10
210.9181020216272
 20
433.4966494517147
 30
0.0
 40
4.410730708366473
  0
LINE
  5
165BF
330
1F
100
AcDbEntity
  8
003
100
AcDbLine
 10
202.4421484457528
 20
447.0430615799791
 30
0.0
 11
199.0212626666846
 21
447.0430615799791
 31
0.0
  0
LINE
  5
165C0
330
1F
100
AcDbEntity
  8
003
100
AcDbLine
 10
199.0212626666846
 20
447.0430615799791
 30
0.0
 11
199.0212626666846
 21
411.5372569385795
 31
0.0
  0
LINE
  5
165C1
330
1F
100
AcDbEntity
  8
003
100
AcDbLine
 10
199.0212626666846
 20
411.5372569385795
 30
0.0
 11
491.7351060924868
 21
411.5372569385795
 31
0.0
  0
LINE
  5
165C2
330
1F
100
AcDbEntity
  8
003
100
AcDbLine
 10
491.7351060924868
 20
411.5372569385795
 30
0.0
 11
491.7351060924868
 21
446.8840717029689
 31
0.0
  0
LINE
  5
165C3
330
1F
100
AcDbEntity
  8
003
100
AcDbLine
 10
491.7351060924868
 20
447.0430615799791
 30
0.0
 11
245.1658153724036
 21
447.0430615799791
 31
0.0
  0
LINE
  5
1676B
330
1F
100
AcDbEntity
  8
0
  6
ByBlock
 62
     0
370
    -2
100
AcDbLine
 10
798.0
 20
558.0
 30
0.0
 11
40.00000000000011
 21
558.0
 31
0.0
  0
LINE
  5
1676C
330
1F
100
AcDbEntity
  8
0
  6
ByBlock
 62
     0
370
    -2
100
AcDbLine
 10
40.00000000000034
 20
38.0
 30
0.0
 11
798.0000000000034
 21
38.00000000000011
 31
0.0
  0
LINE
  5
1676D
330
1F
100
AcDbEntity
  8
0
  6
ByBlock
 62
     0
370
    -2
100
AcDbLine
 10
40.00000000000034
 20
58.0
 30
0.0
 11
798.0000000000034
 21
58.0
 31
0.0
  0
LINE
  5
1676E
330
1F
100
AcDbEntity
  8
0
  6
ByBlock
 62
     0
370
    -2
100
AcDbLine
 10
579.0000000000002
 20
51.0
 30
0.0
 11
419.0000000000004
 21
51.0
 31
0.0
  0
LINE
  5
1676F
330
1F
100
AcDbEntity
  8
0
  6
ByBlock
 62
     0
370
    -2
100
AcDbLine
 10
40.00000000000011
 20
558.0
 30
0.0
 11
40.00000000000011
 21
38.0
 31
0.0
  0
LINE
  5
16770
330
1F
100
AcDbEntity
  8
0
  6
ByBlock
 62
     0
370
    -2
100
AcDbLine
 10
145.0000000000005
 20
38.0
 30
0.0
 11
235.0000000000002
 21
38.0
 31
0.0
  0
LINE
  5
16771
330
1F
100
AcDbEntity
  8
0
  6
ByBlock
 62
     0
370
    -2
100
AcDbLine
 10
145.0000000000005
 20
48.07416123045095
 30
0.0
 11
235.0000000000002
 21
48.07416123045095
 31
0.0
  0
LINE
  5
16772
330
1F
100
AcDbEntity
  8
0
  6
ByBlock
 62
     0
370
    -2
100
AcDbLine
 10
145.0000000000005
 20
53.07416123045095
 30
0.0
 11
235.0000000000002
 21
53.07416123045095
 31
0.0
  0
LINE
  5
16773
330
1F
100
AcDbEntity
  8
0
  6
ByBlock
 62
     0
370
    -2
100
AcDbLine
 10
145.0000000000005
 20
43.07416123045095
 30
0.0
 11
235.0000000000002
 21
43.07416123045095
 31
0.0
  0
HATCH
  5
16776
330
1F
100
AcDbEntity
  8
0
  6
ByBlock
 62
     0
100
AcDbHatch
 10
0.0
 20
0.0
 30
0.0
210
0.0
220
0.0
230
1.0
  2
ANSI31
 70
     0
 71
     0
 91
        1
 92
        1
 93
        1
 72
     4
 94
        3
 73
     0
 74
     0
 95
       53
 96
       49
 40
0.0
 40
0.0
 40
0.0
 40
0.0
 40
1.0
 40
1.0
 40
1.0
 40
2.0
 40
2.0
 40
2.0
 40
3.0
 40
3.0
 40
3.0
 40
4.0
 40
4.0
 40
4.0
 40
5.0
 40
5.0
 40
5.0
 40
6.0
 40
6.0
 40
6.0
 40
7.0
 40
7.0
 40
7.0
 40
8.0
 40
8.0
 40
8.0
 40
9.0
 40
9.0
 40
9.0
 40
10.0
 40
10.0
 40
10.0
 40
11.0
 40
11.0
 40
11.0
 40
12.0
 40
12.0
 40
12.0
 40
13.0
 40
13.0
 40
13.0
 40
14.0
 40
14.0
 40
14.0
 40
15.0
 40
15.0
 40
15.0
 40
16.0
 40
16.0
 40
16.0
 40
16.0
 10
92.27996644160324
 20
51.18337933628414
 10
92.20713712302684
 20
51.26742244066782
 10
92.09065844464143
 20
51.31010717374067
 10
91.93414775670738
 20
51.31010717374067
 10
91.93414775670738
 20
51.31010717374067
 10
86.1262507569244
 20
51.31010717374067
 10
86.1262507569244
 20
51.31010717374067
 10
86.1262507569244
 20
51.31010717374067
 10
86.1262507569244
 20
50.59061620694388
 10
86.1262507569244
 20
50.59061620694388
 10
86.1262507569244
 20
50.59061620694388
 10
91.33849074715879
 20
50.59061620694388
 10
91.43543573413792
 20
50.59061620694388
 10
91.40697924542271
 20
49.5122840943136
 10
90.40569669333933
 20
48.51944202617119
 10
89.38789490840012
 20
48.1675944241747
 10
89.39139168031848
 20
48.25947512078926
 10
89.39609423565704
 20
48.35063234735184
 10
89.39609423565704
 20
48.44540692417467
 10
89.39609423565704
 20
48.44540692417467
 10
89.39609423565704
 20
49.71003257521636
 10
89.39609423565704
 20
49.71003257521636
 10
89.39609423565704
 20
49.71003257521636
 10
88.53878222393833
 20
49.71003257521636
 10
88.53878222393833
 20
49.71003257521636
 10
88.53878222393833
 20
49.71003257521636
 10
88.53878222393833
 20
48.57442575012953
 10
88.53878222393833
 20
48.57442575012953
 10
88.53878222393833
 20
46.47395103224766
 10
87.77660652406849
 20
45.27491999926155
 10
86.13987610957199
 20
44.7993590183587
 10
86.13987610957199
 20
44.7993590183587
 10
86.10659648717614
 20
44.7899539076817
 10
86.10659648717614
 20
44.7899539076817
 10
86.10659648717614
 20
44.7899539076817
 10
86.10659648717614
 20
44.09349340420942
 10
86.10659648717614
 20
44.09349340420942
 10
86.10659648717614
 20
44.09349340420942
 10
86.16411235631678
 20
44.10796280525107
 10
86.16411235631678
 20
44.10796280525107
 10
87.94758661304422
 20
44.55458498407051
 10
88.99734165861714
 20
45.64099584561563
 10
89.30107850215007
 20
47.34018584127546
 10
91.16196405445046
 20
47.94934762512958
 10
92.35617195375601
 20
49.34287152378408
 10
92.35617195375601
 20
50.93366158997333
 10
92.35689542380809
 20
50.93257638489524
 10
92.37546448847822
 20
51.07256783997332
 10
92.27996644160324
 20
51.18337933628414
 97
        0
 75
     0
 76
     1
 52
0.0
 41
0.01
 77
     0
 78
     1
 53
45.0
 43
-0.9999983001881744
 44
21.50000079055394
 45
-0.0224506403026729
 46
0.0224506403026729
 79
     0
 98
        1
 10
95.92806417923343
 20
47.88960105666172
  0
HATCH
  5
16777
330
1F
100
AcDbEntity
  8
0
  6
ByBlock
 62
     0
100
AcDbHatch
 10
0.0
 20
0.0
 30
0.0
210
0.0
220
0.0
230
1.0
  2
ANSI31
 70
     0
 71
     0
 91
        1
 92
        3
 72
     0
 73
     1
 93
        4
 10
56.65075447328728
 20
45.01398846714346
 10
56.65075447328728
 20
44.29510039205661
 10
63.26085918248868
 20
44.29510039205661
 10
63.26085918248868
 20
45.01398846714346
 97
        0
 75
     0
 76
     1
 52
0.0
 41
0.01
 77
     0
 78
     1
 53
45.0
 43
-0.9999983001881744
 44
21.50000079055394
 45
-0.0224506403026729
 46
0.0224506403026729
 79
     0
 98
        1
 10
59.95580682788798
 20
47.74948902324161
  0
HATCH
  5
16778
330
1F
100
AcDbEntity
  8
0
  6
ByBlock
 62
     0
100
AcDbHatch
 10
0.0
 20
0.0
 30
0.0
210
0.0
220
0.0
230
1.0
  2
ANSI31
 70
     0
 71
     0
 91
        1
 92
        3
 72
     0
 73
     1
 93
        4
 10
62.63409296070047
 20
47.68140070925108
 10
62.63409296070047
 20
48.40077109770596
 10
57.27740011673347
 20
48.40077109770596
 10
57.27740011673347
 20
47.68140070925108
 97
        0
 75
     0
 76
     1
 52
0.0
 41
0.01
 77
     0
 78
     1
 53
45.0
 43
-0.9999983001881744
 44
21.32489919802617
 45
-0.0224506403026729
 46
0.0224506403026729
 79
     0
 98
        1
 10
59.95580682788798
 20
47.57438743071384
  0
HATCH
  5
16779
330
1F
100
AcDbEntity
  8
0
  6
ByBlock
 62
     0
100
AcDbHatch
 10
0.0
 20
0.0
 30
0.0
210
0.0
220
0.0
230
1.0
  2
ANSI31
 70
     0
 71
     0
 91
        1
 92
        3
 72
     0
 73
     1
 93
        4
 10
62.88465475540533
 20
51.20387765442649
 10
57.02683832202861
 20
51.20387765442649
 10
57.02683832202861
 20
50.48438668762958
 10
62.88465475540533
 20
50.48438668762958
 97
        0
 75
     0
 76
     1
 52
0.0
 41
0.01
 77
     0
 78
     1
 53
45.0
 43
-0.9999983001881744
 44
21.50000079055394
 45
-0.0224506403026729
 46
0.0224506403026729
 79
     0
 98
        1
 10
59.95580682788798
 20
47.74948902324161
  0
HATCH
  5
1677B
330
1F
100
AcDbEntity
  8
_13極細線
100
AcDbHatch
 10
0.0
 20
0.0
 30
0.0
210
0.0
220
0.0
230
1.0
  2
ANSI37
 70
     0
 71
     0
 91
        1
 92
        1
 93
        1
 72
     4
 94
        3
 73
     0
 74
     0
 95
      200
 96
      196
 40
0.0
 40
0.0
 40
0.0
 40
0.0
 40
1.0
 40
1.0
 40
1.0
 40
2.0
 40
2.0
 40
2.0
 40
3.0
 40
3.0
 40
3.0
 40
4.0
 40
4.0
 40
4.0
 40
5.0
 40
5.0
 40
5.0
 40
6.0
 40
6.0
 40
6.0
 40
7.0
 40
7.0
 40
7.0
 40
8.0
 40
8.0
 40
8.0
 40
9.0
 40
9.0
 40
9.0
 40
10.0
 40
10.0
 40
10.0
 40
11.0
 40
11.0
 40
11.0
 40
12.0
 40
12.0
 40
12.0
 40
13.0
 40
13.0
 40
13.0
 40
14.0
 40
14.0
 40
14.0
 40
15.0
 40
15.0
 40
15.0
 40
16.0
 40
16.0
 40
16.0
 40
17.0
 40
17.0
 40
17.0
 40
18.0
 40
18.0
 40
18.0
 40
19.0
 40
19.0
 40
19.0
 40
20.0
 40
20.0
 40
20.0
 40
21.0
 40
21.0
 40
21.0
 40
22.0
 40
22.0
 40
22.0
 40
23.0
 40
23.0
 40
23.0
 40
24.0
 40
24.0
 40
24.0
 40
25.0
 40
25.0
 40
25.0
 40
26.0
 40
26.0
 40
26.0
 40
27.0
 40
27.0
 40
27.0
 40
28.0
 40
28.0
 40
28.0
 40
29.0
 40
29.0
 40
29.0
 40
30.0
 40
30.0
 40
30.0
 40
31.0
 40
31.0
 40
31.0
 40
32.0
 40
32.0
 40
32.0
 40
33.0
 40
33.0
 40
33.0
 40
34.0
 40
34.0
 40
34.0
 40
35.0
 40
35.0
 40
35.0
 40
36.0
 40
36.0
 40
36.0
 40
37.0
 40
37.0
 40
37.0
 40
38.0
 40
38.0
 40
38.0
 40
39.0
 40
39.0
 40
39.0
 40
40.0
 40
40.0
 40
40.0
 40
41.0
 40
41.0
 40
41.0
 40
42.0
 40
42.0
 40
42.0
 40
43.0
 40
43.0
 40
43.0
 40
44.0
 40
44.0
 40
44.0
 40
45.0
 40
45.0
 40
45.0
 40
46.0
 40
46.0
 40
46.0
 40
47.0
 40
47.0
 40
47.0
 40
48.0
 40
48.0
 40
48.0
 40
49.0
 40
49.0
 40
49.0
 40
50.0
 40
50.0
 40
50.0
 40
51.0
 40
51.0
 40
51.0
 40
52.0
 40
52.0
 40
52.0
 40
53.0
 40
53.0
 40
53.0
 40
54.0
 40
54.0
 40
54.0
 40
55.0
 40
55.0
 40
55.0
 40
56.0
 40
56.0
 40
56.0
 40
57.0
 40
57.0
 40
57.0
 40
58.0
 40
58.0
 40
58.0
 40
59.0
 40
59.0
 40
59.0
 40
60.0
 40
60.0
 40
60.0
 40
61.0
 40
61.0
 40
61.0
 40
62.0
 40
62.0
 40
62.0
 40
63.0
 40
63.0
 40
63.0
 40
64.0
 40
64.0
 40
64.0
 40
65.0
 40
65.0
 40
65.0
 40
65.0
 10
47.33969490297479
 20
53.2898829712667
 10
46.75573399260151
 20
53.01436145976504
 10
46.34335606291401
 20
52.45101944587611
 10
46.23712654359976
 20
51.78313600946115
 10
46.23555902515358
 20
51.77373089878404
 10
46.23399150670741
 20
51.76589330655315
 10
46.2331474583133
 20
51.75684993090214
 10
46.18600132658589
 20
51.75974381111053
 10
46.14042271330462
 20
51.76275826966082
 10
46.08977980965881
 20
51.76275826966082
 10
45.4551759956397
 20
51.76275826966082
 10
45.01880297589144
 20
51.58599042026844
 10
44.58580614971955
 20
51.15227012404455
 10
44.32885370288796
 20
50.89495594218693
 10
44.19862909351296
 20
50.53020645759488
 10
44.19862909351296
 20
50.15569012729975
 10
44.19862909351296
 20
49.8247025784716
 10
44.30124126256679
 20
49.48611859409663
 10
44.50911832419872
 20
49.21083823927893
 10
44.97997674976297
 20
48.58624242764699
 10
45.79882427037929
 20
48.44854196106712
 10
46.39701342511019
 20
48.34773846714347
 10
46.39701342511019
 20
48.34773846714347
 10
46.50312236608241
 20
48.33037518589344
 10
46.50312236608241
 20
48.33037518589344
 10
47.11023431812233
 20
48.22571318502537
 10
48.82075867793137
 20
48.09548857565039
 10
49.22843405228032
 20
48.07716066766431
 10
49.29499329707199
 20
48.07474910082408
 10
49.33888381356505
 20
48.07016712382744
 10
49.3689078207265
 20
48.06582630351499
 10
49.37107823088275
 20
48.04508682868856
 10
49.37336921938101
 20
48.01952422018167
 10
49.37505731616923
 20
47.98238609084137
 10
49.38976787389491
 20
47.623544945008
 10
49.41424527732372
 20
46.51567113858448
 10
49.41424527732372
 20
46.09774660516428
 10
49.41424527732372
 20
44.60426326098025
 10
49.38410069182026
 20
44.57267173537263
 10
49.35889981833936
 20
44.28135446106705
 10
49.35781461326123
 20
44.26905547018168
 10
49.35733229989318
 20
44.25772110603236
 10
49.35733229989318
 20
44.24590442851502
 10
49.35733229989318
 20
44.04164471714352
 10
49.51456645787929
 20
43.86728843459138
 10
49.72244351951122
 20
43.84896052660531
 10
49.94201668031852
 20
43.82990914856714
 10
50.13590665427684
 20
43.99317222365391
 10
50.15471687563101
 20
44.21262480611915
 10
50.19318136673344
 20
44.65972929830662
 10
50.21283563648172
 20
44.8755645305115
 10
50.21283563648172
 20
46.09774660516428
 10
50.21283563648172
 20
46.52194121236914
 10
50.18763476300081
 20
47.65031333693514
 10
50.17280362693311
 20
48.01494224318514
 10
50.1485673801883
 20
48.60625843242122
 10
49.89342360848693
 20
48.84789742981706
 10
49.26376350649039
 20
48.8753892917963
 10
48.81497091751469
 20
48.89516413988656
 10
47.17739645462407
 20
49.02442412252537
 10
46.63804953079594
 20
49.1176311809022
 10
46.63804953079594
 20
49.1176311809022
 10
46.5291672879574
 20
49.13499446215212
 10
46.5291672879574
 20
49.13499446215212
 10
46.03720765254074
 20
49.21831409648371
 10
45.42563430184631
 20
49.32068510885358
 10
45.14613370505811
 20
49.69170466723028
 10
44.92668112259283
 20
49.98266020650977
 10
44.96743660219352
 20
50.40528729526852
 10
45.15023336868658
 20
50.58748117005143
 10
45.43491883418137
 20
50.87252837057224
 10
45.66341479229768
 20
50.96392675381878
 10
46.08977980965881
 20
50.96392675381878
 10
46.13994039993657
 20
50.96392675381878
 10
46.18153992793136
 20
50.96235923537268
 10
46.2201249973758
 20
50.95958593350633
 10
46.24412008743656
 20
50.86493193502542
 10
46.28149937346087
 20
50.78269750577192
 10
46.33431268726297
 20
50.7056479452251
 10
46.50481046287061
 20
50.45641251228232
 10
46.80890904142962
 20
50.37634849318511
 10
47.04174581985845
 20
50.51911325012963
 10
47.17655240622998
 20
50.60279461948721
 10
47.27410028491923
 20
50.75761721063305
 10
47.27410028491923
 20
50.94306670065043
 10
47.27410028491923
 20
51.03639433736919
 10
47.24950230314838
 20
51.13731840963476
 10
47.19258932571783
 20
51.24017173537265
 10
47.14001716859979
 20
51.33639325229967
 10
47.07611064733241
 20
51.41790421150108
 10
47.0014726536258
 20
51.48591039639689
 10
47.00762214906851
 20
51.53607098667476
 10
47.01461569290532
 20
51.59093413229107
 10
47.02498543031852
 20
51.65676990703059
 10
47.08889195158588
 20
52.05841636427885
 10
47.3400566380008
 20
52.40712892938302
 10
47.68056987584803
 20
52.56846275099769
 10
48.05231290427686
 20
52.74342192525978
 10
48.48591262215879
 20
52.57798844001673
 10
48.71127354338276
 20
52.17501562100631
 10
48.95652989103901
 20
51.73623103441776
 10
49.03165019811366
 20
50.60858237990385
 10
49.0727674127404
 20
50.00339968133619
 10
49.08952780228033
 20
49.74861764466083
 10
49.10230910653381
 20
49.56437393806357
 10
49.12099874954597
 20
49.44548369283791
 10
49.17537958179423
 20
49.1146167223518
 10
49.31959127884282
 20
48.91783286818508
 10
49.55086053882546
 20
48.86164336080662
 10
49.91802159025776
 20
48.77193307434834
 10
50.1744917237213
 20
49.11582250577191
 10
50.29699931920742
 20
49.28077367764695
 10
50.46797940818309
 20
49.51035484084139
 10
50.62424893943311
 20
49.84254817308965
 10
50.78968242467617
 20
50.19427519674412
 10
50.86612909351297
 20
50.35705595846287
 10
50.94522848587408
 20
50.52562448059837
 10
51.02384556486712
 20
50.67900013164001
 10
51.19410218379074
 20
51.01034941549414
 10
51.70656013734976
 20
51.73140790073728
 10
52.20370464147304
 20
51.84583674730845
 10
52.36033590774908
 20
51.88140735820252
 10
52.49345439733241
 20
51.8505393026469
 10
52.63621915427686
 20
51.74346573493858
 10
52.73075257441575
 20
51.67244509149248
 10
52.77416077754074
 20
51.59913345954795
 10
52.78223952645568
 20
51.49784765225627
 10
52.81057543682894
 20
51.12441652703933
 10
52.36298863127337
 20
50.53792347148373
 10
52.1417273736779
 20
50.31280370694378
 10
52.00643847393831
 20
50.17450034865385
 10
51.98883403600428
 20
49.96011205655316
 10
52.10012784568311
 20
49.80263674188302
 10
52.2111804986779
 20
49.64516142721288
 10
52.4188164036258
 20
49.58897191983442
 10
52.59389615622998
 20
49.67012114400984
 10
52.93079204381679
 20
49.82530547018166
 10
53.77508159459804
 20
49.57353789205672
 10
54.05156773283587
 20
49.29717233216081
 10
54.16539368769701
 20
49.18322579895766
 10
54.23074714906854
 20
49.01911867547676
 10
54.23074714906854
 20
48.84645048971288
 10
54.23074714906854
 20
48.71743166375802
 10
54.19372959807026
 20
48.52667672669213
 10
54.01852926712408
 20
48.35135581740394
 10
53.74361064733243
 20
48.07643719761222
 10
52.70350186912061
 20
48.02892933085877
 10
50.96452102059631
 20
49.02623279765567
 10
50.77328377016225
 20
49.13620024557224
 10
50.52947436261018
 20
49.07012331414865
 10
50.41962749303554
 20
48.87876548537258
 10
50.3099012018029
 20
48.6872870782546
 10
50.37621928991054
 20
48.4432365140185
 10
50.56721538366055
 20
48.33399253615391
 10
52.35551277406852
 20
47.30787084561564
 10
53.89481588821784
 20
47.09878800056367
 10
54.58319764277511
 20
47.78704917677885
 10
54.87077698847824
 20
48.07474910082408
 10
55.02945808656853
 20
48.45095352790735
 10
55.02945808656853
 20
48.84645048971288
 10
55.02945808656853
 20
48.84645048971288
 10
55.02945808656853
 20
48.84645048971288
 10
55.02945808656853
 20
48.84645048971288
 10
55.02945808656853
 20
49.229166147265
 10
54.87825284568311
 20
49.59885934387955
 10
54.61611553014492
 20
49.86172012946986
 10
54.34674351408589
 20
50.13060983216087
 10
53.80956700041402
 20
50.38973268914867
 10
53.26648214798346
 20
50.48088991571114
 10
53.43734165861713
 20
50.77220719001672
 10
53.58167393400776
 20
51.11959339335874
 10
53.58167393400776
 20
51.46577381328063
 10
53.58167393400776
 20
51.49628013381016
 10
53.58058872892963
 20
51.52666587599765
 10
53.57841831877337
 20
51.55620756979101
 10
53.55406149368658
 20
51.88828032369724
 10
53.39357172046608
 20
52.17429215095421
 10
53.11503575041401
 20
52.38277210429624
 10
52.78597745505811
 20
52.62839018697855
 10
52.40917013626471
 20
52.71219213467816
 10
52.02452522524041
 20
52.62368763163999
 10
51.01673144268833
 20
52.39133316657921
 10
50.34149272741053
 20
51.09897449687434
 10
50.31400086543136
 20
51.04387019457409
 10
50.22851082094351
 20
50.87795439596288
 10
50.14651754837409
 20
50.70323637838476
 10
50.06741815601297
 20
50.53382380785524
 10
49.99929139277512
 20
50.39045615920077
 10
49.93152636456333
 20
50.24624446215216
 10
49.86508769811366
 20
50.11493464769898
 10
49.81396248109976
 20
50.87554282912265
 10
49.73245152189837
 20
51.98305490052018
 10
49.40845751690708
 20
52.56376019565914
 10
48.97919861933761
 20
53.33220596931358
 10
48.09005392532721
 20
53.64438329678762
 10
47.33969490297479
 20
53.2898829712667
 97
        0
 75
     0
 76
     1
 52
0.0
 41
0.1
 77
     0
 78
     2
 53
45.0
 43
-0.9999983001881673
 44
19.00000079055394
 45
-0.2245064030267288
 46
0.2245064030267288
 79
     0
 53
135.0
 43
-0.9999983001881673
 44
19.00000079055394
 45
-0.2245064030267288
 46
-0.2245064030267288
 79
     0
 98
        1
 10
89.70200148934628
 20
48.59842084019033
  0
HATCH
  5
1677C
330
1F
100
AcDbEntity
  8
0
  6
ByBlock
 62
     0
100
AcDbHatch
 10
0.0
 20
0.0
 30
0.0
210
0.0
220
0.0
230
1.0
  2
ANSI31
 70
     0
 71
     0
 91
        1
 92
        3
 72
     0
 73
     1
 93
        8
 10
77.52817092294006
 20
51.13960939813307
 10
74.87749723044874
 20
51.13960939813307
 10
74.87749723044874
 20
51.71935006653587
 10
74.0697429172977
 20
51.71935006653587
 10
74.0697429172977
 20
51.13960939813307
 10
71.41906922480638
 20
51.13960939813307
 10
71.41906922480638
 20
50.42035958802023
 10
77.52817092294006
 20
50.42035958802023
 97
        0
 75
     0
 76
     1
 52
0.0
 41
0.01
 77
     0
 78
     1
 53
45.0
 43
-0.9999983001881744
 44
21.50000079055394
 45
-0.0224506403026729
 46
0.0224506403026729
 79
     0
 98
        1
 10
74.47362007387321
 20
48.00710465095426
  0
HATCH
  5
1677D
330
1F
100
AcDbEntity
  8
0
  6
ByBlock
 62
     0
100
AcDbHatch
 10
0.0
 20
0.0
 30
0.0
210
0.0
220
0.0
230
1.0
  2
ANSI31
 70
     0
 71
     0
 91
        1
 92
        1
 93
        1
 72
     4
 94
        3
 73
     0
 74
     0
 95
       35
 96
       31
 40
0.0
 40
0.0
 40
0.0
 40
0.0
 40
1.0
 40
1.0
 40
1.0
 40
2.0
 40
2.0
 40
2.0
 40
3.0
 40
3.0
 40
3.0
 40
4.0
 40
4.0
 40
4.0
 40
5.0
 40
5.0
 40
5.0
 40
6.0
 40
6.0
 40
6.0
 40
7.0
 40
7.0
 40
7.0
 40
8.0
 40
8.0
 40
8.0
 40
9.0
 40
9.0
 40
9.0
 40
10.0
 40
10.0
 40
10.0
 40
10.0
 10
75.74662591968484
 20
45.01398846714346
 10
76.03010560175949
 20
45.62942032478235
 10
76.89501404902512
 20
47.67659941549413
 10
77.00534323196783
 20
49.98627755677023
 10
77.00534323196783
 20
49.98627755677023
 10
77.00751364212407
 20
50.03487062860177
 10
77.00751364212407
 20
50.03487062860177
 10
77.00751364212407
 20
50.03487062860177
 10
76.16274177797478
 20
50.03487062860177
 10
76.16274177797478
 20
50.03487062860177
 10
76.16274177797478
 20
50.03487062860177
 10
76.16069194616054
 20
49.99061837708268
 10
76.16069194616054
 20
49.99061837708268
 10
76.04879524477164
 20
47.61124595412264
 10
75.2278978923411
 20
45.56744305698726
 10
74.98734410002339
 20
45.01398846714346
 10
74.98734410002339
 20
45.01398846714346
 10
71.04298537606503
 20
45.01398846714346
 10
71.04298537606503
 20
45.01398846714346
 10
71.04298537606503
 20
45.01398846714346
 10
71.04298537606503
 20
44.29485923537265
 10
71.04298537606503
 20
44.29485923537265
 10
71.04298537606503
 20
44.29485923537265
 10
77.90425477168136
 20
44.29485923537265
 10
77.90425477168136
 20
44.29485923537265
 10
77.90425477168136
 20
44.29485923537265
 10
77.90425477168136
 20
45.01398846714346
 10
77.90425477168136
 20
45.01398846714346
 10
77.90425477168136
 20
45.01398846714346
 10
75.74662591968484
 20
45.01398846714346
 10
75.74662591968484
 20
45.01398846714346
 97
        0
 75
     0
 76
     1
 52
0.0
 41
0.01
 77
     0
 78
     1
 53
45.0
 43
-0.9999983001881744
 44
21.50000079055394
 45
-0.0224506403026729
 46
0.0224506403026729
 79
     0
 98
        1
 10
74.47362007387321
 20
48.00710465095426
  0
HATCH
  5
1677E
330
1F
100
AcDbEntity
  8
0
  6
ByBlock
 62
     0
100
AcDbHatch
 10
0.0
 20
0.0
 30
0.0
210
0.0
220
0.0
230
1.0
  2
ANSI31
 70
     0
 71
     0
 91
        1
 92
        3
 72
     0
 73
     1
 93
       12
 10
65.53508729121261
 20
49.34600656067653
 10
65.53508729121261
 20
50.06537694913129
 10
64.88673754620393
 20
50.06537694913129
 10
64.88673754620393
 20
51.7194706448779
 10
64.1173271458133
 20
51.7194706448779
 10
64.1173271458133
 20
50.06537694913129
 10
63.57062494312234
 20
50.06537694913129
 10
63.57062494312234
 20
49.34600656067653
 10
64.1173271458133
 20
49.34600656067653
 10
64.1173271458133
 20
44.106515865147
 10
64.88673754620393
 20
44.106515865147
 10
64.88673754620393
 20
49.34600656067653
 97
        0
 75
     0
 76
     1
 52
0.0
 41
0.01
 77
     0
 78
     1
 53
45.0
 43
-0.9999983001881744
 44
21.50000079055394
 45
-0.0224506403026729
 46
0.0224506403026729
 79
     0
 98
        1
 10
67.00554017207199
 20
47.90973763977809
  0
HATCH
  5
1677F
330
1F
100
AcDbEntity
  8
0
  6
ByBlock
 62
     0
100
AcDbHatch
 10
0.0
 20
0.0
 30
0.0
210
0.0
220
0.0
230
1.0
  2
ANSI31
 70
     0
 71
     0
 91
        1
 92
        1
 93
        1
 72
     4
 94
        3
 73
     0
 74
     0
 95
       71
 96
       67
 40
0.0
 40
0.0
 40
0.0
 40
0.0
 40
1.0
 40
1.0
 40
1.0
 40
2.0
 40
2.0
 40
2.0
 40
3.0
 40
3.0
 40
3.0
 40
4.0
 40
4.0
 40
4.0
 40
5.0
 40
5.0
 40
5.0
 40
6.0
 40
6.0
 40
6.0
 40
7.0
 40
7.0
 40
7.0
 40
8.0
 40
8.0
 40
8.0
 40
9.0
 40
9.0
 40
9.0
 40
10.0
 40
10.0
 40
10.0
 40
11.0
 40
11.0
 40
11.0
 40
12.0
 40
12.0
 40
12.0
 40
13.0
 40
13.0
 40
13.0
 40
14.0
 40
14.0
 40
14.0
 40
15.0
 40
15.0
 40
15.0
 40
16.0
 40
16.0
 40
16.0
 40
17.0
 40
17.0
 40
17.0
 40
18.0
 40
18.0
 40
18.0
 40
19.0
 40
19.0
 40
19.0
 40
20.0
 40
20.0
 40
20.0
 40
21.0
 40
21.0
 40
21.0
 40
22.0
 40
22.0
 40
22.0
 40
22.0
 10
65.83375984438101
 20
48.96582304830667
 10
65.83375984438101
 20
48.96582304830667
 10
65.79674229338275
 20
48.95810603441782
 10
65.79674229338275
 20
48.95810603441782
 10
65.79674229338275
 20
48.95810603441782
 10
65.79674229338275
 20
48.31060033780318
 10
65.79674229338275
 20
48.31060033780318
 10
65.79674229338275
 20
48.31060033780318
 10
65.84967618552686
 20
48.31807619500807
 10
65.84967618552686
 20
48.31807619500807
 10
67.15457500280115
 20
48.50280221497337
 10
67.89275561261018
 20
49.15898955221291
 10
68.16538324390359
 20
50.39600276293345
 10
68.8941587430355
 20
50.39600276293345
 10
69.50066780336538
 20
50.39600276293345
 10
69.53575610089143
 20
50.39600276293345
 10
69.53575610089143
 20
50.31220081523372
 10
69.53575610089143
 20
49.1405410658848
 10
69.53575610089143
 20
49.05661853984316
 10
69.45183357484975
 20
49.05661853984316
 10
68.58246372892961
 20
49.05661853984316
 10
68.58246372892961
 20
49.05661853984316
 10
68.58246372892961
 20
49.05661853984316
 10
68.58246372892961
 20
48.33712757304624
 10
68.58246372892961
 20
48.33712757304624
 10
68.58246372892961
 20
48.33712757304624
 10
69.83671964255808
 20
48.33712757304624
 10
69.83671964255808
 20
48.33712757304624
 10
70.02771573630809
 20
48.33712757304624
 10
70.25524706768829
 20
48.41767390551149
 10
70.25524706768829
 20
48.80063071974769
 10
70.25524706768829
 20
48.80063071974769
 10
70.25524706768829
 20
50.72699031176148
 10
70.25524706768829
 20
50.72699031176148
 10
70.25524706768829
 20
50.91376616354103
 10
70.10814149043136
 20
51.11561430807228
 10
69.870602156664
 20
51.11561430807228
 10
69.870602156664
 20
51.11561430807228
 10
68.26691020787926
 20
51.11561430807228
 10
68.26691020787926
 20
51.11561430807228
 10
68.28029440384281
 20
51.29322620585878
 10
68.28921720115184
 20
51.47710817742995
 10
68.28921720115184
 20
51.67304798320254
 10
68.28921720115184
 20
51.67304798320254
 10
68.28921720115184
 20
51.7194706448779
 10
68.28921720115184
 20
51.7194706448779
 10
68.28921720115184
 20
51.7194706448779
 10
67.48218635805287
 20
51.7194706448779
 10
67.48218635805287
 20
51.7194706448779
 10
67.48218635805287
 20
51.7194706448779
 10
67.48218635805287
 20
51.67304798320254
 10
67.48218635805287
 20
51.67304798320254
 10
67.48218635805287
 20
51.4765052857199
 10
67.47784553774039
 20
51.29093521736047
 10
67.46771695701122
 20
51.11561430807228
 10
67.46771695701122
 20
51.11561430807228
 10
65.56016758635149
 20
51.11561430807228
 10
65.56016758635149
 20
51.11561430807228
 10
65.56016758635149
 20
51.11561430807228
 10
65.56016758635149
 20
50.39600276293345
 10
65.56016758635149
 20
50.39600276293345
 10
65.56016758635149
 20
50.39600276293345
 10
66.44159526647304
 20
50.39600276293345
 10
67.37438932029246
 20
50.39600276293345
 10
67.20256518292268
 20
49.63394764140559
 10
66.78331428774038
 20
49.16188343242129
 10
65.83375984438101
 20
48.96582304830667
 97
        0
 75
     0
 76
     1
 52
0.0
 41
0.01
 77
     0
 78
     1
 53
45.0
 43
-0.9999983001881744
 44
21.50000079055394
 45
-0.0224506403026729
 46
0.0224506403026729
 79
     0
 98
        1
 10
67.00554017207199
 20
47.90973763977809
  0
HATCH
  5
16780
330
1F
100
AcDbEntity
  8
0
  6
ByBlock
 62
     0
100
AcDbHatch
 10
0.0
 20
0.0
 30
0.0
210
0.0
220
0.0
230
1.0
  2
ANSI31
 70
     0
 71
     0
 91
        1
 92
        1
 93
        1
 72
     4
 94
        3
 73
     0
 74
     0
 95
       29
 96
       25
 40
0.0
 40
0.0
 40
0.0
 40
0.0
 40
1.0
 40
1.0
 40
1.0
 40
2.0
 40
2.0
 40
2.0
 40
3.0
 40
3.0
 40
3.0
 40
4.0
 40
4.0
 40
4.0
 40
5.0
 40
5.0
 40
5.0
 40
6.0
 40
6.0
 40
6.0
 40
7.0
 40
7.0
 40
7.0
 40
8.0
 40
8.0
 40
8.0
 40
8.0
 10
72.63437833396435
 20
49.81397110603234
 10
72.63437833396435
 20
49.81397110603234
 10
71.92224264603031
 20
49.81397110603234
 10
71.92224264603031
 20
49.81397110603234
 10
71.92224264603031
 20
49.81397110603234
 10
71.93984708396437
 20
49.75440540507747
 10
71.93984708396437
 20
49.75440540507747
 10
72.59374343270568
 20
47.54034588901845
 10
72.67272224672479
 20
45.34340849752538
 10
72.67332513843484
 20
45.31953398580663
 10
72.67332513843484
 20
45.31953398580663
 10
72.674772078539
 20
45.27491999926155
 10
72.674772078539
 20
45.27491999926155
 10
72.674772078539
 20
45.27491999926155
 10
73.52038799108239
 20
45.27491999926155
 10
73.52038799108239
 20
45.27491999926155
 10
73.52038799108239
 20
45.27491999926155
 10
73.51821758092618
 20
45.3231513360671
 10
73.51821758092618
 20
45.3231513360671
 10
73.51701179750602
 20
45.35016088467819
 10
73.39185147849559
 20
47.86301353224769
 10
72.64595385479768
 20
49.78430883389695
 10
72.64595385479768
 20
49.78430883389695
 10
72.63437833396435
 20
49.81397110603234
 10
72.63437833396435
 20
49.81397110603234
 97
        0
 75
     0
 76
     1
 52
0.0
 41
0.01
 77
     0
 78
     1
 53
45.0
 43
-0.9999983001881744
 44
21.50000079055394
 45
-0.0224506403026729
 46
0.0224506403026729
 79
     0
 98
        1
 10
74.47362007387321
 20
48.00710465095426
  0
HATCH
  5
16781
330
1F
100
AcDbEntity
  8
0
  6
ByBlock
 62
     0
100
AcDbHatch
 10
0.0
 20
0.0
 30
0.0
210
0.0
220
0.0
230
1.0
  2
ANSI31
 70
     0
 71
     0
 91
        1
 92
        1
 93
        1
 72
     4
 94
        3
 73
     0
 74
     0
 95
       71
 96
       67
 40
0.0
 40
0.0
 40
0.0
 40
0.0
 40
1.0
 40
1.0
 40
1.0
 40
2.0
 40
2.0
 40
2.0
 40
3.0
 40
3.0
 40
3.0
 40
4.0
 40
4.0
 40
4.0
 40
5.0
 40
5.0
 40
5.0
 40
6.0
 40
6.0
 40
6.0
 40
7.0
 40
7.0
 40
7.0
 40
8.0
 40
8.0
 40
8.0
 40
9.0
 40
9.0
 40
9.0
 40
10.0
 40
10.0
 40
10.0
 40
11.0
 40
11.0
 40
11.0
 40
12.0
 40
12.0
 40
12.0
 40
13.0
 40
13.0
 40
13.0
 40
14.0
 40
14.0
 40
14.0
 40
15.0
 40
15.0
 40
15.0
 40
16.0
 40
16.0
 40
16.0
 40
17.0
 40
17.0
 40
17.0
 40
18.0
 40
18.0
 40
18.0
 40
19.0
 40
19.0
 40
19.0
 40
20.0
 40
20.0
 40
20.0
 40
21.0
 40
21.0
 40
21.0
 40
22.0
 40
22.0
 40
22.0
 40
22.0
 10
67.2427177708133
 20
47.84323868415731
 10
67.2427177708133
 20
47.84323868415731
 10
66.45630582419872
 20
47.84323868415731
 10
66.45630582419872
 20
47.84323868415731
 10
66.4560646675147
 20
47.96574627964344
 10
66.45570293248862
 20
48.08777156176154
 10
66.45570293248862
 20
48.20834990377545
 10
66.45570293248862
 20
48.20834990377545
 10
66.45570293248862
 20
48.21534344761222
 10
66.45570293248862
 20
48.21534344761222
 10
66.45570293248862
 20
48.21534344761222
 10
65.798912703539
 20
48.21534344761222
 10
65.798912703539
 20
48.21534344761222
 10
65.798912703539
 20
48.21534344761222
 10
65.79927443856504
 20
48.00143746887954
 10
65.79927443856504
 20
48.00143746887954
 10
65.79951559524906
 20
47.94886531176155
 10
65.79987733027512
 20
47.89605199795949
 10
65.80023906530115
 20
47.84323868415731
 10
65.80023906530115
 20
47.84323868415731
 10
65.08641528057893
 20
47.84323868415731
 10
65.08641528057893
 20
47.84323868415731
 10
65.08641528057893
 20
47.84323868415731
 10
65.08641528057893
 20
47.12410945238651
 10
65.08641528057893
 20
47.12410945238651
 10
65.08641528057893
 20
47.12410945238651
 10
65.41872919116919
 20
47.12410945238651
 10
65.80180658374732
 20
47.12410945238651
 10
65.79228089472824
 20
46.13054391419211
 10
65.69437128101296
 20
45.21993627530321
 10
65.04156013734976
 20
44.76993790290737
 10
65.04156013734976
 20
44.76993790290737
 10
65.02142355423344
 20
44.75595081523374
 10
65.02142355423344
 20
44.75595081523374
 10
65.02142355423344
 20
44.75595081523374
 10
65.02142355423344
 20
44.10434545499072
 10
65.02142355423344
 20
44.10434545499072
 10
65.02142355423344
 20
44.10434545499072
 10
65.08641528057893
 20
44.13280194370599
 10
65.08641528057893
 20
44.13280194370599
 10
66.21406393509281
 20
44.6254850491747
 10
66.41494745288794
 20
45.84573787035526
 10
66.4491917020199
 20
47.12410945238651
 10
66.70734993227163
 20
47.12410945238651
 10
66.90714824498866
 20
47.12410945238651
 10
66.9353635770199
 20
47.12410945238651
 10
66.9353635770199
 20
47.03681073276846
 10
66.9353635770199
 20
44.90691489943515
 10
66.9353635770199
 20
44.81913386644907
 10
66.85337030445047
 20
44.81913386644907
 10
66.30208612476294
 20
44.81913386644907
 10
66.30208612476294
 20
44.81913386644907
 10
66.30208612476294
 20
44.81913386644907
 10
66.30208612476294
 20
44.10000463467816
 10
66.30208612476294
 20
44.10000463467816
 10
66.30208612476294
 20
44.10000463467816
 10
67.1689238255008
 20
44.10000463467816
 10
67.1689238255008
 20
44.10000463467816
 10
67.4640996067508
 20
44.10000463467816
 10
67.65473396547474
 20
44.31801027703932
 10
67.65473396547474
 20
44.65466500794207
 10
67.65473396547474
 20
44.65466500794207
 10
67.65473396547474
 20
47.41084474969556
 10
67.65473396547474
 20
47.41084474969556
 10
67.65473396547474
 20
47.68986303311566
 10
67.50835185826989
 20
47.84323868415731
 10
67.2427177708133
 20
47.84323868415731
 97
        0
 75
     0
 76
     1
 52
0.0
 41
0.01
 77
     0
 78
     1
 53
45.0
 43
-0.9999983001881744
 44
21.50000079055394
 45
-0.0224506403026729
 46
0.0224506403026729
 79
     0
 98
        1
 10
67.00554017207199
 20
47.90973763977809
  0
HATCH
  5
16782
330
1F
100
AcDbEntity
  8
0
  6
ByBlock
 62
     0
100
AcDbHatch
 10
0.0
 20
0.0
 30
0.0
210
0.0
220
0.0
230
1.0
  2
ANSI31
 70
     0
 71
     0
 91
        1
 92
        1
 93
        1
 72
     4
 94
        3
 73
     0
 74
     0
 95
       71
 96
       67
 40
0.0
 40
0.0
 40
0.0
 40
0.0
 40
1.0
 40
1.0
 40
1.0
 40
2.0
 40
2.0
 40
2.0
 40
3.0
 40
3.0
 40
3.0
 40
4.0
 40
4.0
 40
4.0
 40
5.0
 40
5.0
 40
5.0
 40
6.0
 40
6.0
 40
6.0
 40
7.0
 40
7.0
 40
7.0
 40
8.0
 40
8.0
 40
8.0
 40
9.0
 40
9.0
 40
9.0
 40
10.0
 40
10.0
 40
10.0
 40
11.0
 40
11.0
 40
11.0
 40
12.0
 40
12.0
 40
12.0
 40
13.0
 40
13.0
 40
13.0
 40
14.0
 40
14.0
 40
14.0
 40
15.0
 40
15.0
 40
15.0
 40
16.0
 40
16.0
 40
16.0
 40
17.0
 40
17.0
 40
17.0
 40
18.0
 40
18.0
 40
18.0
 40
19.0
 40
19.0
 40
19.0
 40
20.0
 40
20.0
 40
20.0
 40
21.0
 40
21.0
 40
21.0
 40
22.0
 40
22.0
 40
22.0
 40
22.0
 10
70.02819804967614
 20
47.84323868415731
 10
70.02819804967614
 20
47.84323868415731
 10
69.24166552471955
 20
47.84323868415731
 10
69.24166552471955
 20
47.84323868415731
 10
69.24154494637753
 20
47.96574627964344
 10
69.2413037896935
 20
48.08777156176154
 10
69.2413037896935
 20
48.20834990377545
 10
69.2413037896935
 20
48.20834990377545
 10
69.2413037896935
 20
48.21534344761222
 10
69.2413037896935
 20
48.21534344761222
 10
69.2413037896935
 20
48.21534344761222
 10
68.58427240405982
 20
48.21534344761222
 10
68.58427240405982
 20
48.21534344761222
 10
68.58427240405982
 20
48.21534344761222
 10
68.58499587411191
 20
48.00119631219558
 10
68.58499587411191
 20
48.00119631219558
 10
68.58523703079595
 20
47.94862415507748
 10
68.58547818747997
 20
47.89605199795949
 10
68.585719344164
 20
47.84323868415731
 10
68.585719344164
 20
47.84323868415731
 10
67.87201613778378
 20
47.84323868415731
 10
67.87201613778378
 20
47.84323868415731
 10
67.87201613778378
 20
47.84323868415731
 10
67.87201613778378
 20
47.12410945238651
 10
67.87201613778378
 20
47.12410945238651
 10
67.87201613778378
 20
47.12410945238651
 10
68.20324484329595
 20
47.12410945238651
 10
68.58535760913794
 20
47.12410945238651
 10
68.57161167814837
 20
46.13054391419211
 10
68.46453811044003
 20
45.21993627530321
 10
67.81172696677683
 20
44.76993790290737
 10
67.81172696677683
 20
44.76993790290737
 10
67.79159038366052
 20
44.75595081523374
 10
67.79159038366052
 20
44.75595081523374
 10
67.79159038366052
 20
44.75595081523374
 10
67.79159038366052
 20
44.10434545499072
 10
67.79159038366052
 20
44.10434545499072
 10
67.79159038366052
 20
44.10434545499072
 10
67.85670268834803
 20
44.13280194370599
 10
67.85670268834803
 20
44.13280194370599
 10
68.98435134286192
 20
44.6254850491747
 10
69.19451939299212
 20
45.84573787035526
 10
69.2327427274105
 20
47.12410945238651
 10
69.49186558439838
 20
47.12410945238651
 10
69.69262852385149
 20
47.12410945238651
 10
69.72084385588274
 20
47.12410945238651
 10
69.72084385588274
 20
47.03681073276846
 10
69.72084385588274
 20
44.90691489943515
 10
69.72084385588274
 20
44.81913386644907
 10
69.63909173999731
 20
44.81913386644907
 10
69.0875664036258
 20
44.81913386644907
 10
69.0875664036258
 20
44.81913386644907
 10
69.0875664036258
 20
44.81913386644907
 10
69.0875664036258
 20
44.10000463467816
 10
69.0875664036258
 20
44.10000463467816
 10
69.0875664036258
 20
44.10000463467816
 10
69.95452468270563
 20
44.10000463467816
 10
69.95452468270563
 20
44.10000463467816
 10
70.24970046395565
 20
44.10000463467816
 10
70.44045540102165
 20
44.31801027703932
 10
70.44045540102165
 20
44.65466500794207
 10
70.44045540102165
 20
44.65466500794207
 10
70.44045540102165
 20
47.41084474969556
 10
70.44045540102165
 20
47.41084474969556
 10
70.44045540102165
 20
47.68986303311566
 10
70.2940732938168
 20
47.84323868415731
 10
70.02819804967614
 20
47.84323868415731
 97
        0
 75
     0
 76
     1
 52
0.0
 41
0.01
 77
     0
 78
     1
 53
45.0
 43
-0.9999983001881744
 44
21.50000079055394
 45
-0.0224506403026729
 46
0.0224506403026729
 79
     0
 98
        1
 10
67.00554017207199
 20
47.90973763977809
  0
HATCH
  5
16783
330
1F
100
AcDbEntity
  8
0
  6
ByBlock
 62
     0
100
AcDbHatch
 10
0.0
 20
0.0
 30
0.0
210
0.0
220
0.0
230
1.0
  2
ANSI31
 70
     0
 71
     0
 91
        1
 92
        1
 93
        1
 72
     4
 94
        3
 73
     0
 74
     0
 95
       47
 96
       43
 40
0.0
 40
0.0
 40
0.0
 40
0.0
 40
1.0
 40
1.0
 40
1.0
 40
2.0
 40
2.0
 40
2.0
 40
3.0
 40
3.0
 40
3.0
 40
4.0
 40
4.0
 40
4.0
 40
5.0
 40
5.0
 40
5.0
 40
6.0
 40
6.0
 40
6.0
 40
7.0
 40
7.0
 40
7.0
 40
8.0
 40
8.0
 40
8.0
 40
9.0
 40
9.0
 40
9.0
 40
10.0
 40
10.0
 40
10.0
 40
11.0
 40
11.0
 40
11.0
 40
12.0
 40
12.0
 40
12.0
 40
13.0
 40
13.0
 40
13.0
 40
14.0
 40
14.0
 40
14.0
 40
14.0
 10
84.51267138409454
 20
50.78366213250808
 10
84.51267138409454
 20
50.78366213250808
 10
84.51267138409454
 20
45.10562800707407
 10
84.51267138409454
 20
45.01398846714346
 10
84.49157017424212
 20
45.01398846714346
 10
83.47702400453725
 20
45.01398846714346
 10
82.35673062888622
 20
45.01398846714346
 10
82.35673062888622
 20
45.01398846714346
 10
82.35673062888622
 20
51.71935006653587
 10
82.35673062888622
 20
51.71935006653587
 10
82.35673062888622
 20
51.71935006653587
 10
81.51207934307894
 20
51.71935006653587
 10
81.51207934307894
 20
51.71935006653587
 10
81.51207934307894
 20
51.71935006653587
 10
81.51207934307894
 20
45.01398846714346
 10
81.51207934307894
 20
45.01398846714346
 10
80.40649652515359
 20
45.01398846714346
 10
79.41377503535324
 20
45.01398846714346
 10
79.39303556052682
 20
45.01398846714346
 10
79.39303556052682
 20
45.10562800707407
 10
79.39303556052682
 20
50.78366213250808
 10
79.39303556052682
 20
50.78366213250808
 10
79.39303556052682
 20
50.78366213250808
 10
78.54838427471955
 20
50.78366213250808
 10
78.54838427471955
 20
50.78366213250808
 10
78.54838427471955
 20
50.78366213250808
 10
78.54838427471955
 20
44.95659317634488
 10
78.54838427471955
 20
44.95659317634488
 10
78.54838427471955
 20
44.53601591940037
 10
78.75807001148171
 20
44.29485923537265
 10
79.12342238778379
 20
44.29485923537265
 10
79.12342238778379
 20
44.29485923537265
 10
84.78216397849561
 20
44.29485923537265
 10
84.78216397849561
 20
44.29485923537265
 10
85.1476369331397
 20
44.29485923537265
 10
85.35732266990184
 20
44.53601591940037
 10
85.35732266990184
 20
44.95659317634488
 10
85.35732266990184
 20
44.95659317634488
 10
85.35732266990184
 20
50.78366213250808
 10
85.35732266990184
 20
50.78366213250808
 10
85.35732266990184
 20
50.78366213250808
 10
84.51267138409454
 20
50.78366213250808
 10
84.51267138409454
 20
50.78366213250808
 97
        0
 75
     0
 76
     1
 52
0.0
 41
0.01
 77
     0
 78
     1
 53
45.0
 43
-0.9999983001881744
 44
21.50000079055394
 45
-0.0224506403026729
 46
0.0224506403026729
 79
     0
 98
        1
 10
95.92806417923343
 20
47.88960105666172
  0
HATCH
  5
16784
330
1F
100
AcDbEntity
  8
0
  6
ByBlock
 62
     0
100
AcDbHatch
 10
0.0
 20
0.0
 30
0.0
210
0.0
220
0.0
230
1.0
  2
ANSI31
 70
     0
 71
     0
 91
        1
 92
        1
 93
        1
 72
     4
 94
        3
 73
     0
 74
     0
 95
       53
 96
       49
 40
0.0
 40
0.0
 40
0.0
 40
0.0
 40
1.0
 40
1.0
 40
1.0
 40
2.0
 40
2.0
 40
2.0
 40
3.0
 40
3.0
 40
3.0
 40
4.0
 40
4.0
 40
4.0
 40
5.0
 40
5.0
 40
5.0
 40
6.0
 40
6.0
 40
6.0
 40
7.0
 40
7.0
 40
7.0
 40
8.0
 40
8.0
 40
8.0
 40
9.0
 40
9.0
 40
9.0
 40
10.0
 40
10.0
 40
10.0
 40
11.0
 40
11.0
 40
11.0
 40
12.0
 40
12.0
 40
12.0
 40
13.0
 40
13.0
 40
13.0
 40
14.0
 40
14.0
 40
14.0
 40
15.0
 40
15.0
 40
15.0
 40
16.0
 40
16.0
 40
16.0
 40
16.0
 10
120.615876814867
 20
46.97652156176149
 10
120.615876814867
 20
46.97652156176149
 10
122.1720608968983
 20
46.97652156176149
 10
122.1720608968983
 20
46.97652156176149
 10
122.1720608968983
 20
46.97652156176149
 10
121.3576747749365
 20
44.86495363641426
 10
121.3576747749365
 20
44.86495363641426
 10
121.2696525852663
 20
44.62331463901853
 10
121.3140254151275
 20
44.48199682217818
 10
121.3670798856136
 20
44.40627362339353
 10
121.431951033617
 20
44.31366945672675
 10
121.5426419515858
 20
44.26447349318516
 10
121.6875771186865
 20
44.26447349318516
 10
121.6875771186865
 20
44.26447349318516
 10
126.8464009034087
 20
44.26447349318516
 10
126.8464009034087
 20
44.26447349318516
 10
126.9855483100927
 20
44.26447349318516
 10
127.0853871772803
 20
44.30956979309837
 10
127.1423001547108
 20
44.39783313945247
 10
127.2252580540163
 20
44.52588733867128
 10
127.1917372749365
 20
44.71206029874065
 10
127.1324127306657
 20
44.84397300490388
 10
127.1336185140858
 20
44.84035565464353
 10
126.554119002367
 20
46.51494766853239
 10
126.554119002367
 20
46.51494766853239
 10
126.554119002367
 20
46.51494766853239
 10
125.7884465305788
 20
46.51494766853239
 10
125.7884465305788
 20
46.51494766853239
 10
125.7884465305788
 20
46.51494766853239
 10
126.2664190783219
 20
45.0959817397129
 10
126.3016279541899
 20
44.984085038324
 10
126.1810496121761
 20
44.984085038324
 10
122.3657097141726
 20
44.984085038324
 10
122.2354851047976
 20
44.984085038324
 10
122.2750348009782
 20
45.08344159214345
 10
122.838135658183
 20
46.49252009691781
 10
123.0315433187733
 20
46.97652156176149
 10
123.0315433187733
 20
46.97652156176149
 10
127.6017036377837
 20
46.97652156176149
 10
127.6017036377837
 20
46.97652156176149
 10
127.6017036377837
 20
46.97652156176149
 10
127.6017036377837
 20
47.69613310690044
 10
127.6017036377837
 20
47.69613310690044
 10
127.6017036377837
 20
47.69613310690044
 10
120.615876814867
 20
47.69613310690044
 10
120.615876814867
 20
47.69613310690044
 10
120.615876814867
 20
47.69613310690044
 10
120.615876814867
 20
46.97652156176149
 10
120.615876814867
 20
46.97652156176149
 97
        0
 75
     0
 76
     1
 52
0.0
 41
0.01
 77
     0
 78
     1
 53
45.0
 43
-0.9999983001881744
 44
21.50000079055394
 45
-0.0224506403026729
 46
0.0224506403026729
 79
     0
 98
        1
 10
124.1165072402143
 20
47.99209264737351
  0
HATCH
  5
16785
330
1F
100
AcDbEntity
  8
0
  6
ByBlock
 62
     0
100
AcDbHatch
 10
0.0
 20
0.0
 30
0.0
210
0.0
220
0.0
230
1.0
  2
ANSI31
 70
     0
 71
     0
 91
        2
 92
        1
 93
        1
 72
     4
 94
        3
 73
     0
 74
     0
 95
       14
 96
       10
 40
0.0
 40
0.0
 40
0.0
 40
0.0
 40
1.0
 40
1.0
 40
1.0
 40
2.0
 40
2.0
 40
2.0
 40
3.0
 40
3.0
 40
3.0
 40
3.0
 10
122.1443278782351
 20
49.31706775859311
 10
122.8422353218115
 20
49.60645577942648
 10
123.5606410835302
 20
50.05548952508616
 10
124.1162660835303
 20
50.69648399123207
 10
124.6718910835302
 20
50.05548952508616
 10
125.390779158617
 20
49.60645577942648
 10
126.0886866021934
 20
49.31706775859311
 10
126.0886866021934
 20
49.31706775859311
 10
122.1443278782351
 20
49.31706775859311
 10
122.1443278782351
 20
49.31706775859311
 97
        0
 92
       16
 93
        1
 72
     4
 94
        3
 73
     0
 74
     0
 95
       53
 96
       49
 40
0.0
 40
0.0
 40
0.0
 40
0.0
 40
1.0
 40
1.0
 40
1.0
 40
2.0
 40
2.0
 40
2.0
 40
3.0
 40
3.0
 40
3.0
 40
4.0
 40
4.0
 40
4.0
 40
5.0
 40
5.0
 40
5.0
 40
6.0
 40
6.0
 40
6.0
 40
7.0
 40
7.0
 40
7.0
 40
8.0
 40
8.0
 40
8.0
 40
9.0
 40
9.0
 40
9.0
 40
10.0
 40
10.0
 40
10.0
 40
11.0
 40
11.0
 40
11.0
 40
12.0
 40
12.0
 40
12.0
 40
13.0
 40
13.0
 40
13.0
 40
14.0
 40
14.0
 40
14.0
 40
15.0
 40
15.0
 40
15.0
 40
16.0
 40
16.0
 40
16.0
 40
16.0
 10
127.5799995362212
 20
49.60102975403583
 10
126.8341019125233
 20
49.72341677117992
 10
125.4356343018462
 20
50.14134130460002
 10
124.4459272705962
 20
51.56247764357579
 10
124.4275993626101
 20
51.58864314379275
 10
124.3125676243288
 20
51.71971180156186
 10
124.1220538439469
 20
51.71971180156186
 10
124.1220538439469
 20
51.71971180156186
 10
124.1003497423844
 20
51.71971180156186
 10
124.1003497423844
 20
51.71971180156186
 10
123.9079067085302
 20
51.71971180156186
 10
123.7972157905615
 20
51.57803224969552
 10
123.7863637397802
 20
51.56187475186573
 10
122.7973801785823
 20
50.14134130460002
 10
121.3986714112212
 20
49.72341677117992
 10
120.6525326308393
 20
49.60102975403583
 10
120.6525326308393
 20
49.60102975403583
 10
120.6141887180788
 20
49.59463910190914
 10
120.6141887180788
 20
49.59463910190914
 10
120.6141887180788
 20
49.59463910190914
 10
120.6141887180788
 20
48.91349204787264
 10
120.6141887180788
 20
48.91349204787264
 10
120.6141887180788
 20
48.91349204787264
 10
120.6655550917768
 20
48.91952096497334
 10
120.6655550917768
 20
48.91952096497334
 10
120.9667597901274
 20
48.95400637078933
 10
121.3149900418636
 20
49.02828262946991
 10
121.6810658882177
 20
49.14644940464348
 10
121.6810658882177
 20
49.14644940464348
 10
121.6810658882177
 20
48.59805910516434
 10
121.6810658882177
 20
48.59805910516434
 10
121.6810658882177
 20
48.59805910516434
 10
126.536755721117
 20
48.59805910516434
 10
126.536755721117
 20
48.59805910516434
 10
126.536755721117
 20
48.59805910516434
 10
126.536755721117
 20
49.15115195998203
 10
126.536755721117
 20
49.15115195998203
 10
126.9083781712039
 20
49.02997072625805
 10
127.2621550266726
 20
48.95448868415735
 10
127.5674593886518
 20
48.91952096497334
 10
127.5674593886518
 20
48.91952096497334
 10
127.6188257623497
 20
48.91349204787264
 10
127.6188257623497
 20
48.91349204787264
 10
127.6188257623497
 20
48.91349204787264
 10
127.6188257623497
 20
49.59463910190914
 10
127.6188257623497
 20
49.59463910190914
 10
127.6188257623497
 20
49.59463910190914
 10
127.5799995362212
 20
49.60102975403583
 10
127.5799995362212
 20
49.60102975403583
 97
        0
 75
     0
 76
     1
 52
0.0
 41
0.01
 77
     0
 78
     1
 53
45.0
 43
-0.9999983001881744
 44
21.50000079055394
 45
-0.0224506403026729
 46
0.0224506403026729
 79
     0
 98
        1
 10
124.1165072402143
 20
47.99209264737351
  0
HATCH
  5
16786
330
1F
100
AcDbEntity
  8
0
  6
ByBlock
 62
     0
100
AcDbHatch
 10
0.0
 20
0.0
 30
0.0
210
0.0
220
0.0
230
1.0
  2
ANSI31
 70
     0
 71
     0
 91
        1
 92
        1
 93
        1
 72
     4
 94
        3
 73
     0
 74
     0
 95
      194
 96
      190
 40
0.0
 40
0.0
 40
0.0
 40
0.0
 40
1.0
 40
1.0
 40
1.0
 40
2.0
 40
2.0
 40
2.0
 40
3.0
 40
3.0
 40
3.0
 40
4.0
 40
4.0
 40
4.0
 40
5.0
 40
5.0
 40
5.0
 40
6.0
 40
6.0
 40
6.0
 40
7.0
 40
7.0
 40
7.0
 40
8.0
 40
8.0
 40
8.0
 40
9.0
 40
9.0
 40
9.0
 40
10.0
 40
10.0
 40
10.0
 40
11.0
 40
11.0
 40
11.0
 40
12.0
 40
12.0
 40
12.0
 40
13.0
 40
13.0
 40
13.0
 40
14.0
 40
14.0
 40
14.0
 40
15.0
 40
15.0
 40
15.0
 40
16.0
 40
16.0
 40
16.0
 40
17.0
 40
17.0
 40
17.0
 40
18.0
 40
18.0
 40
18.0
 40
19.0
 40
19.0
 40
19.0
 40
20.0
 40
20.0
 40
20.0
 40
21.0
 40
21.0
 40
21.0
 40
22.0
 40
22.0
 40
22.0
 40
23.0
 40
23.0
 40
23.0
 40
24.0
 40
24.0
 40
24.0
 40
25.0
 40
25.0
 40
25.0
 40
26.0
 40
26.0
 40
26.0
 40
27.0
 40
27.0
 40
27.0
 40
28.0
 40
28.0
 40
28.0
 40
29.0
 40
29.0
 40
29.0
 40
30.0
 40
30.0
 40
30.0
 40
31.0
 40
31.0
 40
31.0
 40
32.0
 40
32.0
 40
32.0
 40
33.0
 40
33.0
 40
33.0
 40
34.0
 40
34.0
 40
34.0
 40
35.0
 40
35.0
 40
35.0
 40
36.0
 40
36.0
 40
36.0
 40
37.0
 40
37.0
 40
37.0
 40
38.0
 40
38.0
 40
38.0
 40
39.0
 40
39.0
 40
39.0
 40
40.0
 40
40.0
 40
40.0
 40
41.0
 40
41.0
 40
41.0
 40
42.0
 40
42.0
 40
42.0
 40
43.0
 40
43.0
 40
43.0
 40
44.0
 40
44.0
 40
44.0
 40
45.0
 40
45.0
 40
45.0
 40
46.0
 40
46.0
 40
46.0
 40
47.0
 40
47.0
 40
47.0
 40
48.0
 40
48.0
 40
48.0
 40
49.0
 40
49.0
 40
49.0
 40
50.0
 40
50.0
 40
50.0
 40
51.0
 40
51.0
 40
51.0
 40
52.0
 40
52.0
 40
52.0
 40
53.0
 40
53.0
 40
53.0
 40
54.0
 40
54.0
 40
54.0
 40
55.0
 40
55.0
 40
55.0
 40
56.0
 40
56.0
 40
56.0
 40
57.0
 40
57.0
 40
57.0
 40
58.0
 40
58.0
 40
58.0
 40
59.0
 40
59.0
 40
59.0
 40
60.0
 40
60.0
 40
60.0
 40
61.0
 40
61.0
 40
61.0
 40
62.0
 40
62.0
 40
62.0
 40
63.0
 40
63.0
 40
63.0
 40
63.0
 10
113.3708065566205
 20
45.03834529223024
 10
112.359395423808
 20
45.70538468025108
 10
112.1001519884782
 20
46.94878854309831
 10
112.0191233426448
 20
47.93970135776851
 10
112.0191233426448
 20
47.93970135776851
 10
113.1265148357004
 20
47.93970135776851
 10
113.1265148357004
 20
47.93970135776851
 10
113.1265148357004
 20
47.93970135776851
 10
113.1265148357004
 20
48.65907174622339
 10
113.1265148357004
 20
48.65907174622339
 10
113.1265148357004
 20
48.65907174622339
 10
111.2052195340511
 20
48.65907174622339
 10
111.2052195340511
 20
48.65907174622339
 10
111.2052195340511
 20
48.65907174622339
 10
111.2052195340511
 20
49.92442086731705
 10
111.2052195340511
 20
49.92442086731705
 10
111.2052195340511
 20
49.92442086731705
 10
112.9222551243288
 20
49.92442086731705
 10
112.9222551243288
 20
49.92442086731705
 10
112.9222551243288
 20
49.92442086731705
 10
112.9222551243288
 20
50.64367067742989
 10
112.9222551243288
 20
50.64367067742989
 10
112.9222551243288
 20
50.64367067742989
 10
112.0473386746761
 20
50.64367067742989
 10
111.2052195340511
 20
50.64367067742989
 10
111.2052195340511
 20
50.64367067742989
 10
111.2052195340511
 20
51.71947064487778
 10
111.2052195340511
 20
51.71947064487778
 10
111.2052195340511
 20
51.71947064487778
 10
110.4858491455962
 20
51.71947064487778
 10
110.4858491455962
 20
51.71947064487778
 10
110.4858491455962
 20
51.71947064487778
 10
110.4858491455962
 20
50.64367067742989
 10
110.4858491455962
 20
50.64367067742989
 10
110.0471851373497
 20
50.64367067742989
 10
109.7146300700754
 20
50.64367067742989
 10
109.6758038439469
 20
50.64367067742989
 10
109.7119773465511
 20
50.75038251011221
 10
109.9885840631309
 20
51.56826540399243
 10
109.9885840631309
 20
51.56826540399243
 10
109.9885840631309
 20
51.56826540399243
 10
109.9239540718115
 20
51.56838598233446
 10
109.9239540718115
 20
51.56838598233446
 10
109.9239540718115
 20
51.56838598233446
 10
109.2918824029747
 20
51.56838598233446
 10
109.2918824029747
 20
51.56838598233446
 10
109.2918824029747
 20
51.56838598233446
 10
109.2595674073149
 20
51.56838598233446
 10
109.2595674073149
 20
51.56838598233446
 10
109.2595674073149
 20
51.56838598233446
 10
108.8356139567941
 20
50.39877606479968
 10
108.8356139567941
 20
50.39877606479968
 10
108.8013697076622
 20
50.30134876445254
 10
108.7917234403011
 20
50.15858400750801
 10
108.8681701091379
 20
50.05066639140557
 10
108.9089255887386
 20
49.99302994392303
 10
108.990918861308
 20
49.92442086731705
 10
109.1503234294504
 20
49.92442086731705
 10
109.1503234294504
 20
49.92442086731705
 10
110.4858491455962
 20
49.92442086731705
 10
110.4858491455962
 20
49.92442086731705
 10
110.4858491455962
 20
49.92442086731705
 10
110.4858491455962
 20
48.65907174622339
 10
110.4858491455962
 20
48.65907174622339
 10
110.4858491455962
 20
48.65907174622339
 10
108.5459847792768
 20
48.65907174622339
 10
108.5459847792768
 20
48.65907174622339
 10
108.5459847792768
 20
48.65907174622339
 10
108.5459847792768
 20
47.98310956089347
 10
108.5459847792768
 20
47.98310956089347
 10
108.2604552653879
 20
48.36678984518164
 10
108.0342502957698
 20
48.8544086602858
 10
107.8767749810997
 20
49.42655289314178
 10
107.8767749810997
 20
49.42655289314178
 10
107.8767749810997
 20
49.81758845629281
 10
107.8767749810997
 20
49.81758845629281
 10
107.8767749810997
 20
49.81758845629281
 10
108.6458236464643
 20
49.81758845629281
 10
108.6458236464643
 20
49.81758845629281
 10
108.6458236464643
 20
49.81758845629281
 10
108.6458236464643
 20
50.5370794230896
 10
108.6458236464643
 20
50.5370794230896
 10
108.6458236464643
 20
50.5370794230896
 10
107.8767749810997
 20
50.5370794230896
 10
107.8767749810997
 20
50.5370794230896
 10
107.8767749810997
 20
50.5370794230896
 10
107.8767749810997
 20
51.71947064487778
 10
107.8767749810997
 20
51.71947064487778
 10
107.8767749810997
 20
51.71947064487778
 10
107.1571634359608
 20
51.71947064487778
 10
107.1571634359608
 20
51.71947064487778
 10
107.1571634359608
 20
51.71947064487778
 10
107.1571634359608
 20
50.5370794230896
 10
107.1571634359608
 20
50.5370794230896
 10
107.1571634359608
 20
50.5370794230896
 10
106.19494826669
 20
50.5370794230896
 10
106.19494826669
 20
50.5370794230896
 10
106.19494826669
 20
50.5370794230896
 10
106.19494826669
 20
49.81758845629281
 10
106.19494826669
 20
49.81758845629281
 10
106.19494826669
 20
49.81758845629281
 10
107.1571634359608
 20
49.81758845629281
 10
107.1571634359608
 20
49.81758845629281
 10
107.1571634359608
 20
49.81758845629281
 10
107.1571634359608
 20
49.33262236471296
 10
107.1571634359608
 20
49.33262236471296
 10
107.0127105822282
 20
48.71236737339348
 10
106.7187405843983
 20
48.11863961731706
 10
106.2757357558393
 20
47.56108536384488
 10
106.2757357558393
 20
47.56108536384488
 10
106.2656071751101
 20
47.54830405959137
 10
106.2656071751101
 20
47.54830405959137
 10
106.2656071751101
 20
47.54830405959137
 10
106.2656071751101
 20
46.48287382955664
 10
106.2656071751101
 20
46.48287382955664
 10
106.2656071751101
 20
46.48287382955664
 10
106.3456711942073
 20
46.56559057217816
 10
106.3456711942073
 20
46.56559057217816
 10
106.6787085748497
 20
46.91092694370593
 10
106.9475982775407
 20
47.26663305264696
 10
107.1571634359608
 20
47.60786976054624
 10
107.1571634359608
 20
47.60786976054624
 10
107.1571634359608
 20
44.10651586514688
 10
107.1571634359608
 20
44.10651586514688
 10
107.1571634359608
 20
44.10651586514688
 10
107.8767749810997
 20
44.10651586514688
 10
107.8767749810997
 20
44.10651586514688
 10
107.8767749810997
 20
44.10651586514688
 10
107.8767749810997
 20
47.77330324578929
 10
107.8767749810997
 20
47.77330324578929
 10
108.1362595731136
 20
47.39420493849763
 10
108.4410816217247
 20
47.05128013381011
 10
108.774119002367
 20
46.78359621453933
 10
108.774119002367
 20
46.78359621453933
 10
108.8496010444677
 20
46.72282473016434
 10
108.8496010444677
 20
46.72282473016434
 10
108.8496010444677
 20
46.72282473016434
 10
108.8496010444677
 20
47.63198542894906
 10
108.8496010444677
 20
47.63198542894906
 10
108.8496010444677
 20
47.63198542894906
 10
108.8353728001101
 20
47.64573135993862
 10
108.8353728001101
 20
47.64573135993862
 10
108.7449390435997
 20
47.73423586297679
 10
108.66053420419
 20
47.83407473016427
 10
108.5790232449886
 20
47.93970135776851
 10
108.5790232449886
 20
47.93970135776851
 10
109.6492766087038
 20
47.93970135776851
 10
109.6492766087038
 20
47.93970135776851
 10
109.5687302762386
 20
46.94878854309831
 10
109.3094868409087
 20
45.70538468025108
 10
108.2978345514122
 20
45.03834529223024
 10
108.2978345514122
 20
45.03834529223024
 10
108.2768539199018
 20
45.02435820455661
 10
108.2768539199018
 20
45.02435820455661
 10
108.2768539199018
 20
45.02435820455661
 10
108.2768539199018
 20
44.34743139249064
 10
108.2768539199018
 20
44.34743139249064
 10
108.2768539199018
 20
44.34743139249064
 10
108.3446189481136
 20
44.38312258172686
 10
108.3446189481136
 20
44.38312258172686
 10
109.5846466173844
 20
45.04123917243862
 10
110.1979080648671
 20
46.20699058302887
 10
110.3611711399539
 20
47.93970135776851
 10
110.3611711399539
 20
47.93970135776851
 10
110.4858491455962
 20
47.93970135776851
 10
110.4858491455962
 20
47.93970135776851
 10
110.4858491455962
 20
47.93970135776851
 10
110.4858491455962
 20
44.10651586514688
 10
110.4858491455962
 20
44.10651586514688
 10
110.4858491455962
 20
44.10651586514688
 10
111.2052195340511
 20
44.10651586514688
 10
111.2052195340511
 20
44.10651586514688
 10
111.2052195340511
 20
44.10651586514688
 10
111.2052195340511
 20
47.93970135776851
 10
111.2052195340511
 20
47.93970135776851
 10
111.2052195340511
 20
47.93970135776851
 10
111.3077111247629
 20
47.93970135776851
 10
111.3077111247629
 20
47.93970135776851
 10
111.4709741998497
 20
46.20699058302887
 10
112.0837533339643
 20
45.04123917243862
 10
113.3235398465511
 20
44.38312258172686
 10
113.3235398465511
 20
44.38312258172686
 10
113.3915460314469
 20
44.34743139249064
 10
113.3915460314469
 20
44.34743139249064
 10
113.3915460314469
 20
44.34743139249064
 10
113.3915460314469
 20
45.02435820455661
 10
113.3915460314469
 20
45.02435820455661
 10
113.3915460314469
 20
45.02435820455661
 10
113.3708065566205
 20
45.03834529223024
 10
113.3708065566205
 20
45.03834529223024
 97
        0
 75
     0
 76
     1
 52
0.0
 41
0.01
 77
     0
 78
     1
 53
45.0
 43
-0.9999983001881744
 44
21.50000079055394
 45
-0.0224506403026729
 46
0.0224506403026729
 79
     0
 98
        1
 10
95.92806417923343
 20
47.88960105666172
  0
HATCH
  5
16787
330
1F
100
AcDbEntity
  8
0
  6
ByBlock
 62
     0
100
AcDbHatch
 10
0.0
 20
0.0
 30
0.0
210
0.0
220
0.0
230
1.0
  2
ANSI31
 70
     0
 71
     0
 91
        1
 92
        1
 93
        1
 72
     4
 94
        3
 73
     0
 74
     0
 95
       29
 96
       25
 40
0.0
 40
0.0
 40
0.0
 40
0.0
 40
1.0
 40
1.0
 40
1.0
 40
2.0
 40
2.0
 40
2.0
 40
3.0
 40
3.0
 40
3.0
 40
4.0
 40
4.0
 40
4.0
 40
5.0
 40
5.0
 40
5.0
 40
6.0
 40
6.0
 40
6.0
 40
7.0
 40
7.0
 40
7.0
 40
8.0
 40
8.0
 40
8.0
 40
8.0
 10
93.44451206877337
 20
47.87892987339342
 10
93.44451206877337
 20
46.26028621019907
 10
93.07385424542269
 20
45.30000029440043
 10
92.3108344971588
 20
44.94453534214346
 10
92.3108344971588
 20
44.94453534214346
 10
92.28406610523171
 20
44.93199519457403
 10
92.28406610523171
 20
44.93199519457403
 10
92.28406610523171
 20
44.93199519457403
 10
92.28406610523171
 20
44.08408829353231
 10
92.28406610523171
 20
44.08408829353231
 10
92.28406610523171
 20
44.08408829353231
 10
92.34797262649909
 20
44.10989205872328
 10
92.34797262649909
 20
44.10989205872328
 10
93.68856263300948
 20
44.65466500794207
 10
94.27264412172474
 20
45.71141359735179
 10
94.30182408049212
 20
47.64307863641431
 10
94.30182408049212
 20
47.64307863641431
 10
94.30182408049212
 20
51.3503803399733
 10
94.30182408049212
 20
51.3503803399733
 10
94.30182408049212
 20
51.3503803399733
 10
93.44451206877337
 20
51.3503803399733
 10
93.44451206877337
 20
51.3503803399733
 10
93.44451206877337
 20
51.3503803399733
 10
93.44451206877337
 20
47.87892987339342
 10
93.44451206877337
 20
47.87892987339342
 97
        0
 75
     0
 76
     1
 52
0.0
 41
0.01
 77
     0
 78
     1
 53
45.0
 43
-0.9999983001881744
 44
21.50000079055394
 45
-0.0224506403026729
 46
0.0224506403026729
 79
     0
 98
        1
 10
95.75925450041404
 20
47.71723431675286
  0
HATCH
  5
16788
330
1F
100
AcDbEntity
  8
0
  6
ByBlock
 62
     0
100
AcDbHatch
 10
0.0
 20
0.0
 30
0.0
210
0.0
220
0.0
230
1.0
  2
ANSI31
 70
     0
 71
     0
 91
        1
 92
        1
 93
        1
 72
     4
 94
        3
 73
     0
 74
     0
 95
       35
 96
       31
 40
0.0
 40
0.0
 40
0.0
 40
0.0
 40
1.0
 40
1.0
 40
1.0
 40
2.0
 40
2.0
 40
2.0
 40
3.0
 40
3.0
 40
3.0
 40
4.0
 40
4.0
 40
4.0
 40
5.0
 40
5.0
 40
5.0
 40
6.0
 40
6.0
 40
6.0
 40
7.0
 40
7.0
 40
7.0
 40
8.0
 40
8.0
 40
8.0
 40
9.0
 40
9.0
 40
9.0
 40
10.0
 40
10.0
 40
10.0
 40
10.0
 10
98.53098884828726
 20
48.75915177009483
 10
98.53098884828726
 20
48.75915177009483
 10
98.53098884828726
 20
48.7128496867615
 10
98.53098884828726
 20
48.7128496867615
 10
98.53098884828726
 20
46.36012507738655
 10
97.3165237875234
 20
45.15820016419207
 10
96.16861797155115
 20
45.01929391419207
 10
96.16861797155115
 20
45.12540285516434
 10
96.16861797155115
 20
51.3503803399733
 10
96.16861797155115
 20
51.3503803399733
 10
96.16861797155115
 20
51.3503803399733
 10
95.31154711651643
 20
51.3503803399733
 10
95.31154711651643
 20
51.3503803399733
 10
95.31154711651643
 20
51.3503803399733
 10
95.31154711651643
 20
44.56181968459134
 10
95.31154711651643
 20
44.56181968459134
 10
95.31154711651643
 20
44.41133791375807
 10
95.35302606616921
 20
44.29461807868858
 10
95.43477818205463
 20
44.21383058953927
 10
95.54643372675945
 20
44.10434545499072
 10
95.69088658049214
 20
44.10651586514688
 10
95.69715665427688
 20
44.10651586514688
 10
97.45711813431157
 20
44.10651586514688
 10
99.23444289559624
 20
45.53054608433092
 10
99.23444289559624
 20
48.7128496867615
 10
99.23444289559624
 20
48.7128496867615
 10
99.23444289559624
 20
48.75915177009483
 10
99.23444289559624
 20
48.75915177009483
 10
99.23444289559624
 20
48.75915177009483
 10
98.53098884828726
 20
48.75915177009483
 10
98.53098884828726
 20
48.75915177009483
 97
        0
 75
     0
 76
     1
 52
0.0
 41
0.01
 77
     0
 78
     1
 53
45.0
 43
-0.9999983001881744
 44
21.50000079055394
 45
-0.0224506403026729
 46
0.0224506403026729
 79
     0
 98
        1
 10
95.75925450041404
 20
47.71723431675286
  0
HATCH
  5
16789
330
1F
100
AcDbEntity
  8
0
  6
ByBlock
 62
     0
100
AcDbHatch
 10
0.0
 20
0.0
 30
0.0
210
0.0
220
0.0
230
1.0
  2
ANSI31
 70
     0
 71
     0
 91
        1
 92
        1
 93
        1
 72
     4
 94
        3
 73
     0
 74
     0
 95
       35
 96
       31
 40
0.0
 40
0.0
 40
0.0
 40
0.0
 40
1.0
 40
1.0
 40
1.0
 40
2.0
 40
2.0
 40
2.0
 40
3.0
 40
3.0
 40
3.0
 40
4.0
 40
4.0
 40
4.0
 40
5.0
 40
5.0
 40
5.0
 40
6.0
 40
6.0
 40
6.0
 40
7.0
 40
7.0
 40
7.0
 40
8.0
 40
8.0
 40
8.0
 40
9.0
 40
9.0
 40
9.0
 40
10.0
 40
10.0
 40
10.0
 40
10.0
 10
105.3564464763254
 20
44.8890693048171
 10
105.3434240153878
 20
44.89630400533792
 10
104.0406956082698
 20
45.61253935690035
 10
101.3655445123497
 20
45.61253935690035
 10
101.3655445123497
 20
45.61253935690035
 10
99.78500360523163
 20
45.61253935690035
 10
99.78500360523163
 20
45.61253935690035
 10
99.78500360523163
 20
45.61253935690035
 10
99.73870152189833
 20
45.61253935690035
 10
99.73870152189833
 20
45.61253935690035
 10
99.73870152189833
 20
45.61253935690035
 10
99.73870152189833
 20
44.7805487970046
 10
99.73870152189833
 20
44.7805487970046
 10
99.73870152189833
 20
44.7805487970046
 10
101.4506728218115
 20
44.7805487970046
 10
101.4506728218115
 20
44.7805487970046
 10
103.6268707384782
 20
44.7805487970046
 10
105.2469613417768
 20
44.13786623407054
 10
105.3149675266726
 20
44.11061552877538
 10
105.3149675266726
 20
44.11061552877538
 10
105.3783917345719
 20
44.08505292026847
 10
105.3783917345719
 20
44.08505292026847
 10
105.3783917345719
 20
44.08505292026847
 10
105.3800798313601
 20
44.15305910516429
 10
105.3800798313601
 20
44.15305910516429
 10
105.3800798313601
 20
44.15305910516429
 10
105.3800798313601
 20
44.8755645305115
 10
105.3800798313601
 20
44.8755645305115
 10
105.3800798313601
 20
44.8755645305115
 10
105.3564464763254
 20
44.8890693048171
 10
105.3564464763254
 20
44.8890693048171
 97
        0
 75
     0
 76
     1
 52
0.0
 41
0.01
 77
     0
 78
     1
 53
45.0
 43
-0.9999983001881744
 44
21.50000079055394
 45
-0.0224506403026729
 46
0.0224506403026729
 79
     0
 98
        1
 10
102.5593906766292
 20
47.70372954244726
  0
HATCH
  5
1678A
330
1F
100
AcDbEntity
  8
0
  6
ByBlock
 62
     0
100
AcDbHatch
 10
0.0
 20
0.0
 30
0.0
210
0.0
220
0.0
230
1.0
  2
ANSI31
 70
     0
 71
     0
 91
        1
 92
        1
 93
        1
 72
     4
 94
        3
 73
     0
 74
     0
 95
       35
 96
       31
 40
0.0
 40
0.0
 40
0.0
 40
0.0
 40
1.0
 40
1.0
 40
1.0
 40
2.0
 40
2.0
 40
2.0
 40
3.0
 40
3.0
 40
3.0
 40
4.0
 40
4.0
 40
4.0
 40
5.0
 40
5.0
 40
5.0
 40
6.0
 40
6.0
 40
6.0
 40
7.0
 40
7.0
 40
7.0
 40
8.0
 40
8.0
 40
8.0
 40
9.0
 40
9.0
 40
9.0
 40
10.0
 40
10.0
 40
10.0
 40
10.0
 10
100.1718189264122
 20
48.77217423103241
 10
100.1718189264122
 20
48.77217423103241
 10
100.1255168430788
 20
48.77217423103241
 10
100.1255168430788
 20
48.77217423103241
 10
100.1255168430788
 20
48.77217423103241
 10
100.1255168430788
 20
47.99034426141429
 10
100.1255168430788
 20
47.99034426141429
 10
100.1255168430788
 20
47.99034426141429
 10
101.1412687962038
 20
47.99034426141429
 10
101.1412687962038
 20
47.99034426141429
 10
103.2632064589642
 20
47.99034426141429
 10
104.6491339220719
 20
47.39251684170949
 10
104.8005803196413
 20
47.32426950012961
 10
104.8005803196413
 20
47.32426950012961
 10
104.8659337810129
 20
47.29508954136224
 10
104.8659337810129
 20
47.29508954136224
 10
104.8659337810129
 20
47.29508954136224
 10
104.8681041911691
 20
47.36574844978235
 10
104.8681041911691
 20
47.36574844978235
 10
104.8681041911691
 20
47.36574844978235
 10
104.8681041911691
 20
48.02700007738656
 10
104.8681041911691
 20
48.02700007738656
 10
104.8681041911691
 20
48.02700007738656
 10
104.8512232232872
 20
48.04098716506018
 10
104.8512232232872
 20
48.04098716506018
 10
104.815049720683
 20
48.07089059387954
 10
103.9316927870893
 20
48.77217423103241
 10
100.9789703478531
 20
48.77217423103241
 10
100.9789703478531
 20
48.77217423103241
 10
100.1718189264122
 20
48.77217423103241
 10
100.1718189264122
 20
48.77217423103241
 97
        0
 75
     0
 76
     1
 52
0.0
 41
0.01
 77
     0
 78
     1
 53
45.0
 43
-0.9999983001881744
 44
21.50000079055394
 45
-0.0224506403026729
 46
0.0224506403026729
 79
     0
 98
        1
 10
102.5593906766292
 20
47.70372954244726
  0
HATCH
  5
1678B
330
1F
100
AcDbEntity
  8
0
  6
ByBlock
 62
     0
100
AcDbHatch
 10
0.0
 20
0.0
 30
0.0
210
0.0
220
0.0
230
1.0
  2
ANSI31
 70
     0
 71
     0
 91
        1
 92
        1
 93
        1
 72
     4
 94
        3
 73
     0
 74
     0
 95
       35
 96
       31
 40
0.0
 40
0.0
 40
0.0
 40
0.0
 40
1.0
 40
1.0
 40
1.0
 40
2.0
 40
2.0
 40
2.0
 40
3.0
 40
3.0
 40
3.0
 40
4.0
 40
4.0
 40
4.0
 40
5.0
 40
5.0
 40
5.0
 40
6.0
 40
6.0
 40
6.0
 40
7.0
 40
7.0
 40
7.0
 40
8.0
 40
8.0
 40
8.0
 40
9.0
 40
9.0
 40
9.0
 40
10.0
 40
10.0
 40
10.0
 40
10.0
 10
104.9862709663427
 20
49.83796619609313
 10
104.9862709663427
 20
49.83796619609313
 10
105.0523478977663
 20
49.80733929722157
 10
105.0523478977663
 20
49.80733929722157
 10
105.0523478977663
 20
49.80733929722157
 10
105.0559652480268
 20
49.87848051900982
 10
105.0559652480268
 20
49.87848051900982
 10
105.0559652480268
 20
49.87848051900982
 10
105.0559652480268
 20
50.58205514466078
 10
105.0559652480268
 20
50.58205514466078
 10
105.0559652480268
 20
50.58205514466078
 10
105.0328142063601
 20
50.59555991896639
 10
105.0328142063601
 20
50.59555991896639
 10
105.0202740587907
 20
50.60291519782925
 10
103.7546837810129
 20
51.32240616462604
 10
101.1668314047108
 20
51.32240616462604
 10
101.1668314047108
 20
51.32240616462604
 10
99.98395786955454
 20
51.32240616462604
 10
99.98395786955454
 20
51.32240616462604
 10
99.98395786955454
 20
51.32240616462604
 10
99.93765578622124
 20
51.32240616462604
 10
99.93765578622124
 20
51.32240616462604
 10
99.93765578622124
 20
51.32240616462604
 10
99.93765578622124
 20
50.51525474318509
 10
99.93765578622124
 20
50.51525474318509
 10
99.93765578622124
 20
50.51525474318509
 10
101.3624094754573
 20
50.51525474318509
 10
101.3624094754573
 20
50.51525474318509
 10
103.4710835205962
 20
50.51525474318509
 10
104.8374772922976
 20
49.90741932109313
 10
104.9862709663427
 20
49.83796619609313
 97
        0
 75
     0
 76
     1
 52
0.0
 41
0.01
 77
     0
 78
     1
 53
45.0
 43
-0.9999983001881744
 44
21.50000079055394
 45
-0.0224506403026729
 46
0.0224506403026729
 79
     0
 98
        1
 10
102.5593906766292
 20
47.70372954244726
  0
HATCH
  5
1678C
330
1F
100
AcDbEntity
  8
0
  6
ByBlock
 62
     0
100
AcDbHatch
 10
0.0
 20
0.0
 30
0.0
210
0.0
220
0.0
230
1.0
  2
ANSI31
 70
     0
 71
     0
 91
        1
 92
        1
 93
        1
 72
     4
 94
        3
 73
     0
 74
     0
 95
       77
 96
       73
 40
0.0
 40
0.0
 40
0.0
 40
0.0
 40
1.0
 40
1.0
 40
1.0
 40
2.0
 40
2.0
 40
2.0
 40
3.0
 40
3.0
 40
3.0
 40
4.0
 40
4.0
 40
4.0
 40
5.0
 40
5.0
 40
5.0
 40
6.0
 40
6.0
 40
6.0
 40
7.0
 40
7.0
 40
7.0
 40
8.0
 40
8.0
 40
8.0
 40
9.0
 40
9.0
 40
9.0
 40
10.0
 40
10.0
 40
10.0
 40
11.0
 40
11.0
 40
11.0
 40
12.0
 40
12.0
 40
12.0
 40
13.0
 40
13.0
 40
13.0
 40
14.0
 40
14.0
 40
14.0
 40
15.0
 40
15.0
 40
15.0
 40
16.0
 40
16.0
 40
16.0
 40
17.0
 40
17.0
 40
17.0
 40
18.0
 40
18.0
 40
18.0
 40
19.0
 40
19.0
 40
19.0
 40
20.0
 40
20.0
 40
20.0
 40
21.0
 40
21.0
 40
21.0
 40
22.0
 40
22.0
 40
22.0
 40
23.0
 40
23.0
 40
23.0
 40
24.0
 40
24.0
 40
24.0
 40
24.0
 10
120.3414405084434
 20
44.91897273363656
 10
119.0951427653879
 20
46.05867922235177
 10
118.6774593886518
 20
47.57748401835875
 10
118.5650803738948
 20
49.92442086731705
 10
118.5650803738948
 20
49.92442086731705
 10
119.9090465739816
 20
49.92442086731705
 10
119.9090465739816
 20
49.92442086731705
 10
120.0493997640858
 20
49.92442086731705
 10
120.1603318387386
 20
49.97108468567649
 10
120.2297849637386
 20
50.05934803203058
 10
120.3050258491552
 20
50.15508723558969
 10
120.3245595405615
 20
50.29049671367125
 10
120.285733314433
 20
50.45038359518162
 10
120.2324376872629
 20
50.67128311775116
 10
119.9934514133913
 20
51.48566923971293
 10
119.9830816759782
 20
51.52015464552892
 10
119.9830816759782
 20
51.52015464552892
 10
119.9736765653011
 20
51.55343426792478
 10
119.9736765653011
 20
51.55343426792478
 10
119.9736765653011
 20
51.55343426792478
 10
119.9391911594851
 20
51.55343426792478
 10
119.9391911594851
 20
51.55343426792478
 10
119.9391911594851
 20
51.55343426792478
 10
119.2335667020198
 20
51.55343426792478
 10
119.2335667020198
 20
51.55343426792478
 10
119.2335667020198
 20
51.55343426792478
 10
119.2473126330094
 20
51.49615955546813
 10
119.2473126330094
 20
51.49615955546813
 10
119.2487595731136
 20
51.49109526510358
 10
119.3659617215511
 20
51.01083172886228
 10
119.5017329346587
 20
50.64367067742989
 10
119.469417938999
 20
50.64367067742989
 10
119.0912842584434
 20
50.64367067742989
 10
118.5412058621761
 20
50.64367067742989
 10
118.5337300049712
 20
50.9726083944438
 10
118.5296303413427
 20
51.31324221063301
 10
118.5296303413427
 20
51.67304798320254
 10
118.5296303413427
 20
51.67304798320254
 10
118.5296303413427
 20
51.7194706448779
 10
118.5296303413427
 20
51.7194706448779
 10
118.5296303413427
 20
51.7194706448779
 10
118.4833282580094
 20
51.7194706448779
 10
118.4833282580094
 20
51.7194706448779
 10
118.4833282580094
 20
51.7194706448779
 10
117.7610639893462
 20
51.7194706448779
 10
117.7610639893462
 20
51.7194706448779
 10
117.7610639893462
 20
51.7194706448779
 10
117.7610639893462
 20
51.67304798320254
 10
117.7610639893462
 20
51.67304798320254
 10
117.7610639893462
 20
51.31432741571121
 10
117.7666105930788
 20
50.97200550273374
 10
117.7772214871761
 20
50.64367067742989
 10
116.0464399659087
 20
50.64367067742989
 10
113.6372846924712
 20
50.64367067742989
 10
113.6372846924712
 20
50.64367067742989
 10
113.6372846924712
 20
50.64367067742989
 10
113.6372846924712
 20
49.92442086731705
 10
113.6372846924712
 20
49.92442086731705
 10
113.6372846924712
 20
49.92442086731705
 10
117.81098342294
 20
49.92442086731705
 10
117.81098342294
 20
49.92442086731705
 10
117.9973975396934
 20
46.9475827596782
 10
118.7254495687733
 20
45.29710641419206
 10
120.2821159641726
 20
44.11592097582399
 10
120.2821159641726
 20
44.11592097582399
 10
120.3566333795372
 20
44.05949031176158
 10
120.3566333795372
 20
44.05949031176158
 10
120.3566333795372
 20
44.05949031176158
 10
120.3566333795372
 20
44.90498564596293
 10
120.3566333795372
 20
44.90498564596293
 10
120.3566333795372
 20
44.90498564596293
 10
120.3414405084434
 20
44.91897273363656
 10
120.3414405084434
 20
44.91897273363656
 97
        0
 75
     0
 76
     1
 52
0.0
 41
0.01
 77
     0
 78
     1
 53
45.0
 43
-0.9999983001881744
 44
21.50000079055394
 45
-0.0224506403026729
 46
0.0224506403026729
 79
     0
 98
        1
 10
116.9969590360042
 20
47.88948047831968
  0
HATCH
  5
1678D
330
1F
100
AcDbEntity
  8
0
  6
ByBlock
 62
     0
100
AcDbHatch
 10
0.0
 20
0.0
 30
0.0
210
0.0
220
0.0
230
1.0
  2
ANSI31
 70
     0
 71
     0
 91
        1
 92
        1
 93
        1
 72
     4
 94
        3
 73
     0
 74
     0
 95
       53
 96
       49
 40
0.0
 40
0.0
 40
0.0
 40
0.0
 40
1.0
 40
1.0
 40
1.0
 40
2.0
 40
2.0
 40
2.0
 40
3.0
 40
3.0
 40
3.0
 40
4.0
 40
4.0
 40
4.0
 40
5.0
 40
5.0
 40
5.0
 40
6.0
 40
6.0
 40
6.0
 40
7.0
 40
7.0
 40
7.0
 40
8.0
 40
8.0
 40
8.0
 40
9.0
 40
9.0
 40
9.0
 40
10.0
 40
10.0
 40
10.0
 40
11.0
 40
11.0
 40
11.0
 40
12.0
 40
12.0
 40
12.0
 40
13.0
 40
13.0
 40
13.0
 40
14.0
 40
14.0
 40
14.0
 40
15.0
 40
15.0
 40
15.0
 40
16.0
 40
16.0
 40
16.0
 40
16.0
 10
116.0529511963775
 20
45.10803957391431
 10
116.0529511963775
 20
45.10803957391431
 10
116.0529511963775
 20
47.93970135776851
 10
116.0529511963775
 20
47.93970135776851
 10
116.0529511963775
 20
47.93970135776851
 10
117.6561608317941
 20
47.93970135776851
 10
117.6561608317941
 20
47.93970135776851
 10
117.6561608317941
 20
47.93970135776851
 10
117.6561608317941
 20
48.65907174622339
 10
117.6561608317941
 20
48.65907174622339
 10
117.6561608317941
 20
48.65907174622339
 10
113.9613992758046
 20
48.65907174622339
 10
113.9613992758046
 20
48.65907174622339
 10
113.9613992758046
 20
48.65907174622339
 10
113.9613992758046
 20
47.93970135776851
 10
113.9613992758046
 20
47.93970135776851
 10
113.9613992758046
 20
47.93970135776851
 10
115.3338219646066
 20
47.93970135776851
 10
115.3338219646066
 20
47.93970135776851
 10
115.3338219646066
 20
47.93970135776851
 10
115.3338219646066
 20
45.08006539856705
 10
115.3338219646066
 20
45.08006539856705
 10
114.8951579563601
 20
45.06897219110181
 10
114.3986163439469
 20
45.06390790073726
 10
113.8212872423844
 20
45.06390790073726
 10
113.8212872423844
 20
45.06390790073726
 10
113.7749851590511
 20
45.06390790073726
 10
113.7749851590511
 20
45.06390790073726
 10
113.7749851590511
 20
45.06390790073726
 10
113.7749851590511
 20
44.33247967808097
 10
113.7749851590511
 20
44.33247967808097
 10
113.7749851590511
 20
44.33247967808097
 10
113.8212872423844
 20
44.33247967808097
 10
113.8212872423844
 20
44.33247967808097
 10
115.5096251872629
 20
44.33247967808097
 10
117.2703101373497
 20
44.41616104743866
 10
118.3854186442941
 20
44.84831382521645
 10
118.3854186442941
 20
44.84831382521645
 10
118.4136339763254
 20
44.86013050273379
 10
118.4136339763254
 20
44.86013050273379
 10
118.4136339763254
 20
44.86013050273379
 10
118.4136339763254
 20
45.56792537035528
 10
118.4136339763254
 20
45.56792537035528
 10
118.4136339763254
 20
45.56792537035528
 10
118.34924514169
 20
45.54091582174419
 10
118.34924514169
 20
45.54091582174419
 10
117.7569643257178
 20
45.29155981045948
 10
117.1150052328358
 20
45.16591717808103
 10
116.0529511963775
 20
45.10803957391431
 97
        0
 75
     0
 76
     1
 52
0.0
 41
0.01
 77
     0
 78
     1
 53
45.0
 43
-0.9999983001881744
 44
21.50000079055394
 45
-0.0224506403026729
 46
0.0224506403026729
 79
     0
 98
        1
 10
116.9969590360042
 20
47.88948047831968
  0
LINE
  5
1678E
330
1F
100
AcDbEntity
  8
0
  6
ByBlock
 62
     0
370
    -2
100
AcDbLine
 10
140.0000000000003
 20
38.0
 30
0.0
 11
140.0000000000003
 21
58.0
 31
0.0
  0
HATCH
  5
1678F
330
1F
100
AcDbEntity
  8
0
  6
ByBlock
 62
     0
100
AcDbHatch
 10
0.0
 20
0.0
 30
0.0
210
0.0
220
0.0
230
1.0
  2
ANSI31
 70
     0
 71
     0
 91
        1
 92
        3
 72
     0
 73
     1
 93
       16
 10
133.4234671468983
 20
44.984085038324
 10
133.4234671468983
 20
49.35553224969556
 10
135.0474162571414
 20
49.35553224969556
 10
135.0474162571414
 20
50.0747820598084
 10
133.4234671468983
 20
50.0747820598084
 10
133.4234671468983
 20
51.71585329461743
 10
132.7045790718115
 20
51.71585329461743
 10
132.7045790718115
 20
50.0747820598084
 10
131.2959828804052
 20
50.0747820598084
 10
131.2959828804052
 20
49.35553224969556
 10
132.7045790718115
 20
49.35553224969556
 10
132.7045790718115
 20
44.984085038324
 10
130.8971097250233
 20
44.984085038324
 10
130.8971097250233
 20
44.26447349318516
 10
135.2053738851795
 20
44.26447349318516
 10
135.2053738851795
 20
44.984085038324
 97
        0
 75
     0
 76
     1
 52
0.0
 41
0.01
 77
     0
 78
     1
 53
45.0
 43
-0.9999983001881744
 44
21.50000079055394
 45
-0.0224506403026729
 46
0.0224506403026729
 79
     0
 98
        1
 10
131.6469864340077
 20
47.90370872267738
  0
HATCH
  5
16790
330
1F
100
AcDbEntity
  8
0
  6
ByBlock
 62
     0
100
AcDbHatch
 10
0.0
 20
0.0
 30
0.0
210
0.0
220
0.0
230
1.0
  2
ANSI31
 70
     0
 71
     0
 91
        1
 92
        1
 93
        1
 72
     4
 94
        3
 73
     0
 74
     0
 95
       77
 96
       73
 40
0.0
 40
0.0
 40
0.0
 40
0.0
 40
1.0
 40
1.0
 40
1.0
 40
2.0
 40
2.0
 40
2.0
 40
3.0
 40
3.0
 40
3.0
 40
4.0
 40
4.0
 40
4.0
 40
5.0
 40
5.0
 40
5.0
 40
6.0
 40
6.0
 40
6.0
 40
7.0
 40
7.0
 40
7.0
 40
8.0
 40
8.0
 40
8.0
 40
9.0
 40
9.0
 40
9.0
 40
10.0
 40
10.0
 40
10.0
 40
11.0
 40
11.0
 40
11.0
 40
12.0
 40
12.0
 40
12.0
 40
13.0
 40
13.0
 40
13.0
 40
14.0
 40
14.0
 40
14.0
 40
15.0
 40
15.0
 40
15.0
 40
16.0
 40
16.0
 40
16.0
 40
17.0
 40
17.0
 40
17.0
 40
18.0
 40
18.0
 40
18.0
 40
19.0
 40
19.0
 40
19.0
 40
20.0
 40
20.0
 40
20.0
 40
21.0
 40
21.0
 40
21.0
 40
22.0
 40
22.0
 40
22.0
 40
23.0
 40
23.0
 40
23.0
 40
24.0
 40
24.0
 40
24.0
 40
24.0
 10
131.3299859728531
 20
46.65819473884482
 10
131.3299859728531
 20
46.65819473884482
 10
131.4016095080094
 20
46.6104457154073
 10
131.4016095080094
 20
46.6104457154073
 10
131.4016095080094
 20
46.6104457154073
 10
131.4016095080094
 20
47.43327232131014
 10
131.4016095080094
 20
47.43327232131014
 10
131.4016095080094
 20
47.43327232131014
 10
131.3842462267594
 20
47.44725940898376
 10
131.3842462267594
 20
47.44725940898376
 10
131.042527205492
 20
47.71518448493861
 10
130.6805510227663
 20
48.17579375143168
 10
130.4270953478531
 20
48.57297881002546
 10
130.8216276829226
 20
49.18792835429622
 10
131.1083629802316
 20
49.84242759474762
 10
131.2296647922976
 20
50.46581762295943
 10
131.2311117324018
 20
50.47172596171811
 10
131.2713848986344
 20
50.64921728116257
 10
131.1715460314469
 20
50.77570396193516
 10
131.1093276069677
 20
50.85456219761226
 10
131.0092475830962
 20
50.89435305047686
 10
130.8744409967247
 20
50.89435305047686
 10
130.8744409967247
 20
50.89435305047686
 10
130.5428505561865
 20
50.89435305047686
 10
130.5428505561865
 20
50.89435305047686
 10
130.5428505561865
 20
50.89435305047686
 10
130.0373861464643
 20
50.89435305047686
 10
130.0373861464643
 20
50.89435305047686
 10
130.0373861464643
 20
50.89435305047686
 10
130.0373861464643
 20
51.7194706448779
 10
130.0373861464643
 20
51.7194706448779
 10
130.0373861464643
 20
51.7194706448779
 10
129.3180157580094
 20
51.7194706448779
 10
129.3180157580094
 20
51.7194706448779
 10
129.3180157580094
 20
51.7194706448779
 10
129.3180157580094
 20
50.89435305047686
 10
129.3180157580094
 20
50.89435305047686
 10
129.3180157580094
 20
50.89435305047686
 10
128.1635987115684
 20
50.89435305047686
 10
128.1635987115684
 20
50.89435305047686
 10
128.1635987115684
 20
50.89435305047686
 10
128.1635987115684
 20
50.17486208367995
 10
128.1635987115684
 20
50.17486208367995
 10
128.1635987115684
 20
50.17486208367995
 10
130.2725139133914
 20
50.17486208367995
 10
130.4017738960302
 20
50.17486208367995
 10
130.0067592475927
 20
49.15754261210873
 10
129.4209896620893
 20
48.01470108650107
 10
128.1095796143462
 20
47.16221220846295
 10
128.1095796143462
 20
47.16221220846295
 10
128.0885989828358
 20
47.14846627747329
 10
128.0885989828358
 20
47.14846627747329
 10
128.0885989828358
 20
47.14846627747329
 10
128.0885989828358
 20
46.31406415073718
 10
128.0885989828358
 20
46.31406415073718
 10
128.0885989828358
 20
46.31406415073718
 10
128.1580521078358
 20
46.35361384691782
 10
128.1580521078358
 20
46.35361384691782
 10
128.5648834337906
 20
46.58608889032052
 10
128.9565218886518
 20
46.88705243198717
 10
129.3180157580094
 20
47.23070070672679
 10
129.3180157580094
 20
47.23070070672679
 10
129.3180157580094
 20
44.08794680047686
 10
129.3180157580094
 20
44.08794680047686
 10
129.3180157580094
 20
44.08794680047686
 10
130.0373861464643
 20
44.08794680047686
 10
130.0373861464643
 20
44.08794680047686
 10
130.0373861464643
 20
44.08794680047686
 10
130.0373861464643
 20
47.87410673971294
 10
130.0373861464643
 20
47.87410673971294
 10
130.3959861356136
 20
47.40288657912265
 10
130.842367157749
 20
46.9798977553379
 10
131.3299859728531
 20
46.65819473884482
 97
        0
 75
     0
 76
     1
 52
0.0
 41
0.01
 77
     0
 78
     1
 53
45.0
 43
-0.9999983001881744
 44
21.50000079055394
 45
-0.0224506403026729
 46
0.0224506403026729
 79
     0
 98
        1
 10
131.6469864340077
 20
47.90370872267738
  0
LINE
  5
16791
330
1F
100
AcDbEntity
  8
0
  6
ByBlock
 62
     0
370
    -2
100
AcDbLine
 10
240.0000000000003
 20
48.0
 30
0.0
 11
340.0000000000005
 21
48.0
 31
0.0
  0
LINE
  5
16792
330
1F
100
AcDbEntity
  8
0
  6
ByBlock
 62
     0
370
    -2
100
AcDbLine
 10
240.0000000000005
 20
38.0
 30
0.0
 11
240.0000000000003
 21
58.0
 31
0.0
  0
MTEXT
  5
16793
330
1F
100
AcDbEntity
  8
0
100
AcDbMText
 10
242.0000000000003
 20
43.0
 30
0.0
 40
4.0
 41
12.208605964787
 71
     4
 72
     5
  1
御施工
  7
ST_Design
 73
     1
 44
1.0
1001
ACAD
1000
MTEXTBEGIN
1070
    73
1070
     1
1070
    44
1040
1.0
1070
    74
1070
     0
1000
MTEXTEND
  0
MTEXT
  5
16794
330
1F
100
AcDbEntity
  8
0
100
AcDbMText
 10
242.0000000000003
 20
53.0
 30
0.0
 40
4.0
 41
13.91
 71
     4
 72
     5
  1
御設計
  7
ST_Design
 73
     1
 44
1.0
1001
ACAD
1000
MTEXTBEGIN
1070
    73
1070
     1
1070
    44
1040
1.0
1070
    74
1070
     0
1000
MTEXTEND
  0
MTEXT
  5
16795
330
1F
100
AcDbEntity
  8
0
100
AcDbMText
 10
335.7714923696954
 20
43.0
 30
0.0
 40
4.0
 41
3.089999999999998
 71
     4
 72
     5
  1
殿
  7
ST_Design
 73
     1
 44
1.0
1001
ACAD
1000
MTEXTBEGIN
1070
    73
1070
     1
1070
    44
1040
1.0
1070
    74
1070
     0
1000
MTEXTEND
  0
MTEXT
  5
16796
330
1F
100
AcDbEntity
  8
0
100
AcDbMText
 10
335.8944653645498
 20
53.0
 30
0.0
 40
4.0
 41
3.089999999999998
 71
     4
 72
     5
  1
殿
  7
ST_Design
 73
     1
 44
1.0
1001
ACAD
1000
MTEXTBEGIN
1070
    73
1070
     1
1070
    44
1040
1.0
1070
    74
1070
     0
1000
MTEXTEND
  0
MTEXT
  5
16797
330
1F
100
AcDbEntity
  8
0
100
AcDbMText
 10
341.0193080318455
 20
55.20513729706067
 30
0.0
 40
3.5
 41
5.0
 71
     1
 72
     5
  1
受\P{\H0.7143x;　\P}領
  7
ST_Design
 73
     1
 44
1.0
1001
ACAD
1000
MTEXTBEGIN
1070
    73
1070
     1
1070
    44
1040
1.0
1070
    74
1070
     0
1000
MTEXTEND
  0
LINE
  5
16798
330
1F
100
AcDbEntity
  8
0
  6
ByBlock
 62
     0
370
    -2
100
AcDbLine
 10
340.0000000000003
 20
38.0
 30
0.0
 11
340.0000000000003
 21
58.0
 31
0.0
  0
LINE
  5
16799
330
1F
100
AcDbEntity
  8
0
  6
ByBlock
 62
     0
370
    -2
100
AcDbLine
 10
345.0
 20
38.0
 30
0.0
 11
344.9999999999985
 21
58.0
 31
0.0
  0
LINE
  5
1679A
330
1F
100
AcDbEntity
  8
0
  6
ByBlock
 62
     0
370
    -2
100
AcDbLine
 10
410.0000000000003
 20
38.0
 30
0.0
 11
410.0000000000004
 21
58.0
 31
0.0
  0
MTEXT
  5
1679B
330
1F
100
AcDbEntity
  8
0
100
AcDbMText
 10
411.9101362171959
 20
55.32828371120036
 30
0.0
 40
3.5
 41
5.0
 71
     1
 72
     5
  1
工\P事\P名
  7
ST_Design
 73
     1
 44
1.0
1001
ACAD
1000
MTEXTBEGIN
1070
    73
1070
     1
1070
    44
1040
1.0
1070
    74
1070
     0
1000
MTEXTEND
  0
LINE
  5
1679C
330
1F
100
AcDbEntity
  8
0
  6
ByBlock
 62
     0
370
    -2
100
AcDbLine
 10
798.0000000000035
 20
38.0
 30
0.0
 11
798.0
 21
558.0
 31
0.0
  0
MTEXT
  5
1679D
330
1F
100
AcDbEntity
  8
0
100
AcDbMText
 10
663.0000000000043
 20
53.5
 30
0.0
 40
3.5
 41
13.59593930004324
 71
     8
 72
     5
  1
尺　　度
  7
ST_Design
 73
     1
 44
1.0
1001
ACAD
1000
MTEXTBEGIN
1070
    73
1070
     1
1070
    44
1040
1.0
1070
    74
1070
     0
1000
MTEXTEND
  0
LINE
  5
1679E
330
1F
100
AcDbEntity
  8
0
  6
ByBlock
 62
     0
370
    -2
100
AcDbLine
 10
678.0000000000001
 20
53.0
 30
0.0
 11
588.0000000000002
 21
53.0
 31
0.0
  0
LINE
  5
1679F
330
1F
100
AcDbEntity
  8
0
  6
ByBlock
 62
     0
370
    -2
100
AcDbLine
 10
588.0000000000003
 20
38.0
 30
0.0
 11
588.0000000000003
 21
58.0
 31
0.0
  0
MTEXT
  5
167A0
330
1F
100
AcDbEntity
  8
0
100
AcDbMText
 10
625.5000000000043
 20
53.5
 30
0.0
 40
3.5
 41
13.5959
 71
     8
 72
     5
  1
打　合
  7
ST_Design
 73
     1
 44
1.0
1001
ACAD
1000
MTEXTBEGIN
1070
    73
1070
     1
1070
    44
1040
1.0
1070
    74
1070
     0
1000
MTEXTEND
  0
MTEXT
  5
167A1
330
1F
100
AcDbEntity
  8
0
100
AcDbMText
 10
603.0000000000004
 20
53.5
 30
0.0
 40
3.5
 41
13.5959
 71
     8
 72
     5
  1
照　　査
  7
ST_Design
 73
     1
 44
1.0
1001
ACAD
1000
MTEXTBEGIN
1070
    73
1070
     1
1070
    44
1040
1.0
1070
    74
1070
     0
1000
MTEXTEND
  0
LINE
  5
167A2
330
1F
100
AcDbEntity
  8
0
  6
ByBlock
 62
     0
370
    -2
100
AcDbLine
 10
618.0000000000041
 20
38.0
 30
0.0
 11
618.0000000000041
 21
58.0
 31
0.0
  0
MTEXT
  5
167A3
330
1F
100
AcDbEntity
  8
0
100
AcDbMText
 10
640.5000000000043
 20
53.5
 30
0.0
 40
3.5
 41
13.5959
 71
     8
 72
     5
  1
作　図
  7
ST_Design
 73
     1
 44
1.0
1001
ACAD
1000
MTEXTBEGIN
1070
    73
1070
     1
1070
    44
1040
1.0
1070
    74
1070
     0
1000
MTEXTEND
  0
LINE
  5
167A4
330
1F
100
AcDbEntity
  8
0
  6
ByBlock
 62
     0
370
    -2
100
AcDbLine
 10
633.0000000000005
 20
38.0
 30
0.0
 11
633.000000000004
 21
58.0
 31
0.0
  0
LINE
  5
167A5
330
1F
100
AcDbEntity
  8
0
  6
ByBlock
 62
     0
370
    -2
100
AcDbLine
 10
648.0000000000042
 20
38.0
 30
0.0
 11
648.0000000000042
 21
58.0
 31
0.0
  0
LINE
  5
167A6
330
1F
100
AcDbEntity
  8
0
  6
ByBlock
 62
     0
370
    -2
100
AcDbLine
 10
652.0000000000042
 20
45.49999999999999
 30
0.0
 11
660.0000000000042
 21
45.49999999999999
 31
0.0
  0
LINE
  5
167A7
330
1F
100
AcDbEntity
  8
0
  6
ByBlock
 62
     0
370
    -2
100
AcDbLine
 10
798.000000000004
 20
53.0
 30
0.0
 11
768.0000000000039
 21
53.0
 31
0.0
  0
LINE
  5
167A8
330
1F
100
AcDbEntity
  8
0
  6
ByBlock
 62
     0
370
    -2
100
AcDbLine
 10
768.0000000000041
 20
48.0
 30
0.0
 11
678.0000000000041
 21
48.0
 31
0.0
  0
LINE
  5
167A9
330
1F
100
AcDbEntity
  8
0
  6
ByBlock
 62
     0
370
    -2
100
AcDbLine
 10
666.000000000008
 20
45.49999999999999
 30
0.0
 11
674.000000000008
 21
45.49999999999999
 31
0.0
  0
LINE
  5
167AA
330
1F
100
AcDbEntity
  8
0
  6
ByBlock
 62
     0
370
    -2
100
AcDbLine
 10
678.0000000000041
 20
38.0
 30
0.0
 11
678.0000000000041
 21
58.0
 31
0.0
  0
LINE
  5
167AB
330
1F
100
AcDbEntity
  8
0
  6
ByBlock
 62
     0
370
    -2
100
AcDbLine
 10
678.0000000000041
 20
38.0
 30
0.0
 11
678.0000000000041
 21
58.0
 31
0.0
  0
LINE
  5
167AC
330
1F
100
AcDbEntity
  8
0
  6
ByBlock
 62
     0
370
    -2
100
AcDbLine
 10
768.0000000000041
 20
38.0
 30
0.0
 11
768.0000000000041
 21
58.0
 31
0.0
  0
MTEXT
  5
167AD
330
1F
100
AcDbEntity
  8
0
100
AcDbMText
 10
783.000000000004
 20
53.5
 30
0.0
 40
3.5
 41
13.5959
 71
     8
 72
     5
  1
図　　番
  7
ST_Design
 73
     1
 44
1.0
1001
ACAD
1000
MTEXTBEGIN
1070
    73
1070
     1
1070
    44
1040
1.0
1070
    74
1070
     0
1000
MTEXTEND
  0
LINE
  5
167AF
330
1F
100
AcDbEntity
  8
0
  6
ByBlock
 62
     0
370
    -2
100
AcDbLine
 10
776.0
 20
522.0
 30
0.0
 11
798.0
 21
522.0
 31
0.0
  0
LINE
  5
167B0
330
1F
100
AcDbEntity
  8
0
  6
ByBlock
 62
     0
370
    -2
100
AcDbLine
 10
776.0
 20
549.0
 30
0.0
 11
798.0
 21
549.0
 31
0.0
  0
LINE
  5
167B1
330
1F
100
AcDbEntity
  8
0
  6
ByBlock
 62
     0
370
    -2
100
AcDbLine
 10
776.0
 20
531.0
 30
0.0
 11
798.0
 21
531.0
 31
0.0
  0
LINE
  5
167B2
330
1F
100
AcDbEntity
  8
0
  6
ByBlock
 62
     0
370
    -2
100
AcDbLine
 10
776.0
 20
540.0
 30
0.0
 11
798.0
 21
540.0
 31
0.0
  0
LINE
  5
167B3
330
1F
100
AcDbEntity
  8
0
  6
ByBlock
 62
     0
370
    -2
100
AcDbLine
 10
776.0
 20
513.0
 30
0.0
 11
798.0
 21
513.0
 31
0.0
  0
LINE
  5
167B4
330
1F
100
AcDbEntity
  8
0
  6
ByBlock
 62
     0
370
    -2
100
AcDbLine
 10
776.0
 20
495.0
 30
0.0
 11
798.0
 21
495.0
 31
0.0
  0
LINE
  5
167B5
330
1F
100
AcDbEntity
  8
0
  6
ByBlock
 62
     0
370
    -2
100
AcDbLine
 10
776.0
 20
504.0
 30
0.0
 11
798.0
 21
504.0
 31
0.0
  0
LINE
  5
167B6
330
1F
100
AcDbEntity
  8
0
  6
ByBlock
 62
     0
370
    -2
100
AcDbLine
 10
776.0
 20
558.0
 30
0.0
 11
776.0
 21
495.0
 31
0.0
  0
TEXT
  5
167B8
330
1F
100
AcDbEntity
  8
0
100
AcDbText
 10
736.4146959686856
 20
23.25114259729503
 30
0.0
 40
10.0
  1
-Ａ６-
  7
AT_VECTOR
 72
     1
 11
760.7956483496381
 21
28.25114259729503
 31
0.0
100
AcDbText
 73
     2
  0
POINT
  5
167BA
330
1F
100
AcDbEntity
  8
0
100
AcDbPoint
 10
808.0000000000033
 20
21.0
 30
0.0
  0
TEXT
  5
167C1
330
1F
100
AcDbEntity
  8
0
100
AcDbText
 10
40.45819394134276
 20
32.38714182789852
 30
0.0
 40
4.0
  1
07.10.01　作成
  7
AT_VECTOR
 11
40.45819394134276
 21
32.38714182789852
 31
0.0
100
AcDbText
 73
     1
  0
LINE
  5
174D8
330
1F
100
AcDbEntity
  8
003
100
AcDbLine
 10
392.5152399062666
 20
86.92875121012184
 30
0.0
 11
472.5152399062666
 21
86.92875121012184
 31
0.0
  0
LINE
  5
174D9
330
1F
100
AcDbEntity
  8
003
100
AcDbLine
 10
392.5152399062666
 20
73.59541787678836
 30
0.0
 11
472.5152399062661
 21
73.59541787678836
 31
0.0
  0
LINE
  5
174DA
330
1F
100
AcDbEntity
  8
003
100
AcDbLine
 10
392.5152399062666
 20
73.59541787678836
 30
0.0
 11
392.5152399062666
 21
86.92875121012184
 31
0.0
  0
TEXT
  5
174DB
330
1F
100
AcDbEntity
  8
0
100
AcDbText
 10
414.6485732396
 20
76.26208454345487
 30
0.0
 40
7.999999999999998
  1
横断面図
  7
AT_VECTOR
 72
     1
 11
432.5152399062666
 21
80.26208454345487
 31
0.0
100
AcDbText
 73
     2
  0
LINE
  5
174DC
330
1F
100
AcDbEntity
  8
003
100
AcDbLine
 10
472.5152399062661
 20
73.59541787678836
 30
0.0
 11
472.5152399062666
 21
86.92875121012184
 31
0.0
  0
LINE
  5
174DD
330
1F
100
AcDbEntity
  8
003
100
AcDbLine
 10
417.5152399062666
 20
101.3936021851
 30
0.0
 11
447.5152399062666
 21
101.3936021851
 31
0.0
  0
LINE
  5
174DE
330
1F
100
AcDbEntity
  8
003
100
AcDbLine
 10
417.5152399062666
 20
110.3936021851
 30
0.0
 11
447.5152399062666
 21
110.3936021851
 31
0.0
  0
LINE
  5
174DF
330
1F
100
AcDbEntity
  8
003
100
AcDbLine
 10
417.5152399062666
 20
110.3936021851
 30
0.0
 11
417.5152399062666
 21
101.3936021851
 31
0.0
  0
TEXT
  5
174E0
330
1F
100
AcDbEntity
  8
0
100
AcDbText
 10
422.3152399062666
 20
102.8936021851
 30
0.0
 40
6.0
  1
内　部
  7
AT_VECTOR
 72
     1
 11
432.5152399062666
 21
105.8936021851
 31
0.0
100
AcDbText
 73
     2
  0
LINE
  5
174E1
330
1F
100
AcDbEntity
  8
003
100
AcDbLine
 10
447.5152399062666
 20
110.3936021851
 30
0.0
 11
447.5152399062666
 21
101.3936021851
 31
0.0
  0
LINE
  5
174E2
330
1F
100
AcDbEntity
  8
003
100
AcDbLine
 10
417.5152399062666
 20
359.0611052134254
 30
0.0
 11
447.5152399062666
 21
359.0611052134254
 31
0.0
  0
LINE
  5
174E3
330
1F
100
AcDbEntity
  8
003
100
AcDbLine
 10
417.5152399062666
 20
350.0611052134254
 30
0.0
 11
447.5152399062666
 21
350.0611052134254
 31
0.0
  0
LINE
  5
174E4
330
1F
100
AcDbEntity
  8
003
100
AcDbLine
 10
417.5152399062666
 20
359.0611052134254
 30
0.0
 11
417.5152399062666
 21
350.0611052134254
 31
0.0
  0
TEXT
  5
174E5
330
1F
100
AcDbEntity
  8
0
100
AcDbText
 10
422.5152399062666
 20
351.5611052134254
 30
0.0
 40
6.0
  1
外　部
  7
AT_VECTOR
 72
     1
 11
432.5152399062666
 21
354.5611052134254
 31
0.0
100
AcDbText
 73
     2
  0
LINE
  5
174E6
330
1F
100
AcDbEntity
  8
003
100
AcDbLine
 10
447.5152399062666
 20
359.0611052134254
 30
0.0
 11
447.5152399062666
 21
350.0611052134254
 31
0.0
  0
LINE
  5
17533
330
1F
100
AcDbEntity
  8
007
100
AcDbLine
 10
437.5152399062663
 20
235.6827183177488
 30
0.0
 11
485.4155219062668
 21
235.6827183177488
 31
0.0
  0
LINE
  5
17534
330
1F
100
AcDbEntity
  8
007
100
AcDbLine
 10
485.4155219062668
 20
245.1827183177488
 30
0.0
 11
437.5152399062663
 21
245.1827183177488
 31
0.0
  0
LINE
  5
17535
330
1F
100
AcDbEntity
  8
007
100
AcDbLine
 10
485.4155219062668
 20
248.4826183177488
 30
0.0
 11
437.5152399062663
 21
248.4826183177488
 31
0.0
  0
LINE
  5
17536
330
1F
100
AcDbEntity
  8
007
100
AcDbLine
 10
485.4155219062668
 20
249.3827183177486
 30
0.0
 11
437.5152399062663
 21
249.3827183177486
 31
0.0
  0
LINE
  5
17537
330
1F
100
AcDbEntity
  8
007
100
AcDbLine
 10
508.6155219062671
 20
283.4826917451173
 30
0.0
 11
437.5152399062663
 21
283.4826917451173
 31
0.0
  0
LINE
  5
17538
330
1F
100
AcDbEntity
  8
007
100
AcDbLine
 10
508.6155219062671
 20
284.3827917451177
 30
0.0
 11
437.5152399062663
 21
284.3827917451177
 31
0.0
  0
LINE
  5
17539
330
1F
100
AcDbEntity
  8
007
100
AcDbLine
 10
508.6155219062671
 20
287.6826917451176
 30
0.0
 11
437.5152399062663
 21
287.6826917451176
 31
0.0
  0
LINE
  5
1753A
330
1F
100
AcDbEntity
  8
007
100
AcDbLine
 10
437.5152399062663
 20
297.1826917451176
 30
0.0
 11
508.6155219062671
 21
297.1826917451176
 31
0.0
  0
MTEXT
  5
1753B
102
{ACAD_REACTORS
330
17577
102
}
330
1F
100
AcDbEntity
  8
003
 62
     7
100
AcDbMText
 10
382.6118276748398
 20
307.9196415634738
 30
0.0
 40
6.0
 41
0.0
 71
     9
 72
     1
  1
外網戸
  7
DIM
 73
     1
 44
1.0
1001
ACAD
1000
MTEXTBEGIN
1070
    73
1070
     1
1070
    44
1040
1.0
1070
    74
1070
     0
1000
MTEXTEND
  0
LINE
  5
1753C
330
1F
100
AcDbEntity
  8
007
100
AcDbLine
 10
356.4149579062655
 20
297.6826917451176
 30
0.0
 11
331.1149579062655
 21
297.6826917451176
 31
0.0
  0
LINE
  5
1753D
330
1F
100
AcDbEntity
  8
007
100
AcDbLine
 10
356.4149579062655
 20
287.6826917451176
 30
0.0
 11
328.1149579062656
 21
287.6826917451176
 31
0.0
  0
LINE
  5
17542
330
1F
100
AcDbEntity
  8
007
100
AcDbLine
 10
354.9149579062655
 20
287.3826917451174
 30
0.0
 11
333.6149579062655
 21
287.3826917451174
 31
0.0
  0
LINE
  5
17543
330
1F
100
AcDbEntity
  8
007
100
AcDbLine
 10
354.9149579062655
 20
282.8826917451174
 30
0.0
 11
333.6149579062655
 21
282.8826917451174
 31
0.0
  0
LINE
  5
17544
330
1F
100
AcDbEntity
  8
007
100
AcDbLine
 10
355.4149579062655
 20
284.3826917451174
 30
0.0
 11
333.1149579062655
 21
284.3826917451174
 31
0.0
  0
ARC
  5
1754B
330
1F
100
AcDbEntity
  8
007
100
AcDbCircle
 10
331.1149579062655
 20
294.6826917451176
 30
0.0
 40
3.0
100
AcDbArc
 50
90.0
 51
180.0
  0
ARC
  5
1754C
330
1F
100
AcDbEntity
  8
007
100
AcDbCircle
 10
333.6149579062655
 20
286.8826917451174
 30
0.0
 40
0.5
100
AcDbArc
 50
90.0
 51
180.0
  0
LINE
  5
1754D
330
1F
100
AcDbEntity
  8
007
100
AcDbLine
 10
333.1149579062655
 20
283.3826917451174
 30
0.0
 11
333.1149579062655
 21
286.8826917451174
 31
0.0
  0
ARC
  5
1754E
330
1F
100
AcDbEntity
  8
007
100
AcDbCircle
 10
333.6149579062655
 20
283.3826917451174
 30
0.0
 40
0.5
100
AcDbArc
 50
180.0
 51
270.0
  0
LINE
  5
1754F
330
1F
100
AcDbEntity
  8
007
100
AcDbLine
 10
328.1149579062656
 20
287.6826917451176
 30
0.0
 11
328.1149579062656
 21
294.6826917451176
 31
0.0
  0
MTEXT
  5
17552
102
{ACAD_REACTORS
330
17553
102
}
330
1F
100
AcDbEntity
  8
003
 62
     7
100
AcDbMText
 10
383.7588010393742
 20
227.9359252924428
 30
0.0
 40
6.0
 41
0.0
 71
     7
 72
     1
  1
内網戸
  7
DIM
 73
     1
 44
1.0
1001
ACAD
1000
MTEXTBEGIN
1070
    73
1070
     1
1070
    44
1040
1.0
1070
    74
1070
     0
1000
MTEXTEND
  0
LEADER
  5
17553
330
1F
100
AcDbEntity
  8
003
100
AcDbLeader
  3
DIM
 73
     0
 74
     0
 40
6.000000000000002
 41
14.7
 76
     3
 10
370.5763303874655
 20
237.7081765417634
 30
0.0
 10
377.3730428152287
 20
225.9359252924428
 30
0.0
 10
381.7588010393743
 20
225.9359252924428
 30
0.0
340
17552
1001
ACAD
1000
DSTYLE
1002
{
1070
   147
1040
1.0
1070
    77
1070
     1
1002
}
  0
LINE
  5
17554
330
1F
100
AcDbEntity
  8
007
100
AcDbLine
 10
427.5152399062664
 20
235.6827183177488
 30
0.0
 11
379.614957906266
 21
235.6827183177488
 31
0.0
  0
LINE
  5
17555
330
1F
100
AcDbEntity
  8
007
100
AcDbLine
 10
379.614957906266
 20
245.1827183177488
 30
0.0
 11
427.5152399062664
 21
245.1827183177488
 31
0.0
  0
LINE
  5
17556
330
1F
100
AcDbEntity
  8
007
100
AcDbLine
 10
379.614957906266
 20
248.4826183177488
 30
0.0
 11
427.5152399062664
 21
248.4826183177488
 31
0.0
  0
LINE
  5
17557
330
1F
100
AcDbEntity
  8
007
100
AcDbLine
 10
379.614957906266
 20
249.3827183177486
 30
0.0
 11
427.5152399062664
 21
249.3827183177486
 31
0.0
  0
LINE
  5
17558
330
1F
100
AcDbEntity
  8
007
100
AcDbLine
 10
378.114957906266
 20
245.482718317749
 30
0.0
 11
356.814957906266
 21
245.482718317749
 31
0.0
  0
LINE
  5
17559
330
1F
100
AcDbEntity
  8
007
100
AcDbLine
 10
379.614957906266
 20
235.1827183177488
 30
0.0
 11
354.3149579062661
 21
235.1827183177488
 31
0.0
  0
LINE
  5
1755A
330
1F
100
AcDbEntity
  8
007
100
AcDbLine
 10
378.614957906266
 20
248.482718317749
 30
0.0
 11
356.3149579062661
 21
248.482718317749
 31
0.0
  0
LINE
  5
1755B
330
1F
100
AcDbEntity
  8
007
100
AcDbLine
 10
378.114957906266
 20
249.982718317749
 30
0.0
 11
356.814957906266
 21
249.982718317749
 31
0.0
  0
LINE
  5
1755C
330
1F
100
AcDbEntity
  8
007
100
AcDbLine
 10
379.614957906266
 20
245.1827183177488
 30
0.0
 11
351.314957906266
 21
245.1827183177488
 31
0.0
  0
ARC
  5
17563
330
1F
100
AcDbEntity
  8
007
100
AcDbCircle
 10
356.814957906266
 20
249.482718317749
 30
0.0
 40
0.5
100
AcDbArc
 50
90.0
 51
180.0
  0
ARC
  5
17564
330
1F
100
AcDbEntity
  8
007
100
AcDbCircle
 10
356.814957906266
 20
245.982718317749
 30
0.0
 40
0.5
100
AcDbArc
 50
180.0
 51
270.0
  0
LINE
  5
17568
330
1F
100
AcDbEntity
  8
007
100
AcDbLine
 10
356.3149579062661
 20
249.482718317749
 30
0.0
 11
356.3149579062661
 21
245.982718317749
 31
0.0
  0
ARC
  5
1756A
330
1F
100
AcDbEntity
  8
007
100
AcDbCircle
 10
354.3149579062661
 20
238.1827183177488
 30
0.0
 40
3.0
100
AcDbArc
 50
180.0
 51
270.0
  0
LINE
  5
1756D
330
1F
100
AcDbEntity
  8
007
100
AcDbLine
 10
351.314957906266
 20
245.1827183177488
 30
0.0
 11
351.314957906266
 21
238.1827183177488
 31
0.0
  0
ARC
  5
17572
330
1F
100
AcDbEntity
  8
007
100
AcDbCircle
 10
378.114957906266
 20
249.482718317749
 30
0.0
 40
0.5
100
AcDbArc
 50
0.0
 51
90.0
  0
LINE
  5
17573
330
1F
100
AcDbEntity
  8
007
100
AcDbLine
 10
379.614957906266
 20
246.3827183177486
 30
0.0
 11
378.614957906266
 21
246.3827183177486
 31
0.0
  0
ARC
  5
17574
330
1F
100
AcDbEntity
  8
007
100
AcDbCircle
 10
378.114957906266
 20
245.982718317749
 30
0.0
 40
0.5
100
AcDbArc
 50
270.0
 51
0.0
  0
LINE
  5
17575
330
1F
100
AcDbEntity
  8
007
100
AcDbLine
 10
378.614957906266
 20
249.482718317749
 30
0.0
 11
378.614957906266
 21
245.982718317749
 31
0.0
  0
LINE
  5
17576
330
1F
100
AcDbEntity
  8
007
100
AcDbLine
 10
379.614957906266
 20
249.3827183177486
 30
0.0
 11
379.614957906266
 21
235.1827183177488
 31
0.0
  0
LEADER
  5
17577
330
1F
100
AcDbEntity
  8
003
100
AcDbLeader
  3
DIM
 73
     0
 40
6.0
 41
15.0
 76
     3
 10
396.8761698342447
 20
292.2512478615185
 30
0.0
 10
388.9847190510313
 20
305.9196415634738
 30
0.0
 10
384.6118276748398
 20
305.9196415634738
 30
0.0
1001
ACAD
1000
DSTYLE
1002
{
1070
   147
1040
1.0
1070
    77
1070
     1
1002
}
  0
LINE
  5
17578
330
1F
100
AcDbEntity
  8
007
100
AcDbLine
 10
427.5152399062664
 20
297.1826917451176
 30
0.0
 11
356.4149579062655
 21
297.1826917451176
 31
0.0
  0
LINE
  5
17579
330
1F
100
AcDbEntity
  8
007
100
AcDbLine
 10
356.4149579062655
 20
287.6826917451176
 30
0.0
 11
427.5152399062664
 21
287.6826917451176
 31
0.0
  0
LINE
  5
1757A
330
1F
100
AcDbEntity
  8
007
100
AcDbLine
 10
356.4149579062655
 20
284.3827917451177
 30
0.0
 11
427.5152399062664
 21
284.3827917451177
 31
0.0
  0
LINE
  5
1757B
330
1F
100
AcDbEntity
  8
007
100
AcDbLine
 10
356.4149579062655
 20
283.4826917451173
 30
0.0
 11
427.5152399062664
 21
283.4826917451173
 31
0.0
  0
LEADER
  5
1757C
330
1F
100
AcDbEntity
  8
003
100
AcDbLeader
  3
DIM
 73
     0
 74
     0
 40
6.000000000000001
 41
9.600000000000001
 76
     3
 10
393.1621742749621
 20
259.0398540646488
 30
0.0
 10
397.4317443227962
 20
266.4349663139715
 30
0.0
 10
400.3564677395497
 20
266.4349663139715
 30
0.0
340
1757D
1001
ACAD
1000
DSTYLE
1002
{
1070
   147
1040
1.0
1070
    77
1070
     1
1002
}
  0
MTEXT
  5
1757D
102
{ACAD_REACTORS
330
1757C
102
}
330
1F
100
AcDbEntity
  8
003
 62
     7
100
AcDbMText
 10
402.3564677395497
 20
268.4349663139715
 30
0.0
 40
6.0
 41
0.0
 71
     7
 72
     1
  1
羽根
  7
DIM
 73
     1
 44
1.0
1001
ACAD
1000
MTEXTBEGIN
1070
    73
1070
     1
1070
    44
1040
1.0
1070
    74
1070
     0
1000
MTEXTEND
  0
ARC
  5
17582
330
1F
100
AcDbEntity
  8
007
100
AcDbCircle
 10
354.9149579062655
 20
286.8826917451174
 30
0.0
 40
0.5
100
AcDbArc
 50
0.0
 51
90.0
  0
LINE
  5
17583
330
1F
100
AcDbEntity
  8
007
100
AcDbLine
 10
355.4149579062655
 20
283.3826917451174
 30
0.0
 11
355.4149579062655
 21
286.8826917451174
 31
0.0
  0
ARC
  5
17584
330
1F
100
AcDbEntity
  8
007
100
AcDbCircle
 10
354.9149579062655
 20
283.3826917451174
 30
0.0
 40
0.5
100
AcDbArc
 50
270.0
 51
0.0
  0
LINE
  5
17585
330
1F
100
AcDbEntity
  8
007
100
AcDbLine
 10
356.4149579062655
 20
286.4826917451173
 30
0.0
 11
355.4149579062655
 21
286.4826917451173
 31
0.0
  0
LINE
  5
17586
330
1F
100
AcDbEntity
  8
007
100
AcDbLine
 10
356.4149579062655
 20
283.4826917451173
 30
0.0
 11
356.4149579062655
 21
297.6826917451176
 31
0.0
  0
LINE
  5
1758B
330
1F
100
AcDbEntity
  8
007
100
AcDbLine
 10
486.9155219062669
 20
245.482718317749
 30
0.0
 11
508.2155219062666
 21
245.482718317749
 31
0.0
  0
LINE
  5
1758C
330
1F
100
AcDbEntity
  8
007
100
AcDbLine
 10
485.4155219062668
 20
235.1827183177488
 30
0.0
 11
510.7155219062666
 21
235.1827183177488
 31
0.0
  0
LINE
  5
1758D
330
1F
100
AcDbEntity
  8
007
100
AcDbLine
 10
485.4155219062668
 20
245.1827183177488
 30
0.0
 11
513.7155219062666
 21
245.1827183177488
 31
0.0
  0
LINE
  5
1758E
330
1F
100
AcDbEntity
  8
007
100
AcDbLine
 10
486.9155219062669
 20
249.982718317749
 30
0.0
 11
508.2155219062666
 21
249.982718317749
 31
0.0
  0
LINE
  5
1758F
330
1F
100
AcDbEntity
  8
007
100
AcDbLine
 10
486.4155219062669
 20
248.482718317749
 30
0.0
 11
508.7155219062666
 21
248.482718317749
 31
0.0
  0
ARC
  5
17590
330
1F
100
AcDbEntity
  8
007
100
AcDbCircle
 10
486.9155219062669
 20
249.482718317749
 30
0.0
 40
0.5
100
AcDbArc
 50
90.0
 51
180.0
  0
LINE
  5
17591
330
1F
100
AcDbEntity
  8
007
100
AcDbLine
 10
485.4155219062668
 20
246.3827183177486
 30
0.0
 11
486.4155219062669
 21
246.3827183177486
 31
0.0
  0
ARC
  5
17592
330
1F
100
AcDbEntity
  8
007
100
AcDbCircle
 10
486.9155219062669
 20
245.982718317749
 30
0.0
 40
0.5
100
AcDbArc
 50
180.0
 51
270.0
  0
LINE
  5
17593
330
1F
100
AcDbEntity
  8
007
100
AcDbLine
 10
486.4155219062669
 20
249.482718317749
 30
0.0
 11
486.4155219062669
 21
245.982718317749
 31
0.0
  0
LINE
  5
17596
330
1F
100
AcDbEntity
  8
007
100
AcDbLine
 10
485.4155219062668
 20
249.3827183177486
 30
0.0
 11
485.4155219062668
 21
235.1827183177488
 31
0.0
  0
ARC
  5
17597
330
1F
100
AcDbEntity
  8
007
100
AcDbCircle
 10
508.2155219062666
 20
249.482718317749
 30
0.0
 40
0.5
100
AcDbArc
 50
0.0
 51
90.0
  0
ARC
  5
1759B
330
1F
100
AcDbEntity
  8
007
100
AcDbCircle
 10
508.2155219062666
 20
245.982718317749
 30
0.0
 40
0.5
100
AcDbArc
 50
270.0
 51
0.0
  0
LINE
  5
1759C
330
1F
100
AcDbEntity
  8
007
100
AcDbLine
 10
508.7155219062666
 20
249.482718317749
 30
0.0
 11
508.7155219062666
 21
245.982718317749
 31
0.0
  0
ARC
  5
1759E
330
1F
100
AcDbEntity
  8
007
100
AcDbCircle
 10
510.7155219062666
 20
238.1827183177488
 30
0.0
 40
3.0
100
AcDbArc
 50
270.0
 51
0.0
  0
LINE
  5
175A1
330
1F
100
AcDbEntity
  8
007
100
AcDbLine
 10
513.7155219062666
 20
245.1827183177488
 30
0.0
 11
513.7155219062666
 21
238.1827183177488
 31
0.0
  0
LINE
  5
175A6
330
1F
100
AcDbEntity
  8
007
100
AcDbLine
 10
509.6155219062672
 20
284.3826917451174
 30
0.0
 11
531.9155219062669
 21
284.3826917451174
 31
0.0
  0
LINE
  5
175A7
330
1F
100
AcDbEntity
  8
007
100
AcDbLine
 10
510.1155219062672
 20
282.8826917451174
 30
0.0
 11
531.4155219062668
 21
282.8826917451174
 31
0.0
  0
LINE
  5
175A8
330
1F
100
AcDbEntity
  8
007
100
AcDbLine
 10
508.6155219062671
 20
287.6826917451176
 30
0.0
 11
536.9155219062669
 21
287.6826917451176
 31
0.0
  0
LINE
  5
175A9
330
1F
100
AcDbEntity
  8
007
100
AcDbLine
 10
508.6155219062671
 20
297.6826917451176
 30
0.0
 11
533.9155219062669
 21
297.6826917451176
 31
0.0
  0
LINE
  5
175AA
330
1F
100
AcDbEntity
  8
007
100
AcDbLine
 10
510.1155219062672
 20
287.3826917451174
 30
0.0
 11
531.4155219062668
 21
287.3826917451174
 31
0.0
  0
LINE
  5
175B3
330
1F
100
AcDbEntity
  8
007
100
AcDbLine
 10
509.6155219062672
 20
283.3826917451174
 30
0.0
 11
509.6155219062672
 21
286.8826917451174
 31
0.0
  0
ARC
  5
175B4
330
1F
100
AcDbEntity
  8
007
100
AcDbCircle
 10
510.1155219062672
 20
286.8826917451174
 30
0.0
 40
0.5
100
AcDbArc
 50
90.0
 51
180.0
  0
LINE
  5
175B5
330
1F
100
AcDbEntity
  8
007
100
AcDbLine
 10
508.6155219062671
 20
286.4826917451173
 30
0.0
 11
509.6155219062672
 21
286.4826917451173
 31
0.0
  0
ARC
  5
175B6
330
1F
100
AcDbEntity
  8
007
100
AcDbCircle
 10
510.1155219062672
 20
283.3826917451174
 30
0.0
 40
0.5
100
AcDbArc
 50
180.0
 51
270.0
  0
LINE
  5
175B9
330
1F
100
AcDbEntity
  8
007
100
AcDbLine
 10
508.6155219062671
 20
283.4826917451173
 30
0.0
 11
508.6155219062671
 21
297.6826917451176
 31
0.0
  0
ARC
  5
175BB
330
1F
100
AcDbEntity
  8
007
100
AcDbCircle
 10
533.9155219062669
 20
294.6826917451176
 30
0.0
 40
3.0
100
AcDbArc
 50
0.0
 51
90.0
  0
LINE
  5
175BF
330
1F
100
AcDbEntity
  8
007
100
AcDbLine
 10
531.9155219062669
 20
283.3826917451174
 30
0.0
 11
531.9155219062669
 21
286.8826917451174
 31
0.0
  0
ARC
  5
175C0
330
1F
100
AcDbEntity
  8
007
100
AcDbCircle
 10
531.4155219062668
 20
286.8826917451174
 30
0.0
 40
0.5
100
AcDbArc
 50
0.0
 51
90.0
  0
ARC
  5
175C1
330
1F
100
AcDbEntity
  8
007
100
AcDbCircle
 10
531.4155219062668
 20
283.3826917451174
 30
0.0
 40
0.5
100
AcDbArc
 50
270.0
 51
0.0
  0
LINE
  5
175C4
330
1F
100
AcDbEntity
  8
007
100
AcDbLine
 10
536.9155219062669
 20
287.6826917451176
 30
0.0
 11
536.9155219062669
 21
294.6826917451176
 31
0.0
  0
LINE
  5
17625
330
1F
100
AcDbEntity
  8
KI
  6
Continuous
 62
     7
100
AcDbLine
 10
437.5152399062669
 20
170.8326350314337
 30
0.0
 11
536.0156099062661
 21
170.8326350314337
 31
0.0
  0
LINE
  5
17626
330
1F
100
AcDbEntity
  8
KI
  6
Continuous
 62
     7
100
AcDbLine
 10
437.5152399062669
 20
180.2826450314337
 30
0.0
 11
516.0156699062664
 21
180.2826450314337
 31
0.0
  0
LINE
  5
17627
330
1F
100
AcDbEntity
  8
KI
  6
Continuous
 62
     7
100
AcDbLine
 10
437.5152399062669
 20
177.7826450314337
 30
0.0
 11
517.7858099062669
 21
177.7826450314337
 31
0.0
  0
LINE
  5
17628
330
1F
100
AcDbEntity
  8
KI
  6
Continuous
 62
     7
100
AcDbLine
 10
437.5152399062669
 20
215.2823950314337
 30
0.0
 11
516.0156699062664
 21
215.2823950314337
 31
0.0
  0
LINE
  5
17629
330
1F
100
AcDbEntity
  8
KI
  6
Continuous
 62
     7
100
AcDbLine
 10
437.5152399062669
 20
211.2823950314337
 30
0.0
 11
516.8033299062663
 21
211.2823950314337
 31
0.0
  0
LINE
  5
1762A
330
1F
100
AcDbEntity
  8
KI
  6
Continuous
 62
     7
100
AcDbLine
 10
437.5152399062669
 20
204.7823350314338
 30
0.0
 11
523.0156099062661
 21
204.7823350314338
 31
0.0
  0
LINE
  5
1762B
330
1F
100
AcDbEntity
  8
KI
  6
Continuous
 62
     7
100
AcDbLine
 10
437.5152399062669
 20
201.7823350314338
 30
0.0
 11
523.0156099062661
 21
201.7823350314338
 31
0.0
  0
LINE
  5
1762C
330
1F
100
AcDbEntity
  8
KI
  6
Continuous
 62
     7
100
AcDbLine
 10
437.5152399062669
 20
195.2823950314336
 30
0.0
 11
517.1308399062665
 21
195.2823950314336
 31
0.0
  0
LINE
  5
1762D
330
1F
100
AcDbEntity
  8
KI
  6
Continuous
 62
     7
100
AcDbLine
 10
437.5152399062669
 20
200.7823350314339
 30
0.0
 11
523.0156099062661
 21
200.7823350314339
 31
0.0
  0
LINE
  5
1762E
330
1F
100
AcDbEntity
  8
KI
  6
Continuous
 62
     7
100
AcDbLine
 10
437.5152399062669
 20
205.7823350314338
 30
0.0
 11
523.0156099062661
 21
205.7823350314338
 31
0.0
  0
LINE
  5
1762F
330
1F
100
AcDbEntity
  8
003
100
AcDbLine
 10
535.0152399062664
 20
286.0827050314338
 30
0.0
 11
437.5152399062669
 21
286.0827050314333
 31
0.0
  0
LINE
  5
17630
330
1F
100
AcDbEntity
  8
003
100
AcDbLine
 10
537.0152399062663
 20
284.7827050314336
 30
0.0
 11
437.5152399062669
 21
284.7827050314336
 31
0.0
  0
LINE
  5
17631
330
1F
100
AcDbEntity
  8
003
100
AcDbLine
 10
535.0152399062664
 20
287.2827050314336
 30
0.0
 11
437.5152399062669
 21
287.282705031434
 31
0.0
  0
DIMENSION
  5
17632
330
1F
100
AcDbEntity
  8
003
100
AcDbDimension
  2
*D6
 10
566.0152399062665
 20
120.6001278518657
 30
0.0
 11
432.5152399062666
 21
120.6001278518657
 31
0.0
 70
   160
  1
SW
 71
     5
 42
266.9999999999998
  3
DIM
100
AcDbAlignedDimension
 13
299.0152399062667
 23
158.2827051187005
 33
0.0
 14
566.0152399062665
 24
158.2827051187005
 34
0.0
100
AcDbRotatedDimension
  0
DIMENSION
  5
17633
330
1F
100
AcDbEntity
  8
003
100
AcDbDimension
  2
*D7
 10
565.0152399062664
 20
322.6406588029395
 30
0.0
 11
432.5152399062666
 21
322.6406588029395
 31
0.0
 70
   160
  1
製品W=SW-2
 71
     5
 42
264.9999999999998
  3
DIM
100
AcDbAlignedDimension
 13
300.0152399062667
 23
277.282705031434
 33
0.0
 14
565.0152399062664
 24
277.2827050314336
 34
0.0
100
AcDbRotatedDimension
  0
LINE
  5
17634
330
1F
100
AcDbEntity
  8
KI
  6
Continuous
 62
     7
100
AcDbLine
 10
437.5152399062669
 20
159.7826450314337
 30
0.0
 11
566.0151799062671
 21
159.7826450314337
 31
0.0
  0
LINE
  5
17635
330
1F
100
AcDbEntity
  8
KI
  6
Continuous
 62
     7
100
AcDbLine
 10
437.5152399062669
 20
157.7826450314337
 30
0.0
 11
566.8425699062665
 21
157.7826450314337
 31
0.0
  0
LINE
  5
17637
330
1F
100
AcDbEntity
  8
KI
  6
Continuous
 62
     7
100
AcDbLine
 10
329.014869906267
 20
215.8324450314339
 30
0.0
 11
329.014869906267
 21
179.1826350314341
 31
0.0
  0
LINE
  5
17638
330
1F
100
AcDbEntity
  8
KI
  6
Continuous
 62
     7
100
AcDbLine
 10
342.014869906267
 20
205.7823350314338
 30
0.0
 11
342.014869906267
 21
200.7823350314339
 31
0.0
  0
LINE
  5
17639
330
1F
100
AcDbEntity
  8
KI
  6
Continuous
 62
     7
100
AcDbLine
 10
326.014869906267
 20
213.2823950314337
 30
0.0
 11
326.014869906267
 21
198.2826450314337
 31
0.0
  0
LINE
  5
1763A
330
1F
100
AcDbEntity
  8
KI
  6
Continuous
 62
     7
100
AcDbLine
 10
297.3652199062667
 20
218.0327050314336
 30
0.0
 11
297.3652199062667
 21
200.0327050314336
 31
0.0
  0
LINE
  5
1763B
330
1F
100
AcDbEntity
  8
KI
  6
Continuous
 62
     7
100
AcDbLine
 10
299.0152399062667
 20
221.1326850314335
 30
0.0
 11
299.0152399062667
 21
189.7827050314336
 31
0.0
  0
LINE
  5
1763D
330
1F
100
AcDbEntity
  8
KI
  6
Continuous
 62
     7
100
AcDbLine
 10
427.5152399062668
 20
170.8326350314337
 30
0.0
 11
329.014869906267
 21
170.8326350314337
 31
0.0
  0
LINE
  5
1763E
330
1F
100
AcDbEntity
  8
KI
  6
Continuous
 62
     7
100
AcDbLine
 10
427.5152399062668
 20
201.7823350314338
 30
0.0
 11
342.014869906267
 21
201.7823350314338
 31
0.0
  0
LINE
  5
1763F
330
1F
100
AcDbEntity
  8
KI
  6
Continuous
 62
     7
100
AcDbLine
 10
427.5152399062668
 20
195.2823950314336
 30
0.0
 11
347.8996399062676
 21
195.2823950314336
 31
0.0
  0
LINE
  5
17640
330
1F
100
AcDbEntity
  8
KI
  6
Continuous
 62
     7
100
AcDbLine
 10
427.5152399062668
 20
180.2826450314337
 30
0.0
 11
349.0148099062676
 21
180.2826450314337
 31
0.0
  0
LINE
  5
17641
330
1F
100
AcDbEntity
  8
KI
  6
Continuous
 62
     7
100
AcDbLine
 10
427.5152399062668
 20
177.7826450314337
 30
0.0
 11
347.2446699062671
 21
177.7826450314337
 31
0.0
  0
LINE
  5
17642
330
1F
100
AcDbEntity
  8
KI
  6
Continuous
 62
     7
100
AcDbLine
 10
427.5152399062668
 20
200.7823350314339
 30
0.0
 11
342.014869906267
 21
200.7823350314339
 31
0.0
  0
LINE
  5
17643
330
1F
100
AcDbEntity
  8
KI
  6
Continuous
 62
     7
100
AcDbLine
 10
427.5152399062668
 20
159.7826450314337
 30
0.0
 11
299.015299906267
 21
159.7826450314337
 31
0.0
  0
LINE
  5
17644
330
1F
100
AcDbEntity
  8
KI
  6
Continuous
 62
     7
100
AcDbLine
 10
427.5152399062668
 20
157.7826450314337
 30
0.0
 11
298.1879099062676
 21
157.7826450314337
 31
0.0
  0
LINE
  5
17645
330
1F
100
AcDbEntity
  8
KI
  6
Continuous
 62
     7
100
AcDbLine
 10
284.7152499062672
 20
158.982715031434
 30
0.0
 11
297.8652199062667
 21
158.982715031434
 31
0.0
  0
LINE
  5
17646
330
1F
100
AcDbEntity
  8
KI
  6
Continuous
 62
     7
100
AcDbLine
 10
275.2152499062672
 20
157.782705031434
 30
0.0
 11
298.5152399062668
 21
157.782705031434
 31
0.0
  0
LINE
  5
17647
330
1F
100
AcDbEntity
  8
KI
  6
Continuous
 62
     7
100
AcDbLine
 10
284.0152399062668
 20
159.0827050314337
 30
0.0
 11
284.0152399062668
 21
158.982715031434
 31
0.0
  0
LINE
  5
17648
330
1F
100
AcDbEntity
  8
KI
  6
Continuous
 62
     7
100
AcDbLine
 10
284.7152499062672
 20
159.0827050314337
 30
0.0
 11
284.7152499062672
 21
158.982715031434
 31
0.0
  0
ARC
  5
17649
330
1F
100
AcDbEntity
  8
KI
  6
Continuous
 62
     7
100
AcDbCircle
 10
284.3652199062667
 20
159.0827050314337
 30
0.0
 40
0.34999999
100
AcDbArc
 50
359.999989999999
 51
180.000010000001
  0
LINE
  5
1764A
330
1F
100
AcDbEntity
  8
KI
  6
Continuous
 62
     7
100
AcDbLine
 10
275.0152399062667
 20
161.5827050314337
 30
0.0
 11
275.0152399062667
 21
158.982715031434
 31
0.0
  0
LINE
  5
1764B
330
1F
100
AcDbEntity
  8
KI
  6
Continuous
 62
     7
100
AcDbLine
 10
274.0152399062667
 20
162.0827050314337
 30
0.0
 11
274.0152399062667
 21
158.982715031434
 31
0.0
  0
ARC
  5
1764C
330
1F
100
AcDbEntity
  8
KI
  6
Continuous
 62
     7
100
AcDbCircle
 10
275.2152499062672
 20
158.982715031434
 30
0.0
 40
1.1999998
100
AcDbArc
 50
180.000040000004
 51
270.000020000002
  0
ARC
  5
1764D
330
1F
100
AcDbEntity
  8
KI
  6
Continuous
 62
     7
100
AcDbCircle
 10
274.7152499062672
 20
162.0827050314337
 30
0.0
 40
0.6999999900000001
100
AcDbArc
 50
359.999989999999
 51
179.9999640278154
  0
LINE
  5
1764E
330
1F
100
AcDbEntity
  8
KI
  6
Continuous
 62
     7
100
AcDbLine
 10
275.4152599062668
 20
162.0827050314337
 30
0.0
 11
275.4152599062668
 21
161.5827050314337
 31
0.0
  0
LINE
  5
1764F
330
1F
100
AcDbEntity
  8
KI
  6
Continuous
 62
     7
100
AcDbLine
 10
275.0152399062667
 20
161.5827050314337
 30
0.0
 11
275.4152599062668
 21
161.5827050314337
 31
0.0
  0
LINE
  5
17650
330
1F
100
AcDbEntity
  8
KI
  6
Continuous
 62
     7
100
AcDbLine
 10
275.0152399062667
 20
158.982715031434
 30
0.0
 11
284.0152399062668
 21
158.982715031434
 31
0.0
  0
ARC
  5
17651
330
1F
100
AcDbEntity
  8
KI
  6
Continuous
 62
     7
100
AcDbCircle
 10
343.0149299062673
 20
194.2823350314338
 30
0.0
 40
0.8000000099999999
100
AcDbArc
 50
270.0
 51
0.0000100000010064
  0
ARC
  5
17652
330
1F
100
AcDbEntity
  8
KI
  6
Continuous
 62
     7
100
AcDbCircle
 10
343.5149299062673
 20
194.7823350314338
 30
0.0
 40
0.5
100
AcDbArc
 50
89.99998399997755
 51
179.9999640278154
  0
LINE
  5
17653
330
1F
100
AcDbEntity
  8
KI
  6
Continuous
 62
     7
100
AcDbLine
 10
335.014869906267
 20
179.1194750314339
 30
0.0
 11
348.0149499062668
 21
178.9826350314338
 31
0.0
  0
LINE
  5
17654
330
1F
100
AcDbEntity
  8
KI
  6
Continuous
 62
     7
100
AcDbLine
 10
305.0149999062674
 20
177.7826450314337
 30
0.0
 11
348.2149499062675
 21
177.7826450314337
 31
0.0
  0
LINE
  5
17655
330
1F
100
AcDbEntity
  8
KI
  6
Continuous
 62
     7
100
AcDbLine
 10
325.9094099062672
 20
182.7825850314338
 30
0.0
 11
313.6962699062674
 21
182.7825850314338
 31
0.0
  0
LINE
  5
17656
330
1F
100
AcDbEntity
  8
KI
  6
Continuous
 62
     7
100
AcDbLine
 10
326.014869906267
 20
187.7825850314339
 30
0.0
 11
314.0149999062674
 21
187.7825850314339
 31
0.0
  0
LINE
  5
17657
330
1F
100
AcDbEntity
  8
KI
  6
Continuous
 62
     7
100
AcDbLine
 10
305.0149999062674
 20
179.7826450314337
 30
0.0
 11
326.014869906267
 21
179.7826450314337
 31
0.0
  0
LINE
  5
17658
330
1F
100
AcDbEntity
  8
KI
  6
Continuous
 62
     7
100
AcDbLine
 10
299.0152399062667
 20
188.1327150314337
 30
0.0
 11
299.0152399062667
 21
158.282705031434
 31
0.0
  0
LINE
  5
17659
330
1F
100
AcDbEntity
  8
KI
  6
Continuous
 62
     7
100
AcDbLine
 10
297.3652199062667
 20
180.032705031434
 30
0.0
 11
297.3652199062667
 21
167.532705031434
 31
0.0
  0
LINE
  5
1765A
330
1F
100
AcDbEntity
  8
KI
  6
Continuous
 62
     7
100
AcDbLine
 10
297.8652199062667
 20
167.032705031434
 30
0.0
 11
297.8652199062667
 21
158.982715031434
 31
0.0
  0
ARC
  5
1765B
330
1F
100
AcDbEntity
  8
KI
  6
Continuous
 62
     7
100
AcDbCircle
 10
298.5152399062668
 20
158.282705031434
 30
0.0
 40
0.5
100
AcDbArc
 50
270.000020000002
 51
0.0000100000010064
  0
ARC
  5
1765C
330
1F
100
AcDbEntity
  8
KI
  6
Continuous
 62
     7
100
AcDbCircle
 10
297.3652199062667
 20
167.032705031434
 30
0.0
 40
0.5
100
AcDbArc
 50
359.999989999999
 51
89.99998399997755
  0
LINE
  5
1765D
330
1F
100
AcDbEntity
  8
KI
  6
Continuous
 62
     7
100
AcDbLine
 10
308.7653999062673
 20
180.6161650314338
 30
0.0
 11
307.6409599062667
 21
179.8665350314341
 31
0.0
  0
LINE
  5
1765E
330
1F
100
AcDbEntity
  8
KI
  6
Continuous
 62
     7
100
AcDbLine
 10
313.5152399062667
 20
189.7827050314336
 30
0.0
 11
299.0152399062667
 21
189.7827050314336
 31
0.0
  0
LINE
  5
1765F
330
1F
100
AcDbEntity
  8
KI
  6
Continuous
 62
     7
100
AcDbLine
 10
313.2151899062669
 20
188.1327150314337
 30
0.0
 11
304.8152299062672
 21
188.1327150314337
 31
0.0
  0
LINE
  5
17660
330
1F
100
AcDbEntity
  8
KI
  6
Continuous
 62
     7
100
AcDbLine
 10
307.0152399062668
 20
183.282705031434
 30
0.0
 11
307.0152399062668
 21
183.782705031434
 31
0.0
  0
ARC
  5
17661
330
1F
100
AcDbEntity
  8
KI
  6
Continuous
 62
     7
100
AcDbCircle
 10
307.3636299062668
 20
180.2825850314339
 30
0.0
 40
0.5
100
AcDbArc
 50
270.000040000004
 51
303.690080000002
  0
LINE
  5
17662
330
1F
100
AcDbEntity
  8
KI
  6
Continuous
 62
     7
100
AcDbLine
 10
304.3698499062671
 20
182.7825850314338
 30
0.0
 11
299.015299906267
 21
182.7825850314338
 31
0.0
  0
LINE
  5
17663
330
1F
100
AcDbEntity
  8
KI
  6
Continuous
 62
     7
100
AcDbLine
 10
304.0150599062668
 20
187.7825850314339
 30
0.0
 11
299.015299906267
 21
187.7825850314339
 31
0.0
  0
LINE
  5
17664
330
1F
100
AcDbEntity
  8
KI
  6
Continuous
 62
     7
100
AcDbLine
 10
304.0152399062667
 20
188.1327150314337
 30
0.0
 11
299.0152399062667
 21
188.1327150314337
 31
0.0
  0
LINE
  5
17665
330
1F
100
AcDbEntity
  8
KI
  6
Continuous
 62
     7
100
AcDbLine
 10
297.8652199062667
 20
187.0327050314336
 30
0.0
 11
297.8652199062667
 21
180.532705031434
 31
0.0
  0
ARC
  5
17666
330
1F
100
AcDbEntity
  8
KI
  6
Continuous
 62
     7
100
AcDbCircle
 10
297.3652199062667
 20
180.532705031434
 30
0.0
 40
0.5
100
AcDbArc
 50
270.000020000002
 51
0.0000100000010064
  0
LINE
  5
17667
330
1F
100
AcDbEntity
  8
KI
  6
Continuous
 62
     7
100
AcDbLine
 10
297.8652199062667
 20
199.5327050314336
 30
0.0
 11
297.8652199062667
 21
196.5327050314336
 31
0.0
  0
LINE
  5
17668
330
1F
100
AcDbEntity
  8
KI
  6
Continuous
 62
     7
100
AcDbLine
 10
297.3652199062667
 20
196.0327050314336
 30
0.0
 11
297.3652199062667
 21
192.7827050314336
 31
0.0
  0
ARC
  5
17669
330
1F
100
AcDbEntity
  8
KI
  6
Continuous
 62
     7
100
AcDbCircle
 10
297.3652199062667
 20
196.5327050314336
 30
0.0
 40
0.5
100
AcDbArc
 50
270.000020000002
 51
0.0000100000010064
  0
LINE
  5
1766A
330
1F
100
AcDbEntity
  8
KI
  6
Continuous
 62
     7
100
AcDbLine
 10
297.3652199062667
 20
192.7827050314336
 30
0.0
 11
297.8652199062667
 21
192.7827050314336
 31
0.0
  0
LINE
  5
1766B
330
1F
100
AcDbEntity
  8
KI
  6
Continuous
 62
     7
100
AcDbLine
 10
297.3652199062667
 20
190.7827050314335
 30
0.0
 11
297.3652199062667
 21
187.5327050314336
 31
0.0
  0
LINE
  5
1766C
330
1F
100
AcDbEntity
  8
KI
  6
Continuous
 62
     7
100
AcDbLine
 10
297.3652199062667
 20
190.7827050314335
 30
0.0
 11
297.8652199062667
 21
190.7827050314335
 31
0.0
  0
ARC
  5
1766D
330
1F
100
AcDbEntity
  8
KI
  6
Continuous
 62
     7
100
AcDbCircle
 10
297.3652199062667
 20
187.0327050314336
 30
0.0
 40
0.5
100
AcDbArc
 50
359.999989999999
 51
89.99998399997755
  0
LINE
  5
1766E
330
1F
100
AcDbEntity
  8
KI
  6
Continuous
 62
     7
100
AcDbLine
 10
297.8652199062667
 20
192.7827050314336
 30
0.0
 11
297.8652199062667
 21
190.7827050314335
 31
0.0
  0
ARC
  5
1766F
330
1F
100
AcDbEntity
  8
KI
  6
Continuous
 62
     7
100
AcDbCircle
 10
297.3652199062667
 20
199.5327050314336
 30
0.0
 40
0.5
100
AcDbArc
 50
359.999989999999
 51
89.99998399997755
  0
LINE
  5
17670
330
1F
100
AcDbEntity
  8
KI
  6
Continuous
 62
     7
100
AcDbLine
 10
304.0152399062667
 20
183.582695031434
 30
0.0
 11
304.0152399062667
 21
188.1327150314337
 31
0.0
  0
LINE
  5
17671
330
1F
100
AcDbEntity
  8
KI
  6
Continuous
 62
     7
100
AcDbLine
 10
304.8152299062672
 20
183.582695031434
 30
0.0
 11
304.8152299062672
 21
188.1327150314337
 31
0.0
  0
LINE
  5
17672
330
1F
100
AcDbEntity
  8
KI
  6
Continuous
 62
     7
100
AcDbLine
 10
306.5152399062668
 20
182.782705031434
 30
0.0
 11
304.8152299062672
 21
182.782705031434
 31
0.0
  0
ARC
  5
17673
330
1F
100
AcDbEntity
  8
KI
  6
Continuous
 62
     7
100
AcDbCircle
 10
304.8152299062672
 20
183.582695031434
 30
0.0
 40
0.8000000099999999
100
AcDbArc
 50
179.999991348572
 51
270.0
  0
LINE
  5
17674
330
1F
100
AcDbEntity
  8
KI
  6
Continuous
 62
     7
100
AcDbLine
 10
304.0149999062673
 20
179.7825850314339
 30
0.0
 11
304.0149999062673
 21
182.7825850314338
 31
0.0
  0
LINE
  5
17675
330
1F
100
AcDbEntity
  8
KI
  6
Continuous
 62
     7
100
AcDbLine
 10
306.2152499062672
 20
183.582695031434
 30
0.0
 11
306.2152499062672
 21
183.782705031434
 31
0.0
  0
LINE
  5
17676
330
1F
100
AcDbEntity
  8
KI
  6
Continuous
 62
     7
100
AcDbLine
 10
306.2152499062672
 20
183.582695031434
 30
0.0
 11
304.8152299062672
 21
183.582695031434
 31
0.0
  0
ARC
  5
17677
330
1F
100
AcDbEntity
  8
KI
  6
Continuous
 62
     7
100
AcDbCircle
 10
305.0149999062674
 20
178.7826450314337
 30
0.0
 40
1.0
100
AcDbArc
 50
89.99998399997755
 51
270.0
  0
LINE
  5
17678
330
1F
100
AcDbEntity
  8
KI
  6
Continuous
 62
     7
100
AcDbLine
 10
307.0152399062668
 20
183.782705031434
 30
0.0
 11
306.2152499062672
 21
183.782705031434
 31
0.0
  0
LINE
  5
17679
330
1F
100
AcDbEntity
  8
KI
  6
Continuous
 62
     7
100
AcDbLine
 10
304.0149999062673
 20
179.7825850314339
 30
0.0
 11
307.3636299062668
 21
179.7825850314339
 31
0.0
  0
LINE
  5
1767A
330
1F
100
AcDbEntity
  8
KI
  6
Continuous
 62
     7
100
AcDbLine
 10
306.5149999062673
 20
182.7825850314338
 30
0.0
 11
307.5149999062674
 21
182.7825850314338
 31
0.0
  0
ARC
  5
1767B
330
1F
100
AcDbEntity
  8
KI
  6
Continuous
 62
     7
100
AcDbCircle
 10
306.5152399062668
 20
183.282705031434
 30
0.0
 40
0.5
100
AcDbArc
 50
270.0
 51
0.0000100000010064
  0
LINE
  5
1767C
330
1F
100
AcDbEntity
  8
KI
  6
Continuous
 62
     7
100
AcDbLine
 10
313.2152499062672
 20
183.582695031434
 30
0.0
 11
311.8152299062672
 21
183.582695031434
 31
0.0
  0
LINE
  5
1767D
330
1F
100
AcDbEntity
  8
KI
  6
Continuous
 62
     7
100
AcDbLine
 10
313.5152399062667
 20
182.782705031434
 30
0.0
 11
311.5152399062667
 21
182.782705031434
 31
0.0
  0
LINE
  5
1767E
330
1F
100
AcDbEntity
  8
KI
  6
Continuous
 62
     7
100
AcDbLine
 10
310.6663599062672
 20
179.7825850314339
 30
0.0
 11
314.0149999062674
 21
179.7825850314339
 31
0.0
  0
LINE
  5
1767F
330
1F
100
AcDbEntity
  8
KI
  6
Continuous
 62
     7
100
AcDbLine
 10
311.8152299062672
 20
183.782705031434
 30
0.0
 11
311.0152399062668
 21
183.782705031434
 31
0.0
  0
LINE
  5
17680
330
1F
100
AcDbEntity
  8
KI
  6
Continuous
 62
     7
100
AcDbLine
 10
311.0152399062668
 20
183.282705031434
 30
0.0
 11
311.0152399062668
 21
183.782705031434
 31
0.0
  0
LINE
  5
17681
330
1F
100
AcDbEntity
  8
KI
  6
Continuous
 62
     7
100
AcDbLine
 10
311.8152299062672
 20
183.582695031434
 30
0.0
 11
311.8152299062672
 21
183.782705031434
 31
0.0
  0
LINE
  5
17682
330
1F
100
AcDbEntity
  8
KI
  6
Continuous
 62
     7
100
AcDbLine
 10
310.5149999062673
 20
182.7825850314338
 30
0.0
 11
311.5149999062674
 21
182.7825850314338
 31
0.0
  0
ARC
  5
17683
330
1F
100
AcDbEntity
  8
KI
  6
Continuous
 62
     7
100
AcDbCircle
 10
311.5152399062667
 20
183.282705031434
 30
0.0
 40
0.5
100
AcDbArc
 50
179.999991348572
 51
270.0
  0
ARC
  5
17684
330
1F
100
AcDbEntity
  8
KI
  6
Continuous
 62
     7
100
AcDbCircle
 10
309.0149999062674
 20
180.7825850314339
 30
0.0
 40
0.29999995
100
AcDbArc
 50
326.3100900000115
 51
0.0000200000020129
  0
ARC
  5
17685
330
1F
100
AcDbEntity
  8
KI
  6
Continuous
 62
     7
100
AcDbCircle
 10
309.0149999062674
 20
180.7825850314339
 30
0.0
 40
0.29999995
100
AcDbArc
 50
0.0000200000020129
 51
213.6899200000171
  0
ARC
  5
17686
330
1F
100
AcDbEntity
  8
KI
  6
Continuous
 62
     7
100
AcDbCircle
 10
310.6663599062672
 20
180.2825850314339
 30
0.0
 40
0.5
100
AcDbArc
 50
236.3099900000258
 51
270.000040000004
  0
LINE
  5
17687
330
1F
100
AcDbEntity
  8
KI
  6
Continuous
 62
     7
100
AcDbLine
 10
309.2645899062668
 20
180.616175031434
 30
0.0
 11
310.3890099062669
 21
179.8665650314337
 31
0.0
  0
LINE
  5
17688
330
1F
100
AcDbEntity
  8
KI
  6
Continuous
 62
     7
100
AcDbLine
 10
313.2153099062675
 20
183.582695031434
 30
0.0
 11
313.2153099062675
 21
188.1327150314337
 31
0.0
  0
LINE
  5
17689
330
1F
100
AcDbEntity
  8
KI
  6
Continuous
 62
     7
100
AcDbLine
 10
314.015299906267
 20
183.282705031434
 30
0.0
 11
314.015299906267
 21
189.2827050314336
 31
0.0
  0
ARC
  5
1768A
330
1F
100
AcDbEntity
  8
KI
  6
Continuous
 62
     7
100
AcDbCircle
 10
313.5152399062667
 20
183.282705031434
 30
0.0
 40
0.5
100
AcDbArc
 50
270.000030000003
 51
0.0001999999940739
  0
LINE
  5
1768B
330
1F
100
AcDbEntity
  8
KI
  6
Continuous
 62
     7
100
AcDbLine
 10
314.0149999062674
 20
179.7825850314339
 30
0.0
 11
314.0149999062674
 21
182.7825850314338
 31
0.0
  0
ARC
  5
1768C
330
1F
100
AcDbEntity
  8
KI
  6
Continuous
 62
     7
100
AcDbCircle
 10
313.5152399062667
 20
189.2827050314336
 30
0.0
 40
0.5
100
AcDbArc
 50
0.0001999999940739
 51
89.99998399997755
  0
LINE
  5
1768D
330
1F
100
AcDbEntity
  8
KI
  6
Continuous
 62
     7
100
AcDbLine
 10
329.0148999062671
 20
179.1826350314341
 30
0.0
 11
334.3148999062673
 21
179.1268450314337
 31
0.0
  0
LINE
  5
1768E
330
1F
100
AcDbEntity
  8
KI
  6
Continuous
 62
     7
100
AcDbLine
 10
329.014869906267
 20
177.7826450314337
 30
0.0
 11
329.014869906267
 21
170.8326350314337
 31
0.0
  0
LINE
  5
1768F
330
1F
100
AcDbEntity
  8
KI
  6
Continuous
 62
     7
100
AcDbLine
 10
326.014869906267
 20
197.2826450314337
 30
0.0
 11
326.014869906267
 21
179.7826450314337
 31
0.0
  0
ARC
  5
17690
330
1F
100
AcDbEntity
  8
KI
  6
Continuous
 62
     7
100
AcDbCircle
 10
326.014869906267
 20
197.7826450314337
 30
0.0
 40
0.5
100
AcDbArc
 50
270.000030000003
 51
89.99998399997755
  0
LINE
  5
17691
330
1F
100
AcDbEntity
  8
KI
  6
Continuous
 62
     7
100
AcDbLine
 10
343.0149299062673
 20
194.7823350314338
 30
0.0
 11
343.0149299062673
 21
194.2823350314338
 31
0.0
  0
LINE
  5
17692
330
1F
100
AcDbEntity
  8
KI
  6
Continuous
 62
     7
100
AcDbLine
 10
335.014869906267
 20
179.3826150314339
 30
0.0
 11
335.014869906267
 21
179.1194650314337
 31
0.0
  0
LINE
  5
17693
330
1F
100
AcDbEntity
  8
KI
  6
Continuous
 62
     7
100
AcDbLine
 10
334.3148599062674
 20
179.3826150314339
 30
0.0
 11
334.3148599062674
 21
179.1268550314339
 31
0.0
  0
ARC
  5
17694
330
1F
100
AcDbEntity
  8
KI
  6
Continuous
 62
     7
100
AcDbCircle
 10
334.6648999062668
 20
179.3826150314339
 30
0.0
 40
0.34999999
100
AcDbArc
 50
359.999989999999
 51
180.000010000001
  0
ARC
  5
17695
330
1F
100
AcDbEntity
  8
KI
  6
Continuous
 62
     7
100
AcDbCircle
 10
338.6149099062673
 20
195.8823150314337
 30
0.0
 40
0.4000000100000001
100
AcDbArc
 50
359.999989999999
 51
180.000010000001
  0
ARC
  5
17696
330
1F
100
AcDbEntity
  8
KI
  6
Continuous
 62
     7
100
AcDbCircle
 10
339.0149299062673
 20
194.2823350314338
 30
0.0
 40
0.8000000099999999
100
AcDbArc
 50
179.999991348572
 51
270.0
  0
LINE
  5
17697
330
1F
100
AcDbEntity
  8
KI
  6
Continuous
 62
     7
100
AcDbLine
 10
339.0149299062673
 20
195.8823150314337
 30
0.0
 11
339.0149299062673
 21
194.2823350314338
 31
0.0
  0
LINE
  5
17698
330
1F
100
AcDbEntity
  8
KI
  6
Continuous
 62
     7
100
AcDbLine
 10
338.2149499062675
 20
195.8823150314337
 30
0.0
 11
338.2149499062675
 21
194.2823350314338
 31
0.0
  0
LINE
  5
17699
330
1F
100
AcDbEntity
  8
KI
  6
Continuous
 62
     7
100
AcDbLine
 10
343.0149299062673
 20
194.2823350314338
 30
0.0
 11
339.0149299062673
 21
194.2823350314338
 31
0.0
  0
LINE
  5
1769A
330
1F
100
AcDbEntity
  8
KI
  6
Continuous
 62
     7
100
AcDbLine
 10
343.0149299062673
 20
193.4823250314339
 30
0.0
 11
339.0149299062673
 21
193.4823250314339
 31
0.0
  0
LINE
  5
1769B
330
1F
100
AcDbEntity
  8
KI
  6
Continuous
 62
     7
100
AcDbLine
 10
349.0149299062673
 20
194.7823650314339
 30
0.0
 11
349.0149299062673
 21
178.5826350314337
 31
0.0
  0
LINE
  5
1769C
330
1F
100
AcDbEntity
  8
KI
  6
Continuous
 62
     7
100
AcDbLine
 10
348.0149299062673
 20
194.4823250314339
 30
0.0
 11
348.0149299062673
 21
178.982625031434
 31
0.0
  0
ARC
  5
1769D
330
1F
100
AcDbEntity
  8
KI
  6
Continuous
 62
     7
100
AcDbCircle
 10
348.2149499062675
 20
178.5826350314337
 30
0.0
 40
0.8000000099999999
100
AcDbArc
 50
270.000020000002
 51
0.0000100000010064
  0
LINE
  5
1769E
330
1F
100
AcDbEntity
  8
KI
  6
Continuous
 62
     7
100
AcDbLine
 10
349.9846099062675
 20
200.7824650314337
 30
0.0
 11
349.0148099062676
 21
195.2824650314337
 31
0.0
  0
LINE
  5
1769F
330
1F
100
AcDbEntity
  8
KI
  6
Continuous
 62
     7
100
AcDbLine
 10
343.8149199062668
 20
194.4823250314339
 30
0.0
 11
343.8149199062668
 21
194.2823350314338
 31
0.0
  0
ARC
  5
176A0
330
1F
100
AcDbEntity
  8
KI
  6
Continuous
 62
     7
100
AcDbCircle
 10
348.5149299062673
 20
194.7823650314339
 30
0.0
 40
0.5
100
AcDbArc
 50
0.0000400000040257
 51
90.00173199998176
  0
LINE
  5
176A1
330
1F
100
AcDbEntity
  8
KI
  6
Continuous
 62
     7
100
AcDbLine
 10
348.514869906267
 20
195.2823350314338
 30
0.0
 11
343.5149299062673
 21
195.2823350314338
 31
0.0
  0
LINE
  5
176A2
330
1F
100
AcDbEntity
  8
KI
  6
Continuous
 62
     7
100
AcDbLine
 10
348.0149299062673
 20
194.4823250314339
 30
0.0
 11
343.8149199062668
 21
194.4823250314339
 31
0.0
  0
LINE
  5
176A3
330
1F
100
AcDbEntity
  8
KI
  6
Continuous
 62
     7
100
AcDbLine
 10
427.5152399062668
 20
215.2823950314337
 30
0.0
 11
349.0148099062676
 21
215.2823950314337
 31
0.0
  0
LINE
  5
176A4
330
1F
100
AcDbEntity
  8
KI
  6
Continuous
 62
     7
100
AcDbLine
 10
427.5152399062668
 20
204.7823350314338
 30
0.0
 11
342.014869906267
 21
204.7823350314338
 31
0.0
  0
LINE
  5
176A5
330
1F
100
AcDbEntity
  8
KI
  6
Continuous
 62
     7
100
AcDbLine
 10
427.5152399062668
 20
205.7823350314338
 30
0.0
 11
342.014869906267
 21
205.7823350314338
 31
0.0
  0
LINE
  5
176A6
330
1F
100
AcDbEntity
  8
003
100
AcDbLine
 10
330.0152399062667
 20
286.0827050314338
 30
0.0
 11
427.5152399062668
 21
286.0827050314338
 31
0.0
  0
LINE
  5
176A7
330
1F
100
AcDbEntity
  8
003
100
AcDbLine
 10
330.0152399062667
 20
287.282705031434
 30
0.0
 11
427.5152399062668
 21
287.282705031434
 31
0.0
  0
LINE
  5
176A8
330
1F
100
AcDbEntity
  8
003
100
AcDbLine
 10
328.0152399062667
 20
284.782705031434
 30
0.0
 11
427.5152399062668
 21
284.782705031434
 31
0.0
  0
LINE
  5
176AA
330
1F
100
AcDbEntity
  8
KI
  6
Continuous
 62
     7
100
AcDbLine
 10
284.7152499062672
 20
226.5826950314336
 30
0.0
 11
297.8652199062667
 21
226.5826950314336
 31
0.0
  0
LINE
  5
176AB
330
1F
100
AcDbEntity
  8
KI
  6
Continuous
 62
     7
100
AcDbLine
 10
275.2152499062672
 20
227.7827050314336
 30
0.0
 11
298.5152399062668
 21
227.7827050314336
 31
0.0
  0
DIMENSION
  5
176AC
330
1F
100
AcDbEntity
  8
003
100
AcDbDimension
  2
*D8
 10
300.0152399062667
 20
322.6406588029395
 30
0.0
 11
290.4795256205521
 21
322.6406588029395
 31
0.0
 70
   160
 71
     5
  3
DIM
100
AcDbAlignedDimension
 13
299.0152399062667
 23
227.2827049441671
 33
0.0
 14
300.0152399062667
 24
322.6406588029395
 34
0.0
100
AcDbRotatedDimension
  0
LINE
  5
176B9
330
1F
100
AcDbEntity
  8
KI
  6
Continuous
 62
     7
100
AcDbLine
 10
284.0152399062668
 20
226.5826950314336
 30
0.0
 11
284.0152399062668
 21
226.4827150314336
 31
0.0
  0
LINE
  5
176BA
330
1F
100
AcDbEntity
  8
KI
  6
Continuous
 62
     7
100
AcDbLine
 10
284.7152499062672
 20
226.5826950314336
 30
0.0
 11
284.7152499062672
 21
226.4827150314336
 31
0.0
  0
ARC
  5
176BB
330
1F
100
AcDbEntity
  8
KI
  6
Continuous
 62
     7
100
AcDbCircle
 10
284.3652199062667
 20
226.4827150314336
 30
0.0
 40
0.34999999
100
AcDbArc
 50
179.999991348572
 51
0.0000100000010064
  0
ARC
  5
176BD
330
1F
100
AcDbEntity
  8
KI
  6
Continuous
 62
     7
100
AcDbCircle
 10
275.2152499062672
 20
226.5826950314336
 30
0.0
 40
1.1999998
100
AcDbArc
 50
89.99998399997755
 51
179.9999640278154
  0
ARC
  5
176BE
330
1F
100
AcDbEntity
  8
KI
  6
Continuous
 62
     7
100
AcDbCircle
 10
274.7152499062672
 20
223.4827150314336
 30
0.0
 40
0.6999999900000001
100
AcDbArc
 50
179.9999640278154
 51
0.0000100000010064
  0
LINE
  5
176BF
330
1F
100
AcDbEntity
  8
KI
  6
Continuous
 62
     7
100
AcDbLine
 10
275.4152599062668
 20
223.9827150314336
 30
0.0
 11
275.4152599062668
 21
223.4827150314336
 31
0.0
  0
LINE
  5
176C0
330
1F
100
AcDbEntity
  8
KI
  6
Continuous
 62
     7
100
AcDbLine
 10
275.0152399062667
 20
223.9827150314336
 30
0.0
 11
275.4152599062668
 21
223.9827150314336
 31
0.0
  0
LINE
  5
176C1
330
1F
100
AcDbEntity
  8
KI
  6
Continuous
 62
     7
100
AcDbLine
 10
275.0152399062667
 20
226.5826950314336
 30
0.0
 11
275.0152399062667
 21
223.9827150314336
 31
0.0
  0
LINE
  5
176C2
330
1F
100
AcDbEntity
  8
KI
  6
Continuous
 62
     7
100
AcDbLine
 10
274.0152399062667
 20
226.5826950314336
 30
0.0
 11
274.0152399062667
 21
223.4827150314336
 31
0.0
  0
LINE
  5
176C5
330
1F
100
AcDbEntity
  8
KI
  6
Continuous
 62
     7
100
AcDbLine
 10
275.0152399062667
 20
226.5826950314336
 30
0.0
 11
284.0152399062668
 21
226.5826950314336
 31
0.0
  0
ARC
  5
176CC
330
1F
100
AcDbEntity
  8
KI
  6
Continuous
 62
     7
100
AcDbCircle
 10
343.4148999062668
 20
211.6824850314338
 30
0.0
 40
0.4000000100000001
100
AcDbArc
 50
92.48486800001602
 51
270.0
  0
LINE
  5
176CD
330
1F
100
AcDbEntity
  8
003
100
AcDbLine
 10
344.2152399062675
 20
247.2827050314336
 30
0.0
 11
308.3152399062669
 21
247.2827050314336
 31
0.0
  0
LINE
  5
176CE
330
1F
100
AcDbEntity
  8
KI
  6
Continuous
 62
     7
100
AcDbLine
 10
344.014869906267
 20
215.8324750314337
 30
0.0
 11
339.014869906267
 21
215.8324750314337
 31
0.0
  0
LINE
  5
176CF
330
1F
100
AcDbEntity
  8
003
100
AcDbLine
 10
328.0152399062667
 20
249.782705031434
 30
0.0
 11
427.5152399062668
 21
249.7827050314336
 31
0.0
  0
LINE
  5
176D0
330
1F
100
AcDbEntity
  8
003
100
AcDbLine
 10
353.2152399062675
 20
248.4827050314339
 30
0.0
 11
327.0152399062667
 21
248.4827050314339
 31
0.0
  0
LINE
  5
176D1
330
1F
100
AcDbEntity
  8
KI
  6
Continuous
 62
     7
100
AcDbLine
 10
324.514869906267
 20
217.7823950314337
 30
0.0
 11
348.7148899062672
 21
217.7823950314337
 31
0.0
  0
LINE
  5
176D2
330
1F
100
AcDbEntity
  8
003
100
AcDbLine
 10
301.2152399062675
 20
253.7988410598596
 30
0.0
 11
301.2152399062675
 21
277.282705031434
 31
0.0
  0
LINE
  5
176D3
330
1F
100
AcDbEntity
  8
003
100
AcDbLine
 10
327.0152399062667
 20
248.4827050314339
 30
0.0
 11
327.0152399062667
 21
272.2827050314336
 31
0.0
  0
LINE
  5
176D4
330
1F
100
AcDbEntity
  8
003
100
AcDbLine
 10
330.0152399062667
 20
249.782705031434
 30
0.0
 11
330.0152399062667
 21
284.782705031434
 31
0.0
  0
LINE
  5
176D5
330
1F
100
AcDbEntity
  8
003
100
AcDbLine
 10
328.0152399062667
 20
249.782705031434
 30
0.0
 11
328.0152399062667
 21
284.782705031434
 31
0.0
  0
LINE
  5
176D6
330
1F
100
AcDbEntity
  8
003
100
AcDbLine
 10
324.1152399062671
 20
272.282705031434
 30
0.0
 11
324.1152399062671
 21
252.282705031434
 31
0.0
  0
LINE
  5
176D7
330
1F
100
AcDbEntity
  8
003
100
AcDbLine
 10
319.1152399062671
 20
272.282705031434
 30
0.0
 11
319.1152399062671
 21
252.282705031434
 31
0.0
  0
LINE
  5
176D8
330
1F
100
AcDbEntity
  8
003
100
AcDbLine
 10
300.0152399062667
 20
222.2827050314336
 30
0.0
 11
300.0152399062667
 21
277.282705031434
 31
0.0
  0
LINE
  5
176D9
330
1F
100
AcDbEntity
  8
003
100
AcDbLine
 10
325.8152399062669
 20
248.4827050314339
 30
0.0
 11
325.8152399062669
 21
271.0827050314338
 31
0.0
  0
LINE
  5
176DA
330
1F
100
AcDbEntity
  8
003
100
AcDbLine
 10
324.1152399062671
 20
252.282705031434
 30
0.0
 11
319.1152399062671
 21
252.282705031434
 31
0.0
  0
LINE
  5
176DB
330
1F
100
AcDbEntity
  8
KI
  6
Continuous
 62
     7
100
AcDbLine
 10
323.4147499062669
 20
217.328465031434
 30
0.0
 11
317.6460699062668
 21
217.0001850314339
 31
0.0
  0
LINE
  5
176DC
330
1F
100
AcDbEntity
  8
KI
  6
Continuous
 62
     7
100
AcDbLine
 10
324.014579906267
 20
217.7823450314336
 30
0.0
 11
317.6309799062669
 21
217.202135031434
 31
0.0
  0
LINE
  5
176DD
330
1F
100
AcDbEntity
  8
003
100
AcDbLine
 10
325.7952399062674
 20
248.4827050314339
 30
0.0
 11
301.2152399062675
 21
248.4827050314339
 31
0.0
  0
LINE
  5
176DE
330
1F
100
AcDbEntity
  8
003
100
AcDbLine
 10
301.2152399062675
 20
222.282705031434
 30
0.0
 11
301.2152399062675
 21
245.5827050314338
 31
0.0
  0
LINE
  5
176DF
330
1F
100
AcDbEntity
  8
KI
  6
Continuous
 62
     7
100
AcDbLine
 10
299.0152399062667
 20
222.2827050314336
 30
0.0
 11
317.8652199062667
 21
222.2827050314336
 31
0.0
  0
LINE
  5
176E0
330
1F
100
AcDbEntity
  8
KI
  6
Continuous
 62
     7
100
AcDbLine
 10
299.0152399062667
 20
221.1326850314335
 30
0.0
 11
318.2152499062672
 21
221.1326850314335
 31
0.0
  0
ARC
  5
176E1
330
1F
100
AcDbEntity
  8
KI
  6
Continuous
 62
     7
100
AcDbCircle
 10
298.5152399062668
 20
227.2827050314336
 30
0.0
 40
0.5
100
AcDbArc
 50
359.999989999999
 51
89.99998399997755
  0
LINE
  5
176E2
330
1F
100
AcDbEntity
  8
KI
  6
Continuous
 62
     7
100
AcDbLine
 10
299.0152399062667
 20
227.2827050314336
 30
0.0
 11
299.0152399062667
 21
222.2827050314336
 31
0.0
  0
LINE
  5
176E3
330
1F
100
AcDbEntity
  8
003
100
AcDbLine
 10
301.2152399062675
 20
222.282705031434
 30
0.0
 11
300.0152399062667
 21
222.2827050314336
 31
0.0
  0
LINE
  5
176E4
330
1F
100
AcDbEntity
  8
003
100
AcDbLine
 10
301.2152399062675
 20
222.282705031434
 30
0.0
 11
300.0152399062667
 21
222.282705031434
 31
0.0
  0
ARC
  5
176E5
330
1F
100
AcDbEntity
  8
KI
  6
Continuous
 62
     7
100
AcDbCircle
 10
297.3652199062667
 20
218.5327050314336
 30
0.0
 40
0.5
100
AcDbArc
 50
270.000020000002
 51
0.0000100000010064
  0
LINE
  5
176E6
330
1F
100
AcDbEntity
  8
KI
  6
Continuous
 62
     7
100
AcDbLine
 10
297.8652199062667
 20
226.5826950314336
 30
0.0
 11
297.8652199062667
 21
218.5327050314336
 31
0.0
  0
ARC
  5
176E7
330
1F
100
AcDbEntity
  8
KI
  6
Continuous
 62
     7
100
AcDbCircle
 10
317.8652199062667
 20
221.1326850314335
 30
0.0
 40
1.1499996
100
AcDbArc
 50
359.999989999999
 51
89.99998399997755
  0
LINE
  5
176E8
330
1F
100
AcDbEntity
  8
KI
  6
Continuous
 62
     7
100
AcDbLine
 10
317.6152199062667
 20
218.2827050314336
 30
0.0
 11
318.2152499062672
 21
218.2827050314336
 31
0.0
  0
ARC
  5
176E9
330
1F
100
AcDbEntity
  8
KI
  6
Continuous
 62
     7
100
AcDbCircle
 10
318.3152299062672
 20
217.9827150314336
 30
0.0
 40
0.6999999900000001
100
AcDbArc
 50
180.000040000004
 51
0.0000100000010064
  0
ARC
  5
176EA
330
1F
100
AcDbEntity
  8
KI
  6
Continuous
 62
     7
100
AcDbCircle
 10
317.640299906267
 20
217.1013050314337
 30
0.0
 40
0.10126525
100
AcDbArc
 50
95.19352999999997
 51
279.5918600000082
  0
LINE
  5
176EB
330
1F
100
AcDbEntity
  8
KI
  6
Continuous
 62
     7
100
AcDbLine
 10
317.6152199062667
 20
218.2827050314336
 30
0.0
 11
317.6152199062667
 21
217.9827150314336
 31
0.0
  0
LINE
  5
176EC
330
1F
100
AcDbEntity
  8
KI
  6
Continuous
 62
     7
100
AcDbLine
 10
318.2152499062672
 20
221.1326850314335
 30
0.0
 11
318.2152499062672
 21
218.2827050314336
 31
0.0
  0
LINE
  5
176ED
330
1F
100
AcDbEntity
  8
KI
  6
Continuous
 62
     7
100
AcDbLine
 10
319.0152399062668
 20
221.1326850314335
 30
0.0
 11
319.0152399062668
 21
217.9827150314336
 31
0.0
  0
LINE
  5
176EE
330
1F
100
AcDbEntity
  8
003
100
AcDbLine
 10
313.0152399062668
 20
248.4827050314339
 30
0.0
 11
308.3152399062669
 21
248.4827050314339
 31
0.0
  0
LINE
  5
176EF
330
1F
100
AcDbEntity
  8
003
100
AcDbLine
 10
313.0152399062668
 20
249.6827050314337
 30
0.0
 11
305.5655813412482
 21
249.6827050314337
 31
0.0
  0
ARC
  5
176F0
330
1F
100
AcDbEntity
  8
003
100
AcDbCircle
 10
303.5152399062667
 20
251.8727050314342
 30
0.0
 40
3.0
100
AcDbArc
 50
29.98163936884645
 51
140.0554948102015
  0
ARC
  5
176F1
330
1F
100
AcDbEntity
  8
003
100
AcDbCircle
 10
308.0152399062667
 20
247.282705031434
 30
0.0
 40
0.2999999999999829
100
AcDbArc
 50
0.0
 51
180.0
  0
ARC
  5
176F2
330
1F
100
AcDbEntity
  8
003
100
AcDbCircle
 10
308.0152399062667
 20
248.4827050314339
 30
0.0
 40
0.3000000000000682
100
AcDbArc
 50
0.0000000000260551
 51
179.999999999987
  0
LINE
  5
176F3
330
1F
100
AcDbEntity
  8
003
100
AcDbLine
 10
304.2152399062675
 20
245.5827050314338
 30
0.0
 11
301.2152399062675
 21
245.5827050314338
 31
0.0
  0
LINE
  5
176F4
330
1F
100
AcDbEntity
  8
003
100
AcDbLine
 10
304.2152399062675
 20
246.782705031434
 30
0.0
 11
301.2152399062675
 21
246.782705031434
 31
0.0
  0
LINE
  5
176F5
330
1F
100
AcDbEntity
  8
003
100
AcDbLine
 10
301.2152399062675
 20
247.2827050314336
 30
0.0
 11
301.2152399062675
 21
248.4827050314339
 31
0.0
  0
LINE
  5
176F6
330
1F
100
AcDbEntity
  8
003
100
AcDbLine
 10
301.2152399062675
 20
246.782705031434
 30
0.0
 11
301.2152399062675
 21
248.4827050314339
 31
0.0
  0
LINE
  5
176F7
330
1F
100
AcDbEntity
  8
003
100
AcDbLine
 10
306.1137997159662
 20
250.3735429603362
 30
0.0
 11
305.0765700881361
 21
250.9770220165283
 31
0.0
  0
ARC
  5
176F8
330
1F
100
AcDbEntity
  8
003
100
AcDbCircle
 10
303.5152399062667
 20
251.8727050314342
 30
0.0
 40
3.0
100
AcDbArc
 50
313.1136059459138
 51
330.0184772568374
  0
LINE
  5
176F9
330
1F
100
AcDbEntity
  8
003
100
AcDbLine
 10
304.2152399062675
 20
245.5827050314338
 30
0.0
 11
304.2152399062675
 21
247.2827050314336
 31
0.0
  0
LINE
  5
176FA
330
1F
100
AcDbEntity
  8
006
100
AcDbLine
 10
307.5152399062667
 20
251.8727050314337
 30
0.0
 11
299.5152399062667
 21
251.8727050314337
 31
0.0
  0
LINE
  5
176FB
330
1F
100
AcDbEntity
  8
003
100
AcDbLine
 10
307.7152399062675
 20
247.2827050314336
 30
0.0
 11
301.2152399062675
 21
247.2827050314336
 31
0.0
  0
LINE
  5
176FC
330
1F
100
AcDbEntity
  8
003
100
AcDbLine
 10
307.7152399062675
 20
248.4827050314339
 30
0.0
 11
301.2152399062675
 21
248.4827050314339
 31
0.0
  0
ARC
  5
176FD
330
1F
100
AcDbEntity
  8
003
100
AcDbCircle
 10
303.5152399062667
 20
251.8727050314342
 30
0.0
 40
1.8
100
AcDbArc
 50
29.98163936884645
 51
330.1585454638474
  0
LINE
  5
176FE
330
1F
100
AcDbEntity
  8
003
100
AcDbLine
 10
306.1137966644133
 20
253.3718723919028
 30
0.0
 11
305.0743739611557
 21
252.7722054477158
 31
0.0
  0
LINE
  5
176FF
330
1F
100
AcDbEntity
  8
006
100
AcDbLine
 10
303.5152399062667
 20
247.8727050314337
 30
0.0
 11
303.5152399062667
 21
255.8727050314337
 31
0.0
  0
LINE
  5
17700
330
1F
100
AcDbEntity
  8
003
100
AcDbLine
 10
313.0152399062668
 20
248.4827050314339
 30
0.0
 11
313.0152399062668
 21
249.6827050314337
 31
0.0
  0
LINE
  5
17701
330
1F
100
AcDbEntity
  8
KI
  6
Continuous
 62
     7
100
AcDbLine
 10
338.2148899062672
 20
215.8324450314339
 30
0.0
 11
329.014869906267
 21
215.8324450314339
 31
0.0
  0
LINE
  5
17702
330
1F
100
AcDbEntity
  8
KI
  6
Continuous
 62
     7
100
AcDbLine
 10
327.014869906267
 20
215.2823950314337
 30
0.0
 11
327.014869906267
 21
215.0823850314337
 31
0.0
  0
ARC
  5
17703
330
1F
100
AcDbEntity
  8
KI
  6
Continuous
 62
     7
100
AcDbCircle
 10
325.9946699062671
 20
215.0823850314337
 30
0.0
 40
1.799999199999999
100
AcDbArc
 50
213.7491500000051
 51
270.000020000002
  0
LINE
  5
17704
330
1F
100
AcDbEntity
  8
KI
  6
Continuous
 62
     7
100
AcDbLine
 10
325.9946699062671
 20
213.2823950314337
 30
0.0
 11
326.014869906267
 21
213.2823950314337
 31
0.0
  0
LINE
  5
17705
330
1F
100
AcDbEntity
  8
KI
  6
Continuous
 62
     7
100
AcDbLine
 10
324.014869906267
 20
216.2823950314337
 30
0.0
 11
326.014869906267
 21
216.2823950314337
 31
0.0
  0
LINE
  5
17706
330
1F
100
AcDbEntity
  8
KI
  6
Continuous
 62
     7
100
AcDbLine
 10
324.014869906267
 20
214.8823750314337
 30
0.0
 11
325.014869906267
 21
214.8823750314337
 31
0.0
  0
LINE
  5
17707
330
1F
100
AcDbEntity
  8
KI
  6
Continuous
 62
     7
100
AcDbLine
 10
326.014869906267
 20
216.1823950314338
 30
0.0
 11
324.014869906267
 21
216.1823950314338
 31
0.0
  0
LINE
  5
17708
330
1F
100
AcDbEntity
  8
KI
  6
Continuous
 62
     7
100
AcDbLine
 10
325.0350799062676
 20
214.9824150314339
 30
0.0
 11
323.9147799062671
 21
214.9824150314339
 31
0.0
  0
LINE
  5
17709
330
1F
100
AcDbEntity
  8
KI
  6
Continuous
 62
     7
100
AcDbLine
 10
323.4147799062671
 20
215.4824150314339
 30
0.0
 11
323.4147799062671
 21
217.3284550314338
 31
0.0
  0
LINE
  5
1770A
330
1F
100
AcDbEntity
  8
KI
  6
Continuous
 62
     7
100
AcDbLine
 10
324.014869906267
 20
217.2823950314337
 30
0.0
 11
324.014869906267
 21
216.2823950314337
 31
0.0
  0
LINE
  5
1770B
330
1F
100
AcDbEntity
  8
KI
  6
Continuous
 62
     7
100
AcDbLine
 10
324.0145199062667
 20
217.7823850314339
 30
0.0
 11
324.0145299062674
 21
216.1823750314338
 31
0.0
  0
ARC
  5
1770C
330
1F
100
AcDbEntity
  8
KI
  6
Continuous
 62
     7
100
AcDbCircle
 10
324.514869906267
 20
217.2823950314337
 30
0.0
 40
0.5
100
AcDbArc
 50
89.99998399997755
 51
179.9999640278154
  0
ARC
  5
1770D
330
1F
100
AcDbEntity
  8
KI
  6
Continuous
 62
     7
100
AcDbCircle
 10
323.9147799062671
 20
215.4824150314339
 30
0.0
 40
0.49999994
100
AcDbArc
 50
179.9996901370707
 51
269.999979999998
  0
LINE
  5
1770E
330
1F
100
AcDbEntity
  8
KI
  6
Continuous
 62
     7
100
AcDbLine
 10
324.014869906267
 20
214.0823850314337
 30
0.0
 11
324.4980299062668
 21
214.0823850314337
 31
0.0
  0
LINE
  5
1770F
330
1F
100
AcDbEntity
  8
KI
  6
Continuous
 62
     7
100
AcDbLine
 10
324.014869906267
 20
214.8824050314338
 30
0.0
 11
324.014869906267
 21
214.0823850314337
 31
0.0
  0
LINE
  5
17710
330
1F
100
AcDbEntity
  8
KI
  6
Continuous
 62
     7
100
AcDbLine
 10
325.9946699062671
 20
214.0823850314337
 30
0.0
 11
326.014869906267
 21
214.0823850314337
 31
0.0
  0
ARC
  5
17711
330
1F
100
AcDbEntity
  8
KI
  6
Continuous
 62
     7
100
AcDbCircle
 10
325.9946699062671
 20
215.0823850314337
 30
0.0
 40
1.0
100
AcDbArc
 50
191.5369900000041
 51
270.000020000002
  0
ARC
  5
17712
330
1F
100
AcDbEntity
  8
KI
  6
Continuous
 62
     7
100
AcDbCircle
 10
326.014869906267
 20
215.2823950314337
 30
0.0
 40
1.0
100
AcDbArc
 50
0.0000400000040257
 51
89.99998399997755
  0
ARC
  5
17713
330
1F
100
AcDbEntity
  8
KI
  6
Continuous
 62
     7
100
AcDbCircle
 10
326.014869906267
 20
215.0823850314337
 30
0.0
 40
1.0
100
AcDbArc
 50
270.000020000002
 51
0.0000100000010064
  0
LINE
  5
17714
330
1F
100
AcDbEntity
  8
KI
  6
Continuous
 62
     7
100
AcDbLine
 10
339.014869906267
 20
215.8324750314337
 30
0.0
 11
339.014869906267
 21
210.6823950314338
 31
0.0
  0
LINE
  5
17715
330
1F
100
AcDbEntity
  8
KI
  6
Continuous
 62
     7
100
AcDbLine
 10
338.2148899062672
 20
215.8324450314339
 30
0.0
 11
338.2148899062672
 21
210.6823950314338
 31
0.0
  0
ARC
  5
17716
330
1F
100
AcDbEntity
  8
KI
  6
Continuous
 62
     7
100
AcDbCircle
 10
338.614849906267
 20
210.6823950314338
 30
0.0
 40
0.4000000100000001
100
AcDbArc
 50
179.999991348572
 51
0.0000100000010064
  0
LINE
  5
17717
330
1F
100
AcDbEntity
  8
003
100
AcDbLine
 10
325.8152399062669
 20
263.782705031434
 30
0.0
 11
324.1152399062671
 21
263.782705031434
 31
0.0
  0
LINE
  5
17718
330
1F
100
AcDbEntity
  8
003
100
AcDbLine
 10
321.5891038778413
 20
286.0827050314338
 30
0.0
 11
310.0152399062667
 21
286.0827050314338
 31
0.0
  0
LINE
  5
17719
330
1F
100
AcDbEntity
  8
003
100
AcDbLine
 10
330.0152399062667
 20
287.282705031434
 30
0.0
 11
310.0152399062667
 21
287.282705031434
 31
0.0
  0
LINE
  5
1771A
330
1F
100
AcDbEntity
  8
003
100
AcDbLine
 10
324.1152399062671
 20
272.282705031434
 30
0.0
 11
319.1152399062671
 21
272.282705031434
 31
0.0
  0
ARC
  5
1771B
330
1F
100
AcDbEntity
  8
003
100
AcDbCircle
 10
310.0152399062667
 20
277.282705031434
 30
0.0
 40
10.0
100
AcDbArc
 50
90.0
 51
180.0
  0
ARC
  5
1771C
330
1F
100
AcDbEntity
  8
003
100
AcDbCircle
 10
310.0152399062667
 20
277.282705031434
 30
0.0
 40
8.8
100
AcDbArc
 50
90.0
 51
180.0
  0
LINE
  5
1771D
330
1F
100
AcDbEntity
  8
003
100
AcDbLine
 10
330.0152399062667
 20
286.0827050314338
 30
0.0
 11
330.0152399062667
 21
287.282705031434
 31
0.0
  0
LINE
  5
1771E
330
1F
100
AcDbEntity
  8
003
100
AcDbLine
 10
327.0152399062667
 20
272.282705031434
 30
0.0
 11
327.0152399062667
 21
286.0827050314338
 31
0.0
  0
ARC
  5
1771F
330
1F
100
AcDbEntity
  8
003
100
AcDbCircle
 10
323.5152399062668
 20
283.7827050314341
 30
0.0
 40
1.8
100
AcDbArc
 50
254.841454536188
 51
195.0183606311528
  0
LINE
  5
17720
330
1F
100
AcDbEntity
  8
003
100
AcDbLine
 10
320.6177113945628
 20
283.0053193331719
 30
0.0
 11
321.7767227992431
 21
283.3162736124764
 31
0.0
  0
ARC
  5
17721
330
1F
100
AcDbEntity
  8
003
100
AcDbCircle
 10
323.5152399062668
 20
283.7827050314341
 30
0.0
 40
3.0
100
AcDbArc
 50
129.9445051898155
 51
195.0183606311528
  0
LINE
  5
17722
330
1F
100
AcDbEntity
  8
003
100
AcDbLine
 10
323.3152399062669
 20
278.4827050314338
 30
0.0
 11
323.3152399062669
 21
280.7893791220149
 31
0.0
  0
LINE
  5
17723
330
1F
100
AcDbEntity
  8
003
100
AcDbLine
 10
325.8152399062669
 20
272.2827050314336
 30
0.0
 11
325.8152399062669
 21
277.2827050314336
 31
0.0
  0
LINE
  5
17724
330
1F
100
AcDbEntity
  8
003
100
AcDbLine
 10
324.6152399062671
 20
271.0827050314338
 30
0.0
 11
324.6152399062671
 21
277.2827050314336
 31
0.0
  0
LINE
  5
17725
330
1F
100
AcDbEntity
  8
003
100
AcDbLine
 10
325.8152399062669
 20
272.282705031434
 30
0.0
 11
325.8152399062669
 21
277.282705031434
 31
0.0
  0
LINE
  5
17726
330
1F
100
AcDbEntity
  8
003
100
AcDbLine
 10
325.8152399062669
 20
271.0827050314338
 30
0.0
 11
324.6152399062671
 21
271.0827050314338
 31
0.0
  0
LINE
  5
17727
330
1F
100
AcDbEntity
  8
003
100
AcDbLine
 10
325.8152399062669
 20
277.2827050314336
 30
0.0
 11
324.6152399062671
 21
277.2827050314336
 31
0.0
  0
LINE
  5
17728
330
1F
100
AcDbEntity
  8
003
100
AcDbLine
 10
325.8152399062669
 20
277.282705031434
 30
0.0
 11
324.1152399062671
 21
277.282705031434
 31
0.0
  0
LINE
  5
17729
330
1F
100
AcDbEntity
  8
003
100
AcDbLine
 10
324.1152399062671
 20
274.282705031434
 30
0.0
 11
322.9152399062673
 21
274.282705031434
 31
0.0
  0
LINE
  5
1772A
330
1F
100
AcDbEntity
  8
003
100
AcDbLine
 10
324.1152399062671
 20
274.282705031434
 30
0.0
 11
324.1152399062671
 21
277.282705031434
 31
0.0
  0
LINE
  5
1772B
330
1F
100
AcDbEntity
  8
003
100
AcDbLine
 10
325.8152399062669
 20
270.782705031434
 30
0.0
 11
324.1152399062671
 21
270.782705031434
 31
0.0
  0
LINE
  5
1772C
330
1F
100
AcDbEntity
  8
003
100
AcDbLine
 10
323.3152399062669
 20
278.4827050314338
 30
0.0
 11
322.9152399062673
 21
278.4827050314338
 31
0.0
  0
LINE
  5
1772D
330
1F
100
AcDbEntity
  8
003
100
AcDbLine
 10
322.9152399062673
 20
274.282705031434
 30
0.0
 11
322.9152399062673
 21
278.4827050314338
 31
0.0
  0
ARC
  5
1772E
330
1F
100
AcDbEntity
  8
003
100
AcDbCircle
 10
323.5152399062668
 20
283.7827050314341
 30
0.0
 40
3.0
100
AcDbArc
 50
254.9815227431651
 51
266.1774462707291
  0
LINE
  5
1772F
330
1F
100
AcDbEntity
  8
006
100
AcDbLine
 10
326.3436670310134
 20
280.9542779066878
 30
0.0
 11
320.686812781521
 21
286.6111321561803
 31
0.0
  0
LINE
  5
17730
330
1F
100
AcDbEntity
  8
006
100
AcDbLine
 10
320.686812781521
 20
280.9542779066878
 30
0.0
 11
326.3436670310134
 21
286.6111321561798
 31
0.0
  0
LINE
  5
17731
330
1F
100
AcDbEntity
  8
003
100
AcDbLine
 10
322.7378483100806
 20
280.8851781021062
 30
0.0
 11
323.0445562806294
 21
282.0453343385297
 31
0.0
  0
LINE
  5
17732
330
1F
100
AcDbEntity
  8
003
100
AcDbLine
 10
327.0152399062667
 20
272.2827050314336
 30
0.0
 11
325.8152399062669
 21
272.2827050314336
 31
0.0
  0
LINE
  5
17733
330
1F
100
AcDbEntity
  8
003
100
AcDbLine
 10
327.0152399062667
 20
272.282705031434
 30
0.0
 11
325.8152399062669
 21
272.282705031434
 31
0.0
  0
LINE
  5
17734
330
1F
100
AcDbEntity
  8
003
100
AcDbLine
 10
330.0152399062667
 20
286.0827050314338
 30
0.0
 11
327.0152399062667
 21
286.0827050314338
 31
0.0
  0
LINE
  5
17735
330
1F
100
AcDbEntity
  8
KI
  6
Continuous
 62
     7
100
AcDbLine
 10
349.014869906267
 20
217.4824150314339
 30
0.0
 11
349.014869906267
 21
211.7824650314337
 31
0.0
  0
LINE
  5
17736
330
1F
100
AcDbEntity
  8
KI
  6
Continuous
 62
     7
100
AcDbLine
 10
348.014869906267
 20
216.5823850314337
 30
0.0
 11
348.014869906267
 21
212.2824650314337
 31
0.0
  0
LINE
  5
17737
330
1F
100
AcDbEntity
  8
KI
  6
Continuous
 62
     7
100
AcDbLine
 10
349.9846599062671
 20
205.7824850314337
 30
0.0
 11
349.0148599062672
 21
211.2824750314339
 31
0.0
  0
ARC
  5
17738
330
1F
100
AcDbEntity
  8
KI
  6
Continuous
 62
     7
100
AcDbCircle
 10
348.514869906267
 20
211.7824650314337
 30
0.0
 40
0.5
100
AcDbArc
 50
270.000030000003
 51
0.0000400000040257
  0
LINE
  5
17739
330
1F
100
AcDbEntity
  8
KI
  6
Continuous
 62
     7
100
AcDbLine
 10
348.514869906267
 20
211.2824650314337
 30
0.0
 11
343.4148999062668
 21
211.2824650314337
 31
0.0
  0
LINE
  5
1773A
330
1F
100
AcDbEntity
  8
KI
  6
Continuous
 62
     7
100
AcDbLine
 10
348.0148999062671
 20
212.2824650314337
 30
0.0
 11
343.3975499062667
 21
212.0820950314337
 31
0.0
  0
LINE
  5
1773B
330
1F
100
AcDbEntity
  8
KI
  6
Continuous
 62
     7
100
AcDbLine
 10
345.3137899062672
 20
216.5823750314339
 30
0.0
 11
344.0148899062674
 21
215.8324550314337
 31
0.0
  0
ARC
  5
1773C
330
1F
100
AcDbEntity
  8
KI
  6
Continuous
 62
     7
100
AcDbCircle
 10
348.7148899062672
 20
217.4824150314339
 30
0.0
 40
0.30000001
100
AcDbArc
 50
359.999989999999
 51
89.99998399997755
  0
LINE
  5
1773D
330
1F
100
AcDbEntity
  8
KI
  6
Continuous
 62
     7
100
AcDbLine
 10
345.313759906267
 20
216.5823850314337
 30
0.0
 11
348.014869906267
 21
216.5823850314337
 31
0.0
  0
LINE
  5
1773E
330
1F
100
AcDbEntity
  8
003
100
AcDbLine
 10
427.5152399062668
 20
245.5827050314338
 30
0.0
 11
345.4152399062673
 21
245.5827050314338
 31
0.0
  0
LINE
  5
1773F
330
1F
100
AcDbEntity
  8
003
100
AcDbLine
 10
427.5152399062668
 20
246.7827050314268
 30
0.0
 11
345.4152399062673
 21
246.782705031434
 31
0.0
  0
LINE
  5
17740
330
1F
100
AcDbEntity
  8
003
100
AcDbLine
 10
345.4152399062673
 20
242.2827050314336
 30
0.0
 11
345.4152399062673
 21
247.2827050314336
 31
0.0
  0
LINE
  5
17741
330
1F
100
AcDbEntity
  8
003
100
AcDbLine
 10
344.2152399062675
 20
242.2827050314336
 30
0.0
 11
344.2152399062675
 21
247.2827050314336
 31
0.0
  0
LINE
  5
17742
330
1F
100
AcDbEntity
  8
003
100
AcDbLine
 10
345.4152399062673
 20
242.2827050314336
 30
0.0
 11
344.2152399062675
 21
242.2827050314336
 31
0.0
  0
LINE
  5
17743
330
1F
100
AcDbEntity
  8
003
100
AcDbLine
 10
353.2152399062675
 20
247.2827050314336
 30
0.0
 11
345.4152399062673
 21
247.2827050314336
 31
0.0
  0
DIMENSION
  5
17745
330
1F
100
AcDbEntity
  8
003
100
AcDbDimension
  2
*D2
 10
577.1920626975799
 20
157.782705031434
 30
0.0
 11
572.19206269758
 21
192.7827050314339
 31
0.0
 70
    32
 71
     5
 42
69.99999999999954
  3
DIM
100
AcDbAlignedDimension
 13
571.9582168559184
 23
227.7827050314336
 33
0.0
 14
574.4330710027973
 24
157.782705031434
 34
0.0
 50
90.0
100
AcDbRotatedDimension
1001
ACAD
1000
DSTYLE
1002
{
1070
   279
1070
     1
1002
}
  0
LINE
  5
17746
330
1F
100
AcDbEntity
  8
KI
  6
Continuous
 62
     7
100
AcDbLine
 10
567.6652599062665
 20
218.0327050314336
 30
0.0
 11
567.6652599062665
 21
200.0327050314336
 31
0.0
  0
LINE
  5
17747
330
1F
100
AcDbEntity
  8
KI
  6
Continuous
 62
     7
100
AcDbLine
 10
566.0152399062665
 20
221.1326850314335
 30
0.0
 11
566.0152399062665
 21
189.7827050314336
 31
0.0
  0
LINE
  5
17749
330
1F
100
AcDbEntity
  8
KI
  6
Continuous
 62
     7
100
AcDbLine
 10
536.0156099062661
 20
215.8324450314339
 30
0.0
 11
536.0156099062661
 21
179.1826350314341
 31
0.0
  0
LINE
  5
1774A
330
1F
100
AcDbEntity
  8
KI
  6
Continuous
 62
     7
100
AcDbLine
 10
539.0156099062661
 20
213.2823950314337
 30
0.0
 11
539.0156099062661
 21
198.2826450314337
 31
0.0
  0
LINE
  5
1774B
330
1F
100
AcDbEntity
  8
KI
  6
Continuous
 62
     7
100
AcDbLine
 10
523.0156099062661
 20
205.7823350314338
 30
0.0
 11
523.0156099062661
 21
200.7823350314339
 31
0.0
  0
LINE
  5
1774C
330
1F
100
AcDbEntity
  8
KI
  6
Continuous
 62
     7
100
AcDbLine
 10
580.3152299062669
 20
158.982715031434
 30
0.0
 11
567.1652599062666
 21
158.982715031434
 31
0.0
  0
LINE
  5
1774D
330
1F
100
AcDbEntity
  8
KI
  6
Continuous
 62
     7
100
AcDbLine
 10
589.8152299062669
 20
157.782705031434
 30
0.0
 11
566.5152399062665
 21
157.782705031434
 31
0.0
  0
LINE
  5
1774E
330
1F
100
AcDbEntity
  8
KI
  6
Continuous
 62
     7
100
AcDbLine
 10
522.0155499062667
 20
194.2823350314338
 30
0.0
 11
526.0155499062667
 21
194.2823350314338
 31
0.0
  0
LINE
  5
1774F
330
1F
100
AcDbEntity
  8
KI
  6
Continuous
 62
     7
100
AcDbLine
 10
522.0155499062667
 20
193.4823250314339
 30
0.0
 11
526.0155499062667
 21
193.4823250314339
 31
0.0
  0
LINE
  5
17750
330
1F
100
AcDbEntity
  8
KI
  6
Continuous
 62
     7
100
AcDbLine
 10
530.0156099062661
 20
179.1194750314339
 30
0.0
 11
517.0155299062663
 21
178.9826350314338
 31
0.0
  0
LINE
  5
17751
330
1F
100
AcDbEntity
  8
KI
  6
Continuous
 62
     7
100
AcDbLine
 10
560.0154799062668
 20
177.7826450314337
 30
0.0
 11
516.8155299062665
 21
177.7826450314337
 31
0.0
  0
LINE
  5
17752
330
1F
100
AcDbEntity
  8
KI
  6
Continuous
 62
     7
100
AcDbLine
 10
522.0155499062667
 20
194.7823350314338
 30
0.0
 11
522.0155499062667
 21
194.2823350314338
 31
0.0
  0
LINE
  5
17753
330
1F
100
AcDbEntity
  8
KI
  6
Continuous
 62
     7
100
AcDbLine
 10
521.2155599062663
 20
194.4823250314339
 30
0.0
 11
521.2155599062663
 21
194.2823350314338
 31
0.0
  0
ARC
  5
17754
330
1F
100
AcDbEntity
  8
KI
  6
Continuous
 62
     7
100
AcDbCircle
 10
521.5155499062667
 20
194.7823350314338
 30
0.0
 40
0.5
100
AcDbArc
 50
0.0000359721715611
 51
90.0000159999964
  0
ARC
  5
17755
330
1F
100
AcDbEntity
  8
KI
  6
Continuous
 62
     7
100
AcDbCircle
 10
522.0155499062667
 20
194.2823350314338
 30
0.0
 40
0.8000000099999999
100
AcDbArc
 50
179.999989999999
 51
270.0
  0
LINE
  5
17756
330
1F
100
AcDbEntity
  8
KI
  6
Continuous
 62
     7
100
AcDbLine
 10
516.0155499062667
 20
194.7823650314339
 30
0.0
 11
516.0155499062667
 21
178.5826350314337
 31
0.0
  0
LINE
  5
17757
330
1F
100
AcDbEntity
  8
KI
  6
Continuous
 62
     7
100
AcDbLine
 10
517.0155499062667
 20
194.4823250314339
 30
0.0
 11
517.0155499062667
 21
178.982625031434
 31
0.0
  0
ARC
  5
17758
330
1F
100
AcDbEntity
  8
KI
  6
Continuous
 62
     7
100
AcDbCircle
 10
516.8155299062665
 20
178.5826350314337
 30
0.0
 40
0.8000000099999999
100
AcDbArc
 50
179.999989999999
 51
269.999979999998
  0
LINE
  5
17759
330
1F
100
AcDbEntity
  8
KI
  6
Continuous
 62
     7
100
AcDbLine
 10
515.0458699062665
 20
200.7824650314337
 30
0.0
 11
516.0156699062664
 21
195.2824650314337
 31
0.0
  0
ARC
  5
1775A
330
1F
100
AcDbEntity
  8
KI
  6
Continuous
 62
     7
100
AcDbCircle
 10
516.5155499062668
 20
194.7823650314339
 30
0.0
 40
0.5
100
AcDbArc
 50
89.99826800001825
 51
179.999959999996
  0
LINE
  5
1775B
330
1F
100
AcDbEntity
  8
KI
  6
Continuous
 62
     7
100
AcDbLine
 10
516.5156099062661
 20
195.2823350314338
 30
0.0
 11
521.5155499062667
 21
195.2823350314338
 31
0.0
  0
LINE
  5
1775C
330
1F
100
AcDbEntity
  8
KI
  6
Continuous
 62
     7
100
AcDbLine
 10
517.0155499062667
 20
194.4823250314339
 30
0.0
 11
521.2155599062663
 21
194.4823250314339
 31
0.0
  0
LINE
  5
1775D
330
1F
100
AcDbEntity
  8
KI
  6
Continuous
 62
     7
100
AcDbLine
 10
539.1210699062668
 20
182.7825850314338
 30
0.0
 11
551.3342099062667
 21
182.7825850314338
 31
0.0
  0
LINE
  5
1775E
330
1F
100
AcDbEntity
  8
KI
  6
Continuous
 62
     7
100
AcDbLine
 10
539.0156099062661
 20
187.7825850314339
 30
0.0
 11
551.0154799062667
 21
187.7825850314339
 31
0.0
  0
LINE
  5
1775F
330
1F
100
AcDbEntity
  8
KI
  6
Continuous
 62
     7
100
AcDbLine
 10
560.0154799062668
 20
179.7826450314337
 30
0.0
 11
539.0156099062661
 21
179.7826450314337
 31
0.0
  0
ARC
  5
17760
330
1F
100
AcDbEntity
  8
KI
  6
Continuous
 62
     7
100
AcDbCircle
 10
530.3655799062664
 20
179.3826150314339
 30
0.0
 40
0.34999999
100
AcDbArc
 50
359.999989999999
 51
180.000010000001
  0
LINE
  5
17761
330
1F
100
AcDbEntity
  8
KI
  6
Continuous
 62
     7
100
AcDbLine
 10
526.8155299062665
 20
195.8823150314337
 30
0.0
 11
526.8155299062665
 21
194.2823350314338
 31
0.0
  0
LINE
  5
17762
330
1F
100
AcDbEntity
  8
KI
  6
Continuous
 62
     7
100
AcDbLine
 10
530.0156099062661
 20
179.3826150314339
 30
0.0
 11
530.0156099062661
 21
179.1194650314337
 31
0.0
  0
LINE
  5
17763
330
1F
100
AcDbEntity
  8
KI
  6
Continuous
 62
     7
100
AcDbLine
 10
526.0155499062667
 20
195.8823150314337
 30
0.0
 11
526.0155499062667
 21
194.2823350314338
 31
0.0
  0
ARC
  5
17764
330
1F
100
AcDbEntity
  8
KI
  6
Continuous
 62
     7
100
AcDbCircle
 10
526.4155699062667
 20
195.8823150314337
 30
0.0
 40
0.4000000100000001
100
AcDbArc
 50
359.999989999999
 51
180.000010000001
  0
ARC
  5
17765
330
1F
100
AcDbEntity
  8
KI
  6
Continuous
 62
     7
100
AcDbCircle
 10
526.0155499062667
 20
194.2823350314338
 30
0.0
 40
0.8000000099999999
100
AcDbArc
 50
270.0
 51
0.0000086514148811
  0
LINE
  5
17766
330
1F
100
AcDbEntity
  8
KI
  6
Continuous
 62
     7
100
AcDbLine
 10
536.0156099062661
 20
177.7826450314337
 30
0.0
 11
536.0156099062661
 21
170.8326350314337
 31
0.0
  0
LINE
  5
17767
330
1F
100
AcDbEntity
  8
KI
  6
Continuous
 62
     7
100
AcDbLine
 10
536.0155799062669
 20
179.1826350314341
 30
0.0
 11
530.7155799062667
 21
179.1268450314337
 31
0.0
  0
LINE
  5
17768
330
1F
100
AcDbEntity
  8
KI
  6
Continuous
 62
     7
100
AcDbLine
 10
530.7156199062666
 20
179.3826150314339
 30
0.0
 11
530.7156199062666
 21
179.1268550314339
 31
0.0
  0
LINE
  5
17769
330
1F
100
AcDbEntity
  8
KI
  6
Continuous
 62
     7
100
AcDbLine
 10
539.0156099062661
 20
197.2826450314337
 30
0.0
 11
539.0156099062661
 21
179.7826450314337
 31
0.0
  0
ARC
  5
1776A
330
1F
100
AcDbEntity
  8
KI
  6
Continuous
 62
     7
100
AcDbCircle
 10
539.0156099062661
 20
197.7826450314337
 30
0.0
 40
0.5
100
AcDbArc
 50
90.0000159999964
 51
269.999969999997
  0
LINE
  5
1776B
330
1F
100
AcDbEntity
  8
KI
  6
Continuous
 62
     7
100
AcDbLine
 10
566.0152399062665
 20
188.1327150314337
 30
0.0
 11
566.0152399062665
 21
158.282705031434
 31
0.0
  0
LINE
  5
1776C
330
1F
100
AcDbEntity
  8
KI
  6
Continuous
 62
     7
100
AcDbLine
 10
567.6652599062665
 20
180.032705031434
 30
0.0
 11
567.6652599062665
 21
167.532705031434
 31
0.0
  0
LINE
  5
1776D
330
1F
100
AcDbEntity
  8
KI
  6
Continuous
 62
     7
100
AcDbLine
 10
567.1652599062666
 20
167.032705031434
 30
0.0
 11
567.1652599062666
 21
158.982715031434
 31
0.0
  0
ARC
  5
1776E
330
1F
100
AcDbEntity
  8
KI
  6
Continuous
 62
     7
100
AcDbCircle
 10
566.5152399062665
 20
158.282705031434
 30
0.0
 40
0.5
100
AcDbArc
 50
179.999989999999
 51
269.999979999998
  0
ARC
  5
1776F
330
1F
100
AcDbEntity
  8
KI
  6
Continuous
 62
     7
100
AcDbCircle
 10
567.6652599062665
 20
167.032705031434
 30
0.0
 40
0.5
100
AcDbArc
 50
90.0000159999964
 51
180.000010000001
  0
LINE
  5
17770
330
1F
100
AcDbEntity
  8
KI
  6
Continuous
 62
     7
100
AcDbLine
 10
561.0154799062668
 20
179.7825850314339
 30
0.0
 11
557.6668499062662
 21
179.7825850314339
 31
0.0
  0
LINE
  5
17771
330
1F
100
AcDbEntity
  8
KI
  6
Continuous
 62
     7
100
AcDbLine
 10
558.5152399062665
 20
182.782705031434
 30
0.0
 11
560.2152499062669
 21
182.782705031434
 31
0.0
  0
LINE
  5
17772
330
1F
100
AcDbEntity
  8
KI
  6
Continuous
 62
     7
100
AcDbLine
 10
558.8152299062669
 20
183.582695031434
 30
0.0
 11
560.2152499062669
 21
183.582695031434
 31
0.0
  0
ARC
  5
17773
330
1F
100
AcDbEntity
  8
KI
  6
Continuous
 62
     7
100
AcDbCircle
 10
560.0154799062668
 20
178.7826450314337
 30
0.0
 40
1.0
100
AcDbArc
 50
270.0
 51
90.0000159999964
  0
LINE
  5
17774
330
1F
100
AcDbEntity
  8
KI
  6
Continuous
 62
     7
100
AcDbLine
 10
551.8152899062662
 20
188.1327150314337
 30
0.0
 11
560.2152499062669
 21
188.1327150314337
 31
0.0
  0
LINE
  5
17775
330
1F
100
AcDbEntity
  8
KI
  6
Continuous
 62
     7
100
AcDbLine
 10
551.5152399062664
 20
189.7827050314336
 30
0.0
 11
566.0152399062665
 21
189.7827050314336
 31
0.0
  0
LINE
  5
17776
330
1F
100
AcDbEntity
  8
KI
  6
Continuous
 62
     7
100
AcDbLine
 10
558.0152399062663
 20
183.782705031434
 30
0.0
 11
558.8152299062669
 21
183.782705031434
 31
0.0
  0
LINE
  5
17777
330
1F
100
AcDbEntity
  8
KI
  6
Continuous
 62
     7
100
AcDbLine
 10
558.5154799062668
 20
182.7825850314338
 30
0.0
 11
557.5154799062667
 21
182.7825850314338
 31
0.0
  0
ARC
  5
17778
330
1F
100
AcDbEntity
  8
KI
  6
Continuous
 62
     7
100
AcDbCircle
 10
558.5152399062665
 20
183.282705031434
 30
0.0
 40
0.5
100
AcDbArc
 50
179.999989999999
 51
270.0
  0
LINE
  5
17779
330
1F
100
AcDbEntity
  8
KI
  6
Continuous
 62
     7
100
AcDbLine
 10
558.0152399062663
 20
183.282705031434
 30
0.0
 11
558.0152399062663
 21
183.782705031434
 31
0.0
  0
ARC
  5
1777A
330
1F
100
AcDbEntity
  8
KI
  6
Continuous
 62
     7
100
AcDbCircle
 10
557.6668499062662
 20
180.2825850314339
 30
0.0
 40
0.5
100
AcDbArc
 50
236.3099199999981
 51
269.9999599999959
  0
LINE
  5
1777B
330
1F
100
AcDbEntity
  8
KI
  6
Continuous
 62
     7
100
AcDbLine
 10
554.0152399062663
 20
183.282705031434
 30
0.0
 11
554.0152399062663
 21
183.782705031434
 31
0.0
  0
LINE
  5
1777C
330
1F
100
AcDbEntity
  8
KI
  6
Continuous
 62
     7
100
AcDbLine
 10
555.7658899062663
 20
180.616175031434
 30
0.0
 11
554.6414699062662
 21
179.8665650314337
 31
0.0
  0
ARC
  5
1777D
330
1F
100
AcDbEntity
  8
KI
  6
Continuous
 62
     7
100
AcDbCircle
 10
554.3641199062668
 20
180.2825850314339
 30
0.0
 40
0.5
100
AcDbArc
 50
269.9999599999959
 51
303.6900099999741
  0
ARC
  5
1777E
330
1F
100
AcDbEntity
  8
KI
  6
Continuous
 62
     7
100
AcDbCircle
 10
556.0154799062667
 20
180.7825850314339
 30
0.0
 40
0.29999995
100
AcDbArc
 50
179.9999799999979
 51
213.6899099999884
  0
ARC
  5
1777F
330
1F
100
AcDbEntity
  8
KI
  6
Continuous
 62
     7
100
AcDbCircle
 10
556.0154799062667
 20
180.7825850314339
 30
0.0
 40
0.29999995
100
AcDbArc
 50
326.3100799999829
 51
179.9999799999979
  0
LINE
  5
17780
330
1F
100
AcDbEntity
  8
KI
  6
Continuous
 62
     7
100
AcDbLine
 10
556.2650799062668
 20
180.6161650314338
 30
0.0
 11
557.3895199062664
 21
179.8665350314341
 31
0.0
  0
LINE
  5
17781
330
1F
100
AcDbEntity
  8
KI
  6
Continuous
 62
     7
100
AcDbLine
 10
558.8152299062669
 20
183.582695031434
 30
0.0
 11
558.8152299062669
 21
183.782705031434
 31
0.0
  0
LINE
  5
17782
330
1F
100
AcDbEntity
  8
KI
  6
Continuous
 62
     7
100
AcDbLine
 10
551.8151699062665
 20
183.582695031434
 30
0.0
 11
551.8151699062665
 21
188.1327150314337
 31
0.0
  0
LINE
  5
17783
330
1F
100
AcDbEntity
  8
KI
  6
Continuous
 62
     7
100
AcDbLine
 10
551.8152299062668
 20
183.582695031434
 30
0.0
 11
553.2152499062668
 21
183.582695031434
 31
0.0
  0
LINE
  5
17784
330
1F
100
AcDbEntity
  8
KI
  6
Continuous
 62
     7
100
AcDbLine
 10
553.2152499062668
 20
183.582695031434
 30
0.0
 11
553.2152499062668
 21
183.782705031434
 31
0.0
  0
LINE
  5
17785
330
1F
100
AcDbEntity
  8
KI
  6
Continuous
 62
     7
100
AcDbLine
 10
553.2152499062668
 20
183.782705031434
 30
0.0
 11
554.0152399062663
 21
183.782705031434
 31
0.0
  0
LINE
  5
17786
330
1F
100
AcDbEntity
  8
KI
  6
Continuous
 62
     7
100
AcDbLine
 10
554.5154799062666
 20
182.7825850314338
 30
0.0
 11
553.5154799062667
 21
182.7825850314338
 31
0.0
  0
ARC
  5
17787
330
1F
100
AcDbEntity
  8
KI
  6
Continuous
 62
     7
100
AcDbCircle
 10
553.5152399062663
 20
183.282705031434
 30
0.0
 40
0.5
100
AcDbArc
 50
270.0
 51
0.0000086514148811
  0
LINE
  5
17788
330
1F
100
AcDbEntity
  8
KI
  6
Continuous
 62
     7
100
AcDbLine
 10
551.0151799062669
 20
183.282705031434
 30
0.0
 11
551.0151799062669
 21
189.2827050314336
 31
0.0
  0
LINE
  5
17789
330
1F
100
AcDbEntity
  8
KI
  6
Continuous
 62
     7
100
AcDbLine
 10
551.0154799062667
 20
179.7825850314339
 30
0.0
 11
551.0154799062667
 21
182.7825850314338
 31
0.0
  0
ARC
  5
1778A
330
1F
100
AcDbEntity
  8
KI
  6
Continuous
 62
     7
100
AcDbCircle
 10
551.5152399062664
 20
183.282705031434
 30
0.0
 40
0.5
100
AcDbArc
 50
179.9997999999929
 51
269.999969999997
  0
ARC
  5
1778B
330
1F
100
AcDbEntity
  8
KI
  6
Continuous
 62
     7
100
AcDbCircle
 10
551.5152399062664
 20
189.2827050314336
 30
0.0
 40
0.5
100
AcDbArc
 50
90.0000159999964
 51
179.9997999999929
  0
LINE
  5
1778C
330
1F
100
AcDbEntity
  8
KI
  6
Continuous
 62
     7
100
AcDbLine
 10
551.5152399062664
 20
182.782705031434
 30
0.0
 11
553.5152399062663
 21
182.782705031434
 31
0.0
  0
LINE
  5
1778D
330
1F
100
AcDbEntity
  8
KI
  6
Continuous
 62
     7
100
AcDbLine
 10
554.3641199062668
 20
179.7825850314339
 30
0.0
 11
551.0154799062667
 21
179.7825850314339
 31
0.0
  0
LINE
  5
1778E
330
1F
100
AcDbEntity
  8
KI
  6
Continuous
 62
     7
100
AcDbLine
 10
567.1652599062666
 20
187.0327050314336
 30
0.0
 11
567.1652599062666
 21
180.532705031434
 31
0.0
  0
LINE
  5
1778F
330
1F
100
AcDbEntity
  8
KI
  6
Continuous
 62
     7
100
AcDbLine
 10
561.0152399062664
 20
183.582695031434
 30
0.0
 11
561.0152399062664
 21
188.1327150314337
 31
0.0
  0
LINE
  5
17790
330
1F
100
AcDbEntity
  8
KI
  6
Continuous
 62
     7
100
AcDbLine
 10
560.2152499062669
 20
183.582695031434
 30
0.0
 11
560.2152499062669
 21
188.1327150314337
 31
0.0
  0
LINE
  5
17791
330
1F
100
AcDbEntity
  8
KI
  6
Continuous
 62
     7
100
AcDbLine
 10
560.660629906267
 20
182.7825850314338
 30
0.0
 11
566.0151799062671
 21
182.7825850314338
 31
0.0
  0
LINE
  5
17792
330
1F
100
AcDbEntity
  8
KI
  6
Continuous
 62
     7
100
AcDbLine
 10
561.0154799062668
 20
179.7825850314339
 30
0.0
 11
561.0154799062668
 21
182.7825850314338
 31
0.0
  0
ARC
  5
17793
330
1F
100
AcDbEntity
  8
KI
  6
Continuous
 62
     7
100
AcDbCircle
 10
560.2152499062669
 20
183.582695031434
 30
0.0
 40
0.8000000099999999
100
AcDbArc
 50
270.0
 51
0.0000086514148811
  0
ARC
  5
17794
330
1F
100
AcDbEntity
  8
KI
  6
Continuous
 62
     7
100
AcDbCircle
 10
567.6652599062665
 20
180.532705031434
 30
0.0
 40
0.5
100
AcDbArc
 50
179.999989999999
 51
269.999979999998
  0
LINE
  5
17795
330
1F
100
AcDbEntity
  8
KI
  6
Continuous
 62
     7
100
AcDbLine
 10
561.0154199062665
 20
187.7825850314339
 30
0.0
 11
566.0151799062671
 21
187.7825850314339
 31
0.0
  0
LINE
  5
17796
330
1F
100
AcDbEntity
  8
KI
  6
Continuous
 62
     7
100
AcDbLine
 10
561.0152399062664
 20
188.1327150314337
 30
0.0
 11
566.0152399062665
 21
188.1327150314337
 31
0.0
  0
LINE
  5
17797
330
1F
100
AcDbEntity
  8
KI
  6
Continuous
 62
     7
100
AcDbLine
 10
567.1652599062666
 20
199.5327050314336
 30
0.0
 11
567.1652599062666
 21
196.5327050314336
 31
0.0
  0
LINE
  5
17798
330
1F
100
AcDbEntity
  8
KI
  6
Continuous
 62
     7
100
AcDbLine
 10
567.6652599062665
 20
190.7827050314335
 30
0.0
 11
567.1652599062666
 21
190.7827050314335
 31
0.0
  0
LINE
  5
17799
330
1F
100
AcDbEntity
  8
KI
  6
Continuous
 62
     7
100
AcDbLine
 10
567.6652599062665
 20
192.7827050314336
 30
0.0
 11
567.1652599062666
 21
192.7827050314336
 31
0.0
  0
LINE
  5
1779A
330
1F
100
AcDbEntity
  8
KI
  6
Continuous
 62
     7
100
AcDbLine
 10
567.6652599062665
 20
190.7827050314335
 30
0.0
 11
567.6652599062665
 21
187.5327050314336
 31
0.0
  0
LINE
  5
1779B
330
1F
100
AcDbEntity
  8
KI
  6
Continuous
 62
     7
100
AcDbLine
 10
567.1652599062666
 20
192.7827050314336
 30
0.0
 11
567.1652599062666
 21
190.7827050314335
 31
0.0
  0
LINE
  5
1779C
330
1F
100
AcDbEntity
  8
KI
  6
Continuous
 62
     7
100
AcDbLine
 10
567.6652599062665
 20
196.0327050314336
 30
0.0
 11
567.6652599062665
 21
192.7827050314336
 31
0.0
  0
ARC
  5
1779D
330
1F
100
AcDbEntity
  8
KI
  6
Continuous
 62
     7
100
AcDbCircle
 10
567.6652599062665
 20
196.5327050314336
 30
0.0
 40
0.5
100
AcDbArc
 50
179.999989999999
 51
269.999979999998
  0
ARC
  5
1779E
330
1F
100
AcDbEntity
  8
KI
  6
Continuous
 62
     7
100
AcDbCircle
 10
567.6652599062665
 20
187.0327050314336
 30
0.0
 40
0.5
100
AcDbArc
 50
90.0000159999964
 51
180.000010000001
  0
ARC
  5
1779F
330
1F
100
AcDbEntity
  8
KI
  6
Continuous
 62
     7
100
AcDbCircle
 10
567.6652599062665
 20
199.5327050314336
 30
0.0
 40
0.5
100
AcDbArc
 50
90.0000159999964
 51
180.000010000001
  0
LINE
  5
177A0
330
1F
100
AcDbEntity
  8
KI
  6
Continuous
 62
     7
100
AcDbLine
 10
590.0152399062664
 20
158.982715031434
 30
0.0
 11
581.0152399062665
 21
158.982715031434
 31
0.0
  0
ARC
  5
177A1
330
1F
100
AcDbEntity
  8
KI
  6
Continuous
 62
     7
100
AcDbCircle
 10
580.6652599062665
 20
159.0827050314337
 30
0.0
 40
0.34999999
100
AcDbArc
 50
359.999989999999
 51
180.000010000001
  0
LINE
  5
177A2
330
1F
100
AcDbEntity
  8
KI
  6
Continuous
 62
     7
100
AcDbLine
 10
580.3152299062669
 20
159.0827050314337
 30
0.0
 11
580.3152299062669
 21
158.982715031434
 31
0.0
  0
LINE
  5
177A3
330
1F
100
AcDbEntity
  8
KI
  6
Continuous
 62
     7
100
AcDbLine
 10
581.0152399062665
 20
159.0827050314337
 30
0.0
 11
581.0152399062665
 21
158.982715031434
 31
0.0
  0
LINE
  5
177A4
330
1F
100
AcDbEntity
  8
KI
  6
Continuous
 62
     7
100
AcDbLine
 10
591.0152399062665
 20
162.0827050314337
 30
0.0
 11
591.0152399062665
 21
158.982715031434
 31
0.0
  0
LINE
  5
177A5
330
1F
100
AcDbEntity
  8
KI
  6
Continuous
 62
     7
100
AcDbLine
 10
590.0152399062664
 20
161.5827050314337
 30
0.0
 11
590.0152399062664
 21
158.982715031434
 31
0.0
  0
ARC
  5
177A6
330
1F
100
AcDbEntity
  8
KI
  6
Continuous
 62
     7
100
AcDbCircle
 10
589.8152299062669
 20
158.982715031434
 30
0.0
 40
1.1999998
100
AcDbArc
 50
269.999979999998
 51
359.9999599999959
  0
LINE
  5
177A7
330
1F
100
AcDbEntity
  8
KI
  6
Continuous
 62
     7
100
AcDbLine
 10
589.6152199062664
 20
162.0827050314337
 30
0.0
 11
589.6152199062664
 21
161.5827050314337
 31
0.0
  0
LINE
  5
177A8
330
1F
100
AcDbEntity
  8
KI
  6
Continuous
 62
     7
100
AcDbLine
 10
590.0152399062664
 20
161.5827050314337
 30
0.0
 11
589.6152199062664
 21
161.5827050314337
 31
0.0
  0
ARC
  5
177A9
330
1F
100
AcDbEntity
  8
KI
  6
Continuous
 62
     7
100
AcDbCircle
 10
590.3152299062669
 20
162.0827050314337
 30
0.0
 40
0.6999999900000001
100
AcDbArc
 50
0.0000359721715611
 51
180.000010000001
  0
LINE
  5
177AD
330
1F
100
AcDbEntity
  8
KI
  6
Continuous
 62
     7
100
AcDbLine
 10
580.3152299062669
 20
226.5826950314336
 30
0.0
 11
567.1652599062666
 21
226.5826950314336
 31
0.0
  0
LINE
  5
177AE
330
1F
100
AcDbEntity
  8
KI
  6
Continuous
 62
     7
100
AcDbLine
 10
589.8152299062669
 20
227.7827050314336
 30
0.0
 11
566.5152399062665
 21
227.7827050314336
 31
0.0
  0
DIMENSION
  5
177AF
330
1F
100
AcDbEntity
  8
003
100
AcDbDimension
  2
*D3
 10
577.1920626975799
 20
227.7827050314336
 30
0.0
 11
572.19206269758
 21
257.5327050314336
 31
0.0
 70
    32
 71
     5
 42
59.5
  3
DIM
100
AcDbAlignedDimension
 13
556.0152399062664
 23
287.2827050314336
 33
0.0
 14
571.9582168559184
 24
227.7827050314336
 34
0.0
 50
90.0
100
AcDbRotatedDimension
  0
DIMENSION
  5
177B0
330
1F
100
AcDbEntity
  8
003
100
AcDbDimension
  2
*D4
 10
566.0152399062665
 20
322.6406588029395
 30
0.0
 11
574.5509541919808
 21
327.6406588029395
 31
0.0
 70
    32
 71
     5
  3
DIM
100
AcDbAlignedDimension
 13
565.0152399062664
 23
277.2827050314336
 33
0.0
 14
566.0152399062665
 24
227.2827049441671
 34
0.0
100
AcDbRotatedDimension
  0
LINE
  5
177B1
330
1F
100
AcDbEntity
  8
KI
  6
Continuous
 62
     7
100
AcDbLine
 10
521.0156099062661
 20
215.8324750314337
 30
0.0
 11
526.0156099062661
 21
215.8324750314337
 31
0.0
  0
LINE
  5
177B2
330
1F
100
AcDbEntity
  8
003
100
AcDbLine
 10
511.8152399062665
 20
248.4827050314334
 30
0.0
 11
538.0152399062664
 21
248.4827050314334
 31
0.0
  0
LINE
  5
177B3
330
1F
100
AcDbEntity
  8
003
100
AcDbLine
 10
537.0152399062663
 20
249.7827050314336
 30
0.0
 11
437.5152399062669
 21
249.7827050314363
 31
0.0
  0
LINE
  5
177B4
330
1F
100
AcDbEntity
  8
KI
  6
Continuous
 62
     7
100
AcDbLine
 10
540.5156099062661
 20
217.7823950314337
 30
0.0
 11
516.3155899062668
 21
217.7823950314337
 31
0.0
  0
LINE
  5
177B5
330
1F
100
AcDbEntity
  8
003
100
AcDbLine
 10
520.8152399062665
 20
247.2827050314336
 30
0.0
 11
556.7152399062671
 21
247.2827050314336
 31
0.0
  0
ARC
  5
177B6
330
1F
100
AcDbEntity
  8
KI
  6
Continuous
 62
     7
100
AcDbCircle
 10
521.6155799062663
 20
211.6824850314338
 30
0.0
 40
0.4000000100000001
100
AcDbArc
 50
270.0
 51
87.51513199998397
  0
LINE
  5
177B7
330
1F
100
AcDbEntity
  8
KI
  6
Continuous
 62
     7
100
AcDbLine
 10
519.7166899062668
 20
216.5823750314339
 30
0.0
 11
521.0155899062666
 21
215.8324550314337
 31
0.0
  0
LINE
  5
177B8
330
1F
100
AcDbEntity
  8
KI
  6
Continuous
 62
     7
100
AcDbLine
 10
516.0156099062661
 20
217.4824150314339
 30
0.0
 11
516.0156099062661
 21
211.7824650314337
 31
0.0
  0
LINE
  5
177B9
330
1F
100
AcDbEntity
  8
KI
  6
Continuous
 62
     7
100
AcDbLine
 10
517.0156099062661
 20
216.5823850314337
 30
0.0
 11
517.0156099062661
 21
212.2824650314337
 31
0.0
  0
LINE
  5
177BA
330
1F
100
AcDbEntity
  8
KI
  6
Continuous
 62
     7
100
AcDbLine
 10
515.0458199062669
 20
205.7824850314337
 30
0.0
 11
516.0156199062668
 21
211.2824750314339
 31
0.0
  0
ARC
  5
177BB
330
1F
100
AcDbEntity
  8
KI
  6
Continuous
 62
     7
100
AcDbCircle
 10
516.5156099062661
 20
211.7824650314337
 30
0.0
 40
0.5
100
AcDbArc
 50
179.999959999996
 51
269.999969999997
  0
ARC
  5
177BC
330
1F
100
AcDbEntity
  8
KI
  6
Continuous
 62
     7
100
AcDbCircle
 10
516.3155899062668
 20
217.4824150314339
 30
0.0
 40
0.30000001
100
AcDbArc
 50
90.0000159999964
 51
180.000010000001
  0
LINE
  5
177BD
330
1F
100
AcDbEntity
  8
KI
  6
Continuous
 62
     7
100
AcDbLine
 10
516.5156099062661
 20
211.2824650314337
 30
0.0
 11
521.6155799062663
 21
211.2824650314337
 31
0.0
  0
LINE
  5
177BE
330
1F
100
AcDbEntity
  8
KI
  6
Continuous
 62
     7
100
AcDbLine
 10
517.0155799062668
 20
212.2824650314337
 30
0.0
 11
521.6329299062664
 21
212.0820950314337
 31
0.0
  0
LINE
  5
177BF
330
1F
100
AcDbEntity
  8
KI
  6
Continuous
 62
     7
100
AcDbLine
 10
519.716719906266
 20
216.5823850314337
 30
0.0
 11
517.0156099062661
 21
216.5823850314337
 31
0.0
  0
LINE
  5
177C0
330
1F
100
AcDbEntity
  8
003
100
AcDbLine
 10
511.8152399062665
 20
247.2827050314336
 30
0.0
 11
519.6152399062667
 21
247.2827050314336
 31
0.0
  0
LINE
  5
177C1
330
1F
100
AcDbEntity
  8
003
100
AcDbLine
 10
437.5152399062669
 20
246.782705031434
 30
0.0
 11
519.6152399062667
 21
246.7827050314336
 31
0.0
  0
LINE
  5
177C2
330
1F
100
AcDbEntity
  8
003
100
AcDbLine
 10
437.5152399062669
 20
245.5827050314265
 30
0.0
 11
519.6152399062667
 21
245.5827050314338
 31
0.0
  0
LINE
  5
177C3
330
1F
100
AcDbEntity
  8
003
100
AcDbLine
 10
511.8152399062665
 20
248.4827050314334
 30
0.0
 11
511.8152399062665
 21
247.2827050314336
 31
0.0
  0
LINE
  5
177C4
330
1F
100
AcDbEntity
  8
003
100
AcDbLine
 10
519.6152399062667
 20
242.2827050314336
 30
0.0
 11
520.8152399062665
 21
242.2827050314336
 31
0.0
  0
LINE
  5
177C5
330
1F
100
AcDbEntity
  8
003
100
AcDbLine
 10
519.6152399062667
 20
242.2827050314336
 30
0.0
 11
519.6152399062667
 21
247.2827050314336
 31
0.0
  0
LINE
  5
177C6
330
1F
100
AcDbEntity
  8
003
100
AcDbLine
 10
520.8152399062665
 20
242.2827050314336
 30
0.0
 11
520.8152399062665
 21
247.2827050314336
 31
0.0
  0
LINE
  5
177C7
330
1F
100
AcDbEntity
  8
003
100
AcDbLine
 10
563.8152399062667
 20
253.7988410598596
 30
0.0
 11
563.8152399062667
 21
277.2827050314336
 31
0.0
  0
LINE
  5
177C8
330
1F
100
AcDbEntity
  8
003
100
AcDbLine
 10
565.0152399062664
 20
222.2827050314336
 30
0.0
 11
565.0152399062664
 21
277.2827050314336
 31
0.0
  0
LINE
  5
177C9
330
1F
100
AcDbEntity
  8
003
100
AcDbLine
 10
545.9152399062669
 20
272.2827050314336
 30
0.0
 11
545.9152399062669
 21
262.2827050314336
 31
0.0
  0
LINE
  5
177CA
330
1F
100
AcDbEntity
  8
003
100
AcDbLine
 10
540.9152399062669
 20
272.2827050314336
 30
0.0
 11
540.9152399062669
 21
252.2827050314336
 31
0.0
  0
LINE
  5
177CB
330
1F
100
AcDbEntity
  8
003
100
AcDbLine
 10
539.2152399062671
 20
248.4827050314334
 30
0.0
 11
539.2152399062671
 21
271.0827050314338
 31
0.0
  0
LINE
  5
177CC
330
1F
100
AcDbEntity
  8
003
100
AcDbLine
 10
538.0152399062664
 20
248.4827050314334
 30
0.0
 11
538.0152399062664
 21
272.2827050314336
 31
0.0
  0
LINE
  5
177CD
330
1F
100
AcDbEntity
  8
003
100
AcDbLine
 10
537.0152399062663
 20
249.7827050314336
 30
0.0
 11
537.0152399062663
 21
284.7827050314336
 31
0.0
  0
LINE
  5
177CE
330
1F
100
AcDbEntity
  8
003
100
AcDbLine
 10
535.0152399062664
 20
249.7827050314336
 30
0.0
 11
535.0152399062664
 21
284.7827050314336
 31
0.0
  0
DIMENSION
  5
177CF
330
1F
100
AcDbEntity
  8
003
100
AcDbDimension
  2
*D5
 10
554.5343847853665
 20
287.2827050314336
 30
0.0
 11
549.5343847853664
 21
254.7827050314336
 31
0.0
 70
    32
 71
     5
 42
65.0
  3
DIM
100
AcDbAlignedDimension
 13
556.5902499062668
 23
222.2827050314336
 33
0.0
 14
546.0152399062663
 24
287.2827050314336
 34
0.0
 50
90.0
100
AcDbRotatedDimension
  0
LINE
  5
177D0
330
1F
100
AcDbEntity
  8
KI
  6
Continuous
 62
     7
100
AcDbLine
 10
566.0152399062665
 20
222.2827050314336
 30
0.0
 11
547.1652599062664
 21
222.2827050314336
 31
0.0
  0
LINE
  5
177D1
330
1F
100
AcDbEntity
  8
KI
  6
Continuous
 62
     7
100
AcDbLine
 10
566.0152399062665
 20
221.1326850314335
 30
0.0
 11
546.8152299062668
 21
221.1326850314335
 31
0.0
  0
LINE
  5
177D2
330
1F
100
AcDbEntity
  8
003
100
AcDbLine
 10
539.2352399062666
 20
248.4827050314334
 30
0.0
 11
563.8152399062667
 21
248.4827050314334
 31
0.0
  0
LINE
  5
177D3
330
1F
100
AcDbEntity
  8
KI
  6
Continuous
 62
     7
100
AcDbLine
 10
526.8155899062668
 20
215.8324450314339
 30
0.0
 11
536.0156099062661
 21
215.8324450314339
 31
0.0
  0
LINE
  5
177D4
330
1F
100
AcDbEntity
  8
KI
  6
Continuous
 62
     7
100
AcDbLine
 10
526.8155899062668
 20
215.8324450314339
 30
0.0
 11
526.8155899062668
 21
210.6823950314338
 31
0.0
  0
LINE
  5
177D5
330
1F
100
AcDbEntity
  8
KI
  6
Continuous
 62
     7
100
AcDbLine
 10
526.0156099062661
 20
215.8324750314337
 30
0.0
 11
526.0156099062661
 21
210.6823950314338
 31
0.0
  0
ARC
  5
177D6
330
1F
100
AcDbEntity
  8
KI
  6
Continuous
 62
     7
100
AcDbCircle
 10
526.4156299062661
 20
210.6823950314338
 30
0.0
 40
0.4000000100000001
100
AcDbArc
 50
179.999989999999
 51
0.0000086514279086
  0
ARC
  5
177D7
330
1F
100
AcDbEntity
  8
KI
  6
Continuous
 62
     7
100
AcDbCircle
 10
547.1652599062664
 20
221.1326850314335
 30
0.0
 40
1.1499996
100
AcDbArc
 50
90.0000159999964
 51
180.000010000001
  0
ARC
  5
177D8
330
1F
100
AcDbEntity
  8
KI
  6
Continuous
 62
     7
100
AcDbCircle
 10
539.035809906267
 20
215.0823850314337
 30
0.0
 40
1.799999199999999
100
AcDbArc
 50
269.999979999998
 51
326.2508499999947
  0
LINE
  5
177D9
330
1F
100
AcDbEntity
  8
KI
  6
Continuous
 62
     7
100
AcDbLine
 10
539.035809906267
 20
213.2823950314337
 30
0.0
 11
539.0156099062661
 21
213.2823950314337
 31
0.0
  0
LINE
  5
177DA
330
1F
100
AcDbEntity
  8
KI
  6
Continuous
 62
     7
100
AcDbLine
 10
541.6157299062661
 20
217.328465031434
 30
0.0
 11
547.3844099062663
 21
217.0001850314339
 31
0.0
  0
LINE
  5
177DB
330
1F
100
AcDbEntity
  8
KI
  6
Continuous
 62
     7
100
AcDbLine
 10
541.0158999062661
 20
217.7823450314336
 30
0.0
 11
547.3994999062662
 21
217.202135031434
 31
0.0
  0
LINE
  5
177DC
330
1F
100
AcDbEntity
  8
KI
  6
Continuous
 62
     7
100
AcDbLine
 10
541.6156999062669
 20
215.4824150314339
 30
0.0
 11
541.6156999062669
 21
217.3284550314338
 31
0.0
  0
LINE
  5
177DD
330
1F
100
AcDbEntity
  8
KI
  6
Continuous
 62
     7
100
AcDbLine
 10
541.0156099062661
 20
217.2823950314337
 30
0.0
 11
541.0156099062661
 21
216.2823950314337
 31
0.0
  0
LINE
  5
177DE
330
1F
100
AcDbEntity
  8
KI
  6
Continuous
 62
     7
100
AcDbLine
 10
541.0156099062661
 20
216.2823950314337
 30
0.0
 11
539.0156099062661
 21
216.2823950314337
 31
0.0
  0
LINE
  5
177DF
330
1F
100
AcDbEntity
  8
KI
  6
Continuous
 62
     7
100
AcDbLine
 10
541.0156099062661
 20
214.8823750314337
 30
0.0
 11
540.0156099062662
 21
214.8823750314337
 31
0.0
  0
LINE
  5
177E0
330
1F
100
AcDbEntity
  8
KI
  6
Continuous
 62
     7
100
AcDbLine
 10
541.0156099062661
 20
214.8824050314338
 30
0.0
 11
541.0156099062661
 21
214.0823850314337
 31
0.0
  0
LINE
  5
177E1
330
1F
100
AcDbEntity
  8
KI
  6
Continuous
 62
     7
100
AcDbLine
 10
541.0156099062661
 20
214.0823850314337
 30
0.0
 11
540.5324499062664
 21
214.0823850314337
 31
0.0
  0
LINE
  5
177E2
330
1F
100
AcDbEntity
  8
KI
  6
Continuous
 62
     7
100
AcDbLine
 10
539.035809906267
 20
214.0823850314337
 30
0.0
 11
539.0156099062661
 21
214.0823850314337
 31
0.0
  0
LINE
  5
177E3
330
1F
100
AcDbEntity
  8
KI
  6
Continuous
 62
     7
100
AcDbLine
 10
539.0156099062661
 20
216.1823950314338
 30
0.0
 11
541.0156099062661
 21
216.1823950314338
 31
0.0
  0
LINE
  5
177E4
330
1F
100
AcDbEntity
  8
KI
  6
Continuous
 62
     7
100
AcDbLine
 10
539.9953999062664
 20
214.9824150314339
 30
0.0
 11
541.115699906267
 21
214.9824150314339
 31
0.0
  0
LINE
  5
177E5
330
1F
100
AcDbEntity
  8
KI
  6
Continuous
 62
     7
100
AcDbLine
 10
541.0159599062664
 20
217.7823850314339
 30
0.0
 11
541.0159499062666
 21
216.1823750314338
 31
0.0
  0
ARC
  5
177E6
330
1F
100
AcDbEntity
  8
KI
  6
Continuous
 62
     7
100
AcDbCircle
 10
540.5156099062661
 20
217.2823950314337
 30
0.0
 40
0.5
100
AcDbArc
 50
0.0000359721715611
 51
90.0000159999964
  0
ARC
  5
177E7
330
1F
100
AcDbEntity
  8
KI
  6
Continuous
 62
     7
100
AcDbCircle
 10
539.035809906267
 20
215.0823850314337
 30
0.0
 40
1.0
100
AcDbArc
 50
269.999979999998
 51
348.4630099999959
  0
ARC
  5
177E8
330
1F
100
AcDbEntity
  8
KI
  6
Continuous
 62
     7
100
AcDbCircle
 10
541.115699906267
 20
215.4824150314339
 30
0.0
 40
0.49999994
100
AcDbArc
 50
270.000019999976
 51
0.0003098629292438
  0
LINE
  5
177E9
330
1F
100
AcDbEntity
  8
KI
  6
Continuous
 62
     7
100
AcDbLine
 10
547.4152599062664
 20
218.2827050314336
 30
0.0
 11
547.4152599062664
 21
217.9827150314336
 31
0.0
  0
LINE
  5
177EA
330
1F
100
AcDbEntity
  8
KI
  6
Continuous
 62
     7
100
AcDbLine
 10
547.4152599062664
 20
218.2827050314336
 30
0.0
 11
546.8152299062668
 21
218.2827050314336
 31
0.0
  0
ARC
  5
177EB
330
1F
100
AcDbEntity
  8
KI
  6
Continuous
 62
     7
100
AcDbCircle
 10
546.7152499062668
 20
217.9827150314336
 30
0.0
 40
0.6999999900000001
100
AcDbArc
 50
179.999989999999
 51
359.9999599999959
  0
ARC
  5
177EC
330
1F
100
AcDbEntity
  8
KI
  6
Continuous
 62
     7
100
AcDbCircle
 10
547.3901799062669
 20
217.1013050314337
 30
0.0
 40
0.10126525
100
AcDbArc
 50
260.4081399999917
 51
84.80647000000002
  0
LINE
  5
177ED
330
1F
100
AcDbEntity
  8
KI
  6
Continuous
 62
     7
100
AcDbLine
 10
538.0156099062661
 20
215.2823950314337
 30
0.0
 11
538.0156099062661
 21
215.0823850314337
 31
0.0
  0
ARC
  5
177EE
330
1F
100
AcDbEntity
  8
KI
  6
Continuous
 62
     7
100
AcDbCircle
 10
539.0156099062661
 20
215.2823950314337
 30
0.0
 40
1.0
100
AcDbArc
 50
90.0000159999964
 51
179.999959999996
  0
ARC
  5
177EF
330
1F
100
AcDbEntity
  8
KI
  6
Continuous
 62
     7
100
AcDbCircle
 10
539.0156099062661
 20
215.0823850314337
 30
0.0
 40
1.0
100
AcDbArc
 50
179.999989999999
 51
269.999979999998
  0
LINE
  5
177F0
330
1F
100
AcDbEntity
  8
KI
  6
Continuous
 62
     7
100
AcDbLine
 10
546.0152399062663
 20
221.1326850314335
 30
0.0
 11
546.0152399062663
 21
217.9827150314336
 31
0.0
  0
LINE
  5
177F1
330
1F
100
AcDbEntity
  8
KI
  6
Continuous
 62
     7
100
AcDbLine
 10
546.8152299062668
 20
221.1326850314335
 30
0.0
 11
546.8152299062668
 21
218.2827050314336
 31
0.0
  0
LINE
  5
177F2
330
1F
100
AcDbEntity
  8
003
100
AcDbLine
 10
539.2152399062662
 20
263.7827050314336
 30
0.0
 11
540.9152399062669
 21
263.7827050314336
 31
0.0
  0
LINE
  5
177F3
330
1F
100
AcDbEntity
  8
003
100
AcDbLine
 10
563.8152399062667
 20
222.2827050314336
 30
0.0
 11
563.8152399062667
 21
245.5827050314338
 31
0.0
  0
LINE
  5
177F4
330
1F
100
AcDbEntity
  8
KI
  6
Continuous
 62
     7
100
AcDbLine
 10
566.0152399062665
 20
227.2827050314336
 30
0.0
 11
566.0152399062665
 21
222.2827050314336
 31
0.0
  0
ARC
  5
177F5
330
1F
100
AcDbEntity
  8
KI
  6
Continuous
 62
     7
100
AcDbCircle
 10
566.5152399062665
 20
227.2827050314336
 30
0.0
 40
0.5
100
AcDbArc
 50
90.0000159999964
 51
180.000010000001
  0
ARC
  5
177F6
330
1F
100
AcDbEntity
  8
KI
  6
Continuous
 62
     7
100
AcDbCircle
 10
567.6652599062665
 20
218.5327050314336
 30
0.0
 40
0.5
100
AcDbArc
 50
179.999989999999
 51
269.999979999998
  0
LINE
  5
177F7
330
1F
100
AcDbEntity
  8
KI
  6
Continuous
 62
     7
100
AcDbLine
 10
567.1652599062666
 20
226.5826950314336
 30
0.0
 11
567.1652599062666
 21
218.5327050314336
 31
0.0
  0
ARC
  5
177F8
330
1F
100
AcDbEntity
  8
003
100
AcDbCircle
 10
561.5152399062664
 20
251.8727050314337
 30
0.0
 40
3.0
100
AcDbArc
 50
39.94450518979846
 51
150.0183606311535
  0
LINE
  5
177F9
330
1F
100
AcDbEntity
  8
006
100
AcDbLine
 10
557.5152399062663
 20
251.8727050314337
 30
0.0
 11
565.5152399062664
 21
251.8727050314337
 31
0.0
  0
LINE
  5
177FA
330
1F
100
AcDbEntity
  8
003
100
AcDbLine
 10
557.3152399062665
 20
247.2827050314336
 30
0.0
 11
563.8152399062667
 21
247.2827050314336
 31
0.0
  0
LINE
  5
177FB
330
1F
100
AcDbEntity
  8
003
100
AcDbLine
 10
557.3152399062665
 20
248.4827050314334
 30
0.0
 11
563.8152399062667
 21
248.4827050314334
 31
0.0
  0
LINE
  5
177FC
330
1F
100
AcDbEntity
  8
003
100
AcDbLine
 10
558.9166800965679
 20
250.3735429603362
 30
0.0
 11
559.953909724398
 21
250.9770220165283
 31
0.0
  0
LINE
  5
177FD
330
1F
100
AcDbEntity
  8
003
100
AcDbLine
 10
558.9166831481208
 20
253.3718723919023
 30
0.0
 11
559.9561058513784
 21
252.7722054477158
 31
0.0
  0
ARC
  5
177FE
330
1F
100
AcDbEntity
  8
003
100
AcDbCircle
 10
557.0152399062672
 20
248.4827050314334
 30
0.0
 40
0.3000000000000682
100
AcDbArc
 50
0.0000000000130276
 51
179.9999999999739
  0
ARC
  5
177FF
330
1F
100
AcDbEntity
  8
003
100
AcDbCircle
 10
557.0152399062664
 20
247.2827050314336
 30
0.0
 40
0.2999999999999829
100
AcDbArc
 50
0.0
 51
180.0
  0
ARC
  5
17800
330
1F
100
AcDbEntity
  8
003
100
AcDbCircle
 10
561.5152399062664
 20
251.8727050314337
 30
0.0
 40
3.0
100
AcDbArc
 50
209.9815227431626
 51
226.8863940540862
  0
LINE
  5
17801
330
1F
100
AcDbEntity
  8
003
100
AcDbLine
 10
552.0152399062664
 20
248.4827050314334
 30
0.0
 11
552.0152399062664
 21
249.6827050314337
 31
0.0
  0
LINE
  5
17802
330
1F
100
AcDbEntity
  8
003
100
AcDbLine
 10
552.0152399062664
 20
249.6827050314337
 30
0.0
 11
559.4648984712859
 21
249.6827050314337
 31
0.0
  0
LINE
  5
17803
330
1F
100
AcDbEntity
  8
003
100
AcDbLine
 10
552.0152399062664
 20
248.4827050314334
 30
0.0
 11
556.7152399062671
 21
248.4827050314334
 31
0.0
  0
LINE
  5
17804
330
1F
100
AcDbEntity
  8
003
100
AcDbLine
 10
560.8152399062666
 20
245.5827050314338
 30
0.0
 11
560.8152399062666
 21
247.2827050314336
 31
0.0
  0
LINE
  5
17805
330
1F
100
AcDbEntity
  8
003
100
AcDbLine
 10
560.8152399062666
 20
245.5827050314338
 30
0.0
 11
563.8152399062667
 21
245.5827050314338
 31
0.0
  0
LINE
  5
17806
330
1F
100
AcDbEntity
  8
003
100
AcDbLine
 10
560.8152399062666
 20
246.7827050314336
 30
0.0
 11
563.8152399062667
 21
246.7827050314336
 31
0.0
  0
LINE
  5
17807
330
1F
100
AcDbEntity
  8
003
100
AcDbLine
 10
563.8152399062667
 20
246.7827050314336
 30
0.0
 11
563.8152399062667
 21
248.4827050314334
 31
0.0
  0
LINE
  5
17808
330
1F
100
AcDbEntity
  8
003
100
AcDbLine
 10
563.8152399062667
 20
247.2827050314336
 30
0.0
 11
563.8152399062667
 21
248.4827050314334
 31
0.0
  0
ARC
  5
17809
330
1F
100
AcDbEntity
  8
003
100
AcDbCircle
 10
561.5152399062664
 20
251.8727050314337
 30
0.0
 40
1.8
100
AcDbArc
 50
209.8414545361526
 51
150.0183606311535
  0
LINE
  5
1780A
330
1F
100
AcDbEntity
  8
006
100
AcDbLine
 10
561.5152399062664
 20
247.8727050314337
 30
0.0
 11
561.5152399062664
 21
255.8727050314337
 31
0.0
  0
LINE
  5
1780B
330
1F
100
AcDbEntity
  8
003
100
AcDbLine
 10
543.4413759346926
 20
286.0827050314338
 30
0.0
 11
555.0152399062664
 21
286.0827050314338
 31
0.0
  0
LINE
  5
1780C
330
1F
100
AcDbEntity
  8
003
100
AcDbLine
 10
535.0152399062664
 20
287.2827050314336
 30
0.0
 11
555.0152399062664
 21
287.2827050314336
 31
0.0
  0
LINE
  5
1780D
330
1F
100
AcDbEntity
  8
003
100
AcDbLine
 10
535.0152399062664
 20
286.0827050314338
 30
0.0
 11
538.0152399062664
 21
286.0827050314338
 31
0.0
  0
LINE
  5
1780E
330
1F
100
AcDbEntity
  8
003
100
AcDbLine
 10
535.0152399062664
 20
286.0827050314338
 30
0.0
 11
535.0152399062664
 21
287.2827050314336
 31
0.0
  0
LINE
  5
1780F
330
1F
100
AcDbEntity
  8
003
100
AcDbLine
 10
540.9152399062669
 20
272.2827050314336
 30
0.0
 11
545.9152399062669
 21
272.2827050314336
 31
0.0
  0
ARC
  5
17810
330
1F
100
AcDbEntity
  8
003
100
AcDbCircle
 10
541.5152399062673
 20
283.7827050314336
 30
0.0
 40
3.0
100
AcDbArc
 50
344.9816393688471
 51
50.05549481018444
  0
LINE
  5
17811
330
1F
100
AcDbEntity
  8
003
100
AcDbLine
 10
544.4127684179703
 20
283.0053193331719
 30
0.0
 11
543.2537570132909
 21
283.3162736124759
 31
0.0
  0
ARC
  5
17812
330
1F
100
AcDbEntity
  8
003
100
AcDbCircle
 10
541.5152399062673
 20
283.7827050314336
 30
0.0
 40
1.8
100
AcDbArc
 50
344.9816393688471
 51
285.158545463812
  0
LINE
  5
17813
330
1F
100
AcDbEntity
  8
003
100
AcDbLine
 10
541.7152399062671
 20
278.4827050314334
 30
0.0
 11
541.7152399062671
 21
280.7893791220145
 31
0.0
  0
LINE
  5
17814
330
1F
100
AcDbEntity
  8
003
100
AcDbLine
 10
542.1152399062667
 20
274.2827050314336
 30
0.0
 11
542.1152399062667
 21
278.4827050314334
 31
0.0
  0
LINE
  5
17815
330
1F
100
AcDbEntity
  8
003
100
AcDbLine
 10
540.9152399062669
 20
274.2827050314336
 30
0.0
 11
540.9152399062669
 21
277.2827050314336
 31
0.0
  0
LINE
  5
17816
330
1F
100
AcDbEntity
  8
003
100
AcDbLine
 10
539.2152399062662
 20
272.2827050314336
 30
0.0
 11
539.2152399062662
 21
277.2827050314336
 31
0.0
  0
LINE
  5
17817
330
1F
100
AcDbEntity
  8
003
100
AcDbLine
 10
539.2152399062671
 20
272.2827050314336
 30
0.0
 11
539.2152399062671
 21
277.2827050314336
 31
0.0
  0
LINE
  5
17818
330
1F
100
AcDbEntity
  8
003
100
AcDbLine
 10
540.4152399062669
 20
271.0827050314338
 30
0.0
 11
540.4152399062669
 21
277.2827050314336
 31
0.0
  0
LINE
  5
17819
330
1F
100
AcDbEntity
  8
003
100
AcDbLine
 10
540.9152399062669
 20
274.2827050314336
 30
0.0
 11
542.1152399062667
 21
274.2827050314336
 31
0.0
  0
LINE
  5
1781A
330
1F
100
AcDbEntity
  8
003
100
AcDbLine
 10
539.2152399062662
 20
270.7827050314336
 30
0.0
 11
540.9152399062669
 21
270.7827050314336
 31
0.0
  0
LINE
  5
1781B
330
1F
100
AcDbEntity
  8
003
100
AcDbLine
 10
539.2152399062671
 20
271.0827050314338
 30
0.0
 11
540.4152399062669
 21
271.0827050314338
 31
0.0
  0
LINE
  5
1781C
330
1F
100
AcDbEntity
  8
003
100
AcDbLine
 10
539.2152399062662
 20
277.2827050314336
 30
0.0
 11
540.9152399062669
 21
277.2827050314336
 31
0.0
  0
LINE
  5
1781D
330
1F
100
AcDbEntity
  8
003
100
AcDbLine
 10
539.2152399062671
 20
277.2827050314336
 30
0.0
 11
540.4152399062669
 21
277.2827050314336
 31
0.0
  0
LINE
  5
1781E
330
1F
100
AcDbEntity
  8
003
100
AcDbLine
 10
541.7152399062671
 20
278.4827050314334
 30
0.0
 11
542.1152399062667
 21
278.4827050314334
 31
0.0
  0
ARC
  5
1781F
330
1F
100
AcDbEntity
  8
003
100
AcDbCircle
 10
541.5152399062673
 20
283.7827050314336
 30
0.0
 40
3.0
100
AcDbArc
 50
273.8225537292708
 51
285.0184772568349
  0
LINE
  5
17820
330
1F
100
AcDbEntity
  8
003
100
AcDbLine
 10
542.2926315024534
 20
280.8851781021058
 30
0.0
 11
541.9859235319036
 21
282.0453343385297
 31
0.0
  0
LINE
  5
17821
330
1F
100
AcDbEntity
  8
003
100
AcDbLine
 10
538.0152399062664
 20
272.2827050314336
 30
0.0
 11
538.0152399062664
 21
286.0827050314338
 31
0.0
  0
LINE
  5
17822
330
1F
100
AcDbEntity
  8
003
100
AcDbLine
 10
538.0152399062664
 20
272.2827050314336
 30
0.0
 11
539.2152399062662
 21
272.2827050314336
 31
0.0
  0
LINE
  5
17823
330
1F
100
AcDbEntity
  8
003
100
AcDbLine
 10
538.0152399062664
 20
272.2827050314336
 30
0.0
 11
539.2152399062671
 21
272.2827050314336
 31
0.0
  0
LINE
  5
17824
330
1F
100
AcDbEntity
  8
006
100
AcDbLine
 10
544.3436670310131
 20
280.9542779066874
 30
0.0
 11
538.6868127815206
 21
286.6111321561798
 31
0.0
  0
LINE
  5
17825
330
1F
100
AcDbEntity
  8
006
100
AcDbLine
 10
538.6868127815206
 20
280.9542779066874
 30
0.0
 11
544.3436670310131
 21
286.6111321561798
 31
0.0
  0
ARC
  5
17826
330
1F
100
AcDbEntity
  8
003
100
AcDbCircle
 10
555.0152399062664
 20
277.2827050314336
 30
0.0
 40
10.0
100
AcDbArc
 50
0.0
 51
90.0
  0
ARC
  5
17827
330
1F
100
AcDbEntity
  8
003
100
AcDbCircle
 10
555.0152399062664
 20
277.2827050314336
 30
0.0
 40
8.8
100
AcDbArc
 50
0.0
 51
90.0
  0
LINE
  5
17833
330
1F
100
AcDbEntity
  8
KI
  6
Continuous
 62
     7
100
AcDbLine
 10
590.0152399062664
 20
226.5826950314336
 30
0.0
 11
581.0152399062665
 21
226.5826950314336
 31
0.0
  0
ARC
  5
17834
330
1F
100
AcDbEntity
  8
KI
  6
Continuous
 62
     7
100
AcDbCircle
 10
580.6652599062665
 20
226.4827150314336
 30
0.0
 40
0.34999999
100
AcDbArc
 50
179.999989999999
 51
0.0000086514148811
  0
LINE
  5
17835
330
1F
100
AcDbEntity
  8
KI
  6
Continuous
 62
     7
100
AcDbLine
 10
580.3152299062669
 20
226.5826950314336
 30
0.0
 11
580.3152299062669
 21
226.4827150314336
 31
0.0
  0
LINE
  5
17836
330
1F
100
AcDbEntity
  8
KI
  6
Continuous
 62
     7
100
AcDbLine
 10
581.0152399062665
 20
226.5826950314336
 30
0.0
 11
581.0152399062665
 21
226.4827150314336
 31
0.0
  0
LINE
  5
17838
330
1F
100
AcDbEntity
  8
KI
  6
Continuous
 62
     7
100
AcDbLine
 10
591.0152399062665
 20
226.5826950314336
 30
0.0
 11
591.0152399062665
 21
223.4827150314336
 31
0.0
  0
LINE
  5
17839
330
1F
100
AcDbEntity
  8
KI
  6
Continuous
 62
     7
100
AcDbLine
 10
590.0152399062664
 20
226.5826950314336
 30
0.0
 11
590.0152399062664
 21
223.9827150314336
 31
0.0
  0
ARC
  5
1783A
330
1F
100
AcDbEntity
  8
KI
  6
Continuous
 62
     7
100
AcDbCircle
 10
589.8152299062669
 20
226.5826950314336
 30
0.0
 40
1.1999998
100
AcDbArc
 50
0.0000359721715611
 51
90.0000159999964
  0
LINE
  5
1783B
330
1F
100
AcDbEntity
  8
KI
  6
Continuous
 62
     7
100
AcDbLine
 10
589.6152199062664
 20
223.9827150314336
 30
0.0
 11
589.6152199062664
 21
223.4827150314336
 31
0.0
  0
LINE
  5
1783C
330
1F
100
AcDbEntity
  8
KI
  6
Continuous
 62
     7
100
AcDbLine
 10
590.0152399062664
 20
223.9827150314336
 30
0.0
 11
589.6152199062664
 21
223.9827150314336
 31
0.0
  0
ARC
  5
1783D
330
1F
100
AcDbEntity
  8
KI
  6
Continuous
 62
     7
100
AcDbCircle
 10
590.3152299062669
 20
223.4827150314336
 30
0.0
 40
0.6999999900000001
100
AcDbArc
 50
179.999989999999
 51
0.0000359721715611
  0
LINE
  5
17AAD
330
1F
100
AcDbEntity
  8
OS
  6
DASHED
 62
     3
100
AcDbLine
 10
613.185239906266
 20
184.6618250314335
 30
0.0
 11
596.3312799062666
 21
184.6618250314336
 31
0.0
  0
LINE
  5
17AAE
330
1F
100
AcDbEntity
  8
OS
  6
DASHED
 62
     3
100
AcDbLine
 10
613.1852399062662
 20
193.6618450314336
 30
0.0
 11
608.3113199062665
 21
193.6618450314336
 31
0.0
  0
LINE
  5
17AAF
330
1F
100
AcDbEntity
  8
OS
  6
DASHED
 62
     3
100
AcDbLine
 10
608.3151699062661
 20
193.6826850314337
 30
0.0
 11
593.3151699062661
 21
193.6826850314337
 31
0.0
  0
LINE
  5
17AB0
330
1F
100
AcDbEntity
  8
OS
  6
DASHED
 62
     3
100
AcDbLine
 10
608.3151699062661
 20
195.9826850314334
 30
0.0
 11
593.3151699062661
 21
195.9826850314334
 31
0.0
  0
ARC
  5
17AB1
330
1F
100
AcDbEntity
  8
OS
  6
DASHED
 62
     3
100
AcDbCircle
 10
593.3151699062661
 20
195.9826850314334
 30
0.0
 40
2.2999992
100
AcDbArc
 50
180.000020000002
 51
270.0
  0
LINE
  5
17AB2
330
1F
100
AcDbEntity
  8
OS
  6
DASHED
 62
     3
100
AcDbLine
 10
596.3312799062666
 20
193.6618450314336
 30
0.0
 11
596.3312799062666
 21
184.6618250314336
 31
0.0
  0
LINE
  5
17AB3
330
1F
100
AcDbEntity
  8
OS
  6
DASHED
 62
     3
100
AcDbLine
 10
608.3151699062661
 20
195.9826850314334
 30
0.0
 11
608.3151699062661
 21
193.6826850314337
 31
0.0
  0
LINE
  5
17AB7
330
1F
100
AcDbEntity
  8
OS
  6
DASHED
 62
     3
100
AcDbLine
 10
593.3151699062661
 20
224.9826850314335
 30
0.0
 11
593.3151699062661
 21
160.4827150314336
 31
0.0
  0
LINE
  5
17AB8
330
1F
100
AcDbEntity
  8
OS
  6
DASHED
 62
     3
100
AcDbLine
 10
591.0151799062666
 20
216.1826650314333
 30
0.0
 11
591.0151799062666
 21
160.4827150314336
 31
0.0
  0
LINE
  5
17AB9
330
1F
100
AcDbEntity
  8
OS
  6
DASHED
 62
     3
100
AcDbLine
 10
593.3151599062664
 20
208.9826350314333
 30
0.0
 11
591.0151899062664
 21
211.5962550314334
 31
0.0
  0
LINE
  5
17ABA
330
1F
100
AcDbEntity
  8
OS
  6
DASHED
 62
     3
100
AcDbLine
 10
591.0151899062664
 20
211.5962550314334
 30
0.0
 11
589.7151699062662
 21
213.0735550314335
 31
0.0
  0
LINE
  5
17ABB
330
1F
100
AcDbEntity
  8
OS
  6
DASHED
 62
     3
100
AcDbLine
 10
591.0151999062666
 20
208.1147150314337
 30
0.0
 11
587.4151999062662
 21
212.2056450314335
 31
0.0
  0
LINE
  5
17ABC
330
1F
100
AcDbEntity
  8
OS
  6
DASHED
 62
     3
100
AcDbLine
 10
589.7151899062662
 20
222.9826650314335
 30
0.0
 11
589.7151899062662
 21
213.0735450314337
 31
0.0
  0
LINE
  5
17ABD
330
1F
100
AcDbEntity
  8
OS
  6
DASHED
 62
     3
100
AcDbLine
 10
587.4152099062664
 20
222.9826650314335
 30
0.0
 11
587.4152099062664
 21
212.2056250314336
 31
0.0
  0
LINE
  5
17ABE
330
1F
100
AcDbEntity
  8
OS
  6
DASHED
 62
     3
100
AcDbLine
 10
593.3151699062661
 20
224.9826850314335
 30
0.0
 11
591.0151799062666
 21
224.9826850314335
 31
0.0
  0
LINE
  5
17ABF
330
1F
100
AcDbEntity
  8
OS
  6
DASHED
 62
     3
100
AcDbLine
 10
589.6186399062664
 20
225.9826550314337
 30
0.0
 11
589.6186399062664
 21
222.9826650314335
 31
0.0
  0
LINE
  5
17AC0
330
1F
100
AcDbEntity
  8
OS
  6
DASHED
 62
     3
100
AcDbLine
 10
587.3151699062661
 20
225.9826550314337
 30
0.0
 11
587.3151699062661
 21
222.9826650314335
 31
0.0
  0
LINE
  5
17AC1
330
1F
100
AcDbEntity
  8
OS
  6
DASHED
 62
     3
100
AcDbLine
 10
589.6186399062664
 20
225.9826850314334
 30
0.0
 11
587.3151699062661
 21
225.9826850314334
 31
0.0
  0
LINE
  5
17AC2
330
1F
100
AcDbEntity
  8
OS
  6
DASHED
 62
     3
100
AcDbLine
 10
587.4152099062664
 20
222.9826650314335
 30
0.0
 11
587.3151699062661
 21
222.9826650314335
 31
0.0
  0
LINE
  5
17AC3
330
1F
100
AcDbEntity
  8
OS
  6
DASHED
 62
     3
100
AcDbLine
 10
591.0151799062666
 20
224.9826850314335
 30
0.0
 11
591.0151799062666
 21
216.6834750314333
 31
0.0
  0
LINE
  5
17AC4
330
1F
100
AcDbEntity
  8
OS
  6
DASHED
 62
     3
100
AcDbLine
 10
589.7151899062662
 20
172.3918750314333
 30
0.0
 11
589.7151899062662
 21
162.4827150314336
 31
0.0
  0
LINE
  5
17AC5
330
1F
100
AcDbEntity
  8
OS
  6
DASHED
 62
     3
100
AcDbLine
 10
587.4152099062664
 20
173.2597650314337
 30
0.0
 11
587.4152099062664
 21
162.4827150314336
 31
0.0
  0
LINE
  5
17AC6
330
1F
100
AcDbEntity
  8
OS
  6
DASHED
 62
     3
100
AcDbLine
 10
589.7151899062662
 20
172.3918850314335
 30
0.0
 11
591.0151499062664
 21
173.8691250314337
 31
0.0
  0
LINE
  5
17AC7
330
1F
100
AcDbEntity
  8
OS
  6
DASHED
 62
     3
100
AcDbLine
 10
591.0151499062664
 20
173.8691250314337
 30
0.0
 11
593.3151299062663
 21
176.4827350314335
 31
0.0
  0
LINE
  5
17AC8
330
1F
100
AcDbEntity
  8
OS
  6
DASHED
 62
     3
100
AcDbLine
 10
587.4151799062663
 20
173.2597650314337
 30
0.0
 11
591.0151699062664
 21
177.3506550314337
 31
0.0
  0
LINE
  5
17AC9
330
1F
100
AcDbEntity
  8
OS
  6
DASHED
 62
     3
100
AcDbLine
 10
589.6186399062664
 20
162.4827150314336
 30
0.0
 11
589.6186399062664
 21
159.4827150314336
 31
0.0
  0
LINE
  5
17ACA
330
1F
100
AcDbEntity
  8
OS
  6
DASHED
 62
     3
100
AcDbLine
 10
589.6171699062663
 20
159.4827150314336
 30
0.0
 11
587.3137099062662
 21
159.4827150314336
 31
0.0
  0
LINE
  5
17ACB
330
1F
100
AcDbEntity
  8
OS
  6
DASHED
 62
     3
100
AcDbLine
 10
587.3151699062661
 20
162.4827150314336
 30
0.0
 11
587.3151699062661
 21
159.4827150314336
 31
0.0
  0
LINE
  5
17ACC
330
1F
100
AcDbEntity
  8
OS
  6
DASHED
 62
     3
100
AcDbLine
 10
593.3151699062661
 20
160.4827150314336
 30
0.0
 11
591.0151799062666
 21
160.4827150314336
 31
0.0
  0
LINE
  5
17ACD
330
1F
100
AcDbEntity
  8
007
100
AcDbLine
 10
318.1152399062677
 20
248.4827050314336
 30
0.0
 11
318.1152399062677
 21
237.2827050314336
 31
0.0
  0
LINE
  5
17ACE
330
1F
100
AcDbEntity
  8
007
100
AcDbLine
 10
316.9152399062674
 20
248.4827050314336
 30
0.0
 11
316.9152399062674
 21
237.2827050314336
 31
0.0
  0
LINE
  5
17ACF
330
1F
100
AcDbEntity
  8
007
100
AcDbLine
 10
318.1152399062677
 20
237.2827050314336
 30
0.0
 11
316.9152399062674
 21
237.2827050314336
 31
0.0
  0
LINE
  5
17AD0
330
1F
100
AcDbEntity
  8
003
100
AcDbLine
 10
316.9152399062674
 20
272.2827050314338
 30
0.0
 11
318.1152399062677
 21
272.2827050314338
 31
0.0
  0
LINE
  5
17AD1
330
1F
100
AcDbEntity
  8
003
100
AcDbLine
 10
316.9152399062674
 20
272.2827050314338
 30
0.0
 11
316.9152399062674
 21
248.4827050314336
 31
0.0
  0
LINE
  5
17AD2
330
1F
100
AcDbEntity
  8
003
100
AcDbLine
 10
318.1152399062677
 20
272.2827050314338
 30
0.0
 11
318.1152399062677
 21
248.4827050314336
 31
0.0
  0
LINE
  5
17AD3
330
1F
100
AcDbEntity
  8
003
100
AcDbLine
 10
330.2152399062673
 20
223.2827050314336
 30
0.0
 11
330.2152399062676
 21
247.2827050314336
 31
0.0
  0
LINE
  5
17AD4
330
1F
100
AcDbEntity
  8
003
100
AcDbLine
 10
330.2152399062673
 20
223.2827050314336
 30
0.0
 11
301.2152399062671
 21
223.2827050314336
 31
0.0
  0
LINE
  5
17AD5
330
1F
100
AcDbEntity
  8
003
100
AcDbLine
 10
343.2152399062673
 20
220.7824314313286
 30
0.0
 11
343.2152399062676
 21
247.2827050314336
 31
0.0
  0
LINE
  5
17AD6
330
1F
100
AcDbEntity
  8
003
100
AcDbLine
 10
336.2152399062671
 20
220.7824314313286
 30
0.0
 11
336.2152399062676
 21
247.2827050314336
 31
0.0
  0
LINE
  5
17AD7
330
1F
100
AcDbEntity
  8
003
100
AcDbLine
 10
338.2152399062674
 20
217.7823950314337
 30
0.0
 11
338.2152399062676
 21
247.2827050314336
 31
0.0
  0
LINE
  5
17AD8
330
1F
100
AcDbEntity
  8
003
100
AcDbLine
 10
341.2152399062671
 20
217.7823950314337
 30
0.0
 11
341.2152399062676
 21
247.2827050314336
 31
0.0
  0
LINE
  5
17AD9
330
1F
100
AcDbEntity
  8
003
100
AcDbLine
 10
338.2152399062674
 20
237.7823950314337
 30
0.0
 11
341.2152399062671
 21
237.7823950314337
 31
0.0
  0
LINE
  5
17ADA
330
1F
100
AcDbEntity
  8
003
100
AcDbLine
 10
336.2152399062671
 20
220.7824314313286
 30
0.0
 11
338.2152399062674
 21
220.7824314313286
 31
0.0
  0
LINE
  5
17ADB
330
1F
100
AcDbEntity
  8
003
100
AcDbLine
 10
341.2152399062673
 20
220.7824314313286
 30
0.0
 11
343.2152399062673
 21
220.7824314313286
 31
0.0
  0
LINE
  5
17ADC
330
1F
100
AcDbEntity
  8
003
100
AcDbLine
 10
338.2152399062674
 20
217.7823950314337
 30
0.0
 11
341.2152399062671
 21
217.7823950314337
 31
0.0
  0
LEADER
  5
17ADD
330
1F
100
AcDbEntity
  8
003
100
AcDbLeader
  3
DIM
 73
     0
 40
6.000000000000003
 41
40.8
 76
     3
 10
311.4779430778009
 20
230.6713611076718
 30
0.0
 10
289.4837595438541
 20
192.576317755881
 30
0.0
 10
289.4904528799835
 20
192.576317755881
 30
0.0
340
17ADE
1001
ACAD
1000
DSTYLE
1002
{
1070
   147
1040
1.0
1070
    77
1070
     1
1002
}
  0
MTEXT
  5
17ADE
102
{ACAD_REACTORS
330
17ADD
102
}
330
1F
100
AcDbEntity
  8
003
 62
     7
100
AcDbMText
 10
287.4904528799835
 20
194.576317755881
 30
0.0
 40
6.0
 41
0.0
 71
     9
 72
     1
  1
ブラックボックス
  7
DIM
 73
     1
 44
1.0
1001
ACAD
1000
MTEXTBEGIN
1070
    73
1070
     1
1070
    44
1040
1.0
1070
    74
1070
     0
1000
MTEXTEND
  0
LINE
  5
17ADF
330
1F
100
AcDbEntity
  8
003
100
AcDbLine
 10
353.2152399062675
 20
248.4827050314339
 30
0.0
 11
353.2152399062675
 21
247.2827050314336
 31
0.0
  0
LINE
  5
1826B
330
1F
100
AcDbEntity
  8
0
100
AcDbLine
 10
427.5152399062664
 20
339.7827050314338
 30
0.0
 11
269.0152399062668
 21
339.7827050314338
 31
0.0
  0
LINE
  5
1826C
330
1F
100
AcDbEntity
  8
0
100
AcDbLine
 10
269.0152399062668
 20
339.7827050314338
 30
0.0
 11
269.0152399062668
 21
327.7827050314338
 31
0.0
  0
LINE
  5
1826D
330
1F
100
AcDbEntity
  8
0
100
AcDbLine
 10
284.0152399062668
 20
317.7827050314338
 30
0.0
 11
284.0152399062668
 21
242.7827050314338
 31
0.0
  0
LINE
  5
1826E
330
1F
100
AcDbEntity
  8
0
100
AcDbLine
 10
274.0152399062667
 20
327.7827050314338
 30
0.0
 11
251.8452399062671
 21
327.7827050314339
 31
0.0
  0
LINE
  5
1826F
330
1F
100
AcDbEntity
  8
0
100
AcDbLine
 10
274.0152399062667
 20
327.7827050314338
 30
0.0
 11
284.0152399062668
 21
317.7827050314338
 31
0.0
  0
LINE
  5
18270
330
1F
100
AcDbEntity
  8
0
100
AcDbLine
 10
284.0152399062668
 20
242.7827050314338
 30
0.0
 11
251.8452399062671
 21
242.7827050314338
 31
0.0
  0
LINE
  5
18271
330
1F
100
AcDbEntity
  8
0
100
AcDbLine
 10
283.0152399062667
 20
241.7827050314338
 30
0.0
 11
283.0152399062667
 21
228.7827050314336
 31
0.0
  0
LINE
  5
18272
330
1F
100
AcDbEntity
  8
0
100
AcDbLine
 10
283.0152399062667
 20
232.4542779066876
 30
0.0
 11
274.0152399062667
 21
241.4542779066874
 31
0.0
  0
LINE
  5
18273
330
1F
100
AcDbEntity
  8
0
100
AcDbLine
 10
283.0152399062667
 20
235.2827050314336
 30
0.0
 11
275.5152399062668
 21
242.7827050314336
 31
0.0
  0
LINE
  5
18274
330
1F
100
AcDbEntity
  8
0
100
AcDbLine
 10
283.0152399062667
 20
238.1111321561798
 30
0.0
 11
278.3436670310127
 21
242.7827050314336
 31
0.0
  0
LINE
  5
18275
330
1F
100
AcDbEntity
  8
0
100
AcDbLine
 10
279.2015314072819
 20
242.7827050314338
 30
0.0
 11
274.0152399062667
 21
237.5964135304187
 31
0.0
  0
LINE
  5
18276
330
1F
100
AcDbEntity
  8
0
100
AcDbLine
 10
282.0299585320283
 20
242.7827050314338
 30
0.0
 11
274.0152399062667
 21
234.7679864056725
 31
0.0
  0
LINE
  5
18277
330
1F
100
AcDbEntity
  8
0
100
AcDbLine
 10
283.0152399062667
 20
240.939559280926
 30
0.0
 11
274.0152399062667
 21
231.9395592809262
 31
0.0
  0
LINE
  5
18278
330
1F
100
AcDbEntity
  8
0
100
AcDbLine
 10
283.0152399062667
 20
240.939559280926
 30
0.0
 11
281.1720941557589
 21
242.7827050314336
 31
0.0
  0
LINE
  5
18279
330
1F
100
AcDbEntity
  8
0
100
AcDbLine
 10
276.3731042825357
 20
242.7827050314338
 30
0.0
 11
274.0152399062667
 21
240.4248406551649
 31
0.0
  0
LINE
  5
1827A
330
1F
100
AcDbEntity
  8
0
100
AcDbLine
 10
283.0152399062667
 20
241.7827050314338
 30
0.0
 11
284.0152399062668
 21
242.7827050314338
 31
0.0
  0
LINE
  5
1827B
330
1F
100
AcDbEntity
  8
0
100
AcDbLine
 10
283.0152399062667
 20
229.6258507819414
 30
0.0
 11
274.0152399062667
 21
238.6258507819412
 31
0.0
  0
LINE
  5
1827C
330
1F
100
AcDbEntity
  8
0
100
AcDbLine
 10
283.0152399062667
 20
238.1111321561798
 30
0.0
 11
274.0152399062667
 21
229.11113215618
 31
0.0
  0
LINE
  5
1827D
330
1F
100
AcDbEntity
  8
0
100
AcDbLine
 10
283.0152399062667
 20
228.7827050314336
 30
0.0
 11
284.0152399062668
 21
227.7827050314338
 31
0.0
  0
LINE
  5
1827E
330
1F
100
AcDbEntity
  8
0
100
AcDbLine
 10
276.3731042825357
 20
227.7827050314336
 30
0.0
 11
274.0152399062667
 21
230.1405694077025
 31
0.0
  0
LINE
  5
1827F
330
1F
100
AcDbEntity
  8
0
100
AcDbLine
 10
282.0299585320283
 20
227.7827050314336
 30
0.0
 11
274.0152399062667
 21
235.797423657195
 31
0.0
  0
LINE
  5
18280
330
1F
100
AcDbEntity
  8
0
100
AcDbLine
 10
279.2015314072819
 20
227.7827050314336
 30
0.0
 11
274.0152399062667
 21
232.9689965324487
 31
0.0
  0
LINE
  5
18281
330
1F
100
AcDbEntity
  8
0
100
AcDbLine
 10
283.0152399062667
 20
232.4542779066876
 30
0.0
 11
278.3436670310127
 21
227.7827050314338
 31
0.0
  0
LINE
  5
18282
330
1F
100
AcDbEntity
  8
0
100
AcDbLine
 10
283.0152399062667
 20
229.6258507819414
 30
0.0
 11
281.1720941557589
 21
227.7827050314338
 31
0.0
  0
LINE
  5
18283
330
1F
100
AcDbEntity
  8
0
100
AcDbLine
 10
283.0152399062667
 20
235.2827050314338
 30
0.0
 11
275.5152399062668
 21
227.7827050314338
 31
0.0
  0
LINE
  5
1828D
330
1F
100
AcDbEntity
  8
OS
  6
DASHED
 62
     3
100
AcDbLine
 10
271.7153199062668
 20
208.9826350314333
 30
0.0
 11
274.0152899062668
 21
211.5962550314334
 31
0.0
  0
LINE
  5
1828E
330
1F
100
AcDbEntity
  8
OS
  6
DASHED
 62
     3
100
AcDbLine
 10
274.0152899062668
 20
211.5962550314334
 30
0.0
 11
275.315309906267
 21
213.0735550314335
 31
0.0
  0
LINE
  5
1828F
330
1F
100
AcDbEntity
  8
OS
  6
DASHED
 62
     3
100
AcDbLine
 10
274.0152799062666
 20
208.1147150314337
 30
0.0
 11
277.615279906267
 21
212.2056450314335
 31
0.0
  0
LINE
  5
18290
330
1F
100
AcDbEntity
  8
OS
  6
DASHED
 62
     3
100
AcDbLine
 10
275.315289906267
 20
222.9826650314335
 30
0.0
 11
275.315289906267
 21
213.0735450314337
 31
0.0
  0
LINE
  5
18291
330
1F
100
AcDbEntity
  8
OS
  6
DASHED
 62
     3
100
AcDbLine
 10
277.6152699062668
 20
222.9826650314335
 30
0.0
 11
277.6152699062668
 21
212.2056250314336
 31
0.0
  0
LINE
  5
18292
330
1F
100
AcDbEntity
  8
OS
  6
DASHED
 62
     3
100
AcDbLine
 10
271.7153099062671
 20
224.9826850314335
 30
0.0
 11
274.0152999062666
 21
224.9826850314335
 31
0.0
  0
LINE
  5
18293
330
1F
100
AcDbEntity
  8
OS
  6
DASHED
 62
     3
100
AcDbLine
 10
275.4118399062668
 20
225.9826550314337
 30
0.0
 11
275.4118399062668
 21
222.9826650314335
 31
0.0
  0
LINE
  5
18294
330
1F
100
AcDbEntity
  8
OS
  6
DASHED
 62
     3
100
AcDbLine
 10
277.7153099062671
 20
225.9826550314337
 30
0.0
 11
277.7153099062671
 21
222.9826650314335
 31
0.0
  0
LINE
  5
18295
330
1F
100
AcDbEntity
  8
OS
  6
DASHED
 62
     3
100
AcDbLine
 10
275.4118399062668
 20
225.9826850314334
 30
0.0
 11
277.7153099062671
 21
225.9826850314334
 31
0.0
  0
LINE
  5
18296
330
1F
100
AcDbEntity
  8
OS
  6
DASHED
 62
     3
100
AcDbLine
 10
277.6152699062668
 20
222.9826650314335
 30
0.0
 11
277.7153099062671
 21
222.9826650314335
 31
0.0
  0
LINE
  5
18297
330
1F
100
AcDbEntity
  8
OS
  6
DASHED
 62
     3
100
AcDbLine
 10
274.0152999062666
 20
224.9826850314335
 30
0.0
 11
274.0152999062666
 21
216.6834750314333
 31
0.0
  0
LINE
  5
18298
330
1F
100
AcDbEntity
  8
OS
  6
DASHED
 62
     3
100
AcDbLine
 10
275.315289906267
 20
172.3918750314333
 30
0.0
 11
275.315289906267
 21
162.4827150314336
 31
0.0
  0
LINE
  5
18299
330
1F
100
AcDbEntity
  8
OS
  6
DASHED
 62
     3
100
AcDbLine
 10
277.6152699062668
 20
173.2597650314337
 30
0.0
 11
277.6152699062668
 21
162.4827150314336
 31
0.0
  0
LINE
  5
1829A
330
1F
100
AcDbEntity
  8
OS
  6
DASHED
 62
     3
100
AcDbLine
 10
275.315289906267
 20
172.3918850314335
 30
0.0
 11
274.0153299062667
 21
173.8691250314337
 31
0.0
  0
LINE
  5
1829B
330
1F
100
AcDbEntity
  8
OS
  6
DASHED
 62
     3
100
AcDbLine
 10
274.0153299062667
 20
173.8691250314337
 30
0.0
 11
271.715349906267
 21
176.4827350314335
 31
0.0
  0
LINE
  5
1829C
330
1F
100
AcDbEntity
  8
OS
  6
DASHED
 62
     3
100
AcDbLine
 10
277.615299906267
 20
173.2597650314337
 30
0.0
 11
274.0153099062668
 21
177.3506550314337
 31
0.0
  0
LINE
  5
1829D
330
1F
100
AcDbEntity
  8
OS
  6
DASHED
 62
     3
100
AcDbLine
 10
275.4118399062668
 20
162.4827150314336
 30
0.0
 11
275.4118399062668
 21
159.4827150314336
 31
0.0
  0
LINE
  5
1829E
330
1F
100
AcDbEntity
  8
OS
  6
DASHED
 62
     3
100
AcDbLine
 10
275.413309906267
 20
159.4827150314336
 30
0.0
 11
277.716769906267
 21
159.4827150314336
 31
0.0
  0
LINE
  5
1829F
330
1F
100
AcDbEntity
  8
OS
  6
DASHED
 62
     3
100
AcDbLine
 10
277.7153099062671
 20
162.4827150314336
 30
0.0
 11
277.7153099062671
 21
159.4827150314336
 31
0.0
  0
LINE
  5
182A0
330
1F
100
AcDbEntity
  8
OS
  6
DASHED
 62
     3
100
AcDbLine
 10
271.7153099062671
 20
160.4827150314336
 30
0.0
 11
274.0152999062666
 21
160.4827150314336
 31
0.0
  0
LINE
  5
182A1
330
1F
100
AcDbEntity
  8
0
100
AcDbLine
 10
284.0152399062668
 20
299.4039010216445
 30
0.0
 11
251.8452399062671
 21
267.2339010216442
 31
0.0
  0
LINE
  5
182A2
330
1F
100
AcDbEntity
  8
0
100
AcDbLine
 10
284.0152399062668
 20
302.2239010216442
 30
0.0
 11
251.8452399062671
 21
270.0539010216441
 31
0.0
  0
LINE
  5
182A3
330
1F
100
AcDbEntity
  8
0
100
AcDbLine
 10
284.0152399062668
 20
305.0439010216444
 30
0.0
 11
251.8452399062671
 21
272.8739010216441
 31
0.0
  0
DIMENSION
  5
18386
330
1F
100
AcDbEntity
  8
003
100
AcDbDimension
  2
*D9
 10
719.5525996421706
 20
528.3401181554426
 30
0.0
 11
714.5525996421705
 21
473.2901181554427
 31
0.0
 70
    32
  1
製品H
 71
     5
 42
110.0999999999999
  3
DIM
100
AcDbAlignedDimension
 13
680.790587796177
 23
418.2401181554426
 33
0.0
 14
680.790587796177
 24
528.3401181554426
 34
0.0
 50
90.0
100
AcDbRotatedDimension
  0
LINE
  5
18387
330
1F
100
AcDbEntity
  8
003
100
AcDbLine
 10
671.790587796177
 20
524.4401181554425
 30
0.0
 11
671.790587796177
 21
422.1401181554425
 31
0.0
  0
LINE
  5
18388
330
1F
100
AcDbEntity
  8
003
100
AcDbLine
 10
680.790587796177
 20
528.3401181554426
 30
0.0
 11
680.790587796177
 21
418.2401181554426
 31
0.0
  0
LINE
  5
18389
330
1F
100
AcDbEntity
  8
003
100
AcDbLine
 10
599.7905877961771
 20
524.4401181554425
 30
0.0
 11
599.7905877961771
 21
422.1401181554425
 31
0.0
  0
LINE
  5
1838A
330
1F
100
AcDbEntity
  8
003
100
AcDbLine
 10
590.7905877961771
 20
528.3401181554426
 30
0.0
 11
590.7905877961771
 21
418.2401181554426
 31
0.0
  0
DIMENSION
  5
1838B
330
1F
100
AcDbEntity
  8
003
100
AcDbDimension
  2
*D10
 10
680.790587796177
 20
395.9218147561323
 30
0.0
 11
635.790587796177
 21
400.9218147561323
 31
0.0
 70
    32
  1
製品W
 71
     5
 42
90.0
  3
DIM
100
AcDbAlignedDimension
 13
590.7905877961771
 23
418.2401181554426
 33
0.0
 14
680.790587796177
 24
418.2401181554426
 34
0.0
100
AcDbRotatedDimension
  0
LINE
  5
1838C
330
1F
100
AcDbEntity
  8
003
100
AcDbLine
 10
590.7905877961771
 20
418.2401181554426
 30
0.0
 11
680.790587796177
 21
418.2401181554426
 31
0.0
  0
LINE
  5
1838D
330
1F
100
AcDbEntity
  8
003
100
AcDbLine
 10
590.7905877961771
 20
422.1401181554425
 30
0.0
 11
680.790587796177
 21
422.1401181554425
 31
0.0
  0
LINE
  5
1838E
330
1F
100
AcDbEntity
  8
003
100
AcDbLine
 10
590.7905877961771
 20
419.4401181554424
 30
0.0
 11
680.790587796177
 21
419.4401181554424
 31
0.0
  0
LINE
  5
1838F
330
1F
100
AcDbEntity
  8
003
100
AcDbLine
 10
590.7905877961771
 20
418.2401181554426
 30
0.0
 11
680.790587796177
 21
418.2401181554426
 31
0.0
  0
LINE
  5
18390
330
1F
100
AcDbEntity
  8
003
100
AcDbLine
 10
599.7905877961771
 20
425.1401181554426
 30
0.0
 11
671.790587796177
 21
425.1401181554426
 31
0.0
  0
LINE
  5
18391
330
1F
100
AcDbEntity
  8
003
100
AcDbLine
 10
595.7905877961771
 20
365.9218147561323
 30
0.0
 11
675.790587796177
 21
365.9218147561323
 31
0.0
  0
LINE
  5
18392
330
1F
100
AcDbEntity
  8
003
100
AcDbLine
 10
595.7905877961771
 20
380.9218147561324
 30
0.0
 11
675.790587796177
 21
380.9218147561324
 31
0.0
  0
TEXT
  5
18393
330
1F
100
AcDbEntity
  8
0
100
AcDbText
 10
617.9239211295104
 20
369.4218147561323
 30
0.0
 40
8.0
  1
外観姿図
  7
AT_VECTOR
 72
     1
 11
635.790587796177
 21
373.4218147561323
 31
0.0
100
AcDbText
 73
     2
  0
LINE
  5
18394
330
1F
100
AcDbEntity
  8
003
100
AcDbLine
 10
595.7905877961771
 20
380.9218147561324
 30
0.0
 11
595.7905877961771
 21
365.9218147561323
 31
0.0
  0
LINE
  5
18395
330
1F
100
AcDbEntity
  8
003
100
AcDbLine
 10
605.790587796177
 20
422.1401181554425
 30
0.0
 11
605.790587796177
 21
419.4401181554424
 31
0.0
  0
CIRCLE
  5
18396
330
1F
100
AcDbEntity
  8
003
100
AcDbCircle
 10
602.7905877961771
 20
420.7901181554425
 30
0.0
 40
0.75
  0
LINE
  5
18397
330
1F
100
AcDbEntity
  8
003
100
AcDbLine
 10
593.790587796177
 20
422.1401181554425
 30
0.0
 11
593.790587796177
 21
419.4401181554424
 31
0.0
  0
CIRCLE
  5
18398
330
1F
100
AcDbEntity
  8
003
100
AcDbCircle
 10
596.790587796177
 20
420.7901181554425
 30
0.0
 40
0.75
  0
MTEXT
  5
18399
102
{ACAD_REACTORS
330
1839A
102
}
330
1F
100
AcDbEntity
  8
003
 62
     7
100
AcDbMText
 10
692.8199079774947
 20
403.7954547045838
 30
0.0
 40
6.0
 41
0.0
 71
     7
 72
     1
  1
取付金具（下部）
  7
DIM
 73
     1
 44
1.0
1001
ACAD
1000
MTEXTBEGIN
1070
    73
1070
     1
1070
    44
1040
1.0
1070
    74
1070
     0
1000
MTEXTEND
  0
LEADER
  5
1839A
330
1F
100
AcDbEntity
  8
003
100
AcDbLeader
  3
DIM
 73
     0
 74
     0
 40
6.000000000000001
 41
39.29999999999998
 76
     3
 10
672.6021494303665
 20
420.3414288253247
 30
0.0
 10
683.3096725813602
 20
401.7954547045839
 30
0.0
 10
690.8199079774947
 20
401.7954547045839
 30
0.0
340
18399
1001
ACAD
1000
DSTYLE
1002
{
1070
   147
1040
1.0
1070
    77
1070
     1
1002
}
  0
LINE
  5
1839B
330
1F
100
AcDbEntity
  8
003
100
AcDbLine
 10
675.790587796177
 20
380.9218147561324
 30
0.0
 11
675.790587796177
 21
365.9218147561323
 31
0.0
  0
LINE
  5
1839C
330
1F
100
AcDbEntity
  8
003
100
AcDbLine
 10
665.7905877961771
 20
422.1401181554425
 30
0.0
 11
665.7905877961771
 21
419.4401181554424
 31
0.0
  0
CIRCLE
  5
1839D
330
1F
100
AcDbEntity
  8
003
100
AcDbCircle
 10
668.790587796177
 20
420.7901181554425
 30
0.0
 40
0.75
  0
LINE
  5
1839E
330
1F
100
AcDbEntity
  8
003
100
AcDbLine
 10
677.7905877961771
 20
422.1401181554425
 30
0.0
 11
677.7905877961771
 21
419.4401181554424
 31
0.0
  0
CIRCLE
  5
1839F
330
1F
100
AcDbEntity
  8
003
100
AcDbCircle
 10
674.7905877961771
 20
420.7901181554425
 30
0.0
 40
0.75
  0
LEADER
  5
183A0
330
1F
100
AcDbEntity
  8
003
100
AcDbLeader
  3
DIM
 73
     0
 74
     0
 40
6.000000000000001
 41
9.600000000000001
 76
     3
 10
652.8329453333944
 20
477.9828095394201
 30
0.0
 10
659.0938621974815
 20
488.8270356499837
 30
0.0
 10
687.5945848650385
 20
488.8270356499837
 30
0.0
340
183A1
1001
ACAD
1000
DSTYLE
1002
{
1070
   147
1040
1.0
1070
    77
1070
     1
1002
}
  0
MTEXT
  5
183A1
102
{ACAD_REACTORS
330
183A0
102
}
330
1F
100
AcDbEntity
  8
003
 62
     7
100
AcDbMText
 10
689.5945848650385
 20
490.8270356499837
 30
0.0
 40
6.0
 41
0.0
 71
     7
 72
     1
  1
羽根
  7
DIM
 73
     1
 44
1.0
1001
ACAD
1000
MTEXTBEGIN
1070
    73
1070
     1
1070
    44
1040
1.0
1070
    74
1070
     0
1000
MTEXTEND
  0
LINE
  5
183A2
330
1F
100
AcDbEntity
  8
003
100
AcDbLine
 10
665.7905877961771
 20
531.3401181554426
 30
0.0
 11
653.7905877961771
 21
531.3401181554426
 31
0.0
  0
LINE
  5
183A3
330
1F
100
AcDbEntity
  8
003
100
AcDbLine
 10
590.7905877961771
 20
528.3401181554426
 30
0.0
 11
680.790587796177
 21
528.3401181554426
 31
0.0
  0
LINE
  5
183A4
330
1F
100
AcDbEntity
  8
003
100
AcDbLine
 10
590.7905877961771
 20
524.4401181554425
 30
0.0
 11
680.790587796177
 21
524.4401181554425
 31
0.0
  0
LINE
  5
183A5
330
1F
100
AcDbEntity
  8
003
100
AcDbLine
 10
590.7905877961771
 20
527.1401181554425
 30
0.0
 11
680.790587796177
 21
527.1401181554425
 31
0.0
  0
LINE
  5
183A6
330
1F
100
AcDbEntity
  8
003
100
AcDbLine
 10
599.7905877961771
 20
521.4401181554425
 30
0.0
 11
671.790587796177
 21
521.4401181554425
 31
0.0
  0
LINE
  5
183A7
330
1F
100
AcDbEntity
  8
003
100
AcDbLine
 10
599.7905877961771
 20
453.4901181554426
 30
0.0
 11
671.790587796177
 21
453.4901181554426
 31
0.0
  0
LINE
  5
183A8
330
1F
100
AcDbEntity
  8
003
100
AcDbLine
 10
599.7905877961771
 20
463.3901181554425
 30
0.0
 11
671.790587796177
 21
463.3901181554425
 31
0.0
  0
LINE
  5
183A9
330
1F
100
AcDbEntity
  8
003
100
AcDbLine
 10
599.7905877961771
 20
473.2901181554425
 30
0.0
 11
671.790587796177
 21
473.2901181554425
 31
0.0
  0
LINE
  5
183AA
330
1F
100
AcDbEntity
  8
003
100
AcDbLine
 10
599.7905877961771
 20
483.1901181554425
 30
0.0
 11
671.790587796177
 21
483.1901181554425
 31
0.0
  0
LINE
  5
183AB
330
1F
100
AcDbEntity
  8
003
100
AcDbLine
 10
599.7905877961771
 20
493.0901181554426
 30
0.0
 11
671.790587796177
 21
493.0901181554426
 31
0.0
  0
LINE
  5
183AC
330
1F
100
AcDbEntity
  8
003
100
AcDbLine
 10
599.7905877961771
 20
502.9901181554426
 30
0.0
 11
671.790587796177
 21
502.9901181554426
 31
0.0
  0
LINE
  5
183AD
330
1F
100
AcDbEntity
  8
003
100
AcDbLine
 10
599.7905877961771
 20
433.6901181554424
 30
0.0
 11
671.790587796177
 21
433.6901181554424
 31
0.0
  0
LINE
  5
183AE
330
1F
100
AcDbEntity
  8
003
100
AcDbLine
 10
599.7905877961771
 20
443.5901181554425
 30
0.0
 11
671.790587796177
 21
443.5901181554425
 31
0.0
  0
LINE
  5
183B0
330
1F
100
AcDbEntity
  8
003
100
AcDbLine
 10
599.7905877961771
 20
453.4901181554426
 30
0.0
 11
671.790587796177
 21
453.4901181554426
 31
0.0
  0
LINE
  5
183B1
330
1F
100
AcDbEntity
  8
003
100
AcDbLine
 10
599.7905877961771
 20
512.8901181554425
 30
0.0
 11
671.790587796177
 21
512.8901181554425
 31
0.0
  0
LEADER
  5
183B2
330
1F
100
AcDbEntity
  8
003
100
AcDbLeader
  3
DIM
 73
     0
 40
6.0
 41
18.68571428571429
 76
     3
 10
595.7966294850661
 20
455.2146621773978
 30
0.0
 10
584.195323866063
 20
475.3087129436454
 30
0.0
 10
580.3575495915106
 20
475.3087129436454
 30
0.0
340
183B3
1001
ACAD
1000
DSTYLE
1002
{
1070
   147
1040
1.0
1070
    77
1070
     1
1002
}
  0
MTEXT
  5
183B3
102
{ACAD_REACTORS
330
183B2
102
}
330
1F
100
AcDbEntity
  8
003
 62
     7
100
AcDbMText
 10
578.3575495915106
 20
477.3087129436454
 30
0.0
 40
6.0
 41
0.0
 71
     9
 72
     1
  1
Ｈ材1型
  7
DIM
 73
     1
 44
1.0
1001
ACAD
1000
MTEXTBEGIN
1070
    73
1070
     1
1070
    44
1040
1.0
1070
    74
1070
     0
1000
MTEXTEND
  0
LEADER
  5
183B4
330
1F
100
AcDbEntity
  8
003
100
AcDbLeader
  3
DIM
 73
     0
 40
6.000000000000003
 41
54.38571428571428
 76
     3
 10
593.4352298874021
 20
524.4401181554425
 30
0.0
 10
587.2510277923318
 20
535.1514703883782
 30
0.0
 10
586.7623353824263
 20
535.1514703883782
 30
0.0
340
183B5
1001
ACAD
1000
DSTYLE
1002
{
1070
   147
1040
1.0
1070
    77
1070
     1
1002
}
  0
MTEXT
  5
183B5
102
{ACAD_REACTORS
330
183B4
102
}
330
1F
100
AcDbEntity
  8
003
 62
     7
100
AcDbMText
 10
584.7623353824262
 20
537.1514703883782
 30
0.0
 40
6.0
 41
0.0
 71
     9
 72
     1
  1
安全キャップ（4ヶ所）
  7
DIM
 73
     1
 44
1.0
1001
ACAD
1000
MTEXTBEGIN
1070
    73
1070
     1
1070
    44
1040
1.0
1070
    74
1070
     0
1000
MTEXTEND
  0
LINE
  5
183B6
330
1F
100
AcDbEntity
  8
003
100
AcDbLine
 10
605.790587796177
 20
531.3401181554426
 30
0.0
 11
617.790587796177
 21
531.3401181554426
 31
0.0
  0
LINE
  5
183B7
330
1F
100
AcDbEntity
  8
003
100
AcDbLine
 10
605.790587796177
 20
528.3401181554426
 30
0.0
 11
605.790587796177
 21
531.3401181554426
 31
0.0
  0
LINE
  5
183B8
330
1F
100
AcDbEntity
  8
003
100
AcDbLine
 10
617.790587796177
 20
528.3401181554426
 30
0.0
 11
617.790587796177
 21
531.3401181554426
 31
0.0
  0
LINE
  5
183B9
330
1F
100
AcDbEntity
  8
003
100
AcDbLine
 10
653.7905877961771
 20
528.3401181554426
 30
0.0
 11
653.7905877961771
 21
531.3401181554426
 31
0.0
  0
MTEXT
  5
183BA
102
{ACAD_REACTORS
330
183BB
102
}
330
1F
100
AcDbEntity
  8
003
 62
     7
100
AcDbMText
 10
671.9598478149318
 20
543.1375241189901
 30
0.0
 40
6.0
 41
0.0
 71
     7
 72
     1
  1
取付金具（上部）
  7
DIM
 73
     1
 44
1.0
1001
ACAD
1000
MTEXTBEGIN
1070
    73
1070
     1
1070
    44
1040
1.0
1070
    74
1070
     0
1000
MTEXTEND
  0
LEADER
  5
183BB
330
1F
100
AcDbEntity
  8
003
100
AcDbLeader
  3
DIM
 73
     0
 74
     0
 40
6.000000000000001
 41
39.29999999999998
 76
     3
 10
659.790587796177
 20
531.3401181554426
 30
0.0
 10
665.4471227665914
 20
541.1375241189902
 30
0.0
 10
669.9598478149319
 20
541.1375241189902
 30
0.0
340
183BA
1001
ACAD
1000
DSTYLE
1002
{
1070
   147
1040
1.0
1070
    77
1070
     1
1002
}
  0
LINE
  5
183BC
330
1F
100
AcDbEntity
  8
003
100
AcDbLine
 10
665.7905877961771
 20
528.3401181554426
 30
0.0
 11
665.7905877961771
 21
531.3401181554426
 31
0.0
  0
LINE
  5
183BD
330
1F
100
AcDbEntity
  8
003
100
AcDbLine
 10
243.1311383070195
 20
521.4050126380008
 30
0.0
 11
330.9751516968124
 21
521.4050126380008
 31
0.0
  0
LINE
  5
183BE
330
1F
100
AcDbEntity
  8
003
100
AcDbLine
 10
199.0212626666846
 20
481.708116720541
 30
0.0
 11
330.9751516968124
 21
481.708116720541
 31
0.0
  0
TEXT
  5
183BF
330
1F
100
AcDbEntity
  8
0
100
AcDbText
 10
204.4458488650173
 20
487.9332677470679
 30
0.0
 40
8.0
  1
サッシＨ＝４３５～１００４
  7
AT_VECTOR
100
AcDbText
  0
TEXT
  5
183C0
330
1F
100
AcDbEntity
  8
0
100
AcDbText
 10
204.4458488650173
 20
502.9332677470679
 30
0.0
 40
8.0
  1
サッシＷ＝２５２～　８０２
  7
AT_VECTOR
100
AcDbText
  0
TEXT
  5
183C1
330
1F
100
AcDbEntity
  8
0
100
AcDbText
 10
194.7479322779402
 20
517.9332677470679
 30
0.0
 40
8.0
  1
※製作範囲
  7
AT_VECTOR
100
AcDbText
  0
LINE
  5
183C3
330
1F
100
AcDbEntity
  8
003
100
AcDbLine
 10
330.9751516968124
 20
481.708116720541
 30
0.0
 11
330.9751516968124
 21
521.4050126380008
 31
0.0
  0
DIMENSION
  5
188ED
330
1F
100
AcDbEntity
  8
003
100
AcDbDimension
  2
*D11
 10
319.0152399062668
 20
134.6001278518657
 30
0.0
 11
309.0152399062668
 21
139.6001278518657
 31
0.0
 70
    32
 71
     5
 42
20.0
  3
DIM
100
AcDbAlignedDimension
 13
299.0152399062667
 23
158.282705031434
 33
0.0
 14
319.0152399062668
 24
217.9827150314336
 34
0.0
100
AcDbRotatedDimension
  0
DIMENSION
  5
188FA
330
1F
100
AcDbEntity
  8
003
100
AcDbDimension
  2
*D12
 10
546.0152399062665
 20
134.6001278518657
 30
0.0
 11
556.0152399062665
 21
139.6001278518657
 31
0.0
 70
    32
 71
     5
 42
20.0
  3
DIM
100
AcDbAlignedDimension
 13
566.0152399062665
 23
158.282705031434
 33
0.0
 14
546.0152399062665
 24
217.9827150314336
 34
0.0
 50
180.0
100
AcDbRotatedDimension
  0
ENDSEC
  0
SECTION
  2
OBJECTS
  0
DICTIONARY
  5
C
330
0
100
AcDbDictionary
281
     1
  3
ACAD_COLOR
350
E400
  3
ACAD_GROUP
350
D
  3
ACAD_LAYOUT
350
1A
  3
ACAD_MATERIAL
350
E3D6
  3
ACAD_MLEADERSTYLE
350
E425
  3
ACAD_MLINESTYLE
350
17
  3
ACAD_PLOTSETTINGS
350
19
  3
ACAD_PLOTSTYLENAME
350
E
  3
ACAD_SCALELIST
350
E403
  3
ACAD_TABLESTYLE
350
E401
  3
ACAD_VISUALSTYLE
350
E3EF
  3
AcadDim
350
2AE
  3
ACDB_RECOMPOSE_DATA
350
103AB
  3
AcDbVariableDictionary
350
103AC
  3
DWGPROPS
350
18CD2
  0
DICTIONARY
  5
18A0D
330
8
100
AcDbDictionary
280
     1
281
     1
  0
DICTIONARY
  5
2859
330
2
100
AcDbDictionary
280
     1
281
     1
  3
ACAD_LAYERFILTERS
360
128C4
  3
ACAD_LAYERSTATES
360
285A
  3
ACLYDICTIONARY
360
128C3
  0
DICTIONARY
  5
F074
330
10
100
AcDbDictionary
280
     1
281
     1
  3
ADSK_XREC_LAYER_RECONCILED
360
F075
  0
DICTIONARY
  5
F07A
330
33
100
AcDbDictionary
280
     1
281
     1
  3
ADSK_XREC_LAYER_RECONCILED
360
F07B
  0
DICTIONARY
  5
F080
330
1A4
100
AcDbDictionary
280
     1
281
     1
  3
ADSK_XREC_LAYER_RECONCILED
360
F081
  0
DICTIONARY
  5
F082
330
1A5
100
AcDbDictionary
280
     1
281
     1
  3
ADSK_XREC_LAYER_RECONCILED
360
F083
  0
DICTIONARY
  5
F088
330
2B1
100
AcDbDictionary
280
     1
281
     1
  3
ADSK_XREC_LAYER_RECONCILED
360
F089
  0
DICTIONARY
  5
F144
330
1F
100
AcDbDictionary
280
     1
281
     1
  3
ACAD_SORTENTS
360
F145
  0
DICTIONARY
  5
E400
102
{ACAD_REACTORS
330
C
102
}
330
C
100
AcDbDictionary
281
     1
  0
DICTIONARY
  5
D
102
{ACAD_REACTORS
330
C
102
}
330
C
100
AcDbDictionary
281
     1
  0
DICTIONARY
  5
1A
102
{ACAD_REACTORS
330
C
102
}
330
C
100
AcDbDictionary
281
     1
  3
Model
350
22
  3
ﾚｲｱｳﾄ1
350
1E
  3
ﾚｲｱｳﾄ2
350
26
  0
DICTIONARY
  5
E3D6
102
{ACAD_REACTORS
330
C
102
}
330
C
100
AcDbDictionary
281
     1
  3
ByBlock
350
E3DF
  3
ByLayer
350
E3D7
  3
Global
350
E3E7
  0
DICTIONARY
  5
E425
102
{ACAD_REACTORS
330
C
102
}
330
C
100
AcDbDictionary
281
     1
  3
Standard
350
E426
  0
DICTIONARY
  5
17
102
{ACAD_REACTORS
330
C
102
}
330
C
100
AcDbDictionary
281
     1
  3
Standard
350
18
  0
DICTIONARY
  5
19
102
{ACAD_REACTORS
330
C
102
}
330
C
100
AcDbDictionary
281
     1
  0
ACDBDICTIONARYWDFLT
  5
E
102
{ACAD_REACTORS
330
C
102
}
330
C
100
AcDbDictionary
281
     1
  3
Normal
350
F
100
AcDbDictionaryWithDefault
340
F
  0
DICTIONARY
  5
E403
102
{ACAD_REACTORS
330
C
102
}
330
C
100
AcDbDictionary
281
     1
  3
A0
350
E404
  3
A1
350
E405
  3
A2
350
E406
  3
A3
350
E407
  3
A4
350
E408
  3
A5
350
E409
  3
A6
350
E40A
  3
A7
350
E40B
  3
A8
350
E40C
  3
A9
350
E40D
  3
B0
350
E40E
  3
B1
350
E40F
  3
B2
350
E410
  3
B3
350
E411
  3
B4
350
E412
  3
B5
350
E413
  3
B6
350
E414
  3
B7
350
E415
  3
B8
350
E416
  3
B9
350
E417
  3
C0
350
E418
  3
C1
350
E419
  3
C2
350
E41A
  3
C3
350
E41B
  3
C4
350
E41C
  3
C5
350
E41D
  3
C6
350
E41E
  3
C7
350
E41F
  3
C8
350
E420
  3
C9
350
E421
  3
D0
350
E422
  3
D1
350
E423
  3
D2
350
E424
  0
DICTIONARY
  5
E401
102
{ACAD_REACTORS
330
C
102
}
330
C
100
AcDbDictionary
281
     1
  3
Standard
350
E402
  0
DICTIONARY
  5
E3EF
102
{ACAD_REACTORS
330
C
102
}
330
C
100
AcDbDictionary
281
     1
  3
2dWireframe
350
E3F5
  3
3D Hidden
350
E3F7
  3
3dWireframe
350
E3F6
  3
Basic
350
E3F4
  3
Brighten
350
E3FB
  3
ColorChange
350
E3FF
  3
Conceptual
350
E3F8
  3
Dim
350
E3FA
  3
Facepattern
350
E3FE
  3
Flat
350
E3F0
  3
FlatWithEdges
350
E3F1
  3
Gouraud
350
E3F2
  3
GouraudWithEdges
350
E3F3
  3
Linepattern
350
E3FD
  3
Realistic
350
E3F9
  3
Thicken
350
E3FC
  0
XRECORD
  5
2AE
102
{ACAD_REACTORS
330
C
102
}
330
C
100
AcDbXrecord
280
     1
 90
   990106
  3

 60
     0
 61
     0
 62
     4
 63
     4
 64
     1
 65
     0
 66
     0
 67
     3
 68
     1
 69
     0
 70
     0
 71
     0
 72
     0
 40
0.0
170
     2
  0
XRECORD
  5
103AB
102
{ACAD_REACTORS
330
C
102
}
330
C
100
AcDbXrecord
280
     1
 90
        1
330
E402
  0
DICTIONARY
  5
103AC
102
{ACAD_REACTORS
330
C
102
}
330
C
100
AcDbDictionary
281
     1
  3
CANNOSCALE
350
103B0
  3
CMLEADERSTYLE
350
103AE
  3
CTABLESTYLE
350
103AD
  3
DIMASSOC
350
18A5F
  3
INDEXCTL
350
18A5E
  3
LIGHTINGUNITS
350
103B1
  3
MSLTSCALE
350
103AF
  3
SORTENTS
350
18A5D
  0
XRECORD
  5
18CD2
102
{ACAD_REACTORS
330
C
102
}
330
C
100
AcDbXrecord
280
     1
  1
DWGPROPS COOKIE
  2

  3

  4

  6

  7

  8
koba
  9

300
=
301
=
302
=
303
=
304
=
305
=
306
=
307
=
308
=
309
=
 40
0.4615544444444445
 41
2452888.42884919
 42
2455959.427787824
  1

 90
        0
  0
DICTIONARY
  5
128C4
102
{ACAD_REACTORS
330
2859
102
}
330
2859
100
AcDbDictionary
281
     1
  0
DICTIONARY
  5
285A
102
{ACAD_REACTORS
330
2859
102
}
330
2859
100
AcDbDictionary
281
     1
  0
DICTIONARY
  5
128C3
102
{ACAD_REACTORS
330
2859
102
}
330
2859
100
AcDbDictionary
281
     1
1001
ACAD
1000
<All
  0
XRECORD
  5
F075
102
{ACAD_REACTORS
330
F074
102
}
330
F074
100
AcDbXrecord
280
     1
290
     1
  0
XRECORD
  5
F07B
102
{ACAD_REACTORS
330
F07A
102
}
330
F07A
100
AcDbXrecord
280
     1
290
     1
  0
XRECORD
  5
F081
102
{ACAD_REACTORS
330
F080
102
}
330
F080
100
AcDbXrecord
280
     1
290
     1
  0
XRECORD
  5
F083
102
{ACAD_REACTORS
330
F082
102
}
330
F082
100
AcDbXrecord
280
     1
290
     1
  0
XRECORD
  5
F089
102
{ACAD_REACTORS
330
F088
102
}
330
F088
100
AcDbXrecord
280
     1
290
     1
  0
SORTENTSTABLE
  5
F145
102
{ACAD_REACTORS
330
F144
102
}
330
F144
100
AcDbSortentsTable
330
1F
331
1677C
  5
1630E
331
16515
  5
174CA
331
167B3
  5
1658E
331
1753A
  5
1755F
331
177B1
  5
177D6
331
1773B
  5
17762
331
17704
  5
17729
331
176C5
  5
176F0
331
17579
  5
1759E
331
16784
  5
16316
331
1651D
  5
174D2
331
17542
  5
17567
331
17647
  5
1766C
331
17686
  5
176AC
331
1777A
  5
1779F
331
177F0
  5
17815
331
18294
  5
1839B
331
177B9
  5
177DE
331
17743
  5
1776A
331
1770C
  5
17731
331
176CD
  5
176F2
331
1764F
  5
17674
331
16525
  5
174DA
331
164F0
  5
16592
331
1678C
  5
1631F
331
175C0
  5
17646
331
1768E
  5
176C1
331
17782
  5
177A7
331
177F8
  5
1781D
331
17ADE
  5
17B03
331
183A3
  5
184E4
331
1829C
  5
183A3
331
177C1
  5
177E6
331
1774B
  5
17770
331
17714
  5
17739
331
176D5
  5
176FA
331
17657
  5
1767C
331
16794
  5
16567
331
17552
  5
17577
331
17696
  5
176D1
331
1778A
  5
177B2
331
17800
  5
17825
331
183AB
  5
184EC
331
17AAF
  5
17AD7
331
177C9
  5
177EE
331
17753
  5
17778
331
1771C
  5
17741
331
176DD
  5
17702
331
1765F
  5
17684
331
1769E
  5
176D9
331
17792
  5
177BA
331
17808
  5
17839
331
183B3
  5
18517
331
1826D
  5
1829B
331
17AB7
  5
17ADC
331
183BB
  5
1851F
331
188FA
  5
188FA
331
164F8
  5
1659A
331
17591
  5
175B6
331
1679C
  5
1656F
331
165BD
  5
174E3
331
16500
  5
1678A
331
1755A
  5
1757F
331
17628
  5
1764F
331
177D1
  5
177F6
331
1775B
  5
17780
331
17724
  5
1774B
331
176E5
  5
1770A
331
17667
  5
1768C
331
167A4
  5
1657F
331
174DB
  5
17500
331
17630
  5
17657
331
176A6
  5
176E1
331
1779A
  5
177C2
331
17810
  5
1784F
331
1838C
  5
183B2
331
18275
  5
182A3
331
17ABF
  5
17AE4
331
177D9
  5
177FE
331
17763
  5
17788
331
1772C
  5
17753
331
1766F
  5
17694
331
1676D
  5
16302
331
167AC
  5
16588
331
174E3
  5
17508
331
1756A
  5
1758F
331
175A1
  5
17625
331
17638
  5
1765E
331
176ED
  5
17712
331
177A2
  5
177CA
331
17818
  5
17857
331
183C3
  5
18526
331
18394
  5
183BA
331
1827D
  5
1838D
331
17AC7
  5
17AEC
331
1776B
  5
17790
331
176F5
  5
1771A
331
17533
  5
17558
331
175A9
  5
1762D
331
17677
  5
1769C
331
176BE
  5
176EB
331
17734
  5
1775B
331
177E1
  5
17806
331
17820
  5
1785F
331
1839C
  5
183C3
331
17773
  5
17798
331
176FD
  5
17722
331
1767F
  5
176A4
331
177E9
  5
1780E
331
17ACF
  5
17AF4
331
1828D
  5
18394
331
17AD7
  5
17AFC
331
17572
  5
17597
331
1677D
  5
1630F
331
16516
  5
174CB
331
167B4
  5
1658F
331
1753B
  5
17560
331
17640
  5
17665
331
177B2
  5
177D7
331
1773C
  5
17763
331
17705
  5
1772A
331
17648
  5
1766D
331
1757A
  5
1759F
331
16785
  5
16317
331
1651E
  5
174D3
331
17543
  5
17568
331
175B9
  5
1763F
331
17687
  5
176B9
331
1777B
  5
177A0
331
177F1
  5
17816
331
18295
  5
1839C
331
17838
  5
1786B
331
177BA
  5
177DF
331
17783
  5
177A8
331
1770D
  5
17732
331
176CE
  5
176F3
331
17650
  5
17675
331
17582
  5
175A7
331
164F1
  5
16593
331
F7F2
  5
F806
331
16526
  5
174DB
331
1678D
  5
16320
331
1754B
  5
17570
331
175C1
  5
17647
331
1768F
  5
176C2
331
177F9
  5
1781E
331
17ADF
  5
17B04
331
183A4
  5
184E5
331
1829D
  5
183A4
331
177C2
  5
177E7
331
1774C
  5
17771
331
17715
  5
1773A
331
176D6
  5
176FB
331
17658
  5
1767D
331
16795
  5
16568
331
165B6
  5
174DD
331
17553
  5
17578
331
17697
  5
176D2
331
1778B
  5
177B3
331
17801
  5
17826
331
183AC
  5
184ED
331
17AB0
  5
17AD8
331
177CA
  5
177EF
331
17754
  5
17779
331
1771D
  5
17742
331
176DE
  5
17703
331
1769F
  5
176DA
331
17793
  5
177BB
331
17809
  5
1783A
331
183B4
  5
18518
331
1826E
  5
1829C
331
183BC
  5
18520
331
164F9
  5
1659B
331
17660
  5
17685
331
17592
  5
175B7
331
1679D
  5
16570
331
16501
  5
1678B
331
165BE
  5
174E4
331
1755B
  5
17580
331
17629
  5
17650
331
17AB8
  5
17ADD
331
177D2
  5
177F7
331
1775C
  5
17781
331
17725
  5
1774C
331
176E6
  5
1770B
331
17668
  5
1768D
331
167A5
  5
16580
331
174DC
  5
17501
331
17563
  5
17588
331
17631
  5
17658
331
176A7
  5
176E2
331
1779B
  5
177C3
331
17811
  5
17850
331
1838D
  5
183B3
331
18276
  5
18386
331
17AC0
  5
17AE5
331
177DA
  5
177FF
331
17764
  5
17789
331
1772D
  5
17754
331
176EE
  5
17713
331
1676E
  5
16303
331
167AD
  5
16589
331
174E4
  5
17509
331
17639
  5
1765F
331
17670
  5
17695
331
177A3
  5
177CB
331
17819
  5
17858
331
18395
  5
183BB
331
1827E
  5
1838E
331
1776C
  5
17791
331
176F6
  5
1771B
331
16776
  5
16309
331
17534
  5
17559
331
175AA
  5
1762E
331
17678
  5
1769D
331
176BF
  5
176EC
331
17735
  5
1775C
331
177E2
  5
17807
331
17821
  5
17860
331
17AC8
  5
17AED
331
1839D
  5
184CF
331
17774
  5
17799
331
176FE
  5
17723
331
177EA
  5
1780F
331
17AD0
  5
17AF5
331
1828E
  5
18395
331
17573
  5
17598
331
167B5
  5
16590
331
1677E
  5
16310
331
16517
  5
174CC
331
1753C
  5
17561
331
17641
  5
17666
331
17680
  5
176A5
331
177B3
  5
177D8
331
17706
  5
1772B
331
1757B
  5
175A0
331
17544
  5
17569
331
16786
  5
16318
331
1651F
  5
174D4
331
17649
  5
1766E
331
17688
  5
176BA
331
1773D
  5
17764
331
1777C
  5
177A1
331
177F2
  5
17817
331
17AD8
  5
17AFD
331
18296
  5
1839D
331
17839
  5
1786C
331
177BB
  5
177E0
331
1770E
  5
17733
331
176CF
  5
176F4
331
17583
  5
175A8
331
1754C
  5
17571
331
164F2
  5
16594
331
16527
  5
174DC
331
1678E
  5
16321
331
17651
  5
17676
331
17690
  5
176C5
331
17745
  5
1776B
331
17784
  5
177A9
331
177FA
  5
1781F
331
183A5
  5
184E6
331
1829E
  5
183A5
331
177C3
  5
177E8
331
17716
  5
1773B
331
176D7
  5
176FC
331
1758B
  5
175B0
331
17554
  5
17579
331
16796
  5
16569
331
17659
  5
1767E
331
17698
  5
176D3
331
1774D
  5
17772
331
1778C
  5
177B4
331
17802
  5
17827
331
183AD
  5
184EE
331
17AB1
  5
17AD9
331
177CB
  5
177F0
331
1771E
  5
17743
331
176DF
  5
17704
331
17755
  5
1777A
331
17794
  5
177BC
331
1780A
  5
1783B
331
183B5
  5
18519
331
18386
  5
183AB
331
1826F
  5
1829D
331
183BD
  5
18521
331
164FA
  5
16783
331
17661
  5
17686
331
17593
  5
175B8
331
1755C
  5
17581
331
1679E
  5
16571
331
165BF
  5
174E5
331
1762A
  5
17651
331
176A0
  5
176DB
331
17AB9
  5
17ADE
331
177D3
  5
177F8
331
17726
  5
1774D
331
176E7
  5
1770C
331
17669
  5
1768E
331
1759B
  5
175C0
331
174DD
  5
17502
331
167A6
  5
16581
331
17564
  5
17589
331
17632
  5
17659
331
176A8
  5
176E3
331
1775D
  5
17782
331
1779C
  5
177C4
331
17812
  5
17851
331
1838E
  5
183B4
331
18277
  5
18387
331
17AC1
  5
17AE6
331
177DB
  5
17800
331
1772E
  5
17755
331
174E5
  5
1750A
331
1676F
  5
16304
331
1763A
  5
17660
331
17671
  5
17696
331
176EF
  5
17714
331
17765
  5
1778A
331
177A4
  5
177CC
331
1781A
  5
17859
331
18396
  5
183BC
331
1827F
  5
1838F
331
17535
  5
1755A
331
16777
  5
1630A
331
17679
  5
1769E
331
176F7
  5
1771C
331
17736
  5
1775D
331
1776D
  5
17792
331
177E3
  5
17808
331
17822
  5
17861
331
17AC9
  5
17AEE
331
1839E
  5
184D0
331
176FF
  5
17724
331
17775
  5
1779A
331
177EB
  5
17810
331
17AD1
  5
17AF6
331
1828F
  5
18396
331
16510
  5
167B8
331
176C0
  5
176ED
331
17642
  5
17667
331
17574
  5
17599
331
167B6
  5
16591
331
1677F
  5
16311
331
16518
  5
174CD
331
1753D
  5
17562
331
175B3
  5
17638
331
17681
  5
176A6
331
177B4
  5
177D9
331
1764A
  5
1766F
331
1757C
  5
175A1
331
16787
  5
16319
331
16520
  5
174D5
331
175BB
  5
17641
331
17689
  5
176BB
331
17707
  5
1772C
331
1773E
  5
17765
331
1777D
  5
177A2
331
177F3
  5
17818
331
17AD9
  5
17AFE
331
18297
  5
1839E
331
1783A
  5
1786D
331
177BC
  5
177E1
331
176D0
  5
176F5
331
17584
  5
175A9
331
1754D
  5
17572
331
1678F
  5
16322
331
164F3
  5
16595
331
17652
  5
17677
331
17691
  5
176CC
331
1770F
  5
17734
331
17746
  5
1776C
331
17785
  5
177AD
331
177FB
  5
17820
331
183A6
  5
184E7
331
1829F
  5
183A6
331
177C4
  5
177E9
331
176D8
  5
176FD
331
1758C
  5
175B1
331
17555
  5
1757A
331
16797
  5
1656A
331
1765A
  5
1767F
331
17699
  5
176D4
331
17717
  5
1773C
331
1774E
  5
17773
331
1778D
  5
177B5
331
17803
  5
17833
331
183AE
  5
18513
331
17AB2
  5
17ADA
331
177CC
  5
177F1
331
1771F
  5
17745
331
17756
  5
1777B
331
17795
  5
177BD
331
1780B
  5
1783C
331
188ED
  5
188ED
331
183B6
  5
1851A
331
18387
  5
183AC
331
183BE
  5
18522
331
165B8
  5
174DE
331
164FB
  5
16785
331
176E0
  5
17705
331
17662
  5
17687
331
1762B
  5
17652
331
1679F
  5
16572
331
165C0
  5
174E6
331
176A1
  5
176DC
331
18270
  5
1829E
331
17ABA
  5
17ADF
331
177D4
  5
177F9
331
1766A
  5
1768F
331
174DE
  5
17503
331
167A7
  5
16582
331
1650B
  5
1678D
331
1759C
  5
175C1
331
17633
  5
1765A
331
176E8
  5
1770D
331
17727
  5
1774E
331
1775E
  5
17783
331
1779D
  5
177C5
331
17813
  5
17852
331
1838F
  5
183B5
331
18278
  5
18388
331
17AC2
  5
17AE7
331
177DC
  5
17801
331
1772F
  5
17756
331
174E6
  5
1750B
331
16770
  5
16305
331
167AF
  5
1658A
331
1756D
  5
17592
331
1763B
  5
17661
331
17672
  5
17697
331
176B9
  5
176E7
331
176F0
  5
17715
331
17766
  5
1778B
331
177A5
  5
177CD
331
1781B
  5
1785A
331
18397
  5
183BD
331
18280
  5
18390
331
17536
  5
1755B
331
1767A
  5
1769F
331
176F8
  5
1771D
331
17737
  5
1775E
331
1776E
  5
17793
331
177AD
  5
177D2
331
177E4
  5
17809
331
17823
  5
17862
331
17ACA
  5
17AEF
331
1839F
  5
184E0
331
17776
  5
1779B
331
177EC
  5
17811
331
17AD2
  5
17AF7
331
16778
  5
1630B
331
16511
  5
167BA
331
176C1
  5
176EE
331
17643
  5
17668
331
17575
  5
1759A
331
16780
  5
16312
331
16519
  5
174CE
331
175B4
  5
17639
331
17682
  5
176A7
331
17700
  5
17725
331
18290
  5
18397
331
17833
  5
17867
331
177B5
  5
177DA
331
1773F
  5
17766
331
1757D
  5
175A2
331
16521
  5
174D6
331
16788
  5
1631A
331
1764B
  5
17670
331
1768A
  5
176BD
331
17708
  5
1772D
331
1777E
  5
177A3
331
177F4
  5
17819
331
17ADA
  5
17AFF
331
18298
  5
1839F
331
1783B
  5
1786E
331
177BD
  5
177E2
331
17747
  5
1776D
331
176D1
  5
176F6
331
17653
  5
17678
331
17585
  5
175AA
331
1754E
  5
17573
331
16790
  5
16323
331
164F4
  5
16596
331
175C4
  5
1764A
331
17692
  5
176CD
331
17710
  5
17735
331
17786
  5
177AE
331
177FC
  5
17821
331
183A7
  5
184E8
331
182A0
  5
183A7
331
177C5
  5
177EA
331
1774F
  5
17774
331
176D9
  5
176FE
331
1758D
  5
175B2
331
17556
  5
1757B
331
1765B
  5
17680
331
1769A
  5
176D5
331
17718
  5
1773D
331
1778E
  5
177B6
331
17804
  5
17834
331
17AB3
  5
17ADB
331
177CD
  5
177F2
331
17757
  5
1777C
331
17796
  5
177BE
331
1780C
  5
1783D
331
183B7
  5
1851B
331
183BF
  5
18523
331
16798
  5
1656B
331
165B9
  5
174DF
331
164FC
  5
16786
331
176E1
  5
17706
331
17663
  5
17688
331
1762C
  5
17653
331
167A0
  5
16573
331
165C1
  5
174E7
331
176A2
  5
176DD
331
17720
  5
17746
331
18388
  5
183AD
331
18271
  5
1829F
331
17ABB
  5
17AE0
331
177D5
  5
177FA
331
1775F
  5
17784
331
176E9
  5
1770E
331
1766B
  5
17690
331
174DF
  5
17504
331
167A8
  5
16583
331
1650C
  5
1678E
331
17634
  5
1765B
331
176AA
  5
176E4
331
17728
  5
1774F
331
1779E
  5
177C6
331
17814
  5
17853
331
18390
  5
183B6
331
18279
  5
18389
331
17AC3
  5
17AE8
331
177DD
  5
17802
331
17767
  5
1778C
331
176F1
  5
17716
331
17673
  5
17698
331
16771
  5
16306
331
176BA
  5
176E8
331
17730
  5
17757
331
177A6
  5
177CE
331
1781C
  5
1785B
331
18398
  5
183BE
331
1776F
  5
17794
331
176F9
  5
1771E
331
17537
  5
1755C
331
1767B
  5
176A0
331
177AE
  5
177D3
331
177E5
  5
1780A
331
17824
  5
17863
331
17ACB
  5
17AF0
331
18281
  5
18391
331
17777
  5
1779C
331
177ED
  5
17812
331
17AD3
  5
17AF8
331
167B0
  5
1658B
331
16779
  5
1630C
331
16512
  5
167C1
331
17738
  5
1775F
331
17701
  5
17726
331
176C2
  5
176EF
331
17644
  5
17669
331
167B8
  5
174EB
331
16781
  5
16313
331
1651A
  5
174CF
331
17576
  5
1759B
331
175B5
  5
1763A
331
17683
  5
176A8
331
17834
  5
17868
331
177B6
  5
177DB
331
17740
  5
17767
331
17709
  5
1772E
331
1764C
  5
17671
331
16522
  5
174D7
331
16789
  5
1631C
331
1768B
  5
176BE
331
1777F
  5
177A4
331
177F5
  5
1781A
331
17ADB
  5
17B00
331
18291
  5
18398
331
183A0
  5
184E1
331
1783C
  5
1786F
331
177BE
  5
177E3
331
17787
  5
177AF
331
17711
  5
17736
331
176D2
  5
176F7
331
17586
  5
175AB
331
1754F
  5
17574
331
16791
  5
16564
331
164F5
  5
16597
331
17654
  5
17679
331
17693
  5
176CE
331
177FD
  5
17822
331
18299
  5
183A0
331
183A8
  5
184E9
331
177C6
  5
177EB
331
17750
  5
17775
331
17719
  5
1773E
331
176DA
  5
176FF
331
1765C
  5
17681
331
1758E
  5
175B3
331
17557
  5
1757C
331
17625
  5
1764C
331
1769B
  5
176D6
331
1778F
  5
177B7
331
17805
  5
17835
331
182A1
  5
183A8
331
183B0
  5
18514
331
177CE
  5
177F3
331
17797
  5
177BF
331
1780D
  5
1784C
331
183B8
  5
1851C
331
16799
  5
1656C
331
165BA
  5
174E0
331
164FD
  5
16787
331
17758
  5
1777D
331
17721
  5
17747
331
176E2
  5
17707
331
17664
  5
17689
331
174D8
  5
174FD
331
167A1
  5
16574
331
165C2
  5
174E8
331
16505
  5
1678C
331
17596
  5
175BB
331
1762D
  5
17654
331
176A3
  5
176DE
331
18272
  5
182A0
331
17ABC
  5
17AE1
331
177D6
  5
177FB
331
17760
  5
17785
331
17729
  5
17750
331
176EA
  5
1770F
331
1766C
  5
17691
331
1759E
  5
175C3
331
174E0
  5
17505
331
167A9
  5
16584
331
1650D
  5
1678F
331
17635
  5
1765C
331
176AB
  5
176E5
331
1779F
  5
177C7
331
17815
  5
17854
331
18389
  5
183AE
331
183C0
  5
18524
331
1827A
  5
1838A
331
17AC4
  5
17AE9
331
177DE
  5
17803
331
177A7
  5
177CF
331
17768
  5
1778D
331
176F2
  5
17717
331
175A6
  5
1762A
331
16772
  5
16307
331
1763D
  5
17662
331
17674
  5
17699
331
176BB
  5
176E9
331
17731
  5
17758
331
1781D
  5
1785C
331
18391
  5
183B7
331
18399
  5
183BF
331
17770
  5
17795
331
176FA
  5
1771F
331
1767C
  5
176A1
331
177AF
  5
177D4
331
177E6
  5
1780B
331
17825
  5
17864
331
17ACC
  5
17AF1
331
18282
  5
18392
331
177EE
  5
17813
331
17AD4
  5
17AF9
331
167B1
  5
1658C
331
17538
  5
1755D
331
17739
  5
17760
331
17702
  5
17727
331
17645
  5
1766A
331
16782
  5
16314
331
1651B
  5
174D0
331
17577
  5
1759C
331
175B6
  5
1763B
331
17684
  5
176AA
331
17778
  5
1779D
331
17835
  5
17869
331
177B7
  5
177DC
331
17741
  5
17768
331
1770A
  5
1772F
331
16523
  5
174D8
331
1678A
  5
1631D
331
167C1
  5
174ED
331
1764D
  5
17672
331
1768C
  5
176BF
331
17780
  5
177A5
331
177F6
  5
1781B
331
17ADC
  5
17B01
331
18292
  5
18399
331
183A1
  5
184E2
331
1783D
  5
17870
331
177BF
  5
177E4
331
17749
  5
1776E
331
17712
  5
17737
331
176D3
  5
176F8
331
16792
  5
16565
331
164F6
  5
16598
331
17655
  5
1767A
331
17694
  5
176CF
331
17788
  5
177B0
331
177FE
  5
17823
331
1829A
  5
183A1
331
183A9
  5
184EA
331
17AAD
  5
17AD5
331
177C7
  5
177EC
331
17751
  5
17776
331
1771A
  5
1773F
331
176DB
  5
17700
331
1765D
  5
17682
331
1758F
  5
175B4
331
17626
  5
1764D
331
1769C
  5
176D7
331
17790
  5
177B8
331
17806
  5
17836
331
182A2
  5
183A9
331
183B1
  5
18515
331
1826B
  5
18299
331
177CF
  5
177F4
331
1780E
  5
1784D
331
183B9
  5
1851D
331
1679A
  5
1656D
331
165BB
  5
174E1
331
164FE
  5
16788
331
17558
  5
1757D
331
17759
  5
1777E
331
17722
  5
17749
331
176E3
  5
17708
331
17665
  5
1768A
331
167A2
  5
16575
331
165C3
  5
174E9
331
174D9
  5
174FE
331
17597
  5
175BC
331
1762E
  5
17655
331
176A4
  5
176DF
331
17798
  5
177C0
331
18273
  5
182A1
331
17ABD
  5
17AE2
331
177D7
  5
177FC
331
17761
  5
17786
331
1772A
  5
17751
331
176EB
  5
17710
331
1766D
  5
17692
331
1676B
  5
16300
331
1650E
  5
16790
331
167AA
  5
16585
331
174E1
  5
17506
331
17568
  5
1758D
331
176AC
  5
176E6
331
177A0
  5
177C8
331
17816
  5
17855
331
1838A
  5
183B0
331
183C1
  5
18525
331
1827B
  5
1838B
331
17AC5
  5
17AEA
331
177DF
  5
17804
331
17769
  5
1778E
331
176F3
  5
17718
331
16773
  5
16308
331
175A7
  5
1762B
331
1763E
  5
17663
331
17675
  5
1769A
331
17732
  5
17759
331
177A8
  5
177D0
331
1781E
  5
1785D
331
18392
  5
183B8
331
1839A
  5
183C0
331
18283
  5
18393
331
17771
  5
17796
331
176FB
  5
17720
331
1767D
  5
176A2
331
177E7
  5
1780C
331
17826
  5
17865
331
17ACD
  5
17AF2
331
177EF
  5
17814
331
17AD5
  5
17AFA
331
1677B
  5
1630D
331
16514
  5
174C9
331
167B2
  5
1658D
331
17539
  5
1755E
331
177B0
  5
177D5
331
1773A
  5
17761
331
17703
  5
17728
331
16783
  5
16315
331
1651C
  5
174D1
331
167BA
  5
174EC
331
17578
  5
1759D
331
17646
  5
1766B
331
17685
  5
176AB
331
17779
  5
1779E
331
18293
  5
1839A
331
17836
  5
1786A
331
177B8
  5
177DD
331
17742
  5
17769
331
1770B
  5
17730
331
176CC
  5
176F1
331
1764E
  5
17673
331
16524
  5
174D9
331
1678B
  5
1631E
331
175BF
  5
17645
331
1768D
  5
176C0
331
17781
  5
177A6
331
177F7
  5
1781C
331
17ADD
  5
17B02
331
183A2
  5
184E3
331
1829B
  5
183A2
331
177C0
  5
177E5
331
1774A
  5
1776F
331
17713
  5
17738
331
176D4
  5
176F9
331
16793
  5
16566
331
164F7
  5
16599
331
17656
  5
1767B
331
17695
  5
176D0
331
17789
  5
177B1
331
177FF
  5
17824
331
183AA
  5
184EB
331
182A3
  5
183AA
331
17AAE
  5
17AD6
331
177C8
  5
177ED
331
17752
  5
17777
331
1771B
  5
17740
331
176DC
  5
17701
331
1765E
  5
17683
331
17627
  5
1764E
331
1769D
  5
176D8
331
17791
  5
177B9
331
17807
  5
17838
331
183B2
  5
18516
331
1826C
  5
1829A
331
1780F
  5
1784E
331
183BA
  5
1851E
331
17590
  5
175B5
331
1679B
  5
1656E
331
165BC
  5
174E2
331
164FF
  5
16789
331
17559
  5
1757E
331
177D0
  5
177F5
331
1775A
  5
1777F
331
17723
  5
1774A
331
176E4
  5
17709
331
17666
  5
1768B
331
167A3
  5
16579
331
174DA
  5
174FF
331
1762F
  5
17656
331
176A5
  5
176E0
331
17799
  5
177C1
331
1838B
  5
183B1
331
18274
  5
182A2
331
17ABE
  5
17AE3
331
177D8
  5
177FD
331
17762
  5
17787
331
1772B
  5
17752
331
1766E
  5
17693
331
17637
  5
1765D
331
1676C
  5
16301
331
1650F
  5
167B7
331
167AB
  5
16586
331
174E2
  5
17507
331
176EC
  5
17711
331
177A1
  5
177C9
331
17817
  5
17856
331
18393
  5
183B9
331
1827C
  5
1838C
331
17AC6
  5
17AEB
331
1781F
  5
1785E
331
1776A
  5
1778F
331
176F4
  5
17719
331
175A8
  5
1762C
331
1763F
  5
17664
331
17676
  5
1769B
331
176BD
  5
176EA
331
17733
  5
1775A
331
177A9
  5
177D1
331
177E0
  5
17805
331
1839B
  5
183C1
331
17772
  5
17797
331
176FC
  5
17721
331
1767E
  5
176A3
331
177E8
  5
1780D
331
17827
  5
17866
331
17ACE
  5
17AF3
331
17AD6
  5
17AFB
  0
LAYOUT
  5
22
102
{ACAD_XDICTIONARY
360
18CD5
102
}
102
{ACAD_REACTORS
330
1A
102
}
330
1A
100
AcDbPlotSettings
  1

  2
Brother HL-2170W series
  4
A4
  6

 40
5.027082920074462
 41
5.027085781097412
 42
5.027069091796875
 43
5.027069091796875
 44
209.9733276367187
 45
296.9259948730469
 46
2.212012888514266
 47
0.0
 48
20.0000000000001
 49
21.0
140
808.0000000000033
141
558.0
142
1.0
143
2.746871216078873
 70
 11956
 72
     1
 73
     1
 74
     4
  7
EPSON.ctb
 75
     0
147
0.3640505583758266
148
-20.0000000000001
149
-21.0
100
AcDbLayout
  1
Model
 70
     1
 71
     0
 10
0.0
 20
0.0
 11
12.0
 21
9.0
 12
0.0
 22
0.0
 32
0.0
 14
0.0
 24
0.0
 34
0.0
 15
0.0
 25
0.0
 35
0.0
146
0.0
 13
0.0
 23
0.0
 33
0.0
 16
1.0
 26
0.0
 36
0.0
 17
0.0
 27
1.0
 37
0.0
 76
     0
330
1F
331
E3D4
1001
ACAD_PSEXT
1000
Brother HL-2170W series
1000
Brother HL-2170W series
1000
USB002
1000

1070
     0
  0
LAYOUT
  5
1E
102
{ACAD_XDICTIONARY
360
18CD3
102
}
102
{ACAD_REACTORS
330
1A
102
}
330
1A
100
AcDbPlotSettings
  1

  2
C:\PROGRAM FILES\AUTOCAD LT 2000I\plotters\HP DesignJet 430 A3.pc3
  4

  6

 40
0.0
 41
0.0
 42
0.0
 43
0.0
 44
0.0
 45
0.0
 46
0.0
 47
0.0
 48
0.0
 49
0.0
140
0.0
141
0.0
142
1.0
143
1.0
 70
   688
 72
     0
 73
     0
 74
     5
  7
EPSON.ctb
 75
    16
147
1.0
148
0.0
149
0.0
100
AcDbLayout
  1
ﾚｲｱｳﾄ1
 70
     1
 71
     1
 10
0.0
 20
0.0
 11
420.0
 21
297.0
 12
0.0
 22
0.0
 32
0.0
 14
1.000000000000000E+20
 24
1.000000000000000E+20
 34
1.000000000000000E+20
 15
-1.000000000000000E+20
 25
-1.000000000000000E+20
 35
-1.000000000000000E+20
146
0.0
 13
0.0
 23
0.0
 33
0.0
 16
1.0
 26
0.0
 36
0.0
 17
0.0
 27
1.0
 37
0.0
 76
     0
330
1B
  0
LAYOUT
  5
26
102
{ACAD_XDICTIONARY
360
18CD7
102
}
102
{ACAD_REACTORS
330
1A
102
}
330
1A
100
AcDbPlotSettings
  1

  2
C:\PROGRAM FILES\AUTOCAD LT 2000I\plotters\HP DesignJet 430 A3.pc3
  4

  6

 40
0.0
 41
0.0
 42
0.0
 43
0.0
 44
0.0
 45
0.0
 46
0.0
 47
0.0
 48
0.0
 49
0.0
140
0.0
141
0.0
142
1.0
143
1.0
 70
   688
 72
     0
 73
     0
 74
     5
  7
EPSON.ctb
 75
    16
147
1.0
148
0.0
149
0.0
100
AcDbLayout
  1
ﾚｲｱｳﾄ2
 70
     1
 71
     2
 10
0.0
 20
0.0
 11
12.0
 21
9.0
 12
0.0
 22
0.0
 32
0.0
 14
0.0
 24
0.0
 34
0.0
 15
0.0
 25
0.0
 35
0.0
146
0.0
 13
0.0
 23
0.0
 33
0.0
 16
1.0
 26
0.0
 36
0.0
 17
0.0
 27
1.0
 37
0.0
 76
     0
330
23
  0
MATERIAL
  5
E3DF
102
{ACAD_XDICTIONARY
360
E3E0
102
}
102
{ACAD_REACTORS
330
E3D6
102
}
330
E3D6
100
AcDbMaterial
  1
ByBlock
 72
     0
 43
0.0008202099737533
 43
0.0
 43
0.0
 43
0.0
 43
0.0
 43
0.0008202099737533
 43
0.0
 43
0.0
 43
0.0
 43
0.0
 43
1.0
 43
0.0
 43
0.0
 43
0.0
 43
0.0
 43
1.0
 77
     0
 47
0.0008202099737533
 47
0.0
 47
0.0
 47
0.0
 47
0.0
 47
0.0008202099737533
 47
0.0
 47
0.0
 47
0.0
 47
0.0
 47
1.0
 47
0.0
 47
0.0
 47
0.0
 47
0.0
 47
1.0
171
     0
 49
0.0008202099737533
 49
0.0
 49
0.0
 49
0.0
 49
0.0
 49
0.0008202099737533
 49
0.0
 49
0.0
 49
0.0
 49
0.0
 49
1.0
 49
0.0
 49
0.0
 49
0.0
 49
0.0
 49
1.0
175
     0
142
0.0008202099737533
142
0.0
142
0.0
142
0.0
142
0.0
142
0.0008202099737533
142
0.0
142
0.0
142
0.0
142
0.0
142
1.0
142
0.0
142
0.0
142
0.0
142
0.0
142
1.0
179
     0
144
0.0008202099737533
144
0.0
144
0.0
144
0.0
144
0.0
144
0.0008202099737533
144
0.0
144
0.0
144
0.0
144
0.0
144
1.0
144
0.0
144
0.0
144
0.0
144
0.0
144
1.0
147
0.0008202099737533
147
0.0
147
0.0
147
0.0
147
0.0
147
0.0008202099737533
147
0.0
147
0.0
147
0.0
147
0.0
147
1.0
147
0.0
147
0.0
147
0.0
147
0.0
147
1.0
  0
MATERIAL
  5
E3D7
102
{ACAD_XDICTIONARY
360
E3D8
102
}
102
{ACAD_REACTORS
330
E3D6
102
}
330
E3D6
100
AcDbMaterial
  1
ByLayer
 72
     0
 43
0.0008202099737533
 43
0.0
 43
0.0
 43
0.0
 43
0.0
 43
0.0008202099737533
 43
0.0
 43
0.0
 43
0.0
 43
0.0
 43
1.0
 43
0.0
 43
0.0
 43
0.0
 43
0.0
 43
1.0
 77
     0
 47
0.0008202099737533
 47
0.0
 47
0.0
 47
0.0
 47
0.0
 47
0.0008202099737533
 47
0.0
 47
0.0
 47
0.0
 47
0.0
 47
1.0
 47
0.0
 47
0.0
 47
0.0
 47
0.0
 47
1.0
171
     0
 49
0.0008202099737533
 49
0.0
 49
0.0
 49
0.0
 49
0.0
 49
0.0008202099737533
 49
0.0
 49
0.0
 49
0.0
 49
0.0
 49
1.0
 49
0.0
 49
0.0
 49
0.0
 49
0.0
 49
1.0
175
     0
142
0.0008202099737533
142
0.0
142
0.0
142
0.0
142
0.0
142
0.0008202099737533
142
0.0
142
0.0
142
0.0
142
0.0
142
1.0
142
0.0
142
0.0
142
0.0
142
0.0
142
1.0
179
     0
144
0.0008202099737533
144
0.0
144
0.0
144
0.0
144
0.0
144
0.0008202099737533
144
0.0
144
0.0
144
0.0
144
0.0
144
1.0
144
0.0
144
0.0
144
0.0
144
0.0
144
1.0
147
0.0008202099737533
147
0.0
147
0.0
147
0.0
147
0.0
147
0.0008202099737533
147
0.0
147
0.0
147
0.0
147
0.0
147
1.0
147
0.0
147
0.0
147
0.0
147
0.0
147
1.0
  0
MATERIAL
  5
E3E7
102
{ACAD_XDICTIONARY
360
E3E8
102
}
102
{ACAD_REACTORS
330
E3D6
102
}
330
E3D6
100
AcDbMaterial
  1
Global
 72
     0
 43
0.0008202099737533
 43
0.0
 43
0.0
 43
0.0
 43
0.0
 43
0.0008202099737533
 43
0.0
 43
0.0
 43
0.0
 43
0.0
 43
1.0
 43
0.0
 43
0.0
 43
0.0
 43
0.0
 43
1.0
 77
     0
 47
0.0008202099737533
 47
0.0
 47
0.0
 47
0.0
 47
0.0
 47
0.0008202099737533
 47
0.0
 47
0.0
 47
0.0
 47
0.0
 47
1.0
 47
0.0
 47
0.0
 47
0.0
 47
0.0
 47
1.0
171
     0
 49
0.0008202099737533
 49
0.0
 49
0.0
 49
0.0
 49
0.0
 49
0.0008202099737533
 49
0.0
 49
0.0
 49
0.0
 49
0.0
 49
1.0
 49
0.0
 49
0.0
 49
0.0
 49
0.0
 49
1.0
175
     0
142
0.0008202099737533
142
0.0
142
0.0
142
0.0
142
0.0
142
0.0008202099737533
142
0.0
142
0.0
142
0.0
142
0.0
142
1.0
142
0.0
142
0.0
142
0.0
142
0.0
142
1.0
179
     0
144
0.0008202099737533
144
0.0
144
0.0
144
0.0
144
0.0
144
0.0008202099737533
144
0.0
144
0.0
144
0.0
144
0.0
144
1.0
144
0.0
144
0.0
144
0.0
144
0.0
144
1.0
147
0.0008202099737533
147
0.0
147
0.0
147
0.0
147
0.0
147
0.0008202099737533
147
0.0
147
0.0
147
0.0
147
0.0
147
1.0
147
0.0
147
0.0
147
0.0
147
0.0
147
1.0
  0
MLEADERSTYLE
  5
E426
102
{ACAD_REACTORS
330
E425
102
}
330
E425
100
AcDbMLeaderStyle
170
     2
171
     1
172
     0
 90
        2
 40
0.0
 41
0.0
173
     1
 91
-1023410172
340
15
 92
       20
290
     1
 42
0.09
291
     1
 43
-0.36
  3
Standard
341
2B
 44
3.0
300

342
34
174
     6
178
     6
175
     1
176
     0
 93
-1023410169
 45
6.0
292
     0
297
     0
 46
0.18
 94
-1056964608
 47
1.0
 49
1.0
140
1.0
293
     1
141
0.0
294
     1
177
     0
142
1.0
295
     0
296
     0
143
0.125
1001
ACAD_MLEADERVER
1070
     2
  0
MLINESTYLE
  5
18
102
{ACAD_REACTORS
330
17
102
}
330
17
100
AcDbMlineStyle
  2
STANDARD
 70
     0
  3

 62
   256
 51
90.0
 52
90.0
 71
     2
 49
0.5
 62
   256
  6
BYLAYER
 49
-0.5
 62
   256
  6
BYLAYER
  0
ACDBPLACEHOLDER
  5
F
102
{ACAD_REACTORS
330
E
102
}
330
E
  0
SCALE
  5
E404
102
{ACAD_REACTORS
330
E403
102
}
330
E403
100
AcDbScale
 70
     0
300
1:1
140
1.0
141
1.0
290
     1
  0
SCALE
  5
E405
102
{ACAD_REACTORS
330
E403
102
}
330
E403
100
AcDbScale
 70
     0
300
1:2
140
1.0
141
2.0
290
     0
  0
SCALE
  5
E406
102
{ACAD_REACTORS
330
E403
102
}
330
E403
100
AcDbScale
 70
     0
300
1:4
140
1.0
141
4.0
290
     0
  0
SCALE
  5
E407
102
{ACAD_REACTORS
330
E403
102
}
330
E403
100
AcDbScale
 70
     0
300
1:5
140
1.0
141
5.0
290
     0
  0
SCALE
  5
E408
102
{ACAD_REACTORS
330
E403
102
}
330
E403
100
AcDbScale
 70
     0
300
1:8
140
1.0
141
8.0
290
     0
  0
SCALE
  5
E409
102
{ACAD_REACTORS
330
E403
102
}
330
E403
100
AcDbScale
 70
     0
300
1:10
140
1.0
141
10.0
290
     0
  0
SCALE
  5
E40A
102
{ACAD_REACTORS
330
E403
102
}
330
E403
100
AcDbScale
 70
     0
300
1:16
140
1.0
141
16.0
290
     0
  0
SCALE
  5
E40B
102
{ACAD_REACTORS
330
E403
102
}
330
E403
100
AcDbScale
 70
     0
300
1:20
140
1.0
141
20.0
290
     0
  0
SCALE
  5
E40C
102
{ACAD_REACTORS
330
E403
102
}
330
E403
100
AcDbScale
 70
     0
300
1:30
140
1.0
141
30.0
290
     0
  0
SCALE
  5
E40D
102
{ACAD_REACTORS
330
E403
102
}
330
E403
100
AcDbScale
 70
     0
300
1:40
140
1.0
141
40.0
290
     0
  0
SCALE
  5
E40E
102
{ACAD_REACTORS
330
E403
102
}
330
E403
100
AcDbScale
 70
     0
300
1:50
140
1.0
141
50.0
290
     0
  0
SCALE
  5
E40F
102
{ACAD_REACTORS
330
E403
102
}
330
E403
100
AcDbScale
 70
     0
300
1:100
140
1.0
141
100.0
290
     0
  0
SCALE
  5
E410
102
{ACAD_REACTORS
330
E403
102
}
330
E403
100
AcDbScale
 70
     0
300
2:1
140
2.0
141
1.0
290
     0
  0
SCALE
  5
E411
102
{ACAD_REACTORS
330
E403
102
}
330
E403
100
AcDbScale
 70
     0
300
4:1
140
4.0
141
1.0
290
     0
  0
SCALE
  5
E412
102
{ACAD_REACTORS
330
E403
102
}
330
E403
100
AcDbScale
 70
     0
300
8:1
140
8.0
141
1.0
290
     0
  0
SCALE
  5
E413
102
{ACAD_REACTORS
330
E403
102
}
330
E403
100
AcDbScale
 70
     0
300
10:1
140
10.0
141
1.0
290
     0
  0
SCALE
  5
E414
102
{ACAD_REACTORS
330
E403
102
}
330
E403
100
AcDbScale
 70
     0
300
100:1
140
100.0
141
1.0
290
     0
  0
SCALE
  5
E415
102
{ACAD_REACTORS
330
E403
102
}
330
E403
100
AcDbScale
 70
     0
300
1/128" = 1'-0"
140
0.0078125
141
12.0
290
     0
  0
SCALE
  5
E416
102
{ACAD_REACTORS
330
E403
102
}
330
E403
100
AcDbScale
 70
     0
300
1/64" = 1'-0"
140
0.015625
141
12.0
290
     0
  0
SCALE
  5
E417
102
{ACAD_REACTORS
330
E403
102
}
330
E403
100
AcDbScale
 70
     0
300
1/32" = 1'-0"
140
0.03125
141
12.0
290
     0
  0
SCALE
  5
E418
102
{ACAD_REACTORS
330
E403
102
}
330
E403
100
AcDbScale
 70
     0
300
1/16" = 1'-0"
140
0.0625
141
12.0
290
     0
  0
SCALE
  5
E419
102
{ACAD_REACTORS
330
E403
102
}
330
E403
100
AcDbScale
 70
     0
300
3/32" = 1'-0"
140
0.09375
141
12.0
290
     0
  0
SCALE
  5
E41A
102
{ACAD_REACTORS
330
E403
102
}
330
E403
100
AcDbScale
 70
     0
300
1/8" = 1'-0"
140
0.125
141
12.0
290
     0
  0
SCALE
  5
E41B
102
{ACAD_REACTORS
330
E403
102
}
330
E403
100
AcDbScale
 70
     0
300
3/16" = 1'-0"
140
0.1875
141
12.0
290
     0
  0
SCALE
  5
E41C
102
{ACAD_REACTORS
330
E403
102
}
330
E403
100
AcDbScale
 70
     0
300
1/4" = 1'-0"
140
0.25
141
12.0
290
     0
  0
SCALE
  5
E41D
102
{ACAD_REACTORS
330
E403
102
}
330
E403
100
AcDbScale
 70
     0
300
3/8" = 1'-0"
140
0.375
141
12.0
290
     0
  0
SCALE
  5
E41E
102
{ACAD_REACTORS
330
E403
102
}
330
E403
100
AcDbScale
 70
     0
300
1/2" = 1'-0"
140
0.5
141
12.0
290
     0
  0
SCALE
  5
E41F
102
{ACAD_REACTORS
330
E403
102
}
330
E403
100
AcDbScale
 70
     0
300
3/4" = 1'-0"
140
0.75
141
12.0
290
     0
  0
SCALE
  5
E420
102
{ACAD_REACTORS
330
E403
102
}
330
E403
100
AcDbScale
 70
     0
300
1" = 1'-0"
140
1.0
141
12.0
290
     0
  0
SCALE
  5
E421
102
{ACAD_REACTORS
330
E403
102
}
330
E403
100
AcDbScale
 70
     0
300
1-1/2" = 1'-0"
140
1.5
141
12.0
290
     0
  0
SCALE
  5
E422
102
{ACAD_REACTORS
330
E403
102
}
330
E403
100
AcDbScale
 70
     0
300
3" = 1'-0"
140
3.0
141
12.0
290
     0
  0
SCALE
  5
E423
102
{ACAD_REACTORS
330
E403
102
}
330
E403
100
AcDbScale
 70
     0
300
6" = 1'-0"
140
6.0
141
12.0
290
     0
  0
SCALE
  5
E424
102
{ACAD_REACTORS
330
E403
102
}
330
E403
100
AcDbScale
 70
     0
300
1'-0" = 1'-0"
140
12.0
141
12.0
290
     0
  0
TABLESTYLE
  5
E402
102
{ACAD_XDICTIONARY
360
103A9
102
}
102
{ACAD_REACTORS
330
E401
102
}
330
E401
100
AcDbTableStyle
  3
Standard
 70
     0
 71
     0
 40
0.06
 41
0.06
280
     0
281
     0
  7
Standard
140
0.18
170
     2
 62
     0
 63
     7
283
     0
274
    -2
284
     1
 64
     0
275
    -2
285
     1
 65
     0
276
    -2
286
     1
 66
     0
277
    -2
287
     1
 67
     0
278
    -2
288
     1
 68
     0
279
    -2
289
     1
 69
     0
  7
Standard
140
0.25
170
     5
 62
     0
 63
     7
283
     0
274
    -2
284
     1
 64
     0
275
    -2
285
     1
 65
     0
276
    -2
286
     1
 66
     0
277
    -2
287
     1
 67
     0
278
    -2
288
     1
 68
     0
279
    -2
289
     1
 69
     0
  7
Standard
140
0.18
170
     5
 62
     0
 63
     7
283
     0
274
    -2
284
     1
 64
     0
275
    -2
285
     1
 65
     0
276
    -2
286
     1
 66
     0
277
    -2
287
     1
 67
     0
278
    -2
288
     1
 68
     0
279
    -2
289
     1
 69
     0
  0
VISUALSTYLE
  5
E3F5
102
{ACAD_REACTORS
330
E3EF
102
}
330
E3EF
100
AcDbVisualStyle
  2
2dWireframe
 70
     4
 71
     0
 72
     2
 73
     0
 90
        0
 40
-0.6
 41
-30.0
 62
     5
 63
     7
 74
     1
 91
        4
 64
     7
 65
   257
 75
     1
175
     1
 42
1.0
 92
        0
 66
   257
 43
1.0
 76
     1
 77
     6
 78
     2
 67
     7
 79
     5
170
     0
171
     0
290
     0
174
     0
 93
        1
 44
0.0
173
     0
291
     0
 45
0.0
1001
ACAD
1000
AcDbSavedByObjectVersion
1070
     0
  0
VISUALSTYLE
  5
E3F7
102
{ACAD_REACTORS
330
E3EF
102
}
330
E3EF
100
AcDbVisualStyle
  2
3D Hidden
 70
     6
 71
     1
 72
     2
 73
     2
 90
        0
 40
-0.6
 41
-30.0
 62
     5
 63
     7
 74
     2
 91
        2
 64
     7
 65
   257
 75
     2
175
     1
 42
40.0
 92
        0
 66
   257
 43
1.0
 76
     1
 77
     6
 78
     2
 67
     7
 79
     3
170
     0
171
     0
290
     0
174
     0
 93
        1
 44
0.0
173
     0
291
     0
 45
0.0
1001
ACAD
1000
AcDbSavedByObjectVersion
1070
     0
  0
VISUALSTYLE
  5
E3F6
102
{ACAD_REACTORS
330
E3EF
102
}
330
E3EF
100
AcDbVisualStyle
  2
3dWireframe
 70
     5
 71
     0
 72
     2
 73
     0
 90
        0
 40
-0.6
 41
-30.0
 62
     5
 63
     7
 74
     1
 91
        4
 64
     7
 65
   257
 75
     1
175
     1
 42
1.0
 92
        0
 66
   257
 43
1.0
 76
     1
 77
     6
 78
     2
 67
     7
 79
     5
170
     0
171
     0
290
     0
174
     0
 93
        1
 44
0.0
173
     0
291
     0
 45
0.0
1001
ACAD
1000
AcDbSavedByObjectVersion
1070
     0
  0
VISUALSTYLE
  5
E3F4
102
{ACAD_REACTORS
330
E3EF
102
}
330
E3EF
100
AcDbVisualStyle
  2
Basic
 70
     7
 71
     1
 72
     0
 73
     1
 90
        0
 40
-0.6
 41
-30.0
 62
     5
 63
     7
 74
     0
 91
        4
 64
     7
 65
   257
 75
     1
175
     1
 42
1.0
 92
        8
 66
     7
 43
1.0
 76
     1
 77
     6
 78
     2
 67
     7
 79
     5
170
     0
171
     0
290
     0
174
     0
 93
        1
 44
0.0
173
     0
291
     1
 45
0.0
1001
ACAD
1000
AcDbSavedByObjectVersion
1070
     0
  0
VISUALSTYLE
  5
E3FB
102
{ACAD_REACTORS
330
E3EF
102
}
330
E3EF
100
AcDbVisualStyle
  2
Brighten
 70
    12
 71
     2
 72
     2
 73
     0
 90
        0
 40
-0.6
 41
-30.0
 62
     5
 63
     7
 74
     1
 91
        4
 64
     7
 65
   257
 75
     1
175
     1
 42
1.0
 92
        8
 66
     7
 43
1.0
 76
     1
 77
     6
 78
     2
 67
     7
 79
     5
170
     0
171
     0
290
     0
174
     0
 93
        1
 44
50.0
173
     0
291
     1
 45
0.0
1001
ACAD
1000
AcDbSavedByObjectVersion
1070
     0
  0
VISUALSTYLE
  5
E3FF
102
{ACAD_REACTORS
330
E3EF
102
}
330
E3EF
100
AcDbVisualStyle
  2
ColorChange
 70
    16
 71
     2
 72
     2
 73
     3
 90
        0
 40
-0.6
 41
-30.0
 62
     5
 63
     8
 74
     1
 91
        4
 64
     7
 65
   257
 75
     1
175
     1
 42
1.0
 92
        8
 66
     8
 43
1.0
 76
     1
 77
     6
 78
     2
 67
     7
 79
     5
170
     0
171
     0
290
     0
174
     0
 93
        1
 44
0.0
173
     0
291
     1
 45
0.0
1001
ACAD
1000
AcDbSavedByObjectVersion
1070
     0
  0
VISUALSTYLE
  5
E3F8
102
{ACAD_REACTORS
330
E3EF
102
}
330
E3EF
100
AcDbVisualStyle
  2
Conceptual
 70
     9
 71
     3
 72
     2
 73
     0
 90
        0
 40
-0.6
 41
-30.0
 62
     5
 63
     7
 74
     2
 91
        2
 64
     7
 65
   257
 75
     1
175
     1
 42
40.0
 92
        8
 66
     7
 43
1.0
 76
     1
 77
     6
 78
     2
 67
     7
 79
     3
170
     0
171
     0
290
     0
174
     0
 93
        1
 44
0.0
173
     0
291
     0
 45
0.0
1001
ACAD
1000
AcDbSavedByObjectVersion
1070
     0
  0
VISUALSTYLE
  5
E3FA
102
{ACAD_REACTORS
330
E3EF
102
}
330
E3EF
100
AcDbVisualStyle
  2
Dim
 70
    11
 71
     2
 72
     2
 73
     0
 90
        0
 40
-0.6
 41
-30.0
 62
     5
 63
     7
 74
     1
 91
        4
 64
     7
 65
   257
 75
     1
175
     1
 42
1.0
 92
        8
 66
     7
 43
1.0
 76
     1
 77
     6
 78
     2
 67
     7
 79
     5
170
     0
171
     0
290
     0
174
     0
 93
        1
 44
-50.0
173
     0
291
     1
 45
0.0
1001
ACAD
1000
AcDbSavedByObjectVersion
1070
     0
  0
VISUALSTYLE
  5
E3FE
102
{ACAD_REACTORS
330
E3EF
102
}
330
E3EF
100
AcDbVisualStyle
  2
Facepattern
 70
    15
 71
     2
 72
     2
 73
     0
 90
        0
 40
-0.6
 41
-30.0
 62
     5
 63
     7
 74
     1
 91
        4
 64
     7
 65
   257
 75
     1
175
     1
 42
1.0
 92
        8
 66
     7
 43
1.0
 76
     1
 77
     6
 78
     2
 67
     7
 79
     5
170
     0
171
     0
290
     0
174
     0
 93
        1
 44
0.0
173
     0
291
     1
 45
0.0
1001
ACAD
1000
AcDbSavedByObjectVersion
1070
     0
  0
VISUALSTYLE
  5
E3F0
102
{ACAD_REACTORS
330
E3EF
102
}
330
E3EF
100
AcDbVisualStyle
  2
Flat
 70
     0
 71
     2
 72
     1
 73
     1
 90
        2
 40
-0.6
 41
30.0
 62
     5
 63
     7
 74
     0
 91
        4
 64
     7
 65
   257
 75
     1
175
     1
 42
1.0
 92
        8
 66
     7
 43
1.0
 76
     1
 77
     6
 78
     2
 67
     7
 79
     5
170
     0
171
     0
290
     0
174
     0
 93
       13
 44
0.0
173
     0
291
     1
 45
0.0
1001
ACAD
1000
AcDbSavedByObjectVersion
1070
     0
  0
VISUALSTYLE
  5
E3F1
102
{ACAD_REACTORS
330
E3EF
102
}
330
E3EF
100
AcDbVisualStyle
  2
FlatWithEdges
 70
     1
 71
     2
 72
     1
 73
     1
 90
        2
 40
-0.6
 41
30.0
 62
     5
 63
     7
 74
     1
 91
        4
 64
     7
 65
   257
 75
     1
175
     1
 42
1.0
 92
        0
 66
   257
 43
1.0
 76
     1
 77
     6
 78
     2
 67
     7
 79
     5
170
     0
171
     0
290
     0
174
     0
 93
       13
 44
0.0
173
     0
291
     1
 45
0.0
1001
ACAD
1000
AcDbSavedByObjectVersion
1070
     0
  0
VISUALSTYLE
  5
E3F2
102
{ACAD_REACTORS
330
E3EF
102
}
330
E3EF
100
AcDbVisualStyle
  2
Gouraud
 70
     2
 71
     2
 72
     2
 73
     1
 90
        2
 40
-0.6
 41
30.0
 62
     5
 63
     7
 74
     0
 91
        4
 64
     7
 65
   257
 75
     1
175
     1
 42
1.0
 92
        0
 66
     7
 43
1.0
 76
     1
 77
     6
 78
     2
 67
     7
 79
     5
170
     0
171
     0
290
     0
174
     0
 93
       13
 44
0.0
173
     0
291
     1
 45
0.0
1001
ACAD
1000
AcDbSavedByObjectVersion
1070
     0
  0
VISUALSTYLE
  5
E3F3
102
{ACAD_REACTORS
330
E3EF
102
}
330
E3EF
100
AcDbVisualStyle
  2
GouraudWithEdges
 70
     3
 71
     2
 72
     2
 73
     1
 90
        2
 40
-0.6
 41
30.0
 62
     5
 63
     7
 74
     1
 91
        4
 64
     7
 65
   257
 75
     1
175
     1
 42
1.0
 92
        0
 66
   257
 43
1.0
 76
     1
 77
     6
 78
     2
 67
     7
 79
     5
170
     0
171
     0
290
     0
174
     0
 93
       13
 44
0.0
173
     0
291
     1
 45
0.0
1001
ACAD
1000
AcDbSavedByObjectVersion
1070
     0
  0
VISUALSTYLE
  5
E3FD
102
{ACAD_REACTORS
330
E3EF
102
}
330
E3EF
100
AcDbVisualStyle
  2
Linepattern
 70
    14
 71
     2
 72
     2
 73
     0
 90
        0
 40
-0.6
 41
-30.0
 62
     5
 63
     7
 74
     1
 91
        4
 64
     7
 65
   257
 75
     7
175
     7
 42
1.0
 92
        8
 66
     7
 43
1.0
 76
     1
 77
     6
 78
     2
 67
     7
 79
     5
170
     0
171
     0
290
     0
174
     0
 93
        1
 44
0.0
173
     0
291
     1
 45
0.0
1001
ACAD
1000
AcDbSavedByObjectVersion
1070
     0
  0
VISUALSTYLE
  5
E3F9
102
{ACAD_REACTORS
330
E3EF
102
}
330
E3EF
100
AcDbVisualStyle
  2
Realistic
 70
     8
 71
     2
 72
     2
 73
     0
 90
        0
 40
-0.6
 41
-30.0
 62
     5
 63
     7
 74
     1
 91
        0
 64
     7
 65
   257
 75
     1
175
     1
 42
1.0
 92
        8
 66
     8
 43
1.0
 76
     1
 77
     6
 78
     2
 67
     7
 79
     5
170
     0
171
     0
290
     0
174
     0
 93
       13
 44
0.0
173
     0
291
     0
 45
0.0
1001
ACAD
1000
AcDbSavedByObjectVersion
1070
     0
  0
VISUALSTYLE
  5
E3FC
102
{ACAD_REACTORS
330
E3EF
102
}
330
E3EF
100
AcDbVisualStyle
  2
Thicken
 70
    13
 71
     2
 72
     2
 73
     0
 90
        0
 40
-0.6
 41
-30.0
 62
     5
 63
     7
 74
     1
 91
        4
 64
     7
 65
   257
 75
     1
175
     1
 42
1.0
 92
       12
 66
     7
 43
1.0
 76
     1
 77
     6
 78
     2
 67
     7
 79
     5
170
     0
171
     0
290
     0
174
     0
 93
        1
 44
0.0
173
     0
291
     1
 45
0.0
1001
ACAD
1000
AcDbSavedByObjectVersion
1070
     0
  0
DICTIONARYVAR
  5
103B0
102
{ACAD_REACTORS
330
103AC
102
}
330
103AC
100
DictionaryVariables
280
     0
  1
1:1
  0
DICTIONARYVAR
  5
103AE
102
{ACAD_REACTORS
330
103AC
102
}
330
103AC
100
DictionaryVariables
280
     0
  1
STANDARD
  0
DICTIONARYVAR
  5
103AD
102
{ACAD_REACTORS
330
103AC
102
}
330
103AC
100
DictionaryVariables
280
     0
  1
STANDARD
  0
DICTIONARYVAR
  5
18A5F
102
{ACAD_REACTORS
330
103AC
102
}
330
103AC
100
DictionaryVariables
280
     0
  1
1
  0
DICTIONARYVAR
  5
18A5E
102
{ACAD_REACTORS
330
103AC
102
}
330
103AC
100
DictionaryVariables
280
     0
  1
0
  0
DICTIONARYVAR
  5
103B1
102
{ACAD_REACTORS
330
103AC
102
}
330
103AC
100
DictionaryVariables
280
     0
  1
0
  0
DICTIONARYVAR
  5
103AF
102
{ACAD_REACTORS
330
103AC
102
}
330
103AC
100
DictionaryVariables
280
     0
  1
0
  0
DICTIONARYVAR
  5
18A5D
102
{ACAD_REACTORS
330
103AC
102
}
330
103AC
100
DictionaryVariables
280
     0
  1
127
  0
DICTIONARY
  5
18CD5
330
22
100
AcDbDictionary
280
     1
281
     1
  3
ACAD_XREC_ROUNDTRIP
360
18CD6
  0
DICTIONARY
  5
18CD3
330
1E
100
AcDbDictionary
280
     1
281
     1
  3
ACAD_XREC_ROUNDTRIP
360
18CD4
  0
DICTIONARY
  5
18CD7
330
26
100
AcDbDictionary
280
     1
281
     1
  3
ACAD_XREC_ROUNDTRIP
360
18CD8
  0
DICTIONARY
  5
E3E0
330
E3DF
100
AcDbDictionary
280
     1
281
     1
  3
ACAD_XREC_ROUNDTRIP
360
18CDA
  3
BUMPTILE
360
E3E2
  3
DIFFUSETILE
360
E3E1
  3
OPACITYTILE
360
E3E5
  3
REFLECTIONTILE
360
E3E4
  3
REFRACTIONTILE
360
E3E6
  3
SPECULARTILE
360
E3E3
  0
DICTIONARY
  5
E3D8
330
E3D7
100
AcDbDictionary
280
     1
281
     1
  3
ACAD_XREC_ROUNDTRIP
360
18CD9
  3
BUMPTILE
360
E3DA
  3
DIFFUSETILE
360
E3D9
  3
OPACITYTILE
360
E3DD
  3
REFLECTIONTILE
360
E3DC
  3
REFRACTIONTILE
360
E3DE
  3
SPECULARTILE
360
E3DB
  0
DICTIONARY
  5
E3E8
330
E3E7
100
AcDbDictionary
280
     1
281
     1
  3
ACAD_XREC_ROUNDTRIP
360
18CDB
  3
BUMPTILE
360
E3EA
  3
DIFFUSETILE
360
E3E9
  3
OPACITYTILE
360
E3ED
  3
REFLECTIONTILE
360
E3EC
  3
REFRACTIONTILE
360
E3EE
  3
SPECULARTILE
360
E3EB
  0
DICTIONARY
  5
103A9
330
E402
100
AcDbDictionary
280
     1
281
     1
  3
ACAD_ROUNDTRIP_2008_TABLESTYLE_CELLSTYLEMAP
360
18CD1
  3
ACAD_XREC_ROUNDTRIP
360
18CDC
  0
XRECORD
  5
18CD6
102
{ACAD_REACTORS
330
18CD5
102
}
330
18CD5
100
AcDbXrecord
280
     1
102
SHADEPLOT
 70
     0
102
SHADEPLOTRESLEVEL
 70
     2
102
SHADEPLOTCUSTOMDPI
 70
   300
  0
XRECORD
  5
18CD4
102
{ACAD_REACTORS
330
18CD3
102
}
330
18CD3
100
AcDbXrecord
280
     1
102
SHADEPLOT
 70
     0
102
SHADEPLOTRESLEVEL
 70
     2
102
SHADEPLOTCUSTOMDPI
 70
   300
  0
XRECORD
  5
18CD8
102
{ACAD_REACTORS
330
18CD7
102
}
330
18CD7
100
AcDbXrecord
280
     1
102
SHADEPLOT
 70
     0
102
SHADEPLOTRESLEVEL
 70
     2
102
SHADEPLOTCUSTOMDPI
 70
   300
  0
XRECORD
  5
18CDA
102
{ACAD_REACTORS
330
E3E0
102
}
330
E3E0
100
AcDbXrecord
280
     1
102
MATERIAL
148
0.0
149
0.0
149
0.0
 93
        0
 94
      127
282
     0
 72
     0
 77
     0
171
     0
175
     0
179
     0
273
     0
  0
XRECORD
  5
E3E2
102
{ACAD_REACTORS
330
E3E0
102
}
330
E3E0
100
AcDbXrecord
280
     1
270
     1
271
     1
  0
XRECORD
  5
E3E1
102
{ACAD_REACTORS
330
E3E0
102
}
330
E3E0
100
AcDbXrecord
280
     1
270
     1
271
     1
  0
XRECORD
  5
E3E5
102
{ACAD_REACTORS
330
E3E0
102
}
330
E3E0
100
AcDbXrecord
280
     1
270
     1
271
     1
  0
XRECORD
  5
E3E4
102
{ACAD_REACTORS
330
E3E0
102
}
330
E3E0
100
AcDbXrecord
280
     1
270
     1
271
     1
  0
XRECORD
  5
E3E6
102
{ACAD_REACTORS
330
E3E0
102
}
330
E3E0
100
AcDbXrecord
280
     1
270
     1
271
     1
  0
XRECORD
  5
E3E3
102
{ACAD_REACTORS
330
E3E0
102
}
330
E3E0
100
AcDbXrecord
280
     1
270
     1
271
     1
  0
XRECORD
  5
18CD9
102
{ACAD_REACTORS
330
E3D8
102
}
330
E3D8
100
AcDbXrecord
280
     1
102
MATERIAL
148
0.0
149
0.0
149
0.0
 93
        0
 94
      127
282
     0
 72
     0
 77
     0
171
     0
175
     0
179
     0
273
     0
  0
XRECORD
  5
E3DA
102
{ACAD_REACTORS
330
E3D8
102
}
330
E3D8
100
AcDbXrecord
280
     1
270
     1
271
     1
  0
XRECORD
  5
E3D9
102
{ACAD_REACTORS
330
E3D8
102
}
330
E3D8
100
AcDbXrecord
280
     1
270
     1
271
     1
  0
XRECORD
  5
E3DD
102
{ACAD_REACTORS
330
E3D8
102
}
330
E3D8
100
AcDbXrecord
280
     1
270
     1
271
     1
  0
XRECORD
  5
E3DC
102
{ACAD_REACTORS
330
E3D8
102
}
330
E3D8
100
AcDbXrecord
280
     1
270
     1
271
     1
  0
XRECORD
  5
E3DE
102
{ACAD_REACTORS
330
E3D8
102
}
330
E3D8
100
AcDbXrecord
280
     1
270
     1
271
     1
  0
XRECORD
  5
E3DB
102
{ACAD_REACTORS
330
E3D8
102
}
330
E3D8
100
AcDbXrecord
280
     1
270
     1
271
     1
  0
XRECORD
  5
18CDB
102
{ACAD_REACTORS
330
E3E8
102
}
330
E3E8
100
AcDbXrecord
280
     1
102
MATERIAL
148
0.0
149
0.0
149
0.0
 93
        0
 94
      127
282
     0
 72
     0
 77
     0
171
     0
175
     0
179
     0
273
     0
  0
XRECORD
  5
E3EA
102
{ACAD_REACTORS
330
E3E8
102
}
330
E3E8
100
AcDbXrecord
280
     1
270
     1
271
     1
  0
XRECORD
  5
E3E9
102
{ACAD_REACTORS
330
E3E8
102
}
330
E3E8
100
AcDbXrecord
280
     1
270
     1
271
     1
  0
XRECORD
  5
E3ED
102
{ACAD_REACTORS
330
E3E8
102
}
330
E3E8
100
AcDbXrecord
280
     1
270
     1
271
     1
  0
XRECORD
  5
E3EC
102
{ACAD_REACTORS
330
E3E8
102
}
330
E3E8
100
AcDbXrecord
280
     1
270
     1
271
     1
  0
XRECORD
  5
E3EE
102
{ACAD_REACTORS
330
E3E8
102
}
330
E3E8
100
AcDbXrecord
280
     1
270
     1
271
     1
  0
XRECORD
  5
E3EB
102
{ACAD_REACTORS
330
E3E8
102
}
330
E3E8
100
AcDbXrecord
280
     1
270
     1
271
     1
  0
CELLSTYLEMAP
  5
18CD1
102
{ACAD_REACTORS
330
103A9
102
}
330
103A9
100
AcDbCellStyleMap
 90
        3
300
CELLSTYLE
  1
TABLEFORMAT_BEGIN
 90
        5
170
     1
 91
        0
 92
    32768
 62
   257
 93
        1
300
CONTENTFORMAT
  1
CONTENTFORMAT_BEGIN
 90
        0
 91
        0
 92
      512
 93
        0
300

 40
0.0
140
1.0
 94
        5
 62
     0
340
11
144
0.25
309
CONTENTFORMAT_END
171
     0
 94
        0
309
TABLEFORMAT_END
  1
CELLSTYLE_BEGIN
 90
        1
 91
        1
300
_TITLE
309
CELLSTYLE_END
300
CELLSTYLE
  1
TABLEFORMAT_BEGIN
 90
        5
170
     1
 91
        0
 92
        0
 62
   257
 93
        1
300
CONTENTFORMAT
  1
CONTENTFORMAT_BEGIN
 90
        0
 91
        0
 92
      512
 93
        0
300

 40
0.0
140
1.0
 94
        5
 62
     0
340
11
144
0.18
309
CONTENTFORMAT_END
171
     0
 94
        0
309
TABLEFORMAT_END
  1
CELLSTYLE_BEGIN
 90
        2
 91
        1
300
_HEADER
309
CELLSTYLE_END
300
CELLSTYLE
  1
TABLEFORMAT_BEGIN
 90
        5
170
     1
 91
        0
 92
        0
 62
   257
 93
        1
300
CONTENTFORMAT
  1
CONTENTFORMAT_BEGIN
 90
        0
 91
        0
 92
      512
 93
        0
300

 40
0.0
140
1.0
 94
        2
 62
     0
340
11
144
0.18
309
CONTENTFORMAT_END
171
     0
 94
        0
309
TABLEFORMAT_END
  1
CELLSTYLE_BEGIN
 90
        3
 91
        2
300
_DATA
309
CELLSTYLE_END
  0
XRECORD
  5
18CDC
102
{ACAD_REACTORS
330
103A9
102
}
330
103A9
100
AcDbXrecord
280
     1
102
ACAD_ROUNDTRIP_PRE2007_TABLESTYLE
 90
      512
 91
        0
  1

 92
      512
 93
        0
  2

 94
      512
 95
        0
  3

  0
ENDSEC
  0
EOF
