  0
SECTION
  2
HEADER
  9
$ACADVER
  1
AC1015
  9
$ACADMAINTVER
 70
    20
  9
$DWGCODEPAGE
  3
ANSI_932
  9
$INSBASE
 10
0.0
 20
0.0
 30
0.0
  9
$EXTMIN
 10
20.0000000000001
 20
21.0
 30
0.0
  9
$EXTMAX
 10
809.9999999999996
 20
558.0
 30
0.0
  9
$LIMMIN
 10
0.0
 20
0.0
  9
$LIMMAX
 10
840.0
 20
594.0
  9
$ORTHOMODE
 70
     0
  9
$REGENMODE
 70
     1
  9
$FILLMODE
 70
     1
  9
$QTEXTMODE
 70
     0
  9
$MIRRTEXT
 70
     0
  9
$LTSCALE
 40
1.0
  9
$ATTMODE
 70
     1
  9
$TEXTSIZE
 40
3.0
  9
$TRACEWID
 40
1.0
  9
$TEXTSTYLE
  7
AT_VECTOR
  9
$CLAYER
  8
003
  9
$CELTYPE
  6
ByLayer
  9
$CECOLOR
 62
   256
  9
$CELTSCALE
 40
1.0
  9
$DISPSILH
 70
     0
  9
$DIMSCALE
 40
2.0
  9
$DIMASZ
 40
1.5
  9
$DIMEXO
 40
1.5
  9
$DIMDLI
 40
7.0
  9
$DIMRND
 40
0.0
  9
$DIMDLE
 40
0.0
  9
$DIMEXE
 40
1.0
  9
$DIMTP
 40
0.0
  9
$DIMTM
 40
0.0
  9
$DIMTXT
 40
3.0
  9
$DIMCEN
 40
0.0
  9
$DIMTSZ
 40
0.0
  9
$DIMTOL
 70
     0
  9
$DIMLIM
 70
     0
  9
$DIMTIH
 70
     0
  9
$DIMTOH
 70
     0
  9
$DIMSE1
 70
     0
  9
$DIMSE2
 70
     0
  9
$DIMTAD
 70
     1
  9
$DIMZIN
 70
     8
  9
$DIMBLK
  1
Open30
  9
$DIMASO
 70
     1
  9
$DIMSHO
 70
     1
  9
$DIMPOST
  1

  9
$DIMAPOST
  1

  9
$DIMALT
 70
     0
  9
$DIMALTD
 70
     3
  9
$DIMALTF
 40
0.03937007874016
  9
$DIMLFAC
 40
1.0
  9
$DIMTOFL
 70
     1
  9
$DIMTVP
 40
0.0
  9
$DIMTIX
 70
     0
  9
$DIMSOXD
 70
     0
  9
$DIMSAH
 70
     0
  9
$DIMBLK1
  1

  9
$DIMBLK2
  1

  9
$DIMSTYLE
  2
DIM
  9
$DIMCLRD
 70
     4
  9
$DIMCLRE
 70
     4
  9
$DIMCLRT
 70
     7
  9
$DIMTFAC
 40
1.0
  9
$DIMGAP
 40
1.0
  9
$DIMJUST
 70
     0
  9
$DIMSD1
 70
     0
  9
$DIMSD2
 70
     0
  9
$DIMTOLJ
 70
     0
  9
$DIMTZIN
 70
     8
  9
$DIMALTZ
 70
     0
  9
$DIMALTTZ
 70
     0
  9
$DIMUPT
 70
     0
  9
$DIMDEC
 70
     2
  9
$DIMTDEC
 70
     2
  9
$DIMALTU
 70
     2
  9
$DIMALTTD
 70
     3
  9
$DIMTXSTY
  7
DIM
  9
$DIMAUNIT
 70
     0
  9
$DIMADEC
 70
     0
  9
$DIMALTRND
 40
0.0
  9
$DIMAZIN
 70
     0
  9
$DIMDSEP
 70
    46
  9
$DIMATFIT
 70
     3
  9
$DIMFRAC
 70
     0
  9
$DIMLDRBLK
  1
Open30
  9
$DIMLUNIT
 70
     2
  9
$DIMLWD
 70
    20
  9
$DIMLWE
 70
    20
  9
$DIMTMOVE
 70
     0
  9
$LUNITS
 70
     2
  9
$LUPREC
 70
     4
  9
$SKETCHINC
 40
1.0
  9
$FILLETRAD
 40
0.0
  9
$AUNITS
 70
     0
  9
$AUPREC
 70
     0
  9
$MENU
  1
.
  9
$ELEVATION
 40
0.0
  9
$PELEVATION
 40
0.0
  9
$THICKNESS
 40
0.0
  9
$LIMCHECK
 70
     0
  9
$CHAMFERA
 40
10.0
  9
$CHAMFERB
 40
10.0
  9
$CHAMFERC
 40
20.0
  9
$CHAMFERD
 40
0.0
  9
$SKPOLY
 70
     0
  9
$TDCREATE
 40
2452888.428849190
  9
$TDUCREATE
 40
2452888.053849190
  9
$TDUPDATE
 40
2455959.428430197
  9
$TDUUPDATE
 40
2455959.053430197
  9
$TDINDWG
 40
0.4360615162
  9
$TDUSRTIMER
 40
0.4360615162
  9
$USRTIMER
 70
     1
  9
$ANGBASE
 50
0.0
  9
$ANGDIR
 70
     0
  9
$PDMODE
 70
     0
  9
$PDSIZE
 40
0.0
  9
$PLINEWID
 40
0.0
  9
$SPLFRAME
 70
     0
  9
$SPLINETYPE
 70
     6
  9
$SPLINESEGS
 70
     8
  9
$HANDSEED
  5
164EF
  9
$SURFTAB1
 70
     6
  9
$SURFTAB2
 70
     6
  9
$SURFTYPE
 70
     6
  9
$SURFU
 70
     6
  9
$SURFV
 70
     6
  9
$UCSBASE
  2

  9
$UCSNAME
  2

  9
$UCSORG
 10
0.0
 20
0.0
 30
0.0
  9
$UCSXDIR
 10
1.0
 20
0.0
 30
0.0
  9
$UCSYDIR
 10
0.0
 20
1.0
 30
0.0
  9
$UCSORTHOREF
  2

  9
$UCSORTHOVIEW
 70
     0
  9
$UCSORGTOP
 10
0.0
 20
0.0
 30
0.0
  9
$UCSORGBOTTOM
 10
0.0
 20
0.0
 30
0.0
  9
$UCSORGLEFT
 10
0.0
 20
0.0
 30
0.0
  9
$UCSORGRIGHT
 10
0.0
 20
0.0
 30
0.0
  9
$UCSORGFRONT
 10
0.0
 20
0.0
 30
0.0
  9
$UCSORGBACK
 10
0.0
 20
0.0
 30
0.0
  9
$PUCSBASE
  2

  9
$PUCSNAME
  2

  9
$PUCSORG
 10
0.0
 20
0.0
 30
0.0
  9
$PUCSXDIR
 10
1.0
 20
0.0
 30
0.0
  9
$PUCSYDIR
 10
0.0
 20
1.0
 30
0.0
  9
$PUCSORTHOREF
  2

  9
$PUCSORTHOVIEW
 70
     0
  9
$PUCSORGTOP
 10
0.0
 20
0.0
 30
0.0
  9
$PUCSORGBOTTOM
 10
0.0
 20
0.0
 30
0.0
  9
$PUCSORGLEFT
 10
0.0
 20
0.0
 30
0.0
  9
$PUCSORGRIGHT
 10
0.0
 20
0.0
 30
0.0
  9
$PUCSORGFRONT
 10
0.0
 20
0.0
 30
0.0
  9
$PUCSORGBACK
 10
0.0
 20
0.0
 30
0.0
  9
$USERI1
 70
     0
  9
$USERI2
 70
     0
  9
$USERI3
 70
     0
  9
$USERI4
 70
     0
  9
$USERI5
 70
     0
  9
$USERR1
 40
0.0
  9
$USERR2
 40
0.0
  9
$USERR3
 40
0.0
  9
$USERR4
 40
0.0
  9
$USERR5
 40
0.0
  9
$WORLDVIEW
 70
     1
  9
$SHADEDGE
 70
     3
  9
$SHADEDIF
 70
    70
  9
$TILEMODE
 70
     1
  9
$MAXACTVP
 70
    64
  9
$PINSBASE
 10
0.0
 20
0.0
 30
0.0
  9
$PLIMCHECK
 70
     0
  9
$PEXTMIN
 10
1.000000000000000E+20
 20
1.000000000000000E+20
 30
1.000000000000000E+20
  9
$PEXTMAX
 10
-1.000000000000000E+20
 20
-1.000000000000000E+20
 30
-1.000000000000000E+20
  9
$PLIMMIN
 10
0.0
 20
0.0
  9
$PLIMMAX
 10
420.0
 20
297.0
  9
$UNITMODE
 70
     0
  9
$VISRETAIN
 70
     1
  9
$PLINEGEN
 70
     0
  9
$PSLTSCALE
 70
     1
  9
$TREEDEPTH
 70
  3020
  9
$CMLSTYLE
  2
Standard
  9
$CMLJUST
 70
     0
  9
$CMLSCALE
 40
20.0
  9
$PROXYGRAPHICS
 70
     1
  9
$MEASUREMENT
 70
     0
  9
$CELWEIGHT
370
    -1
  9
$ENDCAPS
280
     0
  9
$JOINSTYLE
280
     0
  9
$LWDISPLAY
290
     0
  9
$INSUNITS
 70
     4
  9
$HYPERLINKBASE
  1

  9
$STYLESHEET
  1
EPSON.ctb
  9
$XEDIT
290
     1
  9
$CEPSNTYPE
380
     0
  9
$PSTYLEMODE
290
     1
  9
$FINGERPRINTGUID
  2
{9AEAB59C-DF80-11D7-8237-004026CDA8AB}
  9
$VERSIONGUID
  2
{E2F10764-8820-4137-892B-6EE73C3FF7F0}
  9
$EXTNAMES
290
     1
  9
$PSVPSCALE
 40
0.0
  9
$OLESTARTUP
290
     0
  0
ENDSEC
  0
SECTION
  2
CLASSES
  0
CLASS
  1
ACDBDICTIONARYWDFLT
  2
AcDbDictionaryWithDefault
  3
ObjectDBX Classes
 90
        0
280
     0
281
     0
  0
CLASS
  1
ACDBPLACEHOLDER
  2
AcDbPlaceHolder
  3
ObjectDBX Classes
 90
        0
280
     0
281
     0
  0
CLASS
  1
LAYOUT
  2
AcDbLayout
  3
ObjectDBX Classes
 90
        0
280
     0
281
     0
  0
CLASS
  1
MATERIAL
  2
AcDbMaterial
  3
ObjectDBX Classes
 90
     1153
280
     0
281
     0
  0
CLASS
  1
VISUALSTYLE
  2
AcDbVisualStyle
  3
ObjectDBX Classes
 90
     4095
280
     0
281
     0
  0
CLASS
  1
TABLESTYLE
  2
AcDbTableStyle
  3
ObjectDBX Classes
 90
     4095
280
     0
281
     0
  0
CLASS
  1
SCALE
  2
AcDbScale
  3
ObjectDBX Classes
 90
     1153
280
     0
281
     0
  0
CLASS
  1
MLEADERSTYLE
  2
AcDbMLeaderStyle
  3
ACDB_MLEADERSTYLE_CLASS
 90
     4095
280
     0
281
     0
  0
CLASS
  1
SORTENTSTABLE
  2
AcDbSortentsTable
  3
ObjectDBX Classes
 90
        0
280
     0
281
     0
  0
CLASS
  1
CELLSTYLEMAP
  2
AcDbCellStyleMap
  3
ObjectDBX Classes
 90
     1152
280
     0
281
     0
  0
CLASS
  1
DICTIONARYVAR
  2
AcDbDictionaryVar
  3
ObjectDBX Classes
 90
        0
280
     0
281
     0
  0
CLASS
  1
MULTILEADER
  2
AcDbMLeader
  3
ACDB_MLEADER_CLASS
 90
    33793
280
     0
281
     1
  0
ENDSEC
  0
SECTION
  2
TABLES
  0
TABLE
  2
VPORT
  5
8
102
{ACAD_XDICTIONARY
360
162EC
102
}
330
0
100
AcDbSymbolTable
 70
     1
  0
VPORT
  5
E3D4
330
8
100
AcDbSymbolTableRecord
100
AcDbViewportTableRecord
  2
*Active
 70
     0
 10
0.0
 20
0.0
 11
1.0
 21
1.0
 12
429.201640846579
 22
301.2591534041338
 13
0.0
 23
0.0
 14
10.0
 24
10.0
 15
10.0
 25
10.0
 16
0.0
 26
0.0
 36
1.0
 17
0.0
 27
0.0
 37
0.0
 40
607.388951850701
 41
1.590250329380764
 42
50.0
 43
0.0
 44
0.0
 50
0.0
 51
0.0
 71
     0
 72
   100
 73
     1
 74
     3
 75
     0
 76
     0
 77
     0
 78
     0
281
     0
 65
     1
110
0.0
120
0.0
130
0.0
111
1.0
121
0.0
131
0.0
112
0.0
122
1.0
132
0.0
 79
     0
146
0.0
  0
ENDTAB
  0
TABLE
  2
LTYPE
  5
5
330
0
100
AcDbSymbolTable
 70
     4
  0
LTYPE
  5
14
330
5
100
AcDbSymbolTableRecord
100
AcDbLinetypeTableRecord
  2
ByBlock
 70
     0
  3

 72
    65
 73
     0
 40
0.0
  0
LTYPE
  5
15
330
5
100
AcDbSymbolTableRecord
100
AcDbLinetypeTableRecord
  2
ByLayer
 70
     0
  3

 72
    65
 73
     0
 40
0.0
  0
LTYPE
  5
16
330
5
100
AcDbSymbolTableRecord
100
AcDbLinetypeTableRecord
  2
Continuous
 70
     0
  3
Solid line
 72
    65
 73
     0
 40
0.0
  0
LTYPE
  5
19D
330
5
100
AcDbSymbolTableRecord
100
AcDbLinetypeTableRecord
  2
ACAD_ISO04W100
 70
     0
  3
ISO long-dash dot ____ . ____ . ____ . ____ . _
 72
    65
 73
     4
 40
30.0
 49
24.0
 74
     0
 49
-3.0
 74
     0
 49
0.0
 74
     0
 49
-3.0
 74
     0
  0
LTYPE
  5
19E
330
5
100
AcDbSymbolTableRecord
100
AcDbLinetypeTableRecord
  2
ACAD_ISO02W100
 70
     0
  3
ISO dash __ __ __ __ __ __ __ __ __ __ __ __ __
 72
    65
 73
     2
 40
15.0
 49
12.0
 74
     0
 49
-3.0
 74
     0
  0
LTYPE
  5
3BF
330
5
100
AcDbSymbolTableRecord
100
AcDbLinetypeTableRecord
  2
HIDDEN
 70
     0
  3
__ __ __ __ __ __ __ __ __ __ __ __ __ __ __ __
 72
    65
 73
     2
 40
0.375
 49
0.25
 74
     0
 49
-0.125
 74
     0
  0
ENDTAB
  0
TABLE
  2
LAYER
  5
2
102
{ACAD_XDICTIONARY
360
2859
102
}
330
0
100
AcDbSymbolTable
 70
     9
  0
LAYER
  5
10
102
{ACAD_XDICTIONARY
360
F074
102
}
330
2
100
AcDbSymbolTableRecord
100
AcDbLayerTableRecord
  2
0
 70
     0
 62
     7
  6
Continuous
370
    25
390
F
  0
LAYER
  5
33
102
{ACAD_XDICTIONARY
360
F07A
102
}
330
2
100
AcDbSymbolTableRecord
100
AcDbLayerTableRecord
  2
003
 70
     0
 62
     2
  6
Continuous
370
    25
390
F
  0
LAYER
  5
1A4
102
{ACAD_XDICTIONARY
360
F080
102
}
330
2
100
AcDbSymbolTableRecord
100
AcDbLayerTableRecord
  2
006
 70
     0
 62
     4
  6
ACAD_ISO04W100
370
    20
390
F
  0
LAYER
  5
1A5
102
{ACAD_XDICTIONARY
360
F082
102
}
330
2
100
AcDbSymbolTableRecord
100
AcDbLayerTableRecord
  2
007
 70
     0
 62
     4
  6
ACAD_ISO02W100
370
    20
390
F
  0
LAYER
  5
1A8
330
2
100
AcDbSymbolTableRecord
100
AcDbLayerTableRecord
  2
Defpoints
 70
     0
 62
     7
  6
Continuous
290
     0
370
    25
390
F
  0
LAYER
  5
2B1
102
{ACAD_XDICTIONARY
360
F088
102
}
330
2
100
AcDbSymbolTableRecord
100
AcDbLayerTableRecord
  2
010
 70
     0
 62
     4
  6
Continuous
370
    20
390
F
  0
LAYER
  5
3BF1
102
{ACAD_XDICTIONARY
360
F0BC
102
}
330
2
100
AcDbSymbolTableRecord
100
AcDbLayerTableRecord
  2
YKK_W11
 70
     0
 62
     7
  6
Continuous
370
    -3
390
F
  0
LAYER
  5
CA59
102
{ACAD_XDICTIONARY
360
F0C6
102
}
330
2
100
AcDbSymbolTableRecord
100
AcDbLayerTableRecord
  2
YKK_W17
 70
     0
 62
     7
  6
Continuous
370
    -3
390
F
  0
LAYER
  5
1271F
330
2
100
AcDbSymbolTableRecord
100
AcDbLayerTableRecord
  2
YKK_ZWAK
 70
     0
 62
     7
  6
Continuous
370
    -3
390
F
  0
ENDTAB
  0
TABLE
  2
STYLE
  5
3
330
0
100
AcDbSymbolTable
 70
     4
  0
STYLE
  5
11
330
3
100
AcDbSymbolTableRecord
100
AcDbTextStyleTableRecord
  2
Standard
 70
     0
 40
0.0
 41
1.0
 50
0.0
 71
     0
 42
2.5
  3
txt
  4

  0
STYLE
  5
34
330
3
100
AcDbSymbolTableRecord
100
AcDbTextStyleTableRecord
  2
DIM
 70
     0
 40
0.0
 41
0.75
 50
0.0
 71
     0
 42
60.0
  3
romans.shx
  4
extfont.shx
  0
STYLE
  5
35
330
3
100
AcDbSymbolTableRecord
100
AcDbTextStyleTableRecord
  2
AT_VECTOR
 70
     0
 40
0.0
 41
1.0
 50
0.0
 71
     0
 42
3.0
  3
romans.shx
  4
extfont.shx
  0
STYLE
  5
12720
330
3
100
AcDbSymbolTableRecord
100
AcDbTextStyleTableRecord
  2
YKK_OSSTYLE1
 70
     0
 40
0.0
 41
0.9
 50
0.0
 71
     0
 42
3.0
  3
romans.shx
  4
EXTFONT.SHX
  0
ENDTAB
  0
TABLE
  2
VIEW
  5
6
330
0
100
AcDbSymbolTable
 70
     0
  0
ENDTAB
  0
TABLE
  2
UCS
  5
7
330
0
100
AcDbSymbolTable
 70
     0
  0
ENDTAB
  0
TABLE
  2
APPID
  5
9
330
0
100
AcDbSymbolTable
 70
    12
  0
APPID
  5
12
330
9
100
AcDbSymbolTableRecord
100
AcDbRegAppTableRecord
  2
ACAD
 70
     0
  0
APPID
  5
3DA
330
9
100
AcDbSymbolTableRecord
100
AcDbRegAppTableRecord
  2
BS2_OSAMARI_KUTAI
 70
     0
  0
APPID
  5
3DB
330
9
100
AcDbSymbolTableRecord
100
AcDbRegAppTableRecord
  2
BS2_OSAMARI_ISIAGE
 70
     0
  0
APPID
  5
3DC
330
9
100
AcDbSymbolTableRecord
100
AcDbRegAppTableRecord
  2
BS2_OSAMARI_IMOKU
 70
     0
  0
APPID
  5
3DD
330
9
100
AcDbSymbolTableRecord
100
AcDbRegAppTableRecord
  2
BS2_OSAMARI_OSIAGE
 70
     0
  0
APPID
  5
3DE
330
9
100
AcDbSymbolTableRecord
100
AcDbRegAppTableRecord
  2
BS2_OSAMARI_OFZK
 70
     0
  0
APPID
  5
E427
330
9
100
AcDbSymbolTableRecord
100
AcDbRegAppTableRecord
  2
ACAD_MLEADERVER
 70
     0
  0
APPID
  5
F13C
330
9
100
AcDbSymbolTableRecord
100
AcDbRegAppTableRecord
  2
ACAD_EXEMPT_FROM_CAD_STANDARDS
 70
     0
  0
APPID
  5
F7FB
330
9
100
AcDbSymbolTableRecord
100
AcDbRegAppTableRecord
  2
ACAD_PSEXT
 70
     0
  0
APPID
  5
12721
330
9
100
AcDbSymbolTableRecord
100
AcDbRegAppTableRecord
  2
ACAD_DSTYLE_DIMJAG
 70
     0
  0
APPID
  5
12722
330
9
100
AcDbSymbolTableRecord
100
AcDbRegAppTableRecord
  2
ACAD_DSTYLE_DIMTALN
 70
     0
  0
APPID
  5
1393B
330
9
100
AcDbSymbolTableRecord
100
AcDbRegAppTableRecord
  2
YALIB
 70
     0
  0
ENDTAB
  0
TABLE
  2
DIMSTYLE
  5
A
330
0
100
AcDbSymbolTable
 70
     2
100
AcDbDimStyleTable
 71
     2
340
38
340
1A9
  0
DIMSTYLE
105
38
102
{ACAD_REACTORS
330
12D87
330
12DC1
330
12EA4
330
12EA9
330
12EF9
330
12F49
330
12F4A
330
12CAC
330
12CC5
330
161B6
330
161C3
102
}
330
A
100
AcDbSymbolTableRecord
100
AcDbDimStyleTableRecord
  2
DIM
 70
     0
 40
2.0
 41
1.5
 42
1.5
 43
7.0
 44
1.0
 73
     0
 74
     0
 77
     1
 78
     8
140
3.0
141
0.0
143
0.03937007874016
147
1.0
171
     3
172
     1
176
     4
177
     4
178
     7
271
     2
272
     2
274
     3
283
     0
284
     8
340
34
341
2B
342
2B
371
    20
372
    20
  0
DIMSTYLE
105
1A9
330
A
100
AcDbSymbolTableRecord
100
AcDbDimStyleTableRecord
  2
Standard
 70
     0
340
11
  0
ENDTAB
  0
TABLE
  2
BLOCK_RECORD
  5
1
330
0
100
AcDbSymbolTable
 70
    16
  0
BLOCK_RECORD
  5
1F
102
{ACAD_XDICTIONARY
360
F144
102
}
330
1
100
AcDbSymbolTableRecord
100
AcDbBlockTableRecord
  2
*Model_Space
340
22
  0
BLOCK_RECORD
  5
1B
330
1
100
AcDbSymbolTableRecord
100
AcDbBlockTableRecord
  2
*Paper_Space
340
1E
  0
BLOCK_RECORD
  5
23
330
1
100
AcDbSymbolTableRecord
100
AcDbBlockTableRecord
  2
*Paper_Space0
340
26
  0
BLOCK_RECORD
  5
2B
330
1
100
AcDbSymbolTableRecord
100
AcDbBlockTableRecord
  2
_Open30
340
0
102
{BLKREFS
331
1601B
331
1601C
331
16024
331
16025
331
16222
331
16223
331
1622B
331
1622C
331
16234
331
16235
331
1623D
331
1623E
331
16246
331
16247
331
1624F
331
16250
331
16258
331
16259
331
16261
331
16262
331
1626A
331
1626B
102
}
  0
BLOCK_RECORD
  5
128D7
330
1
100
AcDbSymbolTableRecord
100
AcDbBlockTableRecord
  2
K-86576
340
0
102
{BLKREFS
331
12DFE
331
12D3E
102
}
  0
BLOCK_RECORD
  5
128FC
330
1
100
AcDbSymbolTableRecord
100
AcDbBlockTableRecord
  2
K-86579
340
0
102
{BLKREFS
331
12DD6
331
12CFE
102
}
  0
BLOCK_RECORD
  5
12936
330
1
100
AcDbSymbolTableRecord
100
AcDbBlockTableRecord
  2
K-86528
340
0
102
{BLKREFS
331
12E29
331
12CDC
102
}
  0
BLOCK_RECORD
  5
12F4E
330
1
100
AcDbSymbolTableRecord
100
AcDbBlockTableRecord
  2
*D5
340
0
  0
BLOCK_RECORD
  5
12F5A
330
1
100
AcDbSymbolTableRecord
100
AcDbBlockTableRecord
  2
*D6
340
0
  0
BLOCK_RECORD
  5
12F66
330
1
100
AcDbSymbolTableRecord
100
AcDbBlockTableRecord
  2
*D7
340
0
  0
BLOCK_RECORD
  5
12F72
330
1
100
AcDbSymbolTableRecord
100
AcDbBlockTableRecord
  2
*D8
340
0
  0
BLOCK_RECORD
  5
12F7E
330
1
100
AcDbSymbolTableRecord
100
AcDbBlockTableRecord
  2
*D9
340
0
  0
BLOCK_RECORD
  5
12F8A
330
1
100
AcDbSymbolTableRecord
100
AcDbBlockTableRecord
  2
*D10
340
0
  0
BLOCK_RECORD
  5
12F96
330
1
100
AcDbSymbolTableRecord
100
AcDbBlockTableRecord
  2
*D11
340
0
  0
BLOCK_RECORD
  5
12FBB
330
1
100
AcDbSymbolTableRecord
100
AcDbBlockTableRecord
  2
*D12
340
0
  0
BLOCK_RECORD
  5
12FC7
330
1
100
AcDbSymbolTableRecord
100
AcDbBlockTableRecord
  2
*D13
340
0
  0
BLOCK_RECORD
  5
161B7
330
1
100
AcDbSymbolTableRecord
100
AcDbBlockTableRecord
  2
*D14
340
0
  0
BLOCK_RECORD
  5
161C4
330
1
100
AcDbSymbolTableRecord
100
AcDbBlockTableRecord
  2
*D15
340
0
  0
ENDTAB
  0
ENDSEC
  0
SECTION
  2
BLOCKS
  0
BLOCK
  5
20
330
1F
100
AcDbEntity
  8
0
100
AcDbBlockBegin
  2
*Model_Space
 70
     0
 10
0.0
 20
0.0
 30
0.0
  3
*Model_Space
  1

  0
ENDBLK
  5
21
330
1F
100
AcDbEntity
  8
0
100
AcDbBlockEnd
  0
BLOCK
  5
1C
330
1B
100
AcDbEntity
 67
     1
  8
0
100
AcDbBlockBegin
  2
*Paper_Space
 70
     0
 10
0.0
 20
0.0
 30
0.0
  3
*Paper_Space
  1

  0
ENDBLK
  5
1D
330
1B
100
AcDbEntity
 67
     1
  8
0
100
AcDbBlockEnd
  0
BLOCK
  5
24
330
23
100
AcDbEntity
 67
     1
  8
0
100
AcDbBlockBegin
  2
*Paper_Space0
 70
     0
 10
0.0
 20
0.0
 30
0.0
  3
*Paper_Space0
  1

  0
ENDBLK
  5
25
330
23
100
AcDbEntity
 67
     1
  8
0
100
AcDbBlockEnd
  0
BLOCK
  5
2F
330
2B
100
AcDbEntity
  8
0
100
AcDbBlockBegin
  2
_Open30
 70
     0
 10
0.0
 20
0.0
 30
0.0
  3
_Open30
  1

  0
LINE
  5
2C
330
2B
100
AcDbEntity
  8
0
  6
ByBlock
 62
     0
370
    -2
100
AcDbLine
 10
-1.0
 20
0.26794919
 30
0.0
 11
0.0
 21
0.0
 31
0.0
  0
LINE
  5
2D
330
2B
100
AcDbEntity
  8
0
  6
ByBlock
 62
     0
370
    -2
100
AcDbLine
 10
0.0
 20
0.0
 30
0.0
 11
-1.0
 21
-0.26794919
 31
0.0
  0
LINE
  5
2E
330
2B
100
AcDbEntity
  8
0
  6
ByBlock
 62
     0
370
    -2
100
AcDbLine
 10
0.0
 20
0.0
 30
0.0
 11
-1.0
 21
0.0
 31
0.0
  0
ENDBLK
  5
30
330
2B
100
AcDbEntity
  8
0
100
AcDbBlockEnd
  0
BLOCK
  5
128D8
330
128D7
100
AcDbEntity
  8
0
 62
     7
100
AcDbBlockBegin
  2
K-86576
 70
     0
 10
203.501448
 20
148.541144
 30
0.0
  3
K-86576
  1
K-86576
  0
LINE
  5
128D9
330
128D7
100
AcDbEntity
  8
0
 62
     7
100
AcDbLine
 10
206.701445
 20
155.041145
 30
0.0
 11
204.501448
 21
155.041145
 31
0.0
  0
ARC
  5
128DA
330
128D7
100
AcDbEntity
  8
0
 62
     7
100
AcDbCircle
 10
206.701445
 20
154.241141
 30
0.0
 40
0.800003
100
AcDbArc
 50
0.0
 51
89.99999999971944
  0
LINE
  5
128DB
330
128D7
100
AcDbEntity
  8
0
 62
     7
100
AcDbLine
 10
207.501448
 20
151.14112
 30
0.0
 11
207.501448
 21
154.241141
 31
0.0
  0
ARC
  5
128DC
330
128D7
100
AcDbEntity
  8
0
 62
     7
100
AcDbCircle
 10
206.901442
 20
151.14112
 30
0.0
 40
0.6000760000000001
100
AcDbArc
 50
209.9995009993454
 51
359.9999999988777
  0
LINE
  5
128DD
330
128D7
100
AcDbEntity
  8
0
 62
     7
100
AcDbLine
 10
205.588975
 20
152.214228
 30
0.0
 11
206.381773
 21
150.841087
 31
0.0
  0
LINE
  5
128DE
330
128D7
100
AcDbEntity
  8
0
 62
     7
100
AcDbLine
 10
206.501448
 20
152.741042
 30
0.0
 11
205.588975
 21
152.214228
 31
0.0
  0
LINE
  5
128DF
330
128D7
100
AcDbEntity
  8
0
 62
     7
100
AcDbLine
 10
206.501448
 20
154.041145
 30
0.0
 11
206.501448
 21
152.741042
 31
0.0
  0
LINE
  5
128E0
330
128D7
100
AcDbEntity
  8
0
 62
     7
100
AcDbLine
 10
204.425011
 20
154.041145
 30
0.0
 11
206.501448
 21
154.041145
 31
0.0
  0
LINE
  5
128E1
330
128D7
100
AcDbEntity
  8
0
 62
     7
100
AcDbLine
 10
204.201445
 20
153.541129
 30
0.0
 11
204.425011
 21
154.041145
 31
0.0
  0
LINE
  5
128E2
330
128D7
100
AcDbEntity
  8
0
 62
     7
100
AcDbLine
 10
203.501448
 20
153.541129
 30
0.0
 11
204.201445
 21
153.541129
 31
0.0
  0
LINE
  5
128E3
330
128D7
100
AcDbEntity
  8
0
 62
     7
100
AcDbLine
 10
203.501448
 20
164.541145
 30
0.0
 11
203.501448
 21
153.541129
 31
0.0
  0
LINE
  5
128E4
330
128D7
100
AcDbEntity
  8
0
 62
     7
100
AcDbLine
 10
217.301454
 20
164.541145
 30
0.0
 11
203.501448
 21
164.541145
 31
0.0
  0
LINE
  5
128E5
330
128D7
100
AcDbEntity
  8
0
 62
     7
100
AcDbLine
 10
217.301454
 20
163.041145
 30
0.0
 11
217.301454
 21
164.541145
 31
0.0
  0
LINE
  5
128E6
330
128D7
100
AcDbEntity
  8
0
 62
     7
100
AcDbLine
 10
218.801454
 20
163.041145
 30
0.0
 11
217.301454
 21
163.041145
 31
0.0
  0
LINE
  5
128E7
330
128D7
100
AcDbEntity
  8
0
 62
     7
100
AcDbLine
 10
218.801454
 20
159.041129
 30
0.0
 11
218.801454
 21
163.041145
 31
0.0
  0
LINE
  5
128E8
330
128D7
100
AcDbEntity
  8
0
 62
     7
100
AcDbLine
 10
217.801451
 20
159.041129
 30
0.0
 11
218.801454
 21
159.041129
 31
0.0
  0
LINE
  5
128E9
330
128D7
100
AcDbEntity
  8
0
 62
     7
100
AcDbLine
 10
217.801451
 20
155.541099
 30
0.0
 11
217.801451
 21
159.041129
 31
0.0
  0
LINE
  5
128EA
330
128D7
100
AcDbEntity
  8
0
 62
     7
100
AcDbLine
 10
214.601454
 20
152.341102
 30
0.0
 11
217.801451
 21
155.541099
 31
0.0
  0
LINE
  5
128EB
330
128D7
100
AcDbEntity
  8
0
 62
     7
100
AcDbLine
 10
214.601454
 20
149.541145
 30
0.0
 11
214.601454
 21
152.341102
 31
0.0
  0
LINE
  5
128EC
330
128D7
100
AcDbEntity
  8
0
 62
     7
100
AcDbLine
 10
216.52687
 20
149.541145
 30
0.0
 11
214.601454
 21
149.541145
 31
0.0
  0
ARC
  5
128ED
330
128D7
100
AcDbEntity
  8
0
 62
     7
100
AcDbCircle
 10
217.301451
 20
149.341132
 30
0.0
 40
0.799988
100
AcDbArc
 50
269.9999999991583
 51
165.5213589983617
  0
LINE
  5
128EE
330
128D7
100
AcDbEntity
  8
0
 62
     7
100
AcDbLine
 10
214.101454
 20
148.541145
 30
0.0
 11
217.301451
 21
148.541145
 31
0.0
  0
ARC
  5
128EF
330
128D7
100
AcDbEntity
  8
0
 62
     7
100
AcDbCircle
 10
214.101454
 20
149.041145
 30
0.0
 40
0.5
100
AcDbArc
 50
179.9999999994389
 51
269.9999999991583
  0
LINE
  5
128F0
330
128D7
100
AcDbEntity
  8
0
 62
     7
100
AcDbLine
 10
213.601454
 20
152.755302
 30
0.0
 11
213.601454
 21
149.041145
 31
0.0
  0
LINE
  5
128F1
330
128D7
100
AcDbEntity
  8
0
 62
     7
100
AcDbLine
 10
216.801451
 20
155.955299
 30
0.0
 11
213.601454
 21
152.755302
 31
0.0
  0
LINE
  5
128F2
330
128D7
100
AcDbEntity
  8
0
 62
     7
100
AcDbLine
 10
216.801451
 20
159.541129
 30
0.0
 11
216.801451
 21
155.955299
 31
0.0
  0
ARC
  5
128F3
330
128D7
100
AcDbEntity
  8
0
 62
     7
100
AcDbCircle
 10
217.301454
 20
159.541129
 30
0.0
 40
0.5
100
AcDbArc
 50
89.99999999971944
 51
179.9999999994389
  0
LINE
  5
128F4
330
128D7
100
AcDbEntity
  8
0
 62
     7
100
AcDbLine
 10
217.801454
 20
160.041129
 30
0.0
 11
217.301454
 21
160.041129
 31
0.0
  0
LINE
  5
128F5
330
128D7
100
AcDbEntity
  8
0
 62
     7
100
AcDbLine
 10
217.801454
 20
162.041145
 30
0.0
 11
217.801454
 21
160.041129
 31
0.0
  0
LINE
  5
128F6
330
128D7
100
AcDbEntity
  8
0
 62
     7
100
AcDbLine
 10
216.801454
 20
162.041145
 30
0.0
 11
217.801454
 21
162.041145
 31
0.0
  0
ARC
  5
128F7
330
128D7
100
AcDbEntity
  8
0
 62
     7
100
AcDbCircle
 10
216.801454
 20
162.541129
 30
0.0
 40
0.5
100
AcDbArc
 50
179.9999999994389
 51
269.9999999991583
  0
LINE
  5
128F8
330
128D7
100
AcDbEntity
  8
0
 62
     7
100
AcDbLine
 10
216.301454
 20
163.541145
 30
0.0
 11
216.301454
 21
162.541129
 31
0.0
  0
LINE
  5
128F9
330
128D7
100
AcDbEntity
  8
0
 62
     7
100
AcDbLine
 10
204.501448
 20
163.541129
 30
0.0
 11
216.301454
 21
163.541145
 31
0.0
  0
LINE
  5
128FA
330
128D7
100
AcDbEntity
  8
0
 62
     7
100
AcDbLine
 10
204.501448
 20
155.041145
 30
0.0
 11
204.501448
 21
163.541129
 31
0.0
  0
ENDBLK
  5
128FB
330
128D7
100
AcDbEntity
  8
0
 62
     7
100
AcDbBlockEnd
  0
BLOCK
  5
128FD
330
128FC
100
AcDbEntity
  8
0
 62
     7
100
AcDbBlockBegin
  2
K-86579
 70
     0
 10
212.042452
 20
158.939007
 30
0.0
  3
K-86579
  1
K-86579
  0
LINE
  5
128FE
330
128FC
100
AcDbEntity
  8
0
 62
     7
100
AcDbLine
 10
231.04244
 20
187.938992
 30
0.0
 11
231.04244
 21
160.238995
 31
0.0
  0
ARC
  5
128FF
330
128FC
100
AcDbEntity
  8
0
 62
     7
100
AcDbCircle
 10
230.04244
 20
187.938992
 30
0.0
 40
1.0
100
AcDbArc
 50
0.0
 51
89.99999999971944
  0
LINE
  5
12900
330
128FC
100
AcDbEntity
  8
0
 62
     7
100
AcDbLine
 10
229.342443
 20
188.938992
 30
0.0
 11
230.04244
 21
188.938992
 31
0.0
  0
ARC
  5
12901
330
128FC
100
AcDbEntity
  8
0
 62
     7
100
AcDbCircle
 10
229.342443
 20
189.438992
 30
0.0
 40
0.5
100
AcDbArc
 50
179.9999999994389
 51
269.9999999991583
  0
LINE
  5
12902
330
128FC
100
AcDbEntity
  8
0
 62
     7
100
AcDbLine
 10
228.842443
 20
195.139004
 30
0.0
 11
228.842443
 21
189.438992
 31
0.0
  0
ARC
  5
12903
330
128FC
100
AcDbEntity
  8
0
 62
     7
100
AcDbCircle
 10
229.342443
 20
195.139004
 30
0.0
 40
0.5
100
AcDbArc
 50
89.99999999971944
 51
179.9999999994389
  0
LINE
  5
12904
330
128FC
100
AcDbEntity
  8
0
 62
     7
100
AcDbLine
 10
239.742483
 20
195.638989
 30
0.0
 11
229.342443
 21
195.638974
 31
0.0
  0
LINE
  5
12905
330
128FC
100
AcDbEntity
  8
0
 62
     7
100
AcDbLine
 10
239.742483
 20
160.238995
 30
0.0
 11
239.742483
 21
195.638989
 31
0.0
  0
LINE
  5
12906
330
128FC
100
AcDbEntity
  8
0
 62
     7
100
AcDbLine
 10
231.04244
 20
160.238995
 30
0.0
 11
239.742483
 21
160.238995
 31
0.0
  0
LINE
  5
12907
330
128FC
100
AcDbEntity
  8
0
 62
     7
100
AcDbLine
 10
240.842474
 20
161.23901
 30
0.0
 11
241.042486
 21
161.439023
 31
0.0
  0
LINE
  5
12908
330
128FC
100
AcDbEntity
  8
0
 62
     7
100
AcDbLine
 10
240.842474
 20
160.239009
 30
0.0
 11
240.842474
 21
161.23901
 31
0.0
  0
LINE
  5
12909
330
128FC
100
AcDbEntity
  8
0
 62
     7
100
AcDbLine
 10
244.642477
 20
160.239027
 30
0.0
 11
240.842474
 21
160.239009
 31
0.0
  0
LINE
  5
1290A
330
128FC
100
AcDbEntity
  8
0
 62
     7
100
AcDbLine
 10
244.642477
 20
163.099753
 30
0.0
 11
244.642477
 21
160.239027
 31
0.0
  0
LINE
  5
1290B
330
128FC
100
AcDbEntity
  8
0
 62
     7
100
AcDbLine
 10
245.242473
 20
164.139004
 30
0.0
 11
244.642477
 21
163.099753
 31
0.0
  0
LINE
  5
1290C
330
128FC
100
AcDbEntity
  8
0
 62
     7
100
AcDbLine
 10
246.042471
 20
164.139004
 30
0.0
 11
245.242473
 21
164.139004
 31
0.0
  0
LINE
  5
1290D
330
128FC
100
AcDbEntity
  8
0
 62
     7
100
AcDbLine
 10
246.042471
 20
158.939007
 30
0.0
 11
246.042471
 21
164.139004
 31
0.0
  0
LINE
  5
1290E
330
128FC
100
AcDbEntity
  8
0
 62
     7
100
AcDbLine
 10
212.042474
 20
158.939007
 30
0.0
 11
246.042471
 21
158.939007
 31
0.0
  0
LINE
  5
1290F
330
128FC
100
AcDbEntity
  8
0
 62
     7
100
AcDbLine
 10
212.042452
 20
160.939026
 30
0.0
 11
212.042474
 21
158.939007
 31
0.0
  0
LINE
  5
12910
330
128FC
100
AcDbEntity
  8
0
 62
     7
100
AcDbLine
 10
213.042471
 20
160.939064
 30
0.0
 11
212.042452
 21
160.939026
 31
0.0
  0
LINE
  5
12911
330
128FC
100
AcDbEntity
  8
0
 62
     7
100
AcDbLine
 10
213.042471
 20
160.239041
 30
0.0
 11
213.042471
 21
160.939064
 31
0.0
  0
LINE
  5
12912
330
128FC
100
AcDbEntity
  8
0
 62
     7
100
AcDbLine
 10
229.242437
 20
160.239041
 30
0.0
 11
213.042471
 21
160.239041
 31
0.0
  0
ARC
  5
12913
330
128FC
100
AcDbEntity
  8
0
 62
     7
100
AcDbCircle
 10
229.242437
 20
160.739026
 30
0.0
 40
0.5
100
AcDbArc
 50
270.0000000002805
 51
0.0
  0
LINE
  5
12914
330
128FC
100
AcDbEntity
  8
0
 62
     7
100
AcDbLine
 10
229.742437
 20
164.939023
 30
0.0
 11
229.742437
 21
160.739026
 31
0.0
  0
LINE
  5
12915
330
128FC
100
AcDbEntity
  8
0
 62
     7
100
AcDbLine
 10
229.242467
 20
165.438992
 30
0.0
 11
229.742437
 21
164.939023
 31
0.0
  0
LINE
  5
12916
330
128FC
100
AcDbEntity
  8
0
 62
     7
100
AcDbLine
 10
229.242467
 20
187.1390189999999
 30
0.0
 11
229.242467
 21
165.438992
 31
0.0
  0
ARC
  5
12917
330
128FC
100
AcDbEntity
  8
0
 62
     7
100
AcDbCircle
 10
228.742467
 20
187.1390189999999
 30
0.0
 40
0.5
100
AcDbArc
 50
0.0
 51
89.99999999971944
  0
LINE
  5
12918
330
128FC
100
AcDbEntity
  8
0
 62
     7
100
AcDbLine
 10
225.192464
 20
187.639019
 30
0.0
 11
228.742467
 21
187.639019
 31
0.0
  0
ARC
  5
12919
330
128FC
100
AcDbEntity
  8
0
 62
     7
100
AcDbCircle
 10
225.192464
 20
188.289013
 30
0.0
 40
0.650009
100
AcDbArc
 50
89.99999999971944
 51
269.9999999991583
  0
LINE
  5
1291A
330
128FC
100
AcDbEntity
  8
0
 62
     7
100
AcDbLine
 10
227.542471
 20
188.939023
 30
0.0
 11
225.192449
 21
188.939023
 31
0.0
  0
LINE
  5
1291B
330
128FC
100
AcDbEntity
  8
0
 62
     7
100
AcDbLine
 10
227.542471
 20
195.439003
 30
0.0
 11
227.542471
 21
188.939023
 31
0.0
  0
LINE
  5
1291C
330
128FC
100
AcDbEntity
  8
0
 62
     7
100
AcDbLine
 10
227.042486
 20
195.939011
 30
0.0
 11
227.542471
 21
195.439003
 31
0.0
  0
LINE
  5
1291D
330
128FC
100
AcDbEntity
  8
0
 62
     7
100
AcDbLine
 10
227.042486
 20
196.938992
 30
0.0
 11
227.042486
 21
195.939011
 31
0.0
  0
LINE
  5
1291E
330
128FC
100
AcDbEntity
  8
0
 62
     7
100
AcDbLine
 10
257.042486
 20
196.939007
 30
0.0
 11
227.042486
 21
196.938992
 31
0.0
  0
LINE
  5
1291F
330
128FC
100
AcDbEntity
  8
0
 62
     7
100
AcDbLine
 10
257.042486
 20
190.438977
 30
0.0
 11
257.042486
 21
196.939007
 31
0.0
  0
LINE
  5
12920
330
128FC
100
AcDbEntity
  8
0
 62
     7
100
AcDbLine
 10
254.042455
 20
190.438977
 30
0.0
 11
257.042486
 21
190.438977
 31
0.0
  0
LINE
  5
12921
330
128FC
100
AcDbEntity
  8
0
 62
     7
100
AcDbLine
 10
254.042455
 20
191.438977
 30
0.0
 11
254.042455
 21
190.438977
 31
0.0
  0
LINE
  5
12922
330
128FC
100
AcDbEntity
  8
0
 62
     7
100
AcDbLine
 10
255.742467
 20
191.438977
 30
0.0
 11
254.042455
 21
191.438977
 31
0.0
  0
LINE
  5
12923
330
128FC
100
AcDbEntity
  8
0
 62
     7
100
AcDbLine
 10
255.742467
 20
195.638989
 30
0.0
 11
255.742467
 21
191.438977
 31
0.0
  0
LINE
  5
12924
330
128FC
100
AcDbEntity
  8
0
 62
     7
100
AcDbLine
 10
248.342474
 20
195.638989
 30
0.0
 11
255.742467
 21
195.638989
 31
0.0
  0
LINE
  5
12925
330
128FC
100
AcDbEntity
  8
0
 62
     7
100
AcDbLine
 10
248.342474
 20
191.438977
 30
0.0
 11
248.342474
 21
195.638989
 31
0.0
  0
LINE
  5
12926
330
128FC
100
AcDbEntity
  8
0
 62
     7
100
AcDbLine
 10
250.042471
 20
191.438977
 30
0.0
 11
248.342474
 21
191.438977
 31
0.0
  0
LINE
  5
12927
330
128FC
100
AcDbEntity
  8
0
 62
     7
100
AcDbLine
 10
250.042471
 20
190.438977
 30
0.0
 11
250.042471
 21
191.438977
 31
0.0
  0
LINE
  5
12928
330
128FC
100
AcDbEntity
  8
0
 62
     7
100
AcDbLine
 10
247.542486
 20
190.438977
 30
0.0
 11
250.042471
 21
190.438977
 31
0.0
  0
ARC
  5
12929
330
128FC
100
AcDbEntity
  8
0
 62
     7
100
AcDbCircle
 10
247.542486
 20
190.938977
 30
0.0
 40
0.5
100
AcDbArc
 50
179.9999999994389
 51
269.9999999991583
  0
LINE
  5
1292A
330
128FC
100
AcDbEntity
  8
0
 62
     7
100
AcDbLine
 10
247.042486
 20
195.638989
 30
0.0
 11
247.042486
 21
190.938977
 31
0.0
  0
LINE
  5
1292B
330
128FC
100
AcDbEntity
  8
0
 62
     7
100
AcDbLine
 10
240.842474
 20
195.638989
 30
0.0
 11
247.042486
 21
195.638989
 31
0.0
  0
LINE
  5
1292C
330
128FC
100
AcDbEntity
  8
0
 62
     7
100
AcDbLine
 10
240.842474
 20
194.638989
 30
0.0
 11
240.842474
 21
195.638989
 31
0.0
  0
LINE
  5
1292D
330
128FC
100
AcDbEntity
  8
0
 62
     7
100
AcDbLine
 10
241.042486
 20
194.438977
 30
0.0
 11
240.842474
 21
194.638989
 31
0.0
  0
LINE
  5
1292E
330
128FC
100
AcDbEntity
  8
0
 62
     7
100
AcDbLine
 10
241.042486
 20
176.939007
 30
0.0
 11
241.042486
 21
194.438977
 31
0.0
  0
LINE
  5
1292F
330
128FC
100
AcDbEntity
  8
0
 62
     7
100
AcDbLine
 10
244.042486
 20
176.939007
 30
0.0
 11
241.042486
 21
176.939007
 31
0.0
  0
LINE
  5
12930
330
128FC
100
AcDbEntity
  8
0
 62
     7
100
AcDbLine
 10
244.042486
 20
174.038998
 30
0.0
 11
244.042486
 21
176.939007
 31
0.0
  0
ARC
  5
12931
330
128FC
100
AcDbEntity
  8
0
 62
     7
100
AcDbCircle
 10
243.442464
 20
174.038998
 30
0.0
 40
0.599976
100
AcDbArc
 50
180.0014569994388
 51
359.9999999988777
  0
LINE
  5
12932
330
128FC
100
AcDbEntity
  8
0
 62
     7
100
AcDbLine
 10
242.842489
 20
175.73901
 30
0.0
 11
242.842489
 21
174.038983
 31
0.0
  0
LINE
  5
12933
330
128FC
100
AcDbEntity
  8
0
 62
     7
100
AcDbLine
 10
241.042486
 20
175.73901
 30
0.0
 11
242.842489
 21
175.73901
 31
0.0
  0
LINE
  5
12934
330
128FC
100
AcDbEntity
  8
0
 62
     7
100
AcDbLine
 10
241.042486
 20
161.439023
 30
0.0
 11
241.042486
 21
175.73901
 31
0.0
  0
ENDBLK
  5
12935
330
128FC
100
AcDbEntity
  8
0
 62
     7
100
AcDbBlockEnd
  0
BLOCK
  5
12937
330
12936
100
AcDbEntity
  8
0
 62
     7
100
AcDbBlockBegin
  2
K-86528
 70
     0
 10
228.679758
 20
148.45649
 30
0.0
  3
K-86528
  1
K-86528
  0
LINE
  5
12938
330
12936
100
AcDbEntity
  8
0
 62
     7
100
AcDbLine
 10
203.679758
 20
148.45649
 30
0.0
 11
228.679758
 21
148.45649
 31
0.0
  0
LINE
  5
12939
330
12936
100
AcDbEntity
  8
0
 62
     7
100
AcDbLine
 10
203.679758
 20
152.156474
 30
0.0
 11
203.679758
 21
148.45649
 31
0.0
  0
LINE
  5
1293A
330
12936
100
AcDbEntity
  8
0
 62
     7
100
AcDbLine
 10
203.979758
 20
152.156474
 30
0.0
 11
203.679758
 21
152.156474
 31
0.0
  0
LINE
  5
1293B
330
12936
100
AcDbEntity
  8
0
 62
     7
100
AcDbLine
 10
203.979758
 20
152.756474
 30
0.0
 11
203.979758
 21
152.156474
 31
0.0
  0
LINE
  5
1293C
330
12936
100
AcDbEntity
  8
0
 62
     7
100
AcDbLine
 10
203.679758
 20
152.756474
 30
0.0
 11
203.979758
 21
152.756474
 31
0.0
  0
LINE
  5
1293D
330
12936
100
AcDbEntity
  8
0
 62
     7
100
AcDbLine
 10
203.679758
 20
153.156474
 30
0.0
 11
203.679758
 21
152.756474
 31
0.0
  0
LINE
  5
1293E
330
12936
100
AcDbEntity
  8
0
 62
     7
100
AcDbLine
 10
203.979758
 20
153.156474
 30
0.0
 11
203.679758
 21
153.156474
 31
0.0
  0
LINE
  5
1293F
330
12936
100
AcDbEntity
  8
0
 62
     7
100
AcDbLine
 10
203.979758
 20
153.756474
 30
0.0
 11
203.979758
 21
153.156474
 31
0.0
  0
LINE
  5
12940
330
12936
100
AcDbEntity
  8
0
 62
     7
100
AcDbLine
 10
203.679758
 20
153.756474
 30
0.0
 11
203.979758
 21
153.756474
 31
0.0
  0
LINE
  5
12941
330
12936
100
AcDbEntity
  8
0
 62
     7
100
AcDbLine
 10
203.679758
 20
157.456459
 30
0.0
 11
203.679758
 21
153.756474
 31
0.0
  0
LINE
  5
12942
330
12936
100
AcDbEntity
  8
0
 62
     7
100
AcDbLine
 10
204.679712
 20
157.456459
 30
0.0
 11
203.679758
 21
157.456459
 31
0.0
  0
LINE
  5
12943
330
12936
100
AcDbEntity
  8
0
 62
     7
100
AcDbLine
 10
205.329752
 20
156.330572
 30
0.0
 11
204.679712
 21
157.456459
 31
0.0
  0
LINE
  5
12944
330
12936
100
AcDbEntity
  8
0
 62
     7
100
AcDbLine
 10
205.329752
 20
150.106453
 30
0.0
 11
205.329752
 21
156.330572
 31
0.0
  0
LINE
  5
12945
330
12936
100
AcDbEntity
  8
0
 62
     7
100
AcDbLine
 10
226.529749
 20
150.106453
 30
0.0
 11
205.329752
 21
150.106453
 31
0.0
  0
ARC
  5
12946
330
12936
100
AcDbEntity
  8
0
 62
     7
100
AcDbCircle
 10
226.529749
 20
150.606438
 30
0.0
 40
0.5
100
AcDbArc
 50
269.9999999991583
 51
359.9982509988777
  0
LINE
  5
12947
330
12936
100
AcDbEntity
  8
0
 62
     7
100
AcDbLine
 10
227.029749
 20
216.306481
 30
0.0
 11
227.029749
 21
150.606423
 31
0.0
  0
ARC
  5
12948
330
12936
100
AcDbEntity
  8
0
 62
     7
100
AcDbCircle
 10
226.529749
 20
216.306481
 30
0.0
 40
0.5
100
AcDbArc
 50
0.0
 51
89.99999999971944
  0
LINE
  5
12949
330
12936
100
AcDbEntity
  8
0
 62
     7
100
AcDbLine
 10
205.329752
 20
216.806481
 30
0.0
 11
226.529749
 21
216.806481
 31
0.0
  0
LINE
  5
1294A
330
12936
100
AcDbEntity
  8
0
 62
     7
100
AcDbLine
 10
205.329752
 20
210.582314
 30
0.0
 11
205.329752
 21
216.806481
 31
0.0
  0
LINE
  5
1294B
330
12936
100
AcDbEntity
  8
0
 62
     7
100
AcDbLine
 10
204.679747
 20
209.456459
 30
0.0
 11
205.329752
 21
210.582314
 31
0.0
  0
LINE
  5
1294C
330
12936
100
AcDbEntity
  8
0
 62
     7
100
AcDbLine
 10
203.679758
 20
209.456459
 30
0.0
 11
204.679747
 21
209.456459
 31
0.0
  0
LINE
  5
1294D
330
12936
100
AcDbEntity
  8
0
 62
     7
100
AcDbLine
 10
203.679758
 20
218.456459
 30
0.0
 11
203.679758
 21
209.456459
 31
0.0
  0
LINE
  5
1294E
330
12936
100
AcDbEntity
  8
0
 62
     7
100
AcDbLine
 10
228.679758
 20
218.456475
 30
0.0
 11
203.679758
 21
218.456459
 31
0.0
  0
LINE
  5
1294F
330
12936
100
AcDbEntity
  8
0
 62
     7
100
AcDbLine
 10
228.679758
 20
211.45649
 30
0.0
 11
228.679758
 21
218.456475
 31
0.0
  0
LINE
  5
12950
330
12936
100
AcDbEntity
  8
0
 62
     7
100
AcDbLine
 10
243.679758
 20
211.45649
 30
0.0
 11
228.679758
 21
211.45649
 31
0.0
  0
LINE
  5
12951
330
12936
100
AcDbEntity
  8
0
 62
     7
100
AcDbLine
 10
243.679758
 20
206.95649
 30
0.0
 11
243.679758
 21
211.45649
 31
0.0
  0
LINE
  5
12952
330
12936
100
AcDbEntity
  8
0
 62
     7
100
AcDbLine
 10
240.679742
 20
206.95649
 30
0.0
 11
243.679758
 21
206.95649
 31
0.0
  0
LINE
  5
12953
330
12936
100
AcDbEntity
  8
0
 62
     7
100
AcDbLine
 10
240.679742
 20
207.956393
 30
0.0
 11
240.679742
 21
206.95649
 31
0.0
  0
LINE
  5
12954
330
12936
100
AcDbEntity
  8
0
 62
     7
100
AcDbLine
 10
242.179742
 20
207.956419
 30
0.0
 11
240.679742
 21
207.956393
 31
0.0
  0
LINE
  5
12955
330
12936
100
AcDbEntity
  8
0
 62
     7
100
AcDbLine
 10
242.179742
 20
209.806435
 30
0.0
 11
242.179742
 21
207.956419
 31
0.0
  0
LINE
  5
12956
330
12936
100
AcDbEntity
  8
0
 62
     7
100
AcDbLine
 10
235.179742
 20
209.806435
 30
0.0
 11
242.179742
 21
209.806435
 31
0.0
  0
LINE
  5
12957
330
12936
100
AcDbEntity
  8
0
 62
     7
100
AcDbLine
 10
235.179742
 20
207.956419
 30
0.0
 11
235.179742
 21
209.806435
 31
0.0
  0
LINE
  5
12958
330
12936
100
AcDbEntity
  8
0
 62
     7
100
AcDbLine
 10
236.679742
 20
207.956393
 30
0.0
 11
235.179742
 21
207.956419
 31
0.0
  0
LINE
  5
12959
330
12936
100
AcDbEntity
  8
0
 62
     7
100
AcDbLine
 10
236.679742
 20
206.95649
 30
0.0
 11
236.679742
 21
207.956393
 31
0.0
  0
LINE
  5
1295A
330
12936
100
AcDbEntity
  8
0
 62
     7
100
AcDbLine
 10
234.179758
 20
206.95649
 30
0.0
 11
236.679742
 21
206.95649
 31
0.0
  0
ARC
  5
1295B
330
12936
100
AcDbEntity
  8
0
 62
     7
100
AcDbCircle
 10
234.179758
 20
207.45649
 30
0.0
 40
0.5
100
AcDbArc
 50
179.9999999994389
 51
269.9999999991583
  0
LINE
  5
1295C
330
12936
100
AcDbEntity
  8
0
 62
     7
100
AcDbLine
 10
233.679758
 20
209.806435
 30
0.0
 11
233.679758
 21
207.45649
 31
0.0
  0
LINE
  5
1295D
330
12936
100
AcDbEntity
  8
0
 62
     7
100
AcDbLine
 10
228.679758
 20
209.806435
 30
0.0
 11
233.679758
 21
209.806435
 31
0.0
  0
LINE
  5
1295E
330
12936
100
AcDbEntity
  8
0
 62
     7
100
AcDbLine
 10
228.679758
 20
180.106468
 30
0.0
 11
228.679758
 21
209.806435
 31
0.0
  0
LINE
  5
1295F
330
12936
100
AcDbEntity
  8
0
 62
     7
100
AcDbLine
 10
231.679681
 20
180.106468
 30
0.0
 11
228.679758
 21
180.106468
 31
0.0
  0
LINE
  5
12960
330
12936
100
AcDbEntity
  8
0
 62
     7
100
AcDbLine
 10
231.679681
 20
182.256478
 30
0.0
 11
231.679681
 21
180.106468
 31
0.0
  0
ARC
  5
12961
330
12936
100
AcDbEntity
  8
0
 62
     7
100
AcDbCircle
 10
232.179697
 20
182.256478
 30
0.0
 40
0.5
100
AcDbArc
 50
89.99999999971944
 51
179.9999999994389
  0
LINE
  5
12962
330
12936
100
AcDbEntity
  8
0
 62
     7
100
AcDbLine
 10
240.679742
 20
182.756478
 30
0.0
 11
232.179697
 21
182.756478
 31
0.0
  0
LINE
  5
12963
330
12936
100
AcDbEntity
  8
0
 62
     7
100
AcDbLine
 10
240.679742
 20
178.45649
 30
0.0
 11
240.679742
 21
182.756478
 31
0.0
  0
LINE
  5
12964
330
12936
100
AcDbEntity
  8
0
 62
     7
100
AcDbLine
 10
237.679742
 20
178.45649
 30
0.0
 11
240.679742
 21
178.45649
 31
0.0
  0
LINE
  5
12965
330
12936
100
AcDbEntity
  8
0
 62
     7
100
AcDbLine
 10
237.679742
 20
179.456444
 30
0.0
 11
237.679742
 21
178.45649
 31
0.0
  0
LINE
  5
12966
330
12936
100
AcDbEntity
  8
0
 62
     7
100
AcDbLine
 10
239.179742
 20
179.456444
 30
0.0
 11
237.679742
 21
179.456444
 31
0.0
  0
LINE
  5
12967
330
12936
100
AcDbEntity
  8
0
 62
     7
100
AcDbLine
 10
239.179742
 20
181.106468
 30
0.0
 11
239.179742
 21
179.456444
 31
0.0
  0
LINE
  5
12968
330
12936
100
AcDbEntity
  8
0
 62
     7
100
AcDbLine
 10
233.179742
 20
181.106468
 30
0.0
 11
239.179742
 21
181.106468
 31
0.0
  0
LINE
  5
12969
330
12936
100
AcDbEntity
  8
0
 62
     7
100
AcDbLine
 10
233.179742
 20
179.456444
 30
0.0
 11
233.179742
 21
181.106468
 31
0.0
  0
LINE
  5
1296A
330
12936
100
AcDbEntity
  8
0
 62
     7
100
AcDbLine
 10
234.679742
 20
179.456444
 30
0.0
 11
233.179742
 21
179.456444
 31
0.0
  0
LINE
  5
1296B
330
12936
100
AcDbEntity
  8
0
 62
     7
100
AcDbLine
 10
234.679742
 20
178.45649
 30
0.0
 11
234.679742
 21
179.456444
 31
0.0
  0
LINE
  5
1296C
330
12936
100
AcDbEntity
  8
0
 62
     7
100
AcDbLine
 10
228.679758
 20
178.45649
 30
0.0
 11
234.679742
 21
178.45649
 31
0.0
  0
LINE
  5
1296D
330
12936
100
AcDbEntity
  8
0
 62
     7
100
AcDbLine
 10
228.679758
 20
148.45649
 30
0.0
 11
228.679758
 21
178.45649
 31
0.0
  0
ENDBLK
  5
1296E
330
12936
100
AcDbEntity
  8
0
 62
     7
100
AcDbBlockEnd
  0
BLOCK
  5
12F4F
330
12F4E
100
AcDbEntity
  8
0
100
AcDbBlockBegin
  2
*D5
 70
     1
 10
0.0
 20
0.0
 30
0.0
  3
*D5
  1

  0
LINE
  5
16243
330
12F4E
100
AcDbEntity
  8
003
 62
     4
370
    20
100
AcDbLine
 10
272.2827015638966
 20
269.0526617951994
 30
0.0
 11
272.2827015638966
 21
300.9923147264973
 31
0.0
  0
LINE
  5
16244
330
12F4E
100
AcDbEntity
  8
003
 62
     4
370
    20
100
AcDbLine
 10
302.2827015638966
 20
279.9457637344614
 30
0.0
 11
302.2827015638966
 21
300.9923147264973
 31
0.0
  0
LINE
  5
16245
330
12F4E
100
AcDbEntity
  8
003
 62
     4
370
    20
100
AcDbLine
 10
275.2827015638966
 20
298.9923147264973
 30
0.0
 11
299.2827015638966
 21
298.9923147264973
 31
0.0
  0
INSERT
  5
16246
330
12F4E
100
AcDbEntity
  8
003
 62
     4
370
    20
100
AcDbBlockReference
  2
_Open30
 10
272.2827015638966
 20
298.9923147264973
 30
0.0
 41
3.0
 42
3.0
 43
3.0
 50
180.0
  0
INSERT
  5
16247
330
12F4E
100
AcDbEntity
  8
003
 62
     4
370
    20
100
AcDbBlockReference
  2
_Open30
 10
302.2827015638966
 20
298.9923147264973
 30
0.0
 41
3.0
 42
3.0
 43
3.0
  0
MTEXT
  5
16248
330
12F4E
100
AcDbEntity
  8
003
 62
     7
100
AcDbMText
 10
287.2827015638966
 20
303.9923147264973
 30
0.0
 40
6.0
 41
0.0
 71
     5
 72
     1
  1
30
  7
DIM
 73
     1
 44
1.0
1001
ACAD
1000
MTEXTBEGIN
1070
    73
1070
     1
1070
    44
1040
1.0
1070
    74
1070
     0
1000
MTEXTEND
  0
POINT
  5
16249
330
12F4E
100
AcDbEntity
  8
Defpoints
 62
     0
100
AcDbPoint
 10
272.2827015638966
 20
266.0526617951993
 30
0.0
  0
POINT
  5
1624A
330
12F4E
100
AcDbEntity
  8
Defpoints
 62
     0
100
AcDbPoint
 10
302.2827015638966
 20
276.9457637344614
 30
0.0
  0
POINT
  5
1624B
330
12F4E
100
AcDbEntity
  8
Defpoints
 62
     0
100
AcDbPoint
 10
302.2827015638966
 20
298.9923147264973
 30
0.0
  0
ENDBLK
  5
12F50
330
12F4E
100
AcDbEntity
  8
0
100
AcDbBlockEnd
  0
BLOCK
  5
12F5B
330
12F5A
100
AcDbEntity
  8
0
100
AcDbBlockBegin
  2
*D6
 70
     1
 10
0.0
 20
0.0
 30
0.0
  3
*D6
  1

  0
LINE
  5
1623A
330
12F5A
100
AcDbEntity
  8
003
 62
     4
370
    20
100
AcDbLine
 10
564.7829835638965
 20
211.945677842493
 30
0.0
 11
562.5362178949234
 21
211.945677842493
 31
0.0
  0
LINE
  5
1623B
330
12F5A
100
AcDbEntity
  8
003
 62
     4
370
    20
100
AcDbLine
 10
562.2829835638965
 20
276.9456778424928
 30
0.0
 11
562.5362178949235
 21
276.9456778424928
 31
0.0
  0
LINE
  5
1623C
330
12F5A
100
AcDbEntity
  8
003
 62
     4
370
    20
100
AcDbLine
 10
564.5362178949234
 20
214.945677842493
 30
0.0
 11
564.5362178949235
 21
273.9456778424929
 31
0.0
  0
INSERT
  5
1623D
330
12F5A
100
AcDbEntity
  8
003
 62
     4
370
    20
100
AcDbBlockReference
  2
_Open30
 10
564.5362178949234
 20
211.945677842493
 30
0.0
 41
3.0
 42
3.0
 43
3.0
 50
270.0
  0
INSERT
  5
1623E
330
12F5A
100
AcDbEntity
  8
003
 62
     4
370
    20
100
AcDbBlockReference
  2
_Open30
 10
564.5362178949235
 20
276.9456778424928
 30
0.0
 41
3.0
 42
3.0
 43
3.0
 50
90.0
  0
MTEXT
  5
1623F
330
12F5A
100
AcDbEntity
  8
003
 62
     7
100
AcDbMText
 10
559.5362178949234
 20
244.445677842493
 30
0.0
 40
6.0
 41
0.0
 71
     5
 72
     1
  1
65
  7
DIM
 11
0.0000000000000001
 21
1.0
 31
0.0
 73
     1
 44
1.0
1001
ACAD
1000
MTEXTBEGIN
1070
    73
1070
     1
1070
    44
1040
1.0
1070
    74
1070
     0
1000
MTEXTEND
  0
POINT
  5
16240
330
12F5A
100
AcDbEntity
  8
Defpoints
 62
     0
100
AcDbPoint
 10
567.7829835638966
 20
211.945677842493
 30
0.0
  0
POINT
  5
16241
330
12F5A
100
AcDbEntity
  8
Defpoints
 62
     0
100
AcDbPoint
 10
565.2829835638965
 20
276.9456778424928
 30
0.0
  0
POINT
  5
16242
330
12F5A
100
AcDbEntity
  8
Defpoints
 62
     0
100
AcDbPoint
 10
564.5362178949235
 20
276.9456778424928
 30
0.0
  0
ENDBLK
  5
12F5C
330
12F5A
100
AcDbEntity
  8
0
100
AcDbBlockEnd
  0
BLOCK
  5
12F67
330
12F66
100
AcDbEntity
  8
0
100
AcDbBlockBegin
  2
*D7
 70
     1
 10
0.0
 20
0.0
 30
0.0
  3
*D7
  1

  0
LINE
  5
16018
330
12F66
100
AcDbEntity
  8
003
 62
     4
370
    20
100
AcDbLine
 10
659.462636716727
 20
422.4787087895085
 30
0.0
 11
697.2246485627205
 21
422.4787087895085
 31
0.0
  0
LINE
  5
16019
330
12F66
100
AcDbEntity
  8
003
 62
     4
370
    20
100
AcDbLine
 10
659.462636716727
 20
531.828106355482
 30
0.0
 11
697.2246485627205
 21
531.828106355482
 31
0.0
  0
LINE
  5
1601A
330
12F66
100
AcDbEntity
  8
003
 62
     4
370
    20
100
AcDbLine
 10
695.2246485627205
 20
425.4787087895086
 30
0.0
 11
695.2246485627205
 21
528.828106355482
 31
0.0
  0
INSERT
  5
1601B
330
12F66
100
AcDbEntity
  8
003
 62
     4
370
    20
100
AcDbBlockReference
  2
_Open30
 10
695.2246485627205
 20
422.4787087895085
 30
0.0
 41
3.0
 42
3.0
 43
3.0
 50
270.0
  0
INSERT
  5
1601C
330
12F66
100
AcDbEntity
  8
003
 62
     4
370
    20
100
AcDbBlockReference
  2
_Open30
 10
695.2246485627205
 20
531.828106355482
 30
0.0
 41
3.0
 42
3.0
 43
3.0
 50
90.0
  0
MTEXT
  5
1601D
330
12F66
100
AcDbEntity
  8
003
 62
     7
100
AcDbMText
 10
690.2246485627204
 20
477.1534075724954
 30
0.0
 40
6.0
 41
0.0
 71
     5
 72
     1
  1
製品H
  7
DIM
 11
0.0000000000000001
 21
1.0
 31
0.0
 73
     1
 44
1.0
1001
ACAD
1000
MTEXTBEGIN
1070
    73
1070
     1
1070
    44
1040
1.0
1070
    74
1070
     0
1000
MTEXTEND
  0
POINT
  5
1601E
330
12F66
100
AcDbEntity
  8
Defpoints
 62
     0
100
AcDbPoint
 10
656.462636716727
 20
422.4787087895085
 30
0.0
  0
POINT
  5
1601F
330
12F66
100
AcDbEntity
  8
Defpoints
 62
     0
100
AcDbPoint
 10
656.462636716727
 20
531.828106355482
 30
0.0
  0
POINT
  5
16020
330
12F66
100
AcDbEntity
  8
Defpoints
 62
     0
100
AcDbPoint
 10
695.2246485627205
 20
531.828106355482
 30
0.0
  0
ENDBLK
  5
12F68
330
12F66
100
AcDbEntity
  8
0
100
AcDbBlockEnd
  0
BLOCK
  5
12F73
330
12F72
100
AcDbEntity
  8
0
100
AcDbBlockBegin
  2
*D8
 70
     1
 10
0.0
 20
0.0
 30
0.0
  3
*D8
  1

  0
LINE
  5
16021
330
12F72
100
AcDbEntity
  8
003
 62
     4
370
    20
100
AcDbLine
 10
564.9525842401181
 20
417.5287087897037
 30
0.0
 11
564.9525842401181
 21
393.8809083129165
 31
0.0
  0
LINE
  5
16022
330
12F72
100
AcDbEntity
  8
003
 62
     4
370
    20
100
AcDbLine
 10
656.462636716727
 20
417.5287087897035
 30
0.0
 11
656.462636716727
 21
393.8809083129165
 31
0.0
  0
LINE
  5
16023
330
12F72
100
AcDbEntity
  8
003
 62
     4
370
    20
100
AcDbLine
 10
567.952584240118
 20
395.8809083129165
 30
0.0
 11
653.462636716727
 21
395.8809083129165
 31
0.0
  0
INSERT
  5
16024
330
12F72
100
AcDbEntity
  8
003
 62
     4
370
    20
100
AcDbBlockReference
  2
_Open30
 10
564.9525842401181
 20
395.8809083129165
 30
0.0
 41
3.0
 42
3.0
 43
3.0
 50
180.0
  0
INSERT
  5
16025
330
12F72
100
AcDbEntity
  8
003
 62
     4
370
    20
100
AcDbBlockReference
  2
_Open30
 10
656.462636716727
 20
395.8809083129165
 30
0.0
 41
3.0
 42
3.0
 43
3.0
  0
MTEXT
  5
16026
330
12F72
100
AcDbEntity
  8
003
 62
     7
100
AcDbMText
 10
610.7076104784225
 20
400.8809083129165
 30
0.0
 40
6.0
 41
0.0
 71
     5
 72
     1
  1
製品W
  7
DIM
 73
     1
 44
1.0
1001
ACAD
1000
MTEXTBEGIN
1070
    73
1070
     1
1070
    44
1040
1.0
1070
    74
1070
     0
1000
MTEXTEND
  0
POINT
  5
16027
330
12F72
100
AcDbEntity
  8
Defpoints
 62
     0
100
AcDbPoint
 10
564.9525842401181
 20
420.5287087897037
 30
0.0
  0
POINT
  5
16028
330
12F72
100
AcDbEntity
  8
Defpoints
 62
     0
100
AcDbPoint
 10
656.462636716727
 20
420.5287087897035
 30
0.0
  0
POINT
  5
16029
330
12F72
100
AcDbEntity
  8
Defpoints
 62
     0
100
AcDbPoint
 10
656.462636716727
 20
395.8809083129165
 30
0.0
  0
ENDBLK
  5
12F74
330
12F72
100
AcDbEntity
  8
0
100
AcDbBlockEnd
  0
BLOCK
  5
12F7F
330
12F7E
100
AcDbEntity
  8
0
100
AcDbBlockBegin
  2
*D9
 70
     1
 10
0.0
 20
0.0
 30
0.0
  3
*D9
  1

  0
LINE
  5
16231
330
12F7E
100
AcDbEntity
  8
003
 62
     4
370
    20
100
AcDbLine
 10
545.2829835638965
 20
279.9456778424929
 30
0.0
 11
545.2829835638965
 21
300.9923147264973
 31
0.0
  0
LINE
  5
16232
330
12F7E
100
AcDbEntity
  8
003
 62
     4
370
    20
100
AcDbLine
 10
575.2829835638965
 20
269.9456778424929
 30
0.0
 11
575.2829835638965
 21
300.9923147264973
 31
0.0
  0
LINE
  5
16233
330
12F7E
100
AcDbEntity
  8
003
 62
     4
370
    20
100
AcDbLine
 10
548.2829835638965
 20
298.9923147264973
 30
0.0
 11
572.2829835638965
 21
298.9923147264973
 31
0.0
  0
INSERT
  5
16234
330
12F7E
100
AcDbEntity
  8
003
 62
     4
370
    20
100
AcDbBlockReference
  2
_Open30
 10
545.2829835638965
 20
298.9923147264973
 30
0.0
 41
3.0
 42
3.0
 43
3.0
 50
180.0
  0
INSERT
  5
16235
330
12F7E
100
AcDbEntity
  8
003
 62
     4
370
    20
100
AcDbBlockReference
  2
_Open30
 10
575.2829835638965
 20
298.9923147264973
 30
0.0
 41
3.0
 42
3.0
 43
3.0
  0
MTEXT
  5
16236
330
12F7E
100
AcDbEntity
  8
003
 62
     7
100
AcDbMText
 10
560.2829835638965
 20
303.9923147264973
 30
0.0
 40
6.0
 41
0.0
 71
     5
 72
     1
  1
30
  7
DIM
 73
     1
 44
1.0
1001
ACAD
1000
MTEXTBEGIN
1070
    73
1070
     1
1070
    44
1040
1.0
1070
    74
1070
     0
1000
MTEXTEND
  0
POINT
  5
16237
330
12F7E
100
AcDbEntity
  8
Defpoints
 62
     0
100
AcDbPoint
 10
545.2829835638965
 20
276.9456778424928
 30
0.0
  0
POINT
  5
16238
330
12F7E
100
AcDbEntity
  8
Defpoints
 62
     0
100
AcDbPoint
 10
575.2829835638965
 20
266.9456778424928
 30
0.0
  0
POINT
  5
16239
330
12F7E
100
AcDbEntity
  8
Defpoints
 62
     0
100
AcDbPoint
 10
575.2829835638965
 20
298.9923147264973
 30
0.0
  0
ENDBLK
  5
12F80
330
12F7E
100
AcDbEntity
  8
0
100
AcDbBlockEnd
  0
BLOCK
  5
12F8B
330
12F8A
100
AcDbEntity
  8
0
100
AcDbBlockBegin
  2
*D10
 70
     1
 10
0.0
 20
0.0
 30
0.0
  3
*D10
  1

  0
LINE
  5
16228
330
12F8A
100
AcDbEntity
  8
0
 62
     4
370
    20
100
AcDbLine
 10
429.4327015638968
 20
148.9457710743641
 30
0.0
 11
484.2846394199674
 21
148.9457710743641
 31
0.0
  0
LINE
  5
16229
330
12F8A
100
AcDbEntity
  8
0
 62
     4
370
    20
100
AcDbLine
 10
573.2829835638965
 20
218.9456628424931
 30
0.0
 11
480.2846394199674
 21
218.9456628424931
 31
0.0
  0
LINE
  5
1622A
330
12F8A
100
AcDbEntity
  8
0
 62
     4
370
    20
100
AcDbLine
 10
482.2846394199674
 20
151.9457710743641
 30
0.0
 11
482.2846394199674
 21
215.945662842493
 31
0.0
  0
INSERT
  5
1622B
330
12F8A
100
AcDbEntity
  8
0
 62
     4
370
    20
100
AcDbBlockReference
  2
_Open30
 10
482.2846394199674
 20
148.9457710743641
 30
0.0
 41
3.0
 42
3.0
 43
3.0
 50
270.0
  0
INSERT
  5
1622C
330
12F8A
100
AcDbEntity
  8
0
 62
     4
370
    20
100
AcDbBlockReference
  2
_Open30
 10
482.2846394199674
 20
218.9456628424931
 30
0.0
 41
3.0
 42
3.0
 43
3.0
 50
90.0
  0
MTEXT
  5
1622D
330
12F8A
100
AcDbEntity
  8
0
 62
     7
100
AcDbMText
 10
477.2846394199674
 20
183.9457169584286
 30
0.0
 40
6.0
 41
0.0
 71
     5
 72
     1
  1
70
  7
DIM
 11
0.0000000000000001
 21
1.0
 31
0.0
 73
     1
 44
1.0
1001
ACAD
1000
MTEXTBEGIN
1070
    73
1070
     1
1070
    44
1040
1.0
1070
    74
1070
     0
1000
MTEXTEND
  0
POINT
  5
1622E
330
12F8A
100
AcDbEntity
  8
Defpoints
 62
     0
100
AcDbPoint
 10
426.4327015638968
 20
148.9457710743641
 30
0.0
  0
POINT
  5
1622F
330
12F8A
100
AcDbEntity
  8
Defpoints
 62
     0
100
AcDbPoint
 10
576.2829835638966
 20
218.945662842493
 30
0.0
  0
POINT
  5
16230
330
12F8A
100
AcDbEntity
  8
Defpoints
 62
     0
100
AcDbPoint
 10
482.2846394199674
 20
218.9456628424931
 30
0.0
  0
ENDBLK
  5
12F8C
330
12F8A
100
AcDbEntity
  8
0
100
AcDbBlockEnd
  0
BLOCK
  5
12F97
330
12F96
100
AcDbEntity
  8
0
100
AcDbBlockBegin
  2
*D11
 70
     1
 10
0.0
 20
0.0
 30
0.0
  3
*D11
  1

  0
LINE
  5
1621F
330
12F96
100
AcDbEntity
  8
0
 62
     4
370
    20
100
AcDbLine
 10
573.2829835638965
 20
218.9456628424931
 30
0.0
 11
480.2846394199674
 21
218.9456628424931
 31
0.0
  0
LINE
  5
16220
330
12F96
100
AcDbEntity
  8
0
 62
     4
370
    20
100
AcDbLine
 10
542.2829835638965
 20
276.9456778424928
 30
0.0
 11
480.2846394199674
 21
276.9456778424928
 31
0.0
  0
LINE
  5
16221
330
12F96
100
AcDbEntity
  8
0
 62
     4
370
    20
100
AcDbLine
 10
482.2846394199674
 20
221.945662842493
 30
0.0
 11
482.2846394199674
 21
273.9456778424929
 31
0.0
  0
INSERT
  5
16222
330
12F96
100
AcDbEntity
  8
0
 62
     4
370
    20
100
AcDbBlockReference
  2
_Open30
 10
482.2846394199674
 20
218.9456628424931
 30
0.0
 41
3.0
 42
3.0
 43
3.0
 50
270.0
  0
INSERT
  5
16223
330
12F96
100
AcDbEntity
  8
0
 62
     4
370
    20
100
AcDbBlockReference
  2
_Open30
 10
482.2846394199674
 20
276.9456778424928
 30
0.0
 41
3.0
 42
3.0
 43
3.0
 50
90.0
  0
MTEXT
  5
16224
330
12F96
100
AcDbEntity
  8
0
 62
     7
100
AcDbMText
 10
477.2846394199674
 20
247.945670342493
 30
0.0
 40
6.0
 41
0.0
 71
     5
 72
     1
  1
58
  7
DIM
 11
0.0000000000000001
 21
1.0
 31
0.0
 73
     1
 44
1.0
1001
ACAD
1000
MTEXTBEGIN
1070
    73
1070
     1
1070
    44
1040
1.0
1070
    74
1070
     0
1000
MTEXTEND
  0
POINT
  5
16225
330
12F96
100
AcDbEntity
  8
Defpoints
 62
     0
100
AcDbPoint
 10
576.2829835638966
 20
218.945662842493
 30
0.0
  0
POINT
  5
16226
330
12F96
100
AcDbEntity
  8
Defpoints
 62
     0
100
AcDbPoint
 10
545.2829835638965
 20
276.9456778424928
 30
0.0
  0
POINT
  5
16227
330
12F96
100
AcDbEntity
  8
Defpoints
 62
     0
100
AcDbPoint
 10
482.2846394199674
 20
276.9456778424928
 30
0.0
  0
ENDBLK
  5
12F98
330
12F96
100
AcDbEntity
  8
0
100
AcDbBlockEnd
  0
BLOCK
  5
12FBC
330
12FBB
100
AcDbEntity
  8
0
100
AcDbBlockBegin
  2
*D12
 70
     1
 10
0.0
 20
0.0
 30
0.0
  3
*D12
  1

  0
LINE
  5
16255
330
12FBB
100
AcDbEntity
  8
0
 62
     4
370
    20
100
AcDbLine
 10
271.2827015638966
 20
145.9456645561771
 30
0.0
 11
271.2827015638966
 21
116.4490602072778
 31
0.0
  0
LINE
  5
16256
330
12FBB
100
AcDbEntity
  8
0
 62
     4
370
    20
100
AcDbLine
 10
576.2829835638966
 20
145.945677842493
 30
0.0
 11
576.2829835638966
 21
116.4490602072778
 31
0.0
  0
LINE
  5
16257
330
12FBB
100
AcDbEntity
  8
0
 62
     4
370
    20
100
AcDbLine
 10
274.2827015638966
 20
118.4490602072779
 30
0.0
 11
573.2829835638965
 21
118.4490602072779
 31
0.0
  0
INSERT
  5
16258
330
12FBB
100
AcDbEntity
  8
0
 62
     4
370
    20
100
AcDbBlockReference
  2
_Open30
 10
271.2827015638966
 20
118.4490602072779
 30
0.0
 41
3.0
 42
3.0
 43
3.0
 50
180.0
  0
INSERT
  5
16259
330
12FBB
100
AcDbEntity
  8
0
 62
     4
370
    20
100
AcDbBlockReference
  2
_Open30
 10
576.2829835638966
 20
118.4490602072779
 30
0.0
 41
3.0
 42
3.0
 43
3.0
  0
MTEXT
  5
1625A
330
12FBB
100
AcDbEntity
  8
0
 62
     7
100
AcDbMText
 10
423.7828425638965
 20
123.4490602072779
 30
0.0
 40
6.0
 41
0.0
 71
     5
 72
     1
  1
SW
  7
DIM
 73
     1
 44
1.0
1001
ACAD
1000
MTEXTBEGIN
1070
    73
1070
     1
1070
    44
1040
1.0
1070
    74
1070
     0
1000
MTEXTEND
  0
POINT
  5
1625B
330
12FBB
100
AcDbEntity
  8
Defpoints
 62
     0
100
AcDbPoint
 10
271.2827015638966
 20
148.9456645561771
 30
0.0
  0
POINT
  5
1625C
330
12FBB
100
AcDbEntity
  8
Defpoints
 62
     0
100
AcDbPoint
 10
576.2829835638966
 20
148.945677842493
 30
0.0
  0
POINT
  5
1625D
330
12FBB
100
AcDbEntity
  8
Defpoints
 62
     0
100
AcDbPoint
 10
576.2829835638966
 20
118.4490602072779
 30
0.0
  0
ENDBLK
  5
12FBD
330
12FBB
100
AcDbEntity
  8
0
100
AcDbBlockEnd
  0
BLOCK
  5
12FC8
330
12FC7
100
AcDbEntity
  8
0
100
AcDbBlockBegin
  2
*D13
 70
     1
 10
0.0
 20
0.0
 30
0.0
  3
*D13
  1

  0
LINE
  5
1624C
330
12FC7
100
AcDbEntity
  8
003
 62
     4
370
    20
100
AcDbLine
 10
272.2827015638966
 20
269.0526617951994
 30
0.0
 11
272.2827015638966
 21
318.1248771122674
 31
0.0
  0
LINE
  5
1624D
330
12FC7
100
AcDbEntity
  8
003
 62
     4
370
    20
100
AcDbLine
 10
575.2829835638965
 20
269.9456778424929
 30
0.0
 11
575.2829835638965
 21
318.1248771122674
 31
0.0
  0
LINE
  5
1624E
330
12FC7
100
AcDbEntity
  8
003
 62
     4
370
    20
100
AcDbLine
 10
275.2827015638966
 20
316.1248771122674
 30
0.0
 11
572.2829835638965
 21
316.1248771122674
 31
0.0
  0
INSERT
  5
1624F
330
12FC7
100
AcDbEntity
  8
003
 62
     4
370
    20
100
AcDbBlockReference
  2
_Open30
 10
272.2827015638966
 20
316.1248771122674
 30
0.0
 41
3.0
 42
3.0
 43
3.0
 50
180.0
  0
INSERT
  5
16250
330
12FC7
100
AcDbEntity
  8
003
 62
     4
370
    20
100
AcDbBlockReference
  2
_Open30
 10
575.2829835638965
 20
316.1248771122674
 30
0.0
 41
3.0
 42
3.0
 43
3.0
  0
MTEXT
  5
16251
330
12FC7
100
AcDbEntity
  8
003
 62
     7
100
AcDbMText
 10
423.7828425638965
 20
321.1248771122674
 30
0.0
 40
6.0
 41
0.0
 71
     5
 72
     1
  1
製品W=SW-2
  7
DIM
 73
     1
 44
1.0
1001
ACAD
1000
MTEXTBEGIN
1070
    73
1070
     1
1070
    44
1040
1.0
1070
    74
1070
     0
1000
MTEXTEND
  0
POINT
  5
16252
330
12FC7
100
AcDbEntity
  8
Defpoints
 62
     0
100
AcDbPoint
 10
272.2827015638966
 20
266.0526617951993
 30
0.0
  0
POINT
  5
16253
330
12FC7
100
AcDbEntity
  8
Defpoints
 62
     0
100
AcDbPoint
 10
575.2829835638965
 20
266.9456778424928
 30
0.0
  0
POINT
  5
16254
330
12FC7
100
AcDbEntity
  8
Defpoints
 62
     0
100
AcDbPoint
 10
575.2829835638965
 20
316.1248771122674
 30
0.0
  0
ENDBLK
  5
12FC9
330
12FC7
100
AcDbEntity
  8
0
100
AcDbBlockEnd
  0
BLOCK
  5
161B8
330
161B7
100
AcDbEntity
  8
0
100
AcDbBlockBegin
  2
*D14
 70
     1
 10
0.0
 20
0.0
 30
0.0
  3
*D14
  1

  0
LINE
  5
16267
330
161B7
100
AcDbEntity
  8
003
 62
     4
370
    20
100
AcDbLine
 10
271.2827015638966
 20
145.9457637344613
 30
0.0
 11
271.2827015638966
 21
130.4490602072779
 31
0.0
  0
LINE
  5
16268
330
161B7
100
AcDbEntity
  8
003
 62
     4
370
    20
100
AcDbLine
 10
286.2827015638966
 20
204.4457637344613
 30
0.0
 11
286.2827015638966
 21
130.4490602072779
 31
0.0
  0
LINE
  5
16269
330
161B7
100
AcDbEntity
  8
003
 62
     4
370
    20
100
AcDbLine
 10
274.2827015638966
 20
132.4490602072779
 30
0.0
 11
283.2827015638966
 21
132.4490602072779
 31
0.0
  0
INSERT
  5
1626A
330
161B7
100
AcDbEntity
  8
003
 62
     4
370
    20
100
AcDbBlockReference
  2
_Open30
 10
271.2827015638966
 20
132.4490602072779
 30
0.0
 41
3.0
 42
3.0
 43
3.0
 50
180.0
  0
INSERT
  5
1626B
330
161B7
100
AcDbEntity
  8
003
 62
     4
370
    20
100
AcDbBlockReference
  2
_Open30
 10
286.2827015638966
 20
132.4490602072779
 30
0.0
 41
3.0
 42
3.0
 43
3.0
  0
MTEXT
  5
1626C
330
161B7
100
AcDbEntity
  8
003
 62
     7
100
AcDbMText
 10
278.7827015638966
 20
137.4490602072778
 30
0.0
 40
6.0
 41
0.0
 71
     5
 72
     1
  1
15
  7
DIM
 73
     1
 44
1.0
1001
ACAD
1000
MTEXTBEGIN
1070
    73
1070
     1
1070
    44
1040
1.0
1070
    74
1070
     0
1000
MTEXTEND
  0
POINT
  5
1626D
330
161B7
100
AcDbEntity
  8
Defpoints
 62
     0
100
AcDbPoint
 10
271.2827015638966
 20
148.9457637344613
 30
0.0
  0
POINT
  5
1626E
330
161B7
100
AcDbEntity
  8
Defpoints
 62
     0
100
AcDbPoint
 10
286.2827015638966
 20
207.4457637344613
 30
0.0
  0
POINT
  5
1626F
330
161B7
100
AcDbEntity
  8
Defpoints
 62
     0
100
AcDbPoint
 10
286.2827015638966
 20
132.4490602072779
 30
0.0
  0
ENDBLK
  5
161B9
330
161B7
100
AcDbEntity
  8
0
100
AcDbBlockEnd
  0
BLOCK
  5
161C5
330
161C4
100
AcDbEntity
  8
0
100
AcDbBlockBegin
  2
*D15
 70
     1
 10
0.0
 20
0.0
 30
0.0
  3
*D15
  1

  0
LINE
  5
1625E
330
161C4
100
AcDbEntity
  8
003
 62
     4
370
    20
100
AcDbLine
 10
576.2829835638966
 20
145.9457637344613
 30
0.0
 11
576.2829835638966
 21
130.4490602072779
 31
0.0
  0
LINE
  5
1625F
330
161C4
100
AcDbEntity
  8
003
 62
     4
370
    20
100
AcDbLine
 10
561.2829835638965
 20
204.4457637344613
 30
0.0
 11
561.2829835638965
 21
130.4490602072779
 31
0.0
  0
LINE
  5
16260
330
161C4
100
AcDbEntity
  8
003
 62
     4
370
    20
100
AcDbLine
 10
573.2829835638965
 20
132.4490602072779
 30
0.0
 11
564.2829835638965
 21
132.4490602072779
 31
0.0
  0
INSERT
  5
16261
330
161C4
100
AcDbEntity
  8
003
 62
     4
370
    20
100
AcDbBlockReference
  2
_Open30
 10
576.2829835638966
 20
132.4490602072779
 30
0.0
 41
3.0
 42
3.0
 43
3.0
  0
INSERT
  5
16262
330
161C4
100
AcDbEntity
  8
003
 62
     4
370
    20
100
AcDbBlockReference
  2
_Open30
 10
561.2829835638965
 20
132.4490602072779
 30
0.0
 41
3.0
 42
3.0
 43
3.0
 50
180.0
  0
MTEXT
  5
16263
330
161C4
100
AcDbEntity
  8
003
 62
     7
100
AcDbMText
 10
568.7829835638965
 20
137.4490602072778
 30
0.0
 40
6.0
 41
0.0
 71
     5
 72
     1
  1
15
  7
DIM
 73
     1
 44
1.0
1001
ACAD
1000
MTEXTBEGIN
1070
    73
1070
     1
1070
    44
1040
1.0
1070
    74
1070
     0
1000
MTEXTEND
  0
POINT
  5
16264
330
161C4
100
AcDbEntity
  8
Defpoints
 62
     0
100
AcDbPoint
 10
576.2829835638966
 20
148.9457637344613
 30
0.0
  0
POINT
  5
16265
330
161C4
100
AcDbEntity
  8
Defpoints
 62
     0
100
AcDbPoint
 10
561.2829835638965
 20
207.4457637344613
 30
0.0
  0
POINT
  5
16266
330
161C4
100
AcDbEntity
  8
Defpoints
 62
     0
100
AcDbPoint
 10
561.2829835638965
 20
132.4490602072779
 30
0.0
  0
ENDBLK
  5
161C6
330
161C4
100
AcDbEntity
  8
0
100
AcDbBlockEnd
  0
ENDSEC
  0
SECTION
  2
ENTITIES
  0
TEXT
  5
F7EF
330
1F
100
AcDbEntity
  8
0
100
AcDbText
 10
736.4146959686856
 20
23.25114259729506
 30
0.0
 40
10.0
  1
-Ａ４-
  7
AT_VECTOR
 72
     1
 11
760.7956483496381
 21
28.25114259729506
 31
0.0
100
AcDbText
 73
     2
  0
POINT
  5
F7F2
330
1F
100
AcDbEntity
  8
0
100
AcDbPoint
 10
20.0000000000001
 20
558.0
 30
0.0
  0
POINT
  5
F806
330
1F
100
AcDbEntity
  8
0
100
AcDbPoint
 10
809.9999999999996
 20
21.0
 30
0.0
  0
TEXT
  5
1270A
330
1F
100
AcDbEntity
  8
0
100
AcDbText
 10
40.45819394134241
 20
30.38714182789863
 30
0.0
 40
4.0
  1
07.10.01　作成
  7
AT_VECTOR
 11
40.45819394134241
 21
30.38714182789863
 31
0.0
100
AcDbText
 73
     1
  0
LINE
  5
127E9
330
1F
100
AcDbEntity
  8
YKK_ZWAK
  6
Continuous
 62
   254
100
AcDbLine
 10
40.0
 20
36.00000000000012
 30
0.0
 11
741.5835985999996
 21
36.00000000000012
 31
0.0
  0
LINE
  5
127EA
330
1F
100
AcDbEntity
  8
YKK_ZWAK
  6
Continuous
 62
   131
100
AcDbLine
 10
266.9835873999997
 20
52.80070140000032
 30
0.0
 11
395.7835901999997
 21
52.80070140000032
 31
0.0
  0
LINE
  5
127EB
330
1F
100
AcDbEntity
  8
YKK_ZWAK
  6
Continuous
 62
   254
100
AcDbLine
 10
779.3835999999993
 20
72.40000140000041
 30
0.0
 11
40.0
 21
72.40000140000041
 31
0.0
  0
LINE
  5
127EC
330
1F
100
AcDbEntity
  8
YKK_ZWAK
  6
Continuous
 62
   254
100
AcDbLine
 10
741.5835985999996
 20
71.00000140000031
 30
0.0
 11
40.0
 21
71.00000140000031
 31
0.0
  0
LINE
  5
127ED
330
1F
100
AcDbEntity
  8
YKK_ZWAK
  6
Continuous
 62
   254
100
AcDbLine
 10
779.3835999999994
 20
558.0
 30
0.0
 11
40.00000000000011
 21
558.0
 31
0.0
  0
LINE
  5
127EE
330
1F
100
AcDbEntity
  8
YKK_ZWAK
  6
Continuous
 62
   254
100
AcDbLine
 10
40.0
 20
72.40000140000041
 30
0.0
 11
40.00000000000011
 21
558.0
 31
0.0
  0
LINE
  5
127EF
330
1F
100
AcDbEntity
  8
YKK_ZWAK
  6
HIDDEN
 62
   131
100
AcDbLine
 10
44.59865000000002
 20
42.70180000000016
 30
0.0
 11
262.1745873999998
 21
42.70180000000038
 31
0.0
  0
LINE
  5
127F0
330
1F
100
AcDbEntity
  8
YKK_ZWAK
  6
HIDDEN
 62
   131
100
AcDbLine
 10
44.59865000000002
 20
49.63040000000012
 30
0.0
 11
262.1745873999998
 21
49.63040000000034
 31
0.0
  0
LINE
  5
127F1
330
1F
100
AcDbEntity
  8
YKK_ZWAK
  6
HIDDEN
 62
   131
100
AcDbLine
 10
44.59865000000002
 20
56.55900140000028
 30
0.0
 11
262.1745873999998
 21
56.55900140000028
 31
0.0
  0
LINE
  5
127F2
330
1F
100
AcDbEntity
  8
YKK_ZWAK
  6
HIDDEN
 62
   131
100
AcDbLine
 10
44.59865000000002
 20
63.48760140000024
 30
0.0
 11
262.1745873999998
 21
63.48760140000024
 31
0.0
  0
LINE
  5
127F3
330
1F
100
AcDbEntity
  8
YKK_ZWAK
  6
Continuous
 62
   254
100
AcDbLine
 10
40.0
 20
36.00000000000012
 30
0.0
 11
40.0
 21
71.00000140000031
 31
0.0
  0
TEXT
  5
127F4
330
1F
100
AcDbEntity
  8
YKK_ZWAK
  6
Continuous
 62
   131
100
AcDbText
 10
44.71447200000016
 20
64.55348160000028
 30
0.0
 40
4.199999999999999
  1
変 更 記 事
 41
0.9
  7
YKK_OSSTYLE1
100
AcDbText
  0
TEXT
  5
127F5
330
1F
100
AcDbEntity
  8
YKK_ZWAK
  6
Continuous
 62
   254
100
AcDbText
 10
385.9018063999998
 20
37.5205188207384
 30
0.0
 40
7.0
  1
殿
 41
0.9
  7
YKK_OSSTYLE1
100
AcDbText
  0
LINE
  5
127F6
330
1F
100
AcDbEntity
  8
YKK_ZWAK
  6
Continuous
 62
   254
100
AcDbLine
 10
394.3835901999997
 20
71.00000140000031
 30
0.0
 11
394.3835901999997
 21
36.00000000000012
 31
0.0
  0
LINE
  5
127F7
330
1F
100
AcDbEntity
  8
YKK_ZWAK
  6
Continuous
 62
   254
100
AcDbLine
 10
266.9835873999997
 20
71.00000140000031
 30
0.0
 11
266.9835873999997
 21
36.00000000000012
 31
0.0
  0
TEXT
  5
127F8
330
1F
100
AcDbEntity
  8
YKK_ZWAK
  6
Continuous
 62
   131
100
AcDbText
 10
270.7528493999998
 20
48.14570140000035
 30
0.0
 40
4.199999999999999
  1
施　　工
 41
0.9
  7
YKK_OSSTYLE1
100
AcDbText
  0
TEXT
  5
127F9
330
1F
100
AcDbEntity
  8
YKK_ZWAK
  6
Continuous
 62
   131
100
AcDbText
 10
270.7528493999998
 20
65.46720420000031
 30
0.0
 40
4.199999999999999
  1
設計監理
 41
0.9
  7
YKK_OSSTYLE1
100
AcDbText
  0
TEXT
  5
127FA
330
1F
100
AcDbEntity
  8
YKK_ZWAK
  6
Continuous
 62
   254
100
AcDbText
 10
385.9018063999998
 20
54.84202022073862
 30
0.0
 40
7.0
  1
殿
 41
0.9
  7
YKK_OSSTYLE1
100
AcDbText
  0
LINE
  5
127FD
330
1F
100
AcDbEntity
  8
YKK_ZWAK
  6
Continuous
 62
   254
100
AcDbLine
 10
779.3835999999994
 20
558.0
 30
0.0
 11
779.3835999999993
 21
72.40000140000041
 31
0.0
  0
LINE
  5
127FE
330
1F
100
AcDbEntity
  8
YKK_ZWAK
  6
Continuous
 62
   254
100
AcDbLine
 10
612.7835957999995
 20
45.80000000000029
 30
0.0
 11
713.5832485999998
 21
45.80000000000029
 31
0.0
  0
LINE
  5
127FF
330
1F
100
AcDbEntity
  8
YKK_ZWAK
  6
Continuous
 62
   131
100
AcDbLine
 10
592.7677957999999
 20
64.00070140000036
 30
0.0
 11
524.5835943999995
 21
64.00070140000036
 31
0.0
  0
LINE
  5
12800
330
1F
100
AcDbEntity
  8
YKK_ZWAK
  6
Continuous
 62
   254
100
AcDbLine
 10
524.5835943999995
 20
71.00000140000031
 30
0.0
 11
524.5835943999995
 21
36.00000000000012
 31
0.0
  0
LINE
  5
12801
330
1F
100
AcDbEntity
  8
YKK_ZWAK
  6
Continuous
 62
   131
100
AcDbLine
 10
395.7835901999997
 20
52.80070140000032
 30
0.0
 11
524.5835943999995
 21
52.80070140000032
 31
0.0
  0
TEXT
  5
12802
330
1F
100
AcDbEntity
  8
YKK_ZWAK
  6
Continuous
 62
   131
100
AcDbText
 10
398.0008780425182
 20
47.85170280000023
 30
0.0
 40
4.199999999999999
  1
図面内容
 41
0.9
  7
YKK_OSSTYLE1
100
AcDbText
  0
TEXT
  5
12803
330
1F
100
AcDbEntity
  8
YKK_ZWAK
  6
Continuous
 62
   131
100
AcDbText
 10
398.3958123999997
 20
65.46720420000031
 30
0.0
 40
4.199999999999999
  1
工 事 名
 41
0.9
  7
YKK_OSSTYLE1
100
AcDbText
  0
TEXT
  5
12804
330
1F
100
AcDbEntity
  8
YKK_ZWAK
  6
Continuous
 62
   254
100
AcDbText
 10
508.0150028640185
 20
54.77075850212634
 30
0.0
 40
7.0
  1
工事
 41
0.9
  7
YKK_OSSTYLE1
100
AcDbText
  0
LINE
  5
12805
330
1F
100
AcDbEntity
  8
YKK_ZWAK
  6
Continuous
 62
   254
100
AcDbLine
 10
612.7835957999995
 20
71.00000140000031
 30
0.0
 11
612.7835957999995
 21
36.00000000000012
 31
0.0
  0
LINE
  5
12806
330
1F
100
AcDbEntity
  8
YKK_ZWAK
  6
Continuous
 62
   254
100
AcDbLine
 10
591.7835957999995
 20
71.00000140000031
 30
0.0
 11
591.7835957999995
 21
36.00000000000012
 31
0.0
  0
LINE
  5
12807
330
1F
100
AcDbEntity
  8
YKK_ZWAK
  6
Continuous
 62
   131
100
AcDbLine
 10
600.2558245999996
 20
37.65496380000025
 30
0.0
 11
609.7796997999994
 21
47.17883760000029
 31
0.0
  0
LINE
  5
12808
330
1F
100
AcDbEntity
  8
YKK_ZWAK
  6
Continuous
 62
   131
100
AcDbLine
 10
569.3835943999995
 20
71.00000140000031
 30
0.0
 11
569.3835943999995
 21
36.00000000000012
 31
0.0
  0
LINE
  5
12809
330
1F
100
AcDbEntity
  8
YKK_ZWAK
  6
Continuous
 62
   131
100
AcDbLine
 10
546.9835943999994
 20
71.00000140000031
 30
0.0
 11
546.9835943999994
 21
36.00000000000012
 31
0.0
  0
TEXT
  5
1280A
330
1F
100
AcDbEntity
  8
YKK_ZWAK
  6
Continuous
 62
   131
100
AcDbText
 10
529.0385113564176
 20
37.05395500000043
 30
0.0
 40
4.899999999999999
  1
 ． ．
 41
0.9
  7
YKK_OSSTYLE1
100
AcDbText
  0
LINE
  5
1280B
330
1F
100
AcDbEntity
  8
YKK_ZWAK
  6
Continuous
 62
   131
100
AcDbLine
 10
617.8235784399998
 20
38.10000000000025
 30
0.0
 11
617.8235784399998
 21
36.00000000000012
 31
0.0
  0
TEXT
  5
1280C
330
1F
100
AcDbEntity
  8
YKK_ZWAK
  6
Continuous
 62
   131
100
AcDbText
 10
550.938089142928
 20
65.21975000000032
 30
0.0
 40
4.199999999999999
  1
担  当
 41
0.9
  7
YKK_OSSTYLE1
100
AcDbText
  0
TEXT
  5
1280D
330
1F
100
AcDbEntity
  8
YKK_ZWAK
  6
Continuous
 62
   131
100
AcDbText
 10
529.572708742928
 20
65.21975000000032
 30
0.0
 40
4.199999999999999
  1
照  査
 41
0.9
  7
YKK_OSSTYLE1
100
AcDbText
  0
TEXT
  5
1280E
330
1F
100
AcDbEntity
  8
YKK_ZWAK
  6
Continuous
 62
   131
100
AcDbText
 10
573.7035563429278
 20
65.23795140000027
 30
0.0
 40
4.199999999999999
  1
作  図
 41
0.9
  7
YKK_OSSTYLE1
100
AcDbText
  0
TEXT
  5
1280F
330
1F
100
AcDbEntity
  8
YKK_ZWAK
  6
Continuous
 62
   131
100
AcDbText
 10
615.4507133999995
 20
65.46720140000036
 30
0.0
 40
4.199999999999999
  1
御承認印
 41
0.9
  7
YKK_OSSTYLE1
100
AcDbText
  0
LINE
  5
12810
330
1F
100
AcDbEntity
  8
YKK_ZWAK
  6
Continuous
 62
   131
100
AcDbLine
 10
592.7677957999999
 20
64.00070140000036
 30
0.0
 11
612.7835957999995
 21
64.00070140000036
 31
0.0
  0
LINE
  5
12811
330
1F
100
AcDbEntity
  8
YKK_ZWAK
  6
Continuous
 62
   131
100
AcDbLine
 10
594.9537445999997
 20
53.26383680000038
 30
0.0
 11
604.6471261999995
 21
62.95721840000021
 31
0.0
  0
TEXT
  5
12812
330
1F
100
AcDbEntity
  8
YKK_ZWAK
  6
Continuous
 62
   131
100
AcDbText
 10
595.2958557429281
 20
65.46294820000014
 30
0.0
 40
4.199999999999999
  1
尺  度
 41
0.9
  7
YKK_OSSTYLE1
100
AcDbText
  0
CIRCLE
  5
12813
330
1F
100
AcDbEntity
  8
YKK_ZWAK
  6
Continuous
 62
     8
100
AcDbCircle
 10
791.1799999999997
 20
140.6080028000002
 30
0.0
 40
8.819999999999998
  0
LINE
  5
12814
330
1F
100
AcDbEntity
  8
YKK_ZWAK
  6
Continuous
 62
     8
100
AcDbLine
 10
782.3599999999998
 20
120.8120028000002
 30
0.0
 11
799.9999999999996
 21
120.8120028000002
 31
0.0
  0
LINE
  5
12815
330
1F
100
AcDbEntity
  8
YKK_ZWAK
  6
Continuous
 62
     8
100
AcDbLine
 10
782.3599999999998
 20
101.0160014000004
 30
0.0
 11
799.9999999999996
 21
101.0160014000004
 31
0.0
  0
CIRCLE
  5
12816
330
1F
100
AcDbEntity
  8
YKK_ZWAK
  6
Continuous
 62
     8
100
AcDbCircle
 10
791.1799999999997
 20
120.8120028000002
 30
0.0
 40
8.819999999999998
  0
CIRCLE
  5
12817
330
1F
100
AcDbEntity
  8
YKK_ZWAK
  6
Continuous
 62
     8
100
AcDbCircle
 10
791.1799999999997
 20
101.0160014000004
 30
0.0
 40
8.819999999999998
  0
LINE
  5
12818
330
1F
100
AcDbEntity
  8
YKK_ZWAK
  6
Continuous
 62
     8
100
AcDbLine
 10
782.3599999999998
 20
81.22000140000011
 30
0.0
 11
799.9999999999996
 21
81.22000140000011
 31
0.0
  0
CIRCLE
  5
12819
330
1F
100
AcDbEntity
  8
YKK_ZWAK
  6
Continuous
 62
     8
100
AcDbCircle
 10
791.1799999999997
 20
81.22000140000011
 30
0.0
 40
8.819999999999998
  0
LINE
  5
1281A
330
1F
100
AcDbEntity
  8
YKK_ZWAK
  6
Continuous
 62
   254
100
AcDbLine
 10
741.5835985999996
 20
71.00000140000031
 30
0.0
 11
741.5835985999996
 21
36.00000000000012
 31
0.0
  0
LINE
  5
1281B
330
1F
100
AcDbEntity
  8
YKK_ZWAK
  6
Continuous
 62
   254
100
AcDbLine
 10
713.5832485999996
 20
71.00000140000031
 30
0.0
 11
713.5832485999996
 21
36.00000000000012
 31
0.0
  0
ARC
  5
1281C
330
1F
100
AcDbEntity
  8
YKK_ZWAK
  6
Continuous
 62
   254
100
AcDbCircle
 10
774.1185096151524
 20
46.25489935034204
 30
0.0
 40
4.291374954660761
100
AcDbArc
 50
285.4429145291092
 51
349.9044812349556
  0
ARC
  5
1281D
330
1F
100
AcDbEntity
  8
YKK_ZWAK
  6
Continuous
 62
   254
100
AcDbCircle
 10
755.0324199971438
 20
42.60518138328836
 30
0.0
 40
11.08246594050609
100
AcDbArc
 50
168.7637177031448
 51
199.8007915269911
  0
ARC
  5
1281E
330
1F
100
AcDbEntity
  8
YKK_ZWAK
  6
Continuous
 62
   254
100
AcDbCircle
 10
751.1657775921399
 20
42.67194135901092
 30
0.0
 40
2.368496244058475
100
AcDbArc
 50
171.0820302641947
 51
216.7192279251603
  0
LINE
  5
1281F
330
1F
100
AcDbEntity
  8
YKK_ZWAK
  6
Continuous
 62
   254
100
AcDbLine
 10
767.6389061999993
 20
36.7936334000002
 30
0.0
 11
767.6389061999993
 21
51.7409686000002
 31
0.0
  0
LINE
  5
12820
330
1F
100
AcDbEntity
  8
YKK_ZWAK
  6
Continuous
 62
   254
100
AcDbLine
 10
762.6113955999995
 20
55.90359700000011
 30
0.0
 11
762.6113955999995
 21
36.7936334000002
 31
0.0
  0
LINE
  5
12821
330
1F
100
AcDbEntity
  8
YKK_ZWAK
  6
Continuous
 62
   254
100
AcDbLine
 10
760.5030865999993
 20
51.41660820000026
 30
0.0
 11
760.5030865999993
 21
36.82063240000037
 31
0.0
  0
LINE
  5
12822
330
1F
100
AcDbEntity
  8
YKK_ZWAK
  6
Continuous
 62
   254
100
AcDbLine
 10
755.6107305999995
 20
40.92913680000026
 30
0.0
 11
755.6107305999995
 21
50.65982980000024
 31
0.0
  0
LINE
  5
12823
330
1F
100
AcDbEntity
  8
YKK_ZWAK
  6
Continuous
 62
   254
100
AcDbLine
 10
760.1787303999993
 20
36.76657280000029
 30
0.0
 11
749.1506391999995
 21
36.73951080000018
 31
0.0
  0
LINE
  5
12824
330
1F
100
AcDbEntity
  8
YKK_ZWAK
  6
Continuous
 62
   254
100
AcDbLine
 10
749.9885503999993
 20
40.92913680000026
 30
0.0
 11
755.6107305999995
 21
40.92913680000026
 31
0.0
  0
ARC
  5
12825
330
1F
100
AcDbEntity
  8
YKK_ZWAK
  6
Continuous
 62
   254
100
AcDbCircle
 10
748.0236827759166
 20
40.5574926410726
 30
0.0
 40
3.822905774762699
100
AcDbArc
 50
207.3143541467588
 51
263.5946407474016
  0
ARC
  5
12826
330
1F
100
AcDbEntity
  8
YKK_ZWAK
  6
Continuous
 62
   254
100
AcDbCircle
 10
750.2336781667264
 20
42.43503977285047
 30
0.0
 40
1.52572188408749
100
AcDbArc
 50
230.9727955865909
 51
260.7549113263766
  0
LINE
  5
12827
330
1F
100
AcDbEntity
  8
YKK_ZWAK
  6
Continuous
 62
   254
100
AcDbLine
 10
749.1506391999995
 20
36.73951080000018
 30
0.0
 11
747.6640169999995
 21
36.73951080000018
 31
0.0
  0
LINE
  5
12828
330
1F
100
AcDbEntity
  8
YKK_ZWAK
  6
Continuous
 62
   254
100
AcDbLine
 10
760.5030865999993
 20
36.82063240000037
 30
0.0
 11
760.1787303999993
 21
36.76657280000029
 31
0.0
  0
LINE
  5
12829
330
1F
100
AcDbEntity
  8
YKK_ZWAK
  6
Continuous
 62
   254
100
AcDbLine
 10
755.1782383999994
 20
40.92913680000026
 30
0.0
 11
755.5296397999994
 21
40.92913680000026
 31
0.0
  0
LINE
  5
1282A
330
1F
100
AcDbEntity
  8
YKK_ZWAK
  6
Continuous
 62
   254
100
AcDbLine
 10
755.6107305999995
 20
40.93021760000022
 30
0.0
 11
755.6118099999995
 21
40.92913680000026
 31
0.0
  0
LINE
  5
1282B
330
1F
100
AcDbEntity
  8
YKK_ZWAK
  6
Continuous
 62
   254
100
AcDbLine
 10
766.8550391999998
 20
36.7936334000002
 30
0.0
 11
767.6389061999993
 21
36.7936334000002
 31
0.0
  0
LINE
  5
1282C
330
1F
100
AcDbEntity
  8
YKK_ZWAK
  6
Continuous
 62
   254
100
AcDbLine
 10
762.6113955999995
 20
36.7936334000002
 30
0.0
 11
766.8550391999998
 21
36.7936334000002
 31
0.0
  0
TEXT
  5
1282D
330
1F
100
AcDbEntity
  8
YKK_ZWAK
  6
Continuous
 62
   131
100
AcDbText
 10
719.7812535651284
 20
65.1378668178637
 30
0.0
 40
4.479999999999999
  1
図　番
 41
0.9
  7
YKK_OSSTYLE1
100
AcDbText
  0
TEXT
  5
1282E
330
1F
100
AcDbEntity
  8
YKK_ZWAK
  6
Continuous
 62
   131
100
AcDbText
 10
717.2623240538522
 20
46.91549063572745
 30
0.0
 40
4.479999999999999
  1
通し図番
 41
0.9
  7
YKK_OSSTYLE1
100
AcDbText
  0
LINE
  5
1282F
330
1F
100
AcDbEntity
  8
YKK_ZWAK
  6
Continuous
 62
   131
100
AcDbLine
 10
713.5832485999998
 20
64.00000140000031
 30
0.0
 11
741.5835985999996
 21
64.00000140000031
 31
0.0
  0
LINE
  5
12830
330
1F
100
AcDbEntity
  8
YKK_ZWAK
  6
Continuous
 62
   131
100
AcDbLine
 10
741.5835985999996
 20
45.80070000000034
 30
0.0
 11
713.5832485999998
 21
45.80070000000034
 31
0.0
  0
LINE
  5
12831
330
1F
100
AcDbEntity
  8
YKK_ZWAK
  6
Continuous
 62
   254
100
AcDbLine
 10
713.5832485999998
 20
52.80070140000032
 30
0.0
 11
741.5835985999996
 21
52.80070140000032
 31
0.0
  0
TEXT
  5
12832
330
1F
100
AcDbEntity
  8
YKK_ZWAK
  6
Continuous
 62
   131
100
AcDbText
 10
685.7599305487767
 20
46.83089352384388
 30
0.0
 40
3.959199999999999
  1
年   月   日
 41
0.9
  7
YKK_OSSTYLE1
100
AcDbText
  0
ARC
  5
12833
330
1F
100
AcDbEntity
  8
YKK_ZWAK
  6
Continuous
 62
   254
100
AcDbCircle
 10
751.1039154459985
 20
35.14607220780283
 30
0.0
 40
13.3089797551028
100
AcDbArc
 50
79.38097907998531
 51
112.0582515030162
  0
ARC
  5
12834
330
1F
100
AcDbEntity
  8
YKK_ZWAK
  6
Continuous
 62
   254
100
AcDbCircle
 10
752.8250225948842
 20
35.53689122258663
 30
0.0
 40
20.74827378314429
100
AcDbArc
 50
78.78009531611624
 51
91.46937906064943
  0
LINE
  5
12835
330
1F
100
AcDbEntity
  8
YKK_ZWAK
  6
Continuous
 62
   254
100
AcDbLine
 10
754.5295287999993
 20
51.79502960000025
 30
0.0
 11
750.8318357586659
 21
51.72506825574021
 31
0.0
  0
LINE
  5
12836
330
1F
100
AcDbEntity
  8
YKK_ZWAK
  6
Continuous
 62
   254
100
AcDbLine
 10
754.2592391999993
 20
44.47004200000026
 30
0.0
 11
750.2648305999993
 21
44.46541780000018
 31
0.0
  0
LINE
  5
12837
330
1F
100
AcDbEntity
  8
YKK_ZWAK
  6
Continuous
 62
   254
100
AcDbLine
 10
755.8456967999992
 20
70.20221000000026
 30
0.0
 11
751.3130189999996
 21
62.17444200000011
 31
0.0
  0
LINE
  5
12838
330
1F
100
AcDbEntity
  8
YKK_ZWAK
  6
Continuous
 62
   254
100
AcDbLine
 10
752.2196323999993
 20
70.20221000000026
 30
0.0
 11
755.8456967999992
 21
70.20221000000026
 31
0.0
  0
LINE
  5
12839
330
1F
100
AcDbEntity
  8
YKK_ZWAK
  6
Continuous
 62
   254
100
AcDbLine
 10
748.0153959999996
 20
62.20144100000027
 30
0.0
 11
743.4203509999996
 21
70.09415240000009
 31
0.0
  0
ARC
  5
1283A
330
1F
100
AcDbEntity
  8
YKK_ZWAK
  6
Continuous
 62
   254
100
AcDbCircle
 10
749.5428671603957
 20
51.83435215743305
 30
0.0
 40
5.037359110950339
100
AcDbArc
 50
158.4108324489182
 51
179.7177524498308
  0
ARC
  5
1283B
330
1F
100
AcDbEntity
  8
YKK_ZWAK
  6
Continuous
 62
   254
100
AcDbCircle
 10
748.0103468024275
 20
44.07254465782864
 30
0.0
 40
3.908086150713168
100
AcDbArc
 50
121.82711365127
 51
169.0847490152585
  0
LINE
  5
1283C
330
1F
100
AcDbEntity
  8
YKK_ZWAK
  6
Continuous
 62
   254
100
AcDbLine
 10
749.1506391999995
 20
49.92998740000041
 30
0.0
 11
744.5015527999995
 21
49.92998740000041
 31
0.0
  0
LINE
  5
1283D
330
1F
100
AcDbEntity
  8
YKK_ZWAK
  6
Continuous
 62
   254
100
AcDbLine
 10
744.5015527999995
 20
49.92998740000041
 30
0.0
 11
744.5015527999995
 21
51.85916683890003
 31
0.0
  0
ARC
  5
1283E
330
1F
100
AcDbEntity
  8
YKK_ZWAK
  6
Continuous
 62
   254
100
AcDbCircle
 10
750.273392091671
 20
43.02066509552071
 30
0.0
 40
1.444778071622274
100
AcDbArc
 50
90.33952633950251
 51
178.036390201176
  0
ARC
  5
1283F
330
1F
100
AcDbEntity
  8
YKK_ZWAK
  6
Continuous
 62
   254
100
AcDbCircle
 10
751.258961812979
 20
49.99306161508878
 30
0.0
 40
2.109265890543419
100
AcDbArc
 50
138.4638179599293
 51
181.7135938864657
  0
ARC
  5
12840
330
1F
100
AcDbEntity
  8
YKK_ZWAK
  6
Continuous
 62
   254
100
AcDbCircle
 10
750.6985435078685
 20
50.0293443162792
 30
0.0
 40
1.700954585808626
100
AcDbArc
 50
85.50551117325783
 51
126.7803821238679
  0
ARC
  5
12841
330
1F
100
AcDbEntity
  8
YKK_ZWAK
  6
Continuous
 62
   254
100
AcDbCircle
 10
747.1900477496139
 20
52.94459453367483
 30
0.0
 40
2.443647515679661
100
AcDbArc
 50
109.0212664518414
 51
161.512640403375
  0
ARC
  5
12842
330
1F
100
AcDbEntity
  8
YKK_ZWAK
  6
Continuous
 62
   254
100
AcDbCircle
 10
752.3057897363884
 20
38.5989349282903
 30
0.0
 40
17.68008828611943
100
AcDbArc
 50
89.89164772910941
 51
109.3084827099164
  0
LINE
  5
12843
330
1F
100
AcDbEntity
  8
YKK_ZWAK
  6
Continuous
 62
   254
100
AcDbLine
 10
748.0153959999996
 20
57.74157720000028
 30
0.0
 11
748.0153959999996
 21
62.20144100000027
 31
0.0
  0
LINE
  5
12844
330
1F
100
AcDbEntity
  8
YKK_ZWAK
  6
Continuous
 62
   254
100
AcDbLine
 10
751.3130189999996
 20
57.74157720000028
 30
0.0
 11
748.0153959999996
 21
57.74157720000028
 31
0.0
  0
LINE
  5
12845
330
1F
100
AcDbEntity
  8
YKK_ZWAK
  6
Continuous
 62
   254
100
AcDbLine
 10
751.3130189999996
 20
62.17444200000011
 30
0.0
 11
751.3130189999996
 21
57.74157720000028
 31
0.0
  0
LINE
  5
12846
330
1F
100
AcDbEntity
  8
YKK_ZWAK
  6
Continuous
 62
   254
100
AcDbLine
 10
743.4203509999996
 20
70.09415240000009
 30
0.0
 11
746.9342179999998
 21
70.09415240000009
 31
0.0
  0
LINE
  5
12847
330
1F
100
AcDbEntity
  8
YKK_ZWAK
  6
Continuous
 62
   254
100
AcDbLine
 10
752.2196323999993
 20
70.20221000000026
 30
0.0
 11
749.6641941999997
 21
65.22880660000021
 31
0.0
  0
LINE
  5
12848
330
1F
100
AcDbEntity
  8
YKK_ZWAK
  6
Continuous
 62
   254
100
AcDbLine
 10
749.4479725999996
 20
65.39098680000018
 30
0.0
 11
749.6641941999997
 21
65.22880660000021
 31
0.0
  0
LINE
  5
12849
330
1F
100
AcDbEntity
  8
YKK_ZWAK
  6
Continuous
 62
   254
100
AcDbLine
 10
746.9342179999998
 20
70.09415240000009
 30
0.0
 11
749.4479725999996
 21
65.39098680000018
 31
0.0
  0
ARC
  5
1284A
330
1F
100
AcDbEntity
  8
YKK_ZWAK
  6
Continuous
 62
   254
100
AcDbCircle
 10
775.584049233494
 20
63.01228063775636
 30
0.0
 40
2.162466367416001
100
AcDbArc
 50
0.0016629214395004
 51
89.99603715016002
  0
ARC
  5
1284B
330
1F
100
AcDbEntity
  8
YKK_ZWAK
  6
Continuous
 62
   254
100
AcDbCircle
 10
763.9627892334941
 20
62.93115903775663
 30
0.0
 40
2.162466367416001
100
AcDbArc
 50
0.0016629214395004
 51
89.99603715016002
  0
LINE
  5
1284C
330
1F
100
AcDbEntity
  8
YKK_ZWAK
  6
Continuous
 62
   254
100
AcDbLine
 10
767.5578195999995
 20
57.87669680000011
 30
0.0
 11
767.5578195999995
 21
70.28333160000022
 31
0.0
  0
LINE
  5
1284D
330
1F
100
AcDbEntity
  8
YKK_ZWAK
  6
Continuous
 62
   254
100
AcDbLine
 10
756.0431961999994
 20
57.76863780000041
 30
0.0
 11
756.0431961999994
 21
70.17521240000007
 31
0.0
  0
LINE
  5
1284E
330
1F
100
AcDbEntity
  8
YKK_ZWAK
  6
Continuous
 62
   254
100
AcDbLine
 10
770.9635239999999
 20
57.87669680000011
 30
0.0
 11
767.5578195999995
 21
57.87669680000011
 31
0.0
  0
LINE
  5
1284F
330
1F
100
AcDbEntity
  8
YKK_ZWAK
  6
Continuous
 62
   254
100
AcDbLine
 10
774.2070677999994
 20
55.90359700000011
 30
0.0
 11
762.6113955999995
 21
55.90359700000011
 31
0.0
  0
LINE
  5
12850
330
1F
100
AcDbEntity
  8
YKK_ZWAK
  6
Continuous
 62
   254
100
AcDbLine
 10
768.8552429999996
 20
41.87522040000033
 30
0.0
 11
774.1800687999995
 21
41.87522040000033
 31
0.0
  0
LINE
  5
12851
330
1F
100
AcDbEntity
  8
YKK_ZWAK
  6
Continuous
 62
   254
100
AcDbLine
 10
772.3960851999994
 20
46.01072380000016
 30
0.0
 11
768.8552429999996
 21
46.01072380000016
 31
0.0
  0
LINE
  5
12852
330
1F
100
AcDbEntity
  8
YKK_ZWAK
  6
Continuous
 62
   254
100
AcDbLine
 10
767.6389061999993
 20
51.7409686000002
 30
0.0
 11
772.2879659999993
 21
51.7409686000002
 31
0.0
  0
ARC
  5
12853
330
1F
100
AcDbEntity
  8
YKK_ZWAK
  6
Continuous
 62
   254
100
AcDbCircle
 10
755.8925043950879
 20
51.51474864947033
 30
0.0
 40
4.611623791769603
100
AcDbArc
 50
358.7805904544195
 51
38.76562607987978
  0
ARC
  5
12854
330
1F
100
AcDbEntity
  8
YKK_ZWAK
  6
Continuous
 62
   254
100
AcDbCircle
 10
754.0396270347561
 20
50.24597950176496
 30
0.0
 40
1.624672258159005
100
AcDbArc
 50
14.7551995016551
 51
72.44994796056321
  0
LINE
  5
12855
330
1F
100
AcDbEntity
  8
YKK_ZWAK
  6
Continuous
 62
   254
100
AcDbLine
 10
754.2592391999993
 20
48.06494520000035
 30
0.0
 11
754.2592391999993
 21
44.47004200000026
 31
0.0
  0
LINE
  5
12856
330
1F
100
AcDbEntity
  8
YKK_ZWAK
  6
Continuous
 62
   254
100
AcDbLine
 10
753.5564629999996
 20
48.22712540000032
 30
0.0
 11
754.2592391999993
 21
48.06494520000035
 31
0.0
  0
LINE
  5
12857
330
1F
100
AcDbEntity
  8
YKK_ZWAK
  6
Continuous
 62
   254
100
AcDbLine
 10
768.8552429999996
 20
46.01072380000016
 30
0.0
 11
768.8552429999996
 21
41.87522040000033
 31
0.0
  0
LINE
  5
12858
330
1F
100
AcDbEntity
  8
YKK_ZWAK
  6
Continuous
 62
   254
100
AcDbLine
 10
762.5573275999999
 20
62.41768220000029
 30
0.0
 11
759.3678405999997
 21
62.41768220000029
 31
0.0
  0
ARC
  5
12859
330
1F
100
AcDbEntity
  8
YKK_ZWAK
  6
Continuous
 62
   254
100
AcDbCircle
 10
756.1138951653685
 20
51.50351313816611
 30
0.0
 40
4.448479416583054
100
AcDbArc
 50
40.6642229148782
 51
80.31693568605502
  0
LINE
  5
1285A
330
1F
100
AcDbEntity
  8
YKK_ZWAK
  6
Continuous
 62
   254
100
AcDbLine
 10
759.3678405999997
 20
57.76863780000041
 30
0.0
 11
756.0431961999994
 21
57.76863780000041
 31
0.0
  0
LINE
  5
1285B
330
1F
100
AcDbEntity
  8
YKK_ZWAK
  6
Continuous
 62
   254
100
AcDbLine
 10
759.3678405999997
 20
62.41768220000029
 30
0.0
 11
759.3678405999997
 21
57.76863780000041
 31
0.0
  0
LINE
  5
1285C
330
1F
100
AcDbEntity
  8
YKK_ZWAK
  6
Continuous
 62
   254
100
AcDbLine
 10
766.1252387999996
 20
62.93128340000032
 30
0.0
 11
766.1252387999996
 21
57.84969780000017
 31
0.0
  0
LINE
  5
1285D
330
1F
100
AcDbEntity
  8
YKK_ZWAK
  6
Continuous
 62
   254
100
AcDbLine
 10
762.9898197999993
 20
62.25550200000032
 30
0.0
 11
762.5573275999999
 21
62.41768220000029
 31
0.0
  0
LINE
  5
1285E
330
1F
100
AcDbEntity
  8
YKK_ZWAK
  6
Continuous
 62
   254
100
AcDbLine
 10
762.9898197999993
 20
57.84969780000017
 30
0.0
 11
762.9898197999993
 21
62.25550200000032
 31
0.0
  0
LINE
  5
1285F
330
1F
100
AcDbEntity
  8
YKK_ZWAK
  6
Continuous
 62
   254
100
AcDbLine
 10
766.1252387999996
 20
57.84969780000017
 30
0.0
 11
762.9898197999993
 21
57.84969780000017
 31
0.0
  0
ARC
  5
12860
330
1F
100
AcDbEntity
  8
YKK_ZWAK
  6
Continuous
 62
   254
100
AcDbCircle
 10
774.055350246352
 20
51.55972370845268
 30
0.0
 40
4.341106057659208
100
AcDbArc
 50
14.44572328130105
 51
87.08746338393826
  0
ARC
  5
12861
330
1F
100
AcDbEntity
  8
YKK_ZWAK
  6
Continuous
 62
   254
100
AcDbCircle
 10
770.0933759170369
 20
47.95901455525847
 30
0.0
 40
3.69669741183696
100
AcDbArc
 50
343.6902032742224
 51
354.7536235027183
  0
ARC
  5
12862
330
1F
100
AcDbEntity
  8
YKK_ZWAK
  6
Continuous
 62
   254
100
AcDbCircle
 10
772.3971179983108
 20
47.31647000858209
 30
0.0
 40
1.305746617034933
100
AcDbArc
 50
269.9546811075394
 51
342.9014484926452
  0
ARC
  5
12863
330
1F
100
AcDbEntity
  8
YKK_ZWAK
  6
Continuous
 62
   254
100
AcDbCircle
 10
772.4483148110122
 20
50.52093327878413
 30
0.0
 40
1.228897466365798
100
AcDbArc
 50
16.43123456657787
 51
96.91661395567166
  0
ARC
  5
12864
330
1F
100
AcDbEntity
  8
YKK_ZWAK
  6
Continuous
 62
   254
100
AcDbCircle
 10
770.1148127421894
 20
49.79237254736983
 30
0.0
 40
3.673387293269126
100
AcDbArc
 50
4.934227406572636
 51
17.03551963047907
  0
LINE
  5
12865
330
1F
100
AcDbEntity
  8
YKK_ZWAK
  6
Continuous
 62
   254
100
AcDbLine
 10
774.1800687999995
 20
41.87522040000033
 30
0.0
 11
775.2612089999996
 21
42.1184592000003
 31
0.0
  0
LINE
  5
12866
330
1F
100
AcDbEntity
  8
YKK_ZWAK
  6
Continuous
 62
   254
100
AcDbLine
 10
773.7568011999993
 20
50.24354120000032
 30
0.0
 11
773.7745867999996
 21
47.60936870703028
 31
0.0
  0
ARC
  5
12867
330
1F
100
AcDbEntity
  8
YKK_ZWAK
  6
Continuous
 62
   254
100
AcDbCircle
 10
757.749344722565
 20
48.81275498863295
 30
0.0
 40
20.86005999632355
100
AcDbArc
 50
350.990268174173
 51
10.67624520887895
  0
LINE
  5
12868
330
1F
100
AcDbEntity
  8
YKK_ZWAK
  6
Continuous
 62
   254
100
AcDbLine
 10
777.7479729999992
 20
57.90375740000024
 30
0.0
 11
774.5854877999999
 21
57.90375740000024
 31
0.0
  0
LINE
  5
12869
330
1F
100
AcDbEntity
  8
YKK_ZWAK
  6
Continuous
 62
   254
100
AcDbLine
 10
774.5854877999999
 20
62.28256260000023
 30
0.0
 11
774.1530081999993
 21
62.44474280000043
 31
0.0
  0
LINE
  5
1286A
330
1F
100
AcDbEntity
  8
YKK_ZWAK
  6
Continuous
 62
   254
100
AcDbLine
 10
774.1530081999993
 20
62.44474280000043
 30
0.0
 11
770.9635239999999
 21
62.44474280000043
 31
0.0
  0
LINE
  5
1286B
330
1F
100
AcDbEntity
  8
YKK_ZWAK
  6
Continuous
 62
   254
100
AcDbLine
 10
770.9635239999999
 20
62.44474280000043
 30
0.0
 11
770.9635239999999
 21
57.87669680000011
 31
0.0
  0
LINE
  5
1286C
330
1F
100
AcDbEntity
  8
YKK_ZWAK
  6
Continuous
 62
   254
100
AcDbLine
 10
774.5854877999999
 20
57.90375740000024
 30
0.0
 11
774.5854877999999
 21
62.28256260000023
 31
0.0
  0
LINE
  5
1286D
330
1F
100
AcDbEntity
  8
YKK_ZWAK
  6
Continuous
 62
   254
100
AcDbLine
 10
774.5854877999999
 20
57.95435480000026
 30
0.0
 11
774.6360865999994
 21
57.90375740000024
 31
0.0
  0
LINE
  5
1286E
330
1F
100
AcDbEntity
  8
YKK_ZWAK
  6
Continuous
 62
   254
100
AcDbLine
 10
777.7479729999992
 20
62.93128340000032
 30
0.0
 11
777.7479729999992
 21
57.90375740000024
 31
0.0
  0
LINE
  5
1286F
330
1F
100
AcDbEntity
  8
YKK_ZWAK
  6
Continuous
 62
   254
100
AcDbLine
 10
767.5578195999995
 20
70.28333160000022
 30
0.0
 11
770.8283427999996
 21
70.28333160000022
 31
0.0
  0
LINE
  5
12870
330
1F
100
AcDbEntity
  8
YKK_ZWAK
  6
Continuous
 62
   254
100
AcDbLine
 10
759.2597325999996
 20
65.0767274000001
 30
0.0
 11
762.6384183999997
 21
70.22927200000015
 31
0.0
  0
LINE
  5
12871
330
1F
100
AcDbEntity
  8
YKK_ZWAK
  6
Continuous
 62
   254
100
AcDbLine
 10
759.2597325999996
 20
70.17521240000007
 30
0.0
 11
759.2597325999996
 21
65.0767274000001
 31
0.0
  0
LINE
  5
12872
330
1F
100
AcDbEntity
  8
YKK_ZWAK
  6
Continuous
 62
   254
100
AcDbLine
 10
756.0431961999994
 20
70.17521240000007
 30
0.0
 11
759.2597325999996
 21
70.17521240000007
 31
0.0
  0
LINE
  5
12873
330
1F
100
AcDbEntity
  8
YKK_ZWAK
  6
Continuous
 62
   254
100
AcDbLine
 10
763.9629387999997
 20
65.0936254000004
 30
0.0
 11
762.9236991999995
 21
65.0936254000004
 31
0.0
  0
LINE
  5
12874
330
1F
100
AcDbEntity
  8
YKK_ZWAK
  6
Continuous
 62
   254
100
AcDbLine
 10
766.4634885999995
 20
70.22927200000015
 30
0.0
 11
762.9236991999995
 21
65.0936254000004
 31
0.0
  0
LINE
  5
12875
330
1F
100
AcDbEntity
  8
YKK_ZWAK
  6
Continuous
 62
   254
100
AcDbLine
 10
762.6384183999997
 20
70.22927200000015
 30
0.0
 11
766.4634885999995
 21
70.22927200000015
 31
0.0
  0
LINE
  5
12876
330
1F
100
AcDbEntity
  8
YKK_ZWAK
  6
Continuous
 62
   254
100
AcDbLine
 10
777.6668513999997
 20
69.63461080000036
 30
0.0
 11
774.5449591999991
 21
65.17474700000014
 31
0.0
  0
LINE
  5
12877
330
1F
100
AcDbEntity
  8
YKK_ZWAK
  6
Continuous
 62
   254
100
AcDbLine
 10
774.2611273999995
 20
70.28333160000022
 30
0.0
 11
778.0452713999999
 21
70.28333160000022
 31
0.0
  0
LINE
  5
12878
330
1F
100
AcDbEntity
  8
YKK_ZWAK
  6
Continuous
 62
   254
100
AcDbLine
 10
775.5841987999994
 20
65.17474700000014
 30
0.0
 11
774.5449591999991
 21
65.17474700000014
 31
0.0
  0
LINE
  5
12879
330
1F
100
AcDbEntity
  8
YKK_ZWAK
  6
Continuous
 62
   254
100
AcDbLine
 10
770.8283427999996
 20
65.09163040000032
 30
0.0
 11
774.2611273999995
 21
70.28333160000022
 31
0.0
  0
LINE
  5
1287A
330
1F
100
AcDbEntity
  8
YKK_ZWAK
  6
Continuous
 62
   254
100
AcDbLine
 10
770.8283427999996
 20
70.28333160000022
 30
0.0
 11
770.8283427999996
 21
65.09163040000032
 31
0.0
  0
LINE
  5
1287B
330
1F
100
AcDbEntity
  8
YKK_ZWAK
  6
Continuous
 62
   254
100
AcDbLine
 10
778.0452713999999
 20
70.28333160000022
 30
0.0
 11
777.6668513999997
 21
69.63461080000036
 31
0.0
  0
LINE
  5
1287C
330
1F
100
AcDbEntity
  8
YKK_ZWAK
  6
Continuous
 62
     8
100
AcDbLine
 10
782.3599999999998
 20
259.3840056000003
 30
0.0
 11
799.9999999999996
 21
259.3840056000003
 31
0.0
  0
LINE
  5
1287D
330
1F
100
AcDbEntity
  8
YKK_ZWAK
  6
Continuous
 62
     8
100
AcDbLine
 10
782.3599999999998
 20
239.5880056000002
 30
0.0
 11
799.9999999999996
 21
239.5880056000002
 31
0.0
  0
LINE
  5
1287E
330
1F
100
AcDbEntity
  8
YKK_ZWAK
  6
Continuous
 62
     8
100
AcDbLine
 10
782.3599999999998
 20
219.7920042000002
 30
0.0
 11
799.9999999999996
 21
219.7920042000002
 31
0.0
  0
LINE
  5
1287F
330
1F
100
AcDbEntity
  8
YKK_ZWAK
  6
Continuous
 62
     8
100
AcDbLine
 10
782.3599999999998
 20
199.9960042000001
 30
0.0
 11
799.9999999999996
 21
199.9960042000001
 31
0.0
  0
LINE
  5
12880
330
1F
100
AcDbEntity
  8
YKK_ZWAK
  6
Continuous
 62
     8
100
AcDbLine
 10
782.3599999999998
 20
180.2000042000003
 30
0.0
 11
799.9999999999996
 21
180.2000042000003
 31
0.0
  0
LINE
  5
12881
330
1F
100
AcDbEntity
  8
YKK_ZWAK
  6
Continuous
 62
     8
100
AcDbLine
 10
782.3599999999998
 20
160.4040028000003
 30
0.0
 11
799.9999999999996
 21
160.4040028000003
 31
0.0
  0
LINE
  5
12882
330
1F
100
AcDbEntity
  8
YKK_ZWAK
  6
Continuous
 62
     8
100
AcDbLine
 10
782.3599999999998
 20
140.6080028000002
 30
0.0
 11
799.9999999999996
 21
140.6080028000002
 31
0.0
  0
CIRCLE
  5
12883
330
1F
100
AcDbEntity
  8
YKK_ZWAK
  6
Continuous
 62
     8
100
AcDbCircle
 10
791.1799999999997
 20
259.3840056000003
 30
0.0
 40
8.819999999999998
  0
CIRCLE
  5
12884
330
1F
100
AcDbEntity
  8
YKK_ZWAK
  6
Continuous
 62
     8
100
AcDbCircle
 10
791.1799999999997
 20
219.7920042000002
 30
0.0
 40
8.819999999999998
  0
CIRCLE
  5
12885
330
1F
100
AcDbEntity
  8
YKK_ZWAK
  6
Continuous
 62
     8
100
AcDbCircle
 10
791.1799999999997
 20
180.2000042000003
 30
0.0
 40
8.819999999999998
  0
CIRCLE
  5
12886
330
1F
100
AcDbEntity
  8
YKK_ZWAK
  6
Continuous
 62
     8
100
AcDbCircle
 10
791.1799999999997
 20
239.5880056000002
 30
0.0
 40
8.819999999999998
  0
CIRCLE
  5
12887
330
1F
100
AcDbEntity
  8
YKK_ZWAK
  6
Continuous
 62
     8
100
AcDbCircle
 10
791.1799999999997
 20
199.9960042000001
 30
0.0
 40
8.819999999999998
  0
CIRCLE
  5
12888
330
1F
100
AcDbEntity
  8
YKK_ZWAK
  6
Continuous
 62
     8
100
AcDbCircle
 10
791.1799999999997
 20
160.4040028000003
 30
0.0
 40
8.819999999999998
  0
TEXT
  5
1288A
330
1F
100
AcDbEntity
  8
YKK_ZWAK
  6
Continuous
 62
   131
100
AcDbText
 10
551.4385113564176
 20
37.05395500000043
 30
0.0
 40
4.899999999999999
  1
 ． ．
 41
0.9
  7
YKK_OSSTYLE1
100
AcDbText
  0
TEXT
  5
1288B
330
1F
100
AcDbEntity
  8
YKK_ZWAK
  6
Continuous
 62
   131
100
AcDbText
 10
573.8385113564175
 20
37.05395500000043
 30
0.0
 40
4.899999999999999
  1
 ． ．
 41
0.9
  7
YKK_OSSTYLE1
100
AcDbText
  0
LINE
  5
1288C
330
1F
100
AcDbEntity
  8
YKK_ZWAK
  6
Continuous
 62
   131
100
AcDbLine
 10
622.8635610799995
 20
38.10000000000025
 30
0.0
 11
622.8635610799995
 21
36.00000000000012
 31
0.0
  0
LINE
  5
1288D
330
1F
100
AcDbEntity
  8
YKK_ZWAK
  6
Continuous
 62
   131
100
AcDbLine
 10
627.9035437199996
 20
38.10000000000025
 30
0.0
 11
627.9035437199996
 21
36.00000000000012
 31
0.0
  0
LINE
  5
1288E
330
1F
100
AcDbEntity
  8
YKK_ZWAK
  6
Continuous
 62
   131
100
AcDbLine
 10
632.9435263599997
 20
38.10000000000025
 30
0.0
 11
632.9435263599997
 21
36.00000000000012
 31
0.0
  0
LINE
  5
1288F
330
1F
100
AcDbEntity
  8
YKK_ZWAK
  6
Continuous
 62
   131
100
AcDbLine
 10
637.9835089999999
 20
38.10000000000025
 30
0.0
 11
637.9835089999999
 21
36.00000000000012
 31
0.0
  0
LINE
  5
12890
330
1F
100
AcDbEntity
  8
YKK_ZWAK
  6
Continuous
 62
   131
100
AcDbLine
 10
643.0234916399996
 20
38.10000000000025
 30
0.0
 11
643.0234916399996
 21
36.00000000000012
 31
0.0
  0
LINE
  5
12891
330
1F
100
AcDbEntity
  8
YKK_ZWAK
  6
Continuous
 62
   131
100
AcDbLine
 10
648.0634742799995
 20
38.10000000000025
 30
0.0
 11
648.0634742799995
 21
36.00000000000012
 31
0.0
  0
LINE
  5
12892
330
1F
100
AcDbEntity
  8
YKK_ZWAK
  6
Continuous
 62
   131
100
AcDbLine
 10
653.1034569199995
 20
38.10000000000025
 30
0.0
 11
653.1034569199995
 21
36.00000000000012
 31
0.0
  0
LINE
  5
12893
330
1F
100
AcDbEntity
  8
YKK_ZWAK
  6
Continuous
 62
   131
100
AcDbLine
 10
658.1434395599996
 20
38.10000000000025
 30
0.0
 11
658.1434395599996
 21
36.00000000000012
 31
0.0
  0
LINE
  5
12894
330
1F
100
AcDbEntity
  8
YKK_ZWAK
  6
Continuous
 62
   131
100
AcDbLine
 10
663.1834221999997
 20
38.10000000000025
 30
0.0
 11
663.1834221999997
 21
36.00000000000012
 31
0.0
  0
LINE
  5
12895
330
1F
100
AcDbEntity
  8
YKK_ZWAK
  6
Continuous
 62
   131
100
AcDbLine
 10
668.2234048399998
 20
38.10000000000025
 30
0.0
 11
668.2234048399998
 21
36.00000000000012
 31
0.0
  0
LINE
  5
12896
330
1F
100
AcDbEntity
  8
YKK_ZWAK
  6
Continuous
 62
   131
100
AcDbLine
 10
673.26338748
 20
38.10000000000025
 30
0.0
 11
673.26338748
 21
36.00000000000012
 31
0.0
  0
LINE
  5
12897
330
1F
100
AcDbEntity
  8
YKK_ZWAK
  6
Continuous
 62
   131
100
AcDbLine
 10
678.3033701199997
 20
38.10000000000025
 30
0.0
 11
678.3033701199997
 21
36.00000000000012
 31
0.0
  0
LINE
  5
12898
330
1F
100
AcDbEntity
  8
YKK_ZWAK
  6
Continuous
 62
   131
100
AcDbLine
 10
683.3433527599999
 20
38.10000000000025
 30
0.0
 11
683.3433527599999
 21
36.00000000000012
 31
0.0
  0
LINE
  5
12899
330
1F
100
AcDbEntity
  8
YKK_ZWAK
  6
Continuous
 62
   131
100
AcDbLine
 10
688.3833354
 20
38.10000000000025
 30
0.0
 11
688.3833354
 21
36.00000000000012
 31
0.0
  0
LINE
  5
1289A
330
1F
100
AcDbEntity
  8
YKK_ZWAK
  6
Continuous
 62
   131
100
AcDbLine
 10
693.4233180399997
 20
38.10000000000025
 30
0.0
 11
693.4233180399997
 21
36.00000000000012
 31
0.0
  0
LINE
  5
1289B
330
1F
100
AcDbEntity
  8
YKK_ZWAK
  6
Continuous
 62
   131
100
AcDbLine
 10
698.4633006799998
 20
38.10000000000025
 30
0.0
 11
698.4633006799998
 21
36.00000000000012
 31
0.0
  0
LINE
  5
1289C
330
1F
100
AcDbEntity
  8
YKK_ZWAK
  6
Continuous
 62
   131
100
AcDbLine
 10
703.50328332
 20
38.10000000000025
 30
0.0
 11
703.50328332
 21
36.00000000000012
 31
0.0
  0
LINE
  5
1289D
330
1F
100
AcDbEntity
  8
YKK_ZWAK
  6
Continuous
 62
   131
100
AcDbLine
 10
708.5432659600001
 20
38.10000000000025
 30
0.0
 11
708.5432659600001
 21
36.00000000000012
 31
0.0
  0
TEXT
  5
128A2
330
1F
100
AcDbEntity
  8
YKK_ZWAK
  6
Continuous
 62
   254
100
AcDbText
 10
397.8675096381488
 20
38.38034557673893
 30
0.0
 40
7.0
  1
みらんちゃんＤＸ型（姿図・横断面図）
 41
0.85
  7
YKK_OSSTYLE1
 72
     1
 11
459.5491763048154
 21
38.38034557673893
 31
0.0
100
AcDbText
 73
     1
  0
TEXT
  5
128A3
330
1F
100
AcDbEntity
  8
YKK_ZWAK
  6
Continuous
 62
   254
100
AcDbText
 10
593.3822952813766
 20
56.99387636782906
 30
0.0
 40
5.599999999999999
  1
1
 41
0.9
  7
YKK_OSSTYLE1
 72
     4
 11
595.4222952813766
 21
59.79387636782906
 31
0.0
100
AcDbText
  0
TEXT
  5
128A4
330
1F
100
AcDbEntity
  8
YKK_ZWAK
  6
Continuous
 62
   254
100
AcDbText
 10
600.9338208516219
 20
52.42615495014736
 30
0.0
 40
5.599999999999999
  1
2
 41
0.9
  7
YKK_OSSTYLE1
 72
     4
 11
603.3338208516219
 21
55.22615495014736
 31
0.0
100
AcDbText
  0
LINE
  5
12CA9
330
1F
100
AcDbEntity
  8
003
100
AcDbLine
 10
321.2824910642846
 20
211.9457332344612
 30
0.0
 11
421.4327015638968
 21
211.9457332344612
 31
0.0
  0
LINE
  5
12CAA
330
1F
100
AcDbEntity
  8
003
100
AcDbLine
 10
300.2827015638966
 20
272.9457637344613
 30
0.0
 11
421.4327015638968
 21
272.9457637344615
 31
0.0
  0
LINE
  5
12CAB
330
1F
100
AcDbEntity
  8
003
100
AcDbLine
 10
300.2827015638966
 20
240.9457332344612
 30
0.0
 11
421.4327015638968
 21
240.9457332344612
 31
0.0
  0
DIMENSION
  5
12CAC
330
1F
100
AcDbEntity
  8
0
100
AcDbDimension
  2
*D12
 10
576.2829835638966
 20
118.4490602072779
 30
0.0
 11
423.7828425638965
 21
123.4490602072779
 31
0.0
 70
    32
  1
SW
 71
     5
 42
305.000282
  3
DIM
100
AcDbAlignedDimension
 13
271.2827015638966
 23
148.9456645561771
 33
0.0
 14
576.2829835638966
 24
148.945677842493
 34
0.0
100
AcDbRotatedDimension
  0
LINE
  5
12CAD
330
1F
100
AcDbEntity
  8
003
100
AcDbLine
 10
421.4327015638968
 20
236.4457637344615
 30
0.0
 11
317.6827015638967
 21
236.4457637344615
 31
0.0
  0
LINE
  5
12CAE
330
1F
100
AcDbEntity
  8
003
100
AcDbLine
 10
421.4327015638968
 20
235.2457637344599
 30
0.0
 11
317.6827015638967
 21
235.2457637344615
 31
0.0
  0
LINE
  5
12CAF
330
1F
100
AcDbEntity
  8
007
100
AcDbLine
 10
350.8824195638963
 20
238.1457770207767
 30
0.0
 11
328.5824195638963
 21
238.1457770207767
 31
0.0
  0
LINE
  5
12CB0
330
1F
100
AcDbEntity
  8
007
100
AcDbLine
 10
350.3824195638963
 20
239.6457770207767
 30
0.0
 11
329.0824195638963
 21
239.6457770207767
 31
0.0
  0
LINE
  5
12CB1
330
1F
100
AcDbEntity
  8
007
100
AcDbLine
 10
350.3824195638963
 20
235.1457770207767
 30
0.0
 11
329.0824195638963
 21
235.1457770207767
 31
0.0
  0
LINE
  5
12CB6
330
1F
100
AcDbEntity
  8
YKK_W11
 62
     2
100
AcDbLine
 10
421.4327015638968
 20
189.9456874896264
 30
0.0
 11
320.9824085638966
 21
189.9457032344612
 31
0.0
  0
LINE
  5
12CB7
330
1F
100
AcDbEntity
  8
YKK_W11
 62
     2
100
AcDbLine
 10
321.2824575638966
 20
209.7456902344611
 30
0.0
 11
421.4327015638968
 21
209.7456902344611
 31
0.0
  0
LINE
  5
12CB8
330
1F
100
AcDbEntity
  8
YKK_W11
 62
     2
100
AcDbLine
 10
320.9824085638966
 20
205.4457032344612
 30
0.0
 11
421.4327015638968
 21
205.4457032344612
 31
0.0
  0
LINE
  5
12CB9
330
1F
100
AcDbEntity
  8
007
100
AcDbLine
 10
351.8824195638963
 20
234.8457770207768
 30
0.0
 11
323.5824195638963
 21
234.8457770207768
 31
0.0
  0
LINE
  5
12CBA
330
1F
100
AcDbEntity
  8
007
100
AcDbLine
 10
351.8824195638963
 20
224.8457770207767
 30
0.0
 11
326.5824195638963
 21
224.8457770207767
 31
0.0
  0
LINE
  5
12CBB
330
1F
100
AcDbEntity
  8
003
100
AcDbLine
 10
302.2827015638966
 20
276.9457637344614
 30
0.0
 11
421.4327015638968
 21
276.9457637344614
 31
0.0
  0
LINE
  5
12CBC
330
1F
100
AcDbEntity
  8
003
100
AcDbLine
 10
302.2827015638966
 20
275.7457637344613
 30
0.0
 11
421.4327015638968
 21
275.7457637344614
 31
0.0
  0
LINE
  5
12CBE
330
1F
100
AcDbEntity
  8
YKK_W11
 62
     2
100
AcDbLine
 10
309.9824085638966
 20
173.9457332344612
 30
0.0
 11
421.4327015638968
 21
173.9457382325156
 31
0.0
  0
LINE
  5
12CBF
330
1F
100
AcDbEntity
  8
YKK_W11
 62
   130
100
AcDbLine
 10
312.2829455638966
 20
200.9457772344611
 30
0.0
 11
421.4327015638966
 21
200.9457772344611
 31
0.0
  0
LINE
  5
12CC0
330
1F
100
AcDbEntity
  8
YKK_W11
 62
   130
100
AcDbLine
 10
312.2829455638966
 20
197.9457772344611
 30
0.0
 11
421.4327015638966
 21
197.9457772344611
 31
0.0
  0
LINE
  5
12CC1
330
1F
100
AcDbEntity
  8
YKK_W11
 62
   255
100
AcDbLine
 10
312.2829455638966
 20
201.9457772344611
 30
0.0
 11
421.4327015638966
 21
201.9457772344611
 31
0.0
  0
LINE
  5
12CC2
330
1F
100
AcDbEntity
  8
YKK_W11
 62
   255
100
AcDbLine
 10
312.2829455638966
 20
196.945777234461
 30
0.0
 11
421.4327015638966
 21
196.945777234461
 31
0.0
  0
LINE
  5
12CC3
330
1F
100
AcDbEntity
  8
YKK_W11
 62
     2
100
AcDbLine
 10
271.2824575638966
 20
151.4457482344612
 30
0.0
 11
421.4327015638966
 21
151.4457482344612
 31
0.0
  0
LINE
  5
12CC4
330
1F
100
AcDbEntity
  8
YKK_W11
 62
     2
100
AcDbLine
 10
270.9826525638966
 20
148.9457482344612
 30
0.0
 11
421.4327015638968
 21
148.9457691165344
 31
0.0
  0
DIMENSION
  5
12CC5
330
1F
100
AcDbEntity
  8
003
100
AcDbDimension
  2
*D13
 10
575.2829835638965
 20
316.1248771122674
 30
0.0
 11
423.7828425638965
 21
316.1248771122674
 31
0.0
 70
   160
  1
製品W=SW-2
 71
     5
 42
303.000282
  3
DIM
100
AcDbAlignedDimension
 13
272.2827015638966
 23
266.0526617951993
 33
0.0
 14
575.2829835638965
 24
266.9456778424928
 34
0.0
100
AcDbRotatedDimension
  0
LINE
  5
12CC6
330
1F
100
AcDbEntity
  8
003
100
AcDbLine
 10
296.8827015638965
 20
260.7457637344613
 30
0.0
 11
296.8827015638965
 21
266.9457637344611
 31
0.0
  0
LINE
  5
12CC7
330
1F
100
AcDbEntity
  8
003
100
AcDbLine
 10
300.2827015638966
 20
240.9457332344612
 30
0.0
 11
300.2827015638966
 21
272.9457637344613
 31
0.0
  0
LINE
  5
12CC8
330
1F
100
AcDbEntity
  8
003
100
AcDbLine
 10
302.2827015638966
 20
240.9457332344612
 30
0.0
 11
302.2827015638966
 21
272.9457637344613
 31
0.0
  0
LINE
  5
12CC9
330
1F
100
AcDbEntity
  8
003
100
AcDbLine
 10
289.1827015638967
 20
261.9457637344614
 30
0.0
 11
289.1827015638967
 21
238.1457637344613
 31
0.0
  0
LINE
  5
12CCA
330
1F
100
AcDbEntity
  8
003
100
AcDbLine
 10
290.3827015638969
 20
261.9457637344614
 30
0.0
 11
290.3827015638969
 21
238.1457637344613
 31
0.0
  0
LINE
  5
12CCB
330
1F
100
AcDbEntity
  8
003
100
AcDbLine
 10
299.2827015638966
 20
238.1457637344613
 30
0.0
 11
299.2827015638966
 21
261.9457637344611
 31
0.0
  0
LINE
  5
12CCC
330
1F
100
AcDbEntity
  8
003
100
AcDbLine
 10
291.382701563897
 20
261.9457637344614
 30
0.0
 11
291.382701563897
 21
241.9457637344615
 31
0.0
  0
LINE
  5
12CCD
330
1F
100
AcDbEntity
  8
003
100
AcDbLine
 10
296.3827015638967
 20
261.9457637344614
 30
0.0
 11
296.3827015638967
 21
241.9457637344615
 31
0.0
  0
LINE
  5
12CCE
330
1F
100
AcDbEntity
  8
003
100
AcDbLine
 10
273.4827015638968
 20
243.4618997628873
 30
0.0
 11
273.4827015638968
 21
266.9457637344613
 31
0.0
  0
LINE
  5
12CD0
330
1F
100
AcDbEntity
  8
003
100
AcDbLine
 10
272.2827015638966
 20
211.9457637344613
 30
0.0
 11
272.2827015638966
 21
266.9457637344613
 31
0.0
  0
INSERT
  5
12CDC
330
1F
100
AcDbEntity
  8
YKK_W11
 62
     7
100
AcDbBlockReference
  2
K-86528
 10
271.2827015638966
 20
148.9457637344613
 30
0.0
  0
LEADER
  5
12CDD
330
1F
100
AcDbEntity
  8
003
100
AcDbLeader
  3
DIM
 73
     0
 40
6.000000000000003
 41
40.8
 76
     3
 10
279.9294784063801
 20
221.2405552015707
 30
0.0
 10
265.1654405891085
 20
195.668491577188
 30
0.0
 10
265.172133925238
 20
195.668491577188
 30
0.0
340
12CDE
1001
ACAD
1000
DSTYLE
1002
{
1070
   147
1040
1.0
1070
    77
1070
     1
1002
}
  0
MTEXT
  5
12CDE
102
{ACAD_REACTORS
330
12CDD
102
}
330
1F
100
AcDbEntity
  8
003
 62
     7
100
AcDbMText
 10
263.172133925238
 20
197.668491577188
 30
0.0
 40
6.0
 41
0.0
 71
     9
 72
     1
  1
ブラックボックス
  7
DIM
 73
     1
 44
1.0
1001
ACAD
1000
MTEXTBEGIN
1070
    73
1070
     1
1070
    44
1040
1.0
1070
    74
1070
     0
1000
MTEXTEND
  0
LINE
  5
12CF7
330
1F
100
AcDbEntity
  8
003
100
AcDbLine
 10
315.4827015638966
 20
214.9457637344613
 30
0.0
 11
315.4827015638968
 21
236.9457637344613
 31
0.0
  0
LINE
  5
12CF8
330
1F
100
AcDbEntity
  8
003
100
AcDbLine
 10
273.4827015638966
 20
211.9457637344615
 30
0.0
 11
273.4827015638968
 21
235.2457637344615
 31
0.0
  0
LINE
  5
12CF9
330
1F
100
AcDbEntity
  8
003
100
AcDbLine
 10
302.4827015638966
 20
212.9457637344613
 30
0.0
 11
302.4827015638968
 21
236.9457637344613
 31
0.0
  0
LINE
  5
12CFA
330
1F
100
AcDbEntity
  8
003
100
AcDbLine
 10
308.4827015638964
 20
214.9457637344613
 30
0.0
 11
308.4827015638968
 21
236.9457637344613
 31
0.0
  0
LINE
  5
12CFB
330
1F
100
AcDbEntity
  8
003
100
AcDbLine
 10
310.4827015638966
 20
211.9457273345663
 30
0.0
 11
310.4827015638969
 21
236.9457637344613
 31
0.0
  0
LINE
  5
12CFC
330
1F
100
AcDbEntity
  8
003
100
AcDbLine
 10
313.4827015638964
 20
211.9457273345663
 30
0.0
 11
313.4827015638969
 21
236.9457637344613
 31
0.0
  0
LINE
  5
12CFD
330
1F
100
AcDbEntity
  8
003
100
AcDbLine
 10
302.4827015638966
 20
212.9457637344613
 30
0.0
 11
273.4827015638964
 21
212.9457637344613
 31
0.0
  0
INSERT
  5
12CFE
330
1F
100
AcDbEntity
  8
YKK_W11
 62
     7
100
AcDbBlockReference
  2
K-86579
 10
276.2824570642846
 20
173.9457332344612
 30
0.0
  0
LINE
  5
12CFF
330
1F
100
AcDbEntity
  8
YKK_W11
 62
     2
100
AcDbLine
 10
282.9826525638966
 20
183.2457362344612
 30
0.0
 11
293.4824085638966
 21
183.2457362344612
 31
0.0
  0
LINE
  5
12D00
330
1F
100
AcDbEntity
  8
YKK_W11
 62
     2
100
AcDbLine
 10
282.9826525638966
 20
178.9457482344612
 30
0.0
 11
293.4824085638966
 21
178.9457482344612
 31
0.0
  0
LINE
  5
12D01
330
1F
100
AcDbEntity
  8
YKK_W11
 62
     4
100
AcDbLine
 10
280.0678575638967
 20
180.3456052344611
 30
0.0
 11
281.2678085638967
 21
181.5455872344612
 31
0.0
  0
LINE
  5
12D02
330
1F
100
AcDbEntity
  8
YKK_W11
 62
     4
100
AcDbLine
 10
279.9821645638967
 20
180.3456972344611
 30
0.0
 11
281.4821645638967
 21
180.3456972344611
 31
0.0
  0
LINE
  5
12D03
330
1F
100
AcDbEntity
  8
YKK_W11
 62
     4
100
AcDbLine
 10
279.9821645638967
 20
178.9457032344612
 30
0.0
 11
279.9821645638967
 21
180.3456972344611
 31
0.0
  0
LINE
  5
12D04
330
1F
100
AcDbEntity
  8
YKK_W11
 62
     4
100
AcDbLine
 10
283.0512565638967
 20
177.6805962344611
 30
0.0
 11
282.8513045638966
 21
177.6805962344611
 31
0.0
  0
LINE
  5
12D05
330
1F
100
AcDbEntity
  8
YKK_W11
 62
     4
100
AcDbLine
 10
281.4821645638967
 20
180.3456972344611
 30
0.0
 11
281.4821645638967
 21
181.5456932344612
 31
0.0
  0
LINE
  5
12D06
330
1F
100
AcDbEntity
  8
YKK_W11
 62
     4
100
AcDbLine
 10
280.9755725638967
 20
177.9887632344612
 30
0.0
 11
280.7756215638967
 21
177.9887632344612
 31
0.0
  0
LINE
  5
12D07
330
1F
100
AcDbEntity
  8
YKK_W11
 62
     4
100
AcDbLine
 10
281.8910995638967
 20
178.5416652344611
 30
0.0
 11
281.6911485638966
 21
178.5416652344611
 31
0.0
  0
LINE
  5
12D08
330
1F
100
AcDbEntity
  8
YKK_W11
 62
     4
100
AcDbLine
 10
280.3832875638966
 20
176.1199122344613
 30
0.0
 11
280.1830915638966
 21
176.1199122344613
 31
0.0
  0
ARC
  5
12D09
330
1F
100
AcDbEntity
  8
YKK_W11
 62
     4
100
AcDbCircle
 10
282.7822135638967
 20
175.7457062344611
 30
0.0
 40
0.5
100
AcDbArc
 50
269.9999999991532
 51
359.9999999988796
  0
LINE
  5
12D0A
330
1F
100
AcDbEntity
  8
YKK_W11
 62
     4
100
AcDbLine
 10
282.7035995638967
 20
175.4491822344612
 30
0.0
 11
282.5034045638966
 21
175.4491822344612
 31
0.0
  0
LINE
  5
12D0B
330
1F
100
AcDbEntity
  8
YKK_W11
 62
     4
100
AcDbLine
 10
282.3229845638966
 20
176.3918242344612
 30
0.0
 11
282.1227895638967
 21
176.3918242344612
 31
0.0
  0
ARC
  5
12D0C
330
1F
100
AcDbEntity
  8
YKK_W11
 62
     4
100
AcDbCircle
 10
281.5820175638967
 20
176.9457332344612
 30
0.0
 40
0.5
100
AcDbArc
 50
269.9999999991532
 51
359.9999999988796
  0
LINE
  5
12D0D
330
1F
100
AcDbEntity
  8
YKK_W11
 62
     4
100
AcDbLine
 10
282.0820175638967
 20
177.7456902344611
 30
0.0
 11
282.0820175638967
 21
176.9457332344612
 31
0.0
  0
LINE
  5
12D0E
330
1F
100
AcDbEntity
  8
YKK_W11
 62
     4
100
AcDbLine
 10
283.2822135638967
 20
178.9457032344612
 30
0.0
 11
283.2822135638967
 21
175.7457062344611
 31
0.0
  0
LINE
  5
12D0F
330
1F
100
AcDbEntity
  8
YKK_W11
 62
     4
100
AcDbLine
 10
277.2392445638966
 20
180.3454372344611
 30
0.0
 11
278.4394395638967
 21
181.5455872344612
 31
0.0
  0
LINE
  5
12D10
330
1F
100
AcDbEntity
  8
YKK_W11
 62
     4
100
AcDbLine
 10
279.6884635638967
 20
178.5869992344613
 30
0.0
 11
279.4885115638966
 21
178.5869992344613
 31
0.0
  0
LINE
  5
12D11
330
1F
100
AcDbEntity
  8
YKK_W11
 62
     4
100
AcDbLine
 10
278.0842155638966
 20
178.2244352344612
 30
0.0
 11
277.8842635638966
 21
178.2244352344612
 31
0.0
  0
LINE
  5
12D12
330
1F
100
AcDbEntity
  8
YKK_W11
 62
     4
100
AcDbLine
 10
276.0820175638967
 20
181.5456932344612
 30
0.0
 11
276.0820175638967
 21
180.3456972344611
 31
0.0
  0
LINE
  5
12D13
330
1F
100
AcDbEntity
  8
YKK_W11
 62
     4
100
AcDbLine
 10
276.0817735638966
 20
180.6023192344612
 30
0.0
 11
277.0248885638967
 21
181.5454192344612
 31
0.0
  0
LINE
  5
12D14
330
1F
100
AcDbEntity
  8
YKK_W11
 62
     4
100
AcDbLine
 10
276.0820175638967
 20
180.3456972344611
 30
0.0
 11
277.5820175638967
 21
180.3456972344611
 31
0.0
  0
LINE
  5
12D15
330
1F
100
AcDbEntity
  8
YKK_W11
 62
     4
100
AcDbLine
 10
278.1838245638967
 20
177.1201112344611
 30
0.0
 11
277.9838735638966
 21
177.1201112344611
 31
0.0
  0
LINE
  5
12D16
330
1F
100
AcDbEntity
  8
YKK_W11
 62
     4
100
AcDbLine
 10
278.7822135638967
 20
177.7456902344611
 30
0.0
 11
278.7822135638967
 21
177.0456022344611
 31
0.0
  0
LINE
  5
12D17
330
1F
100
AcDbEntity
  8
YKK_W11
 62
     4
100
AcDbLine
 10
277.5820175638967
 20
177.0455872344612
 30
0.0
 11
277.5820175638967
 21
180.3456972344611
 31
0.0
  0
LINE
  5
12D18
330
1F
100
AcDbEntity
  8
YKK_W11
 62
     2
100
AcDbLine
 10
274.7824575638966
 20
183.2457212344611
 30
0.0
 11
271.2824575638966
 21
183.2457212344611
 31
0.0
  0
LINE
  5
12D19
330
1F
100
AcDbEntity
  8
YKK_W11
 62
     4
100
AcDbLine
 10
278.4977895638967
 20
175.8479852344613
 30
0.0
 11
278.2975935638967
 21
175.8479852344613
 31
0.0
  0
LINE
  5
12D1A
330
1F
100
AcDbEntity
  8
YKK_W11
 62
     4
100
AcDbLine
 10
279.4587265638966
 20
175.4310392344612
 30
0.0
 11
279.2585315638967
 21
175.4310392344612
 31
0.0
  0
ARC
  5
12D1B
330
1F
100
AcDbEntity
  8
YKK_W11
 62
     4
100
AcDbCircle
 10
278.2814805638966
 20
175.8455592344612
 30
0.0
 40
0.599838
100
AcDbArc
 50
89.9999999997134
 51
269.9999999991532
  0
ARC
  5
12D1C
330
1F
100
AcDbEntity
  8
YKK_W11
 62
     4
100
AcDbCircle
 10
278.1821155638967
 20
177.0456022344611
 30
0.0
 40
0.6000980000000001
100
AcDbArc
 50
180.0014570005532
 51
359.9999938590595
  0
LINE
  5
12D1D
330
1F
100
AcDbEntity
  8
YKK_W11
 62
     4
100
AcDbLine
 10
281.4821645638967
 20
181.5456932344612
 30
0.0
 11
276.0820175638967
 21
181.5456932344612
 31
0.0
  0
LINE
  5
12D1E
330
1F
100
AcDbEntity
  8
YKK_W11
 62
     4
100
AcDbLine
 10
278.2814805638966
 20
176.4457482344612
 30
0.0
 11
281.5820175638967
 21
176.4457482344612
 31
0.0
  0
LINE
  5
12D1F
330
1F
100
AcDbEntity
  8
YKK_W11
 62
     4
100
AcDbLine
 10
278.7822135638967
 20
177.7456902344611
 30
0.0
 11
282.0820175638967
 21
177.7456902344611
 31
0.0
  0
LINE
  5
12D20
330
1F
100
AcDbEntity
  8
YKK_W11
 62
     4
100
AcDbLine
 10
282.7822135638967
 20
175.2457212344612
 30
0.0
 11
278.2814805638966
 21
175.2457212344612
 31
0.0
  0
LINE
  5
12D21
330
1F
100
AcDbEntity
  8
YKK_W11
 62
     4
100
AcDbLine
 10
277.5820175638967
 20
178.9457032344612
 30
0.0
 11
283.2822135638967
 21
178.9457032344612
 31
0.0
  0
LINE
  5
12D22
330
1F
100
AcDbEntity
  8
YKK_W11
 62
     4
100
AcDbLine
 10
277.5817735638966
 20
179.2739042344611
 30
0.0
 11
279.8535025638967
 21
181.5455872344612
 31
0.0
  0
LINE
  5
12D23
330
1F
100
AcDbEntity
  8
YKK_W11
 62
     4
100
AcDbLine
 10
278.6677115638966
 20
178.9455502344613
 30
0.0
 11
279.9819205638967
 21
180.2598202344611
 31
0.0
  0
LINE
  5
12D24
330
1F
100
AcDbEntity
  8
YKK_W11
 62
     4
100
AcDbLine
 10
283.0822005638967
 20
207.0456932344612
 30
0.0
 11
285.6821915638966
 21
207.0456932344612
 31
0.0
  0
LINE
  5
12D25
330
1F
100
AcDbEntity
  8
YKK_W11
 62
     4
100
AcDbLine
 10
280.4821485638967
 20
205.8456812344612
 30
0.0
 11
291.6321275638966
 21
205.8456202344612
 31
0.0
  0
LINE
  5
12D26
330
1F
100
AcDbEntity
  8
YKK_W11
 62
     2
100
AcDbLine
 10
271.2824575638966
 20
200.9457332344612
 30
0.0
 11
293.4824085638966
 21
200.9457332344612
 31
0.0
  0
LINE
  5
12D27
330
1F
100
AcDbEntity
  8
YKK_W11
 62
     4
100
AcDbLine
 10
282.3679975638967
 20
207.7456602344612
 30
0.0
 11
284.2680225638967
 21
209.6456842344613
 31
0.0
  0
LINE
  5
12D28
330
1F
100
AcDbEntity
  8
YKK_W11
 62
     4
100
AcDbLine
 10
284.4822105638966
 20
209.6456842344613
 30
0.0
 11
284.4822105638966
 21
208.4456722344612
 31
0.0
  0
LINE
  5
12D29
330
1F
100
AcDbEntity
  8
YKK_W11
 62
     4
100
AcDbLine
 10
280.9537825638967
 20
207.7456602344612
 30
0.0
 11
282.8538075638967
 21
209.6456692344612
 31
0.0
  0
LINE
  5
12D2A
330
1F
100
AcDbEntity
  8
YKK_W11
 62
     4
100
AcDbLine
 10
284.4822105638966
 20
208.4456722344612
 30
0.0
 11
283.0822005638967
 21
208.4456572344612
 31
0.0
  0
LINE
  5
12D2B
330
1F
100
AcDbEntity
  8
YKK_W11
 62
     4
100
AcDbLine
 10
283.0822005638967
 20
208.4456722344612
 30
0.0
 11
283.0822005638967
 21
207.0456932344612
 31
0.0
  0
LINE
  5
12D2C
330
1F
100
AcDbEntity
  8
YKK_W11
 62
     4
100
AcDbLine
 10
278.0819565638967
 20
209.1164792344612
 30
0.0
 11
278.6109025638966
 21
209.6454402344612
 31
0.0
  0
LINE
  5
12D2D
330
1F
100
AcDbEntity
  8
YKK_W11
 62
     4
100
AcDbLine
 10
278.0822165638966
 20
209.6457002344612
 30
0.0
 11
278.0822165638966
 21
208.4456722344612
 31
0.0
  0
LINE
  5
12D2E
330
1F
100
AcDbEntity
  8
YKK_W11
 62
     4
100
AcDbLine
 10
279.4822105638966
 20
208.4456572344612
 30
0.0
 11
278.0822165638966
 21
208.4456872344613
 31
0.0
  0
LINE
  5
12D2F
330
1F
100
AcDbEntity
  8
YKK_W11
 62
     4
100
AcDbLine
 10
279.4821945638966
 20
208.4456422344611
 30
0.0
 11
279.4821795638966
 21
206.8456352344611
 31
0.0
  0
LINE
  5
12D30
330
1F
100
AcDbEntity
  8
YKK_W11
 62
     4
100
AcDbLine
 10
279.5395675638967
 20
207.7456602344612
 30
0.0
 11
281.4395925638967
 21
209.6456692344612
 31
0.0
  0
LINE
  5
12D31
330
1F
100
AcDbEntity
  8
YKK_W11
 62
     4
100
AcDbLine
 10
284.4822105638966
 20
209.6456842344613
 30
0.0
 11
278.0822165638966
 21
209.6457002344612
 31
0.0
  0
LINE
  5
12D32
330
1F
100
AcDbEntity
  8
YKK_W11
 62
     4
100
AcDbLine
 10
283.0822005638967
 20
207.7456752344613
 30
0.0
 11
279.4821945638966
 21
207.7456752344613
 31
0.0
  0
LINE
  5
12D33
330
1F
100
AcDbEntity
  8
YKK_W11
 62
     4
100
AcDbLine
 10
278.8251365638966
 20
208.4454582344611
 30
0.0
 11
280.0251175638966
 21
209.6454252344611
 31
0.0
  0
ARC
  5
12D34
330
1F
100
AcDbEntity
  8
YKK_W11
 62
     4
100
AcDbCircle
 10
280.4821645638967
 20
206.8456662344611
 30
0.0
 40
1.0
100
AcDbArc
 50
180.0017489994389
 51
269.9999999991532
  0
LINE
  5
12D35
330
1F
100
AcDbEntity
  8
003
100
AcDbLine
 10
286.2827015638966
 20
211.9457637344613
 30
0.0
 11
291.2824910642846
 21
211.9457182344611
 31
0.0
  0
ARC
  5
12D36
330
1F
100
AcDbEntity
  8
YKK_W11
 62
     4
100
AcDbCircle
 10
291.6322195638965
 20
206.0956972344611
 30
0.0
 40
0.25
100
AcDbArc
 50
269.9999999991532
 51
86.50394899860682
  0
ARC
  5
12D37
330
1F
100
AcDbEntity
  8
YKK_W11
 62
     4
100
AcDbCircle
 10
286.2821975638967
 20
207.0456932344612
 30
0.0
 40
0.6
100
AcDbArc
 50
179.9999999994398
 51
318.1873739990045
  0
LINE
  5
12D38
330
1F
100
AcDbEntity
  8
YKK_W11
 62
     4
100
AcDbLine
 10
286.7294025638967
 20
206.6456842344612
 30
0.0
 11
291.6474625638966
 21
206.3452232344612
 31
0.0
  0
LINE
  5
12D39
330
1F
100
AcDbEntity
  8
YKK_W11
 62
   130
100
AcDbLine
 10
321.2468885638966
 20
189.9456062344611
 30
0.0
 11
322.7410445638967
 21
196.586479234461
 31
0.0
  0
LINE
  5
12D3A
330
1F
100
AcDbEntity
  8
YKK_W11
 62
     4
100
AcDbLine
 10
312.2822105638966
 20
191.9457352344612
 30
0.0
 11
305.2822105638966
 21
199.9457352344612
 31
0.0
  0
LINE
  5
12D3B
330
1F
100
AcDbEntity
  8
YKK_W11
 62
     4
100
AcDbLine
 10
305.2822105638966
 20
191.9457352344612
 30
0.0
 11
312.2822105638966
 21
199.9457352344612
 31
0.0
  0
LINE
  5
12D3C
330
1F
100
AcDbEntity
  8
YKK_W11
 62
     4
100
AcDbLine
 10
305.2822105638966
 20
199.9457352344612
 30
0.0
 11
305.2822105638966
 21
191.9457352344612
 31
0.0
  0
LINE
  5
12D3D
330
1F
100
AcDbEntity
  8
YKK_W11
 62
     4
100
AcDbLine
 10
312.2822105638966
 20
191.9457352344612
 30
0.0
 11
312.2822105638966
 21
199.9457352344612
 31
0.0
  0
INSERT
  5
12D3E
330
1F
100
AcDbEntity
  8
YKK_W11
 62
     7
100
AcDbBlockReference
  2
K-86576
 10
305.2824875638967
 20
176.1457287344611
 30
0.0
 41
-1.0
 50
270.0
  0
LINE
  5
12D3F
330
1F
100
AcDbEntity
  8
YKK_W11
 62
     4
100
AcDbLine
 10
305.2822105638966
 20
191.9457352344612
 30
0.0
 11
312.2822105638966
 21
191.9457352344612
 31
0.0
  0
LINE
  5
12D40
330
1F
100
AcDbEntity
  8
003
100
AcDbLine
 10
308.4827015638964
 20
214.9457637344613
 30
0.0
 11
310.4827015638966
 21
214.9457637344613
 31
0.0
  0
LINE
  5
12D41
330
1F
100
AcDbEntity
  8
003
100
AcDbLine
 10
310.4827015638966
 20
211.9457273345663
 30
0.0
 11
313.4827015638964
 21
211.9457273345663
 31
0.0
  0
LINE
  5
12D42
330
1F
100
AcDbEntity
  8
YKK_W11
 62
     4
100
AcDbLine
 10
312.2822105638966
 20
199.9457352344612
 30
0.0
 11
305.2822105638966
 21
199.9457352344612
 31
0.0
  0
LINE
  5
12D43
330
1F
100
AcDbEntity
  8
YKK_W11
 62
   255
100
AcDbLine
 10
312.2829455638966
 20
196.945777234461
 30
0.0
 11
312.2829455638966
 21
201.9457772344611
 31
0.0
  0
LINE
  5
12D44
330
1F
100
AcDbEntity
  8
003
100
AcDbLine
 10
313.4827015638966
 20
214.9457637344613
 30
0.0
 11
315.4827015638966
 21
214.9457637344613
 31
0.0
  0
LINE
  5
12D45
330
1F
100
AcDbEntity
  8
YKK_W11
 62
   130
100
AcDbLine
 10
321.2469185638968
 20
205.4455912344611
 30
0.0
 11
322.2326555638967
 21
202.336252234461
 31
0.0
  0
ARC
  5
12D46
330
1F
100
AcDbEntity
  8
YKK_W11
 62
   130
100
AcDbCircle
 10
321.9466825638968
 20
202.245591234461
 30
0.0
 40
0.3
100
AcDbArc
 50
239.9957609999954
 51
17.58988500000558
  0
ARC
  5
12D47
330
1F
100
AcDbEntity
  8
YKK_W11
 62
   130
100
AcDbCircle
 10
322.4469315638966
 20
196.6455302344612
 30
0.0
 40
0.3
100
AcDbArc
 50
348.6472010000004
 51
119.9982389999957
  0
LINE
  5
12D48
330
1F
100
AcDbEntity
  8
003
100
AcDbLine
 10
316.4827015638969
 20
236.9457637344613
 30
0.0
 11
280.5827015638968
 21
236.9457637344613
 31
0.0
  0
LINE
  5
12D49
330
1F
100
AcDbEntity
  8
003
100
AcDbLine
 10
325.4827015638968
 20
238.1457637344613
 30
0.0
 11
299.2827015638966
 21
238.1457637344613
 31
0.0
  0
LINE
  5
12D4A
330
1F
100
AcDbEntity
  8
003
100
AcDbLine
 10
285.2827015638966
 20
238.1457637344613
 30
0.0
 11
285.2827015638966
 21
239.3457637344614
 31
0.0
  0
LINE
  5
12D4B
330
1F
100
AcDbEntity
  8
003
100
AcDbLine
 10
298.0827015638968
 20
238.1457637344613
 30
0.0
 11
298.0827015638968
 21
260.7457637344613
 31
0.0
  0
LINE
  5
12D4C
330
1F
100
AcDbEntity
  8
006
100
AcDbLine
 10
275.7827015638966
 20
237.5357637344614
 30
0.0
 11
275.7827015638966
 21
245.5357637344614
 31
0.0
  0
LINE
  5
12D4D
330
1F
100
AcDbEntity
  8
003
100
AcDbLine
 10
285.2827015638966
 20
238.1457637344613
 30
0.0
 11
280.5827015638968
 21
238.1457637344613
 31
0.0
  0
LINE
  5
12D4E
330
1F
100
AcDbEntity
  8
003
100
AcDbLine
 10
298.0627015638968
 20
238.1457637344613
 30
0.0
 11
273.4827015638968
 21
238.1457637344613
 31
0.0
  0
LINE
  5
12D4F
330
1F
100
AcDbEntity
  8
003
100
AcDbLine
 10
276.4827015638969
 20
236.4457637344615
 30
0.0
 11
273.4827015638968
 21
236.4457637344615
 31
0.0
  0
LINE
  5
12D50
330
1F
100
AcDbEntity
  8
003
100
AcDbLine
 10
279.9827015638966
 20
238.1457637344613
 30
0.0
 11
273.4827015638968
 21
238.1457637344613
 31
0.0
  0
LINE
  5
12D51
330
1F
100
AcDbEntity
  8
003
100
AcDbLine
 10
279.9827015638968
 20
236.9457637344613
 30
0.0
 11
273.4827015638968
 21
236.9457637344613
 31
0.0
  0
LINE
  5
12D52
330
1F
100
AcDbEntity
  8
003
100
AcDbLine
 10
276.4827015638969
 20
235.2457637344615
 30
0.0
 11
273.4827015638968
 21
235.2457637344615
 31
0.0
  0
LINE
  5
12D53
330
1F
100
AcDbEntity
  8
003
100
AcDbLine
 10
273.4827015638968
 20
236.4457637344615
 30
0.0
 11
273.4827015638968
 21
238.1457637344613
 31
0.0
  0
LINE
  5
12D54
330
1F
100
AcDbEntity
  8
003
100
AcDbLine
 10
273.4827015638968
 20
236.9457637344613
 30
0.0
 11
273.4827015638968
 21
238.1457637344613
 31
0.0
  0
ARC
  5
12D55
330
1F
100
AcDbEntity
  8
003
100
AcDbCircle
 10
280.2827015638966
 20
238.1457637344613
 30
0.0
 40
0.3000000000000682
100
AcDbArc
 50
0.0000000000260551
 51
179.999999999987
  0
ARC
  5
12D56
330
1F
100
AcDbEntity
  8
003
100
AcDbCircle
 10
280.2827015638966
 20
236.9457637344615
 30
0.0
 40
0.2999999999999829
100
AcDbArc
 50
0.0
 51
180.0
  0
LINE
  5
12D57
330
1F
100
AcDbEntity
  8
003
100
AcDbLine
 10
276.4827015638969
 20
235.2457637344615
 30
0.0
 11
276.4827015638969
 21
236.9457637344613
 31
0.0
  0
LINE
  5
12D58
330
1F
100
AcDbEntity
  8
007
100
AcDbLine
 10
290.3827015638969
 20
226.9457637344613
 30
0.0
 11
289.1827015638967
 21
226.9457637344613
 31
0.0
  0
LINE
  5
12D59
330
1F
100
AcDbEntity
  8
007
100
AcDbLine
 10
290.3827015638969
 20
238.1457637344613
 30
0.0
 11
290.3827015638969
 21
226.9457637344613
 31
0.0
  0
LINE
  5
12D5A
330
1F
100
AcDbEntity
  8
007
100
AcDbLine
 10
289.1827015638967
 20
238.1457637344613
 30
0.0
 11
289.1827015638967
 21
226.9457637344613
 31
0.0
  0
LINE
  5
12D5B
330
1F
100
AcDbEntity
  8
003
100
AcDbLine
 10
285.2827015638966
 20
239.3457637344614
 30
0.0
 11
277.8330429988776
 21
239.3457637344614
 31
0.0
  0
ARC
  5
12D5C
330
1F
100
AcDbEntity
  8
003
100
AcDbCircle
 10
275.7827015638966
 20
241.5357637344616
 30
0.0
 40
1.8
100
AcDbArc
 50
29.98163936884637
 51
330.1585454638316
  0
ARC
  5
12D5D
330
1F
100
AcDbEntity
  8
003
100
AcDbCircle
 10
275.7827015638966
 20
241.5357637344616
 30
0.0
 40
3.0
100
AcDbArc
 50
29.98163936884637
 51
140.0554948101842
  0
LINE
  5
12D5E
330
1F
100
AcDbEntity
  8
003
100
AcDbLine
 10
278.3812583220426
 20
243.0349310949303
 30
0.0
 11
277.3418356187856
 21
242.4352641507435
 31
0.0
  0
ARC
  5
12D5F
330
1F
100
AcDbEntity
  8
003
100
AcDbCircle
 10
275.7827015638966
 20
241.5357637344616
 30
0.0
 40
3.0
100
AcDbArc
 50
313.1136059458959
 51
330.0184772568382
  0
LINE
  5
12D60
330
1F
100
AcDbEntity
  8
003
100
AcDbLine
 10
278.3812613735956
 20
240.0366016633639
 30
0.0
 11
277.3440317457655
 21
240.640080719556
 31
0.0
  0
LINE
  5
12D61
330
1F
100
AcDbEntity
  8
006
100
AcDbLine
 10
279.7827015638966
 20
241.5357637344614
 30
0.0
 11
271.7827015638966
 21
241.5357637344614
 31
0.0
  0
LINE
  5
12D62
330
1F
100
AcDbEntity
  8
003
100
AcDbLine
 10
298.0827015638968
 20
260.4457637344613
 30
0.0
 11
296.3827015638967
 21
260.4457637344613
 31
0.0
  0
LINE
  5
12D63
330
1F
100
AcDbEntity
  8
003
100
AcDbLine
 10
298.0827015638968
 20
260.7457637344613
 30
0.0
 11
296.8827015638965
 21
260.7457637344613
 31
0.0
  0
LINE
  5
12D64
330
1F
100
AcDbEntity
  8
003
100
AcDbLine
 10
296.3827015638967
 20
241.9457637344615
 30
0.0
 11
291.382701563897
 21
241.9457637344615
 31
0.0
  0
LINE
  5
12D65
330
1F
100
AcDbEntity
  8
003
100
AcDbLine
 10
298.0827015638968
 20
253.4457637344615
 30
0.0
 11
296.3827015638967
 21
253.4457637344615
 31
0.0
  0
LINE
  5
12D66
330
1F
100
AcDbEntity
  8
007
100
AcDbLine
 10
328.5824195638963
 20
239.1457770207767
 30
0.0
 11
328.5824195638963
 21
235.6457770207767
 31
0.0
  0
LINE
  5
12D67
330
1F
100
AcDbEntity
  8
003
100
AcDbLine
 10
317.6827015638967
 20
231.9457637344613
 30
0.0
 11
316.4827015638969
 21
231.9457637344613
 31
0.0
  0
LINE
  5
12D68
330
1F
100
AcDbEntity
  8
003
100
AcDbLine
 10
316.4827015638969
 20
231.9457637344613
 30
0.0
 11
316.4827015638969
 21
236.9457637344613
 31
0.0
  0
LINE
  5
12D69
330
1F
100
AcDbEntity
  8
003
100
AcDbLine
 10
310.4827015638966
 20
231.9457273345663
 30
0.0
 11
313.4827015638964
 21
231.9457273345663
 31
0.0
  0
ARC
  5
12D6A
330
1F
100
AcDbEntity
  8
007
100
AcDbCircle
 10
329.0824195638963
 20
235.6457770207767
 30
0.0
 40
0.5
100
AcDbArc
 50
180.0
 51
270.0
  0
LINE
  5
12D6B
330
1F
100
AcDbEntity
  8
003
100
AcDbLine
 10
325.4827015638968
 20
236.9457637344613
 30
0.0
 11
325.4827015638968
 21
238.1457637344613
 31
0.0
  0
LINE
  5
12D6C
330
1F
100
AcDbEntity
  8
003
100
AcDbLine
 10
325.4827015638968
 20
236.9457637344613
 30
0.0
 11
317.6827015638967
 21
236.9457637344613
 31
0.0
  0
LINE
  5
12D72
330
1F
100
AcDbEntity
  8
007
100
AcDbLine
 10
323.5824195638963
 20
234.8457770207768
 30
0.0
 11
323.5824195638963
 21
227.8457770207768
 31
0.0
  0
ARC
  5
12D73
330
1F
100
AcDbEntity
  8
007
100
AcDbCircle
 10
326.5824195638963
 20
227.8457770207768
 30
0.0
 40
3.0
100
AcDbArc
 50
180.0
 51
270.0
  0
LINE
  5
12D75
330
1F
100
AcDbEntity
  8
003
100
AcDbLine
 10
317.6827015638967
 20
231.9457637344613
 30
0.0
 11
317.6827015638967
 21
236.9457637344613
 31
0.0
  0
ARC
  5
12D76
330
1F
100
AcDbEntity
  8
007
100
AcDbCircle
 10
329.0824195638963
 20
239.1457770207767
 30
0.0
 40
0.5
100
AcDbArc
 50
90.0
 51
180.0
  0
DIMENSION
  5
12D87
330
1F
100
AcDbEntity
  8
003
100
AcDbDimension
  2
*D5
 10
302.2827015638966
 20
298.9923147264973
 30
0.0
 11
287.2827015638966
 21
303.9923147264973
 31
0.0
 70
    32
 71
     5
 42
30.0
  3
DIM
100
AcDbAlignedDimension
 13
272.2827015638966
 23
266.0526617951993
 33
0.0
 14
302.2827015638966
 24
276.9457637344614
 34
0.0
100
AcDbRotatedDimension
  0
LINE
  5
12D8A
330
1F
100
AcDbEntity
  8
003
100
AcDbLine
 10
302.2827015638966
 20
275.7457637344613
 30
0.0
 11
299.2827015638966
 21
275.7457637344613
 31
0.0
  0
LINE
  5
12D8B
330
1F
100
AcDbEntity
  8
003
100
AcDbLine
 10
302.2827015638966
 20
276.9457637344614
 30
0.0
 11
282.2827015638966
 21
276.9457637344614
 31
0.0
  0
LINE
  5
12D8D
330
1F
100
AcDbEntity
  8
003
100
AcDbLine
 10
293.8565655354707
 20
275.7457637344613
 30
0.0
 11
282.2827015638966
 21
275.7457637344613
 31
0.0
  0
ARC
  5
12D8E
330
1F
100
AcDbEntity
  8
003
100
AcDbCircle
 10
282.2827015638966
 20
266.9457637344613
 30
0.0
 40
8.8
100
AcDbArc
 50
90.0
 51
180.0
  0
ARC
  5
12D8F
330
1F
100
AcDbEntity
  8
003
100
AcDbCircle
 10
282.2827015638966
 20
266.9457637344613
 30
0.0
 40
10.0
100
AcDbArc
 50
90.0
 51
180.0
  0
LINE
  5
12D90
330
1F
100
AcDbEntity
  8
003
100
AcDbLine
 10
298.0827015638968
 20
261.9457637344614
 30
0.0
 11
298.0827015638968
 21
266.9457637344613
 31
0.0
  0
LINE
  5
12D91
330
1F
100
AcDbEntity
  8
003
100
AcDbLine
 10
298.0827015638968
 20
261.9457637344611
 30
0.0
 11
298.0827015638968
 21
266.9457637344611
 31
0.0
  0
LINE
  5
12D92
330
1F
100
AcDbEntity
  8
003
100
AcDbLine
 10
299.2827015638966
 20
261.9457637344614
 30
0.0
 11
298.0827015638968
 21
261.9457637344614
 31
0.0
  0
LINE
  5
12D93
330
1F
100
AcDbEntity
  8
003
100
AcDbLine
 10
299.2827015638966
 20
261.9457637344611
 30
0.0
 11
298.0827015638968
 21
261.9457637344611
 31
0.0
  0
LINE
  5
12D94
330
1F
100
AcDbEntity
  8
003
100
AcDbLine
 10
299.2827015638966
 20
261.9457637344614
 30
0.0
 11
299.2827015638966
 21
275.7457637344613
 31
0.0
  0
LINE
  5
12D95
330
1F
100
AcDbEntity
  8
003
100
AcDbLine
 10
295.0053099677104
 20
270.5482368051336
 30
0.0
 11
295.3120179382592
 21
271.7083930415573
 31
0.0
  0
ARC
  5
12D96
330
1F
100
AcDbEntity
  8
003
100
AcDbCircle
 10
295.7827015638966
 20
273.4457637344614
 30
0.0
 40
3.0
100
AcDbArc
 50
254.9815227431634
 51
266.1774462707291
  0
ARC
  5
12D97
330
1F
100
AcDbEntity
  8
003
100
AcDbCircle
 10
295.7827015638966
 20
273.4457637344614
 30
0.0
 40
3.0
100
AcDbArc
 50
129.9445051898155
 51
195.0183606311528
  0
LINE
  5
12D98
330
1F
100
AcDbEntity
  8
003
100
AcDbLine
 10
292.8851730521926
 20
272.6683780361994
 30
0.0
 11
294.0441844568729
 21
272.9793323155037
 31
0.0
  0
LINE
  5
12D99
330
1F
100
AcDbEntity
  8
003
100
AcDbLine
 10
289.1827015638967
 20
261.9457637344614
 30
0.0
 11
290.3827015638969
 21
261.9457637344614
 31
0.0
  0
LINE
  5
12D9A
330
1F
100
AcDbEntity
  8
003
100
AcDbLine
 10
295.1827015638967
 20
263.9457637344614
 30
0.0
 11
295.1827015638967
 21
268.1457637344612
 31
0.0
  0
LINE
  5
12D9B
330
1F
100
AcDbEntity
  8
003
100
AcDbLine
 10
295.5827015638968
 20
268.1457637344612
 30
0.0
 11
295.1827015638967
 21
268.1457637344612
 31
0.0
  0
LINE
  5
12D9C
330
1F
100
AcDbEntity
  8
003
100
AcDbLine
 10
296.3827015638967
 20
263.9457637344614
 30
0.0
 11
296.3827015638967
 21
266.9457637344613
 31
0.0
  0
LINE
  5
12D9D
330
1F
100
AcDbEntity
  8
003
100
AcDbLine
 10
296.3827015638967
 20
263.9457637344614
 30
0.0
 11
295.1827015638967
 21
263.9457637344614
 31
0.0
  0
LINE
  5
12D9E
330
1F
100
AcDbEntity
  8
003
100
AcDbLine
 10
296.3827015638967
 20
261.9457637344614
 30
0.0
 11
291.382701563897
 21
261.9457637344614
 31
0.0
  0
LINE
  5
12D9F
330
1F
100
AcDbEntity
  8
003
100
AcDbLine
 10
295.5827015638968
 20
268.1457637344612
 30
0.0
 11
295.5827015638968
 21
270.4524378250422
 31
0.0
  0
LINE
  5
12DA0
330
1F
100
AcDbEntity
  8
006
100
AcDbLine
 10
292.9542744391506
 20
270.6173366097151
 30
0.0
 11
298.6111286886428
 21
276.2741908592074
 31
0.0
  0
LINE
  5
12DA1
330
1F
100
AcDbEntity
  8
006
100
AcDbLine
 10
298.6111286886428
 20
270.6173366097151
 30
0.0
 11
292.9542744391506
 21
276.2741908592076
 31
0.0
  0
LINE
  5
12DA2
330
1F
100
AcDbEntity
  8
003
100
AcDbLine
 10
298.0827015638968
 20
266.9457637344613
 30
0.0
 11
296.3827015638967
 21
266.9457637344613
 31
0.0
  0
LINE
  5
12DA3
330
1F
100
AcDbEntity
  8
003
100
AcDbLine
 10
298.0827015638968
 20
266.9457637344611
 30
0.0
 11
296.8827015638965
 21
266.9457637344611
 31
0.0
  0
ARC
  5
12DA4
330
1F
100
AcDbEntity
  8
003
100
AcDbCircle
 10
295.7827015638966
 20
273.4457637344614
 30
0.0
 40
1.8
100
AcDbArc
 50
254.8414545361744
 51
195.0183606311528
  0
LINE
  5
12DB9
330
1F
100
AcDbEntity
  8
003
100
AcDbLine
 10
302.2827015638966
 20
275.7457637344613
 30
0.0
 11
302.2827015638966
 21
276.9457637344614
 31
0.0
  0
DIMENSION
  5
12DC1
330
1F
100
AcDbEntity
  8
003
100
AcDbDimension
  2
*D6
 10
564.5362178949235
 20
276.9456778424928
 30
0.0
 11
559.5362178949234
 21
244.445677842493
 31
0.0
 70
    32
 71
     5
 42
64.99999999999985
  3
DIM
100
AcDbAlignedDimension
 13
567.7829835638966
 23
211.945677842493
 33
0.0
 14
565.2829835638965
 24
276.9456778424928
 34
0.0
 50
90.0
100
AcDbRotatedDimension
  0
MTEXT
  5
12DC2
102
{ACAD_REACTORS
330
12DFB
102
}
330
1F
100
AcDbEntity
  8
003
 62
     7
100
AcDbMText
 10
374.6239293971802
 20
258.0980250169995
 30
0.0
 40
6.0
 41
0.0
 71
     7
 72
     1
  1
羽根
  7
DIM
 73
     1
 44
1.0
1001
ACAD
1000
MTEXTBEGIN
1070
    73
1070
     1
1070
    44
1040
1.0
1070
    74
1070
     0
1000
MTEXTEND
  0
LINE
  5
12DC3
330
1F
100
AcDbEntity
  8
003
100
AcDbLine
 10
547.2829835638965
 20
240.9456340561771
 30
0.0
 11
547.2829835638965
 21
272.9456645561772
 31
0.0
  0
LINE
  5
12DC4
330
1F
100
AcDbEntity
  8
003
100
AcDbLine
 10
545.2829835638965
 20
240.9456340561772
 30
0.0
 11
545.2829835638965
 21
272.9456645561772
 31
0.0
  0
LINE
  5
12DC6
330
1F
100
AcDbEntity
  8
003
100
AcDbLine
 10
551.1829835638966
 20
261.9456778424928
 30
0.0
 11
551.1829835638966
 21
241.9456778424929
 31
0.0
  0
LINE
  5
12DC7
330
1F
100
AcDbEntity
  8
003
100
AcDbLine
 10
556.1829835638966
 20
261.9456778424928
 30
0.0
 11
556.1829835638966
 21
251.9456778424929
 31
0.0
  0
LINE
  5
12DC8
330
1F
100
AcDbEntity
  8
003
100
AcDbLine
 10
574.0829835638967
 20
243.4618138709186
 30
0.0
 11
574.0829835638967
 21
266.9456778424928
 31
0.0
  0
LINE
  5
12DC9
330
1F
100
AcDbEntity
  8
003
100
AcDbLine
 10
575.2829835638965
 20
211.9456778424928
 30
0.0
 11
575.2829835638965
 21
266.9456778424928
 31
0.0
  0
LINE
  5
12DCE
330
1F
100
AcDbEntity
  8
003
100
AcDbLine
 10
550.6829835638966
 20
260.7456778424928
 30
0.0
 11
550.6829835638966
 21
266.9456778424926
 31
0.0
  0
LINE
  5
12DCF
330
1F
100
AcDbEntity
  8
003
100
AcDbLine
 10
548.2829835638965
 20
238.1456778424927
 30
0.0
 11
548.2829835638965
 21
261.9456778424926
 31
0.0
  0
LINE
  5
12DD1
330
1F
100
AcDbEntity
  8
003
100
AcDbLine
 10
547.2829835638965
 20
240.9456340561771
 30
0.0
 11
426.4327015638968
 21
240.9456340561769
 31
0.0
  0
LINE
  5
12DD2
330
1F
100
AcDbEntity
  8
003
100
AcDbLine
 10
522.0829835638967
 20
238.1456778424927
 30
0.0
 11
548.2829835638965
 21
238.1456778424927
 31
0.0
  0
LINE
  5
12DD3
330
1F
100
AcDbEntity
  8
003
100
AcDbLine
 10
531.0829835638967
 20
236.9456778424926
 30
0.0
 11
566.9829835638968
 21
236.9456778424926
 31
0.0
  0
LINE
  5
12DD4
330
1F
100
AcDbEntity
  8
YKK_W17
 62
     2
100
AcDbLine
 10
426.4327015638968
 20
151.445711342493
 30
0.0
 11
576.2826535638967
 21
151.4457113424929
 31
0.0
  0
LINE
  5
12DD5
330
1F
100
AcDbEntity
  8
YKK_W17
 62
     2
100
AcDbLine
 10
426.4327015638968
 20
148.9457710743641
 30
0.0
 11
576.5827015638965
 21
148.9458023424928
 31
0.0
  0
INSERT
  5
12DD6
330
1F
100
AcDbEntity
  8
YKK_W17
 62
     7
100
AcDbBlockReference
  2
K-86579
 10
571.2833955635087
 20
173.9456773424928
 30
0.0
 41
-1.0
  0
LINE
  5
12DD7
330
1F
100
AcDbEntity
  8
003
100
AcDbLine
 10
526.2833615635088
 20
211.9456773424928
 30
0.0
 11
426.4327015638968
 21
211.9456773424929
 31
0.0
  0
LINE
  5
12DD8
330
1F
100
AcDbEntity
  8
007
100
AcDbLine
 10
426.4327015638968
 20
239.0456778424928
 30
0.0
 11
495.9829835638973
 21
239.0456778424928
 31
0.0
  0
LINE
  5
12DD9
330
1F
100
AcDbEntity
  8
007
100
AcDbLine
 10
426.4327015638968
 20
238.1455778424927
 30
0.0
 11
495.9829835638973
 21
238.1455778424927
 31
0.0
  0
LINE
  5
12DDA
330
1F
100
AcDbEntity
  8
007
100
AcDbLine
 10
426.4327015638968
 20
234.8456778424929
 30
0.0
 11
495.9829835638973
 21
234.8456778424927
 31
0.0
  0
LINE
  5
12DDB
330
1F
100
AcDbEntity
  8
003
100
AcDbLine
 10
426.4327015638968
 20
236.445677842493
 30
0.0
 11
529.8829835638964
 21
236.4456778424929
 31
0.0
  0
LINE
  5
12DDC
330
1F
100
AcDbEntity
  8
003
100
AcDbLine
 10
426.4327015638968
 20
235.2456778424912
 30
0.0
 11
529.8829835638964
 21
235.2456778424928
 31
0.0
  0
LINE
  5
12DDD
330
1F
100
AcDbEntity
  8
007
100
AcDbLine
 10
495.9829835638973
 20
225.3456778424927
 30
0.0
 11
426.4327015638968
 21
225.3456778424927
 31
0.0
  0
LINE
  5
12DDE
330
1F
100
AcDbEntity
  8
YKK_W17
 62
     2
100
AcDbLine
 10
426.4327015638968
 20
205.4457406369784
 30
0.0
 11
526.5834345638966
 21
205.4457563424928
 31
0.0
  0
LINE
  5
12DDF
330
1F
100
AcDbEntity
  8
YKK_W17
 62
     2
100
AcDbLine
 10
426.4327015638968
 20
209.7456453526627
 30
0.0
 11
526.2833855638966
 21
209.7456533424927
 31
0.0
  0
LINE
  5
12DE0
330
1F
100
AcDbEntity
  8
YKK_W17
 62
     2
100
AcDbLine
 10
526.5831905638965
 20
189.9456953424929
 30
0.0
 11
426.4327015638968
 21
189.9456874896264
 31
0.0
  0
LINE
  5
12DE1
330
1F
100
AcDbEntity
  8
YKK_W17
 62
   130
100
AcDbLine
 10
535.2832275638966
 20
200.9456793424929
 30
0.0
 11
426.4327015638968
 21
200.9456793424929
 31
0.0
  0
LINE
  5
12DE2
330
1F
100
AcDbEntity
  8
YKK_W17
 62
   130
100
AcDbLine
 10
535.2832275638966
 20
197.9456793424929
 30
0.0
 11
426.4327015638968
 21
197.945679342493
 31
0.0
  0
LINE
  5
12DE3
330
1F
100
AcDbEntity
  8
YKK_W17
 62
   255
100
AcDbLine
 10
535.2832275638966
 20
201.9456793424929
 30
0.0
 11
426.4327015638968
 21
201.9456793424934
 31
0.0
  0
LINE
  5
12DE4
330
1F
100
AcDbEntity
  8
YKK_W17
 62
   255
100
AcDbLine
 10
535.2832275638966
 20
196.9456793424929
 30
0.0
 11
426.4327015638968
 21
196.9456793424927
 31
0.0
  0
LINE
  5
12DE5
330
1F
100
AcDbEntity
  8
YKK_W17
 62
     2
100
AcDbLine
 10
426.4327015638968
 20
173.9457463691499
 30
0.0
 11
537.5831905638965
 21
173.9457563424929
 31
0.0
  0
LINE
  5
12DEA
330
1F
100
AcDbEntity
  8
007
100
AcDbLine
 10
421.4327015638968
 20
225.3457770207767
 30
0.0
 11
351.8824195638963
 21
225.3457770207769
 31
0.0
  0
LINE
  5
12DEB
330
1F
100
AcDbEntity
  8
007
100
AcDbLine
 10
351.8824195638963
 20
238.1456770207767
 30
0.0
 11
421.4327015638968
 21
238.1456770207767
 31
0.0
  0
LINE
  5
12DEC
330
1F
100
AcDbEntity
  8
007
100
AcDbLine
 10
351.8824195638963
 20
239.0457770207768
 30
0.0
 11
421.4327015638968
 21
239.0457770207768
 31
0.0
  0
LINE
  5
12DED
330
1F
100
AcDbEntity
  8
007
100
AcDbLine
 10
351.8824195638963
 20
234.8457770207768
 30
0.0
 11
421.4327015638968
 21
234.8457770207769
 31
0.0
  0
LEADER
  5
12DEE
330
1F
100
AcDbEntity
  8
003
100
AcDbLeader
  3
DIM
 73
     0
 74
     0
 40
6.000000000000002
 41
14.7
 76
     3
 10
348.9976480957766
 20
226.5261620629673
 30
0.0
 10
355.7943605235397
 20
214.7539108136467
 30
0.0
 10
360.1801187476854
 20
214.7539108136467
 30
0.0
340
12DEF
1001
ACAD
1000
DSTYLE
1002
{
1070
   147
1040
1.0
1070
    77
1070
     1
1002
}
  0
MTEXT
  5
12DEF
102
{ACAD_REACTORS
330
12DEE
102
}
330
1F
100
AcDbEntity
  8
003
 62
     7
100
AcDbMText
 10
362.1801187476854
 20
216.7539108136467
 30
0.0
 40
6.0
 41
0.0
 71
     7
 72
     1
  1
内網戸
  7
DIM
 73
     1
 44
1.0
1001
ACAD
1000
MTEXTBEGIN
1070
    73
1070
     1
1070
    44
1040
1.0
1070
    74
1070
     0
1000
MTEXTEND
  0
LINE
  5
12DF0
330
1F
100
AcDbEntity
  8
007
100
AcDbLine
 10
350.8824195638963
 20
239.1457770207767
 30
0.0
 11
350.8824195638963
 21
235.6457770207767
 31
0.0
  0
LINE
  5
12DF1
330
1F
100
AcDbEntity
  8
007
100
AcDbLine
 10
351.8824195638963
 20
239.0457770207768
 30
0.0
 11
351.8824195638963
 21
224.8457770207767
 31
0.0
  0
LINE
  5
12DF2
330
1F
100
AcDbEntity
  8
007
100
AcDbLine
 10
351.8824195638963
 20
236.0457770207768
 30
0.0
 11
350.8824195638963
 21
236.0457770207768
 31
0.0
  0
ARC
  5
12DF3
330
1F
100
AcDbEntity
  8
007
100
AcDbCircle
 10
350.3824195638963
 20
235.6457770207767
 30
0.0
 40
0.5
100
AcDbArc
 50
270.0
 51
0.0
  0
ARC
  5
12DFA
330
1F
100
AcDbEntity
  8
007
100
AcDbCircle
 10
350.3824195638963
 20
239.1457770207767
 30
0.0
 40
0.5
100
AcDbArc
 50
0.0
 51
90.0
  0
LEADER
  5
12DFB
330
1F
100
AcDbEntity
  8
003
100
AcDbLeader
  3
DIM
 73
     0
 74
     0
 40
6.000000000000001
 41
9.600000000000001
 76
     3
 10
365.4296359325925
 20
248.7029127676767
 30
0.0
 10
369.6992059804267
 20
256.0980250169995
 30
0.0
 10
372.6239293971802
 20
256.0980250169995
 30
0.0
340
12DC2
1001
ACAD
1000
DSTYLE
1002
{
1070
   147
1040
1.0
1070
    77
1070
     1
1002
}
  0
LINE
  5
12DFD
330
1F
100
AcDbEntity
  8
YKK_W17
 62
   130
100
AcDbLine
 10
526.3192845638966
 20
189.9455083424928
 30
0.0
 11
524.8251285638966
 21
196.5863813424928
 31
0.0
  0
INSERT
  5
12DFE
330
1F
100
AcDbEntity
  8
YKK_W17
 62
     7
100
AcDbBlockReference
  2
K-86576
 10
542.2833650638965
 20
176.1456728424928
 30
0.0
 50
90.0
  0
LINE
  5
12DFF
330
1F
100
AcDbEntity
  8
YKK_W17
 62
   130
100
AcDbLine
 10
526.3192545638966
 20
205.4454933424927
 30
0.0
 11
525.3335175638967
 21
202.3361543424929
 31
0.0
  0
ARC
  5
12E00
330
1F
100
AcDbEntity
  8
YKK_W17
 62
   130
100
AcDbCircle
 10
525.6194905638965
 20
202.2454933424929
 30
0.0
 40
0.3
100
AcDbArc
 50
162.4101149999944
 51
300.0042390000047
  0
ARC
  5
12E01
330
1F
100
AcDbEntity
  8
YKK_W17
 62
   130
100
AcDbCircle
 10
525.1192415638966
 20
196.6454323424928
 30
0.0
 40
0.3
100
AcDbArc
 50
60.00176100000431
 51
191.3527989999994
  0
LINE
  5
12E02
330
1F
100
AcDbEntity
  8
YKK_W17
 62
   255
100
AcDbLine
 10
535.2832275638966
 20
196.9456793424929
 30
0.0
 11
535.2832275638966
 21
201.9456793424929
 31
0.0
  0
LINE
  5
12E03
330
1F
100
AcDbEntity
  8
007
100
AcDbLine
 10
496.9829835638972
 20
238.1456778424927
 30
0.0
 11
519.282983563897
 21
238.1456778424927
 31
0.0
  0
LINE
  5
12E04
330
1F
100
AcDbEntity
  8
007
100
AcDbLine
 10
497.4829835638972
 20
239.6456778424927
 30
0.0
 11
518.782983563897
 21
239.6456778424927
 31
0.0
  0
LINE
  5
12E05
330
1F
100
AcDbEntity
  8
007
100
AcDbLine
 10
497.4829835638972
 20
235.1456778424927
 30
0.0
 11
518.782983563897
 21
235.1456778424927
 31
0.0
  0
LINE
  5
12E06
330
1F
100
AcDbEntity
  8
007
100
AcDbLine
 10
495.9829835638973
 20
234.8456778424927
 30
0.0
 11
524.2829835638969
 21
234.8456778424927
 31
0.0
  0
LINE
  5
12E07
330
1F
100
AcDbEntity
  8
007
100
AcDbLine
 10
495.9829835638973
 20
224.8456778424927
 30
0.0
 11
521.2829835638969
 21
224.8456778424927
 31
0.0
  0
LINE
  5
12E0C
330
1F
100
AcDbEntity
  8
007
100
AcDbLine
 10
496.9829835638972
 20
239.1456778424927
 30
0.0
 11
496.9829835638972
 21
235.6456778424927
 31
0.0
  0
LINE
  5
12E0D
330
1F
100
AcDbEntity
  8
007
100
AcDbLine
 10
495.9829835638973
 20
239.0456778424928
 30
0.0
 11
495.9829835638973
 21
224.8456778424927
 31
0.0
  0
ARC
  5
12E0E
330
1F
100
AcDbEntity
  8
007
100
AcDbCircle
 10
497.4829835638972
 20
235.6456778424927
 30
0.0
 40
0.5
100
AcDbArc
 50
180.0
 51
270.0
  0
LINE
  5
12E0F
330
1F
100
AcDbEntity
  8
007
100
AcDbLine
 10
495.9829835638973
 20
236.0456778424928
 30
0.0
 11
496.9829835638972
 21
236.0456778424928
 31
0.0
  0
ARC
  5
12E16
330
1F
100
AcDbEntity
  8
007
100
AcDbCircle
 10
497.4829835638972
 20
239.1456778424927
 30
0.0
 40
0.5
100
AcDbArc
 50
90.0
 51
180.0
  0
LINE
  5
12E17
330
1F
100
AcDbEntity
  8
007
100
AcDbLine
 10
519.282983563897
 20
239.1456778424927
 30
0.0
 11
519.282983563897
 21
235.6456778424927
 31
0.0
  0
LINE
  5
12E18
330
1F
100
AcDbEntity
  8
003
100
AcDbLine
 10
522.0829835638967
 20
236.9456778424926
 30
0.0
 11
529.8829835638964
 21
236.9456778424926
 31
0.0
  0
ARC
  5
12E19
330
1F
100
AcDbEntity
  8
007
100
AcDbCircle
 10
518.782983563897
 20
235.6456778424927
 30
0.0
 40
0.5
100
AcDbArc
 50
270.0
 51
0.0
  0
LINE
  5
12E1A
330
1F
100
AcDbEntity
  8
003
100
AcDbLine
 10
522.0829835638967
 20
238.1456778424927
 30
0.0
 11
522.0829835638967
 21
236.9456778424926
 31
0.0
  0
LINE
  5
12E1B
330
1F
100
AcDbEntity
  8
007
100
AcDbLine
 10
524.2829835638969
 20
234.8456778424927
 30
0.0
 11
524.2829835638969
 21
227.8456778424927
 31
0.0
  0
ARC
  5
12E21
330
1F
100
AcDbEntity
  8
007
100
AcDbCircle
 10
521.2829835638969
 20
227.8456778424927
 30
0.0
 40
3.0
100
AcDbArc
 50
270.0
 51
0.0
  0
LINE
  5
12E23
330
1F
100
AcDbEntity
  8
003
100
AcDbLine
 10
529.8829835638964
 20
231.9456778424926
 30
0.0
 11
531.0829835638967
 21
231.9456778424926
 31
0.0
  0
LINE
  5
12E24
330
1F
100
AcDbEntity
  8
003
100
AcDbLine
 10
531.0829835638967
 20
231.9456778424926
 30
0.0
 11
531.0829835638967
 21
236.9456778424926
 31
0.0
  0
LINE
  5
12E25
330
1F
100
AcDbEntity
  8
003
100
AcDbLine
 10
529.8829835638964
 20
231.9456778424926
 30
0.0
 11
529.8829835638964
 21
236.9456778424926
 31
0.0
  0
ARC
  5
12E26
330
1F
100
AcDbEntity
  8
007
100
AcDbCircle
 10
518.782983563897
 20
239.1456778424927
 30
0.0
 40
0.5
100
AcDbArc
 50
0.0
 51
90.0
  0
INSERT
  5
12E29
330
1F
100
AcDbEntity
  8
YKK_W17
 62
     7
100
AcDbBlockReference
  2
K-86528
 10
576.2829835638966
 20
148.945677842493
 30
0.0
 41
-1.0
  0
LINE
  5
12E2F
330
1F
100
AcDbEntity
  8
003
100
AcDbLine
 10
574.0829835638967
 20
211.9456778424928
 30
0.0
 11
574.0829835638967
 21
235.2456778424928
 31
0.0
  0
LINE
  5
12E30
330
1F
100
AcDbEntity
  8
YKK_W17
 62
     2
100
AcDbLine
 10
554.0834345638966
 20
200.9457413424928
 30
0.0
 11
576.2828975638965
 21
200.9457413424928
 31
0.0
  0
LINE
  5
12E31
330
1F
100
AcDbEntity
  8
YKK_W17
 62
     2
100
AcDbLine
 10
572.7828975638965
 20
183.2458513424929
 30
0.0
 11
576.2828975638965
 21
183.2458823424927
 31
0.0
  0
LINE
  5
12E32
330
1F
100
AcDbEntity
  8
YKK_W17
 62
     2
100
AcDbLine
 10
564.5829465638967
 20
183.2458823424927
 30
0.0
 11
554.0834345638966
 21
183.2458663424927
 31
0.0
  0
LINE
  5
12E33
330
1F
100
AcDbEntity
  8
YKK_W17
 62
     2
100
AcDbLine
 10
564.5829465638967
 20
178.9458943424927
 30
0.0
 11
554.0834345638966
 21
178.9458633424929
 31
0.0
  0
LINE
  5
12E34
330
1F
100
AcDbEntity
  8
YKK_W17
 62
     4
100
AcDbLine
 10
568.6691275638966
 20
178.9457413424927
 30
0.0
 11
569.9828485638966
 21
180.2594623424927
 31
0.0
  0
LINE
  5
12E35
330
1F
100
AcDbEntity
  8
YKK_W17
 62
     4
100
AcDbLine
 10
569.4811395638967
 20
178.2245343424927
 30
0.0
 11
569.6810905638965
 21
178.2245343424927
 31
0.0
  0
LINE
  5
12E36
330
1F
100
AcDbEntity
  8
YKK_W17
 62
     4
100
AcDbLine
 10
570.0690305638966
 20
180.3456433424928
 30
0.0
 11
571.2689815638966
 21
181.5455953424928
 31
0.0
  0
LINE
  5
12E37
330
1F
100
AcDbEntity
  8
YKK_W17
 62
     4
100
AcDbLine
 10
571.4835805638966
 20
180.3457963424928
 30
0.0
 11
569.9835805638965
 21
180.3457963424928
 31
0.0
  0
LINE
  5
12E38
330
1F
100
AcDbEntity
  8
YKK_W17
 62
     4
100
AcDbLine
 10
571.4835805638966
 20
181.5457933424927
 30
0.0
 11
571.4835805638966
 21
180.3457963424928
 31
0.0
  0
LINE
  5
12E39
330
1F
100
AcDbEntity
  8
YKK_W17
 62
     4
100
AcDbLine
 10
569.3815305638966
 20
177.1202103424928
 30
0.0
 11
569.5814815638966
 21
177.1202103424928
 31
0.0
  0
LINE
  5
12E3A
330
1F
100
AcDbEntity
  8
YKK_W17
 62
     4
100
AcDbLine
 10
568.7831415638965
 20
177.7457903424927
 30
0.0
 11
568.7831415638965
 21
177.0457013424928
 31
0.0
  0
LINE
  5
12E3B
330
1F
100
AcDbEntity
  8
YKK_W17
 62
     4
100
AcDbLine
 10
569.9833365638967
 20
177.0456863424929
 30
0.0
 11
569.9835805638965
 21
180.3457963424928
 31
0.0
  0
LINE
  5
12E3C
330
1F
100
AcDbEntity
  8
YKK_W17
 62
     4
100
AcDbLine
 10
569.0675655638965
 20
175.8480853424929
 30
0.0
 11
569.2677605638967
 21
175.8480853424929
 31
0.0
  0
ARC
  5
12E3D
330
1F
100
AcDbEntity
  8
YKK_W17
 62
     4
100
AcDbCircle
 10
569.2838735638965
 20
175.8456593424929
 30
0.0
 40
0.599838
100
AcDbArc
 50
269.9999999991532
 51
89.99999999859303
  0
ARC
  5
12E3E
330
1F
100
AcDbEntity
  8
YKK_W17
 62
     4
100
AcDbCircle
 10
569.3832395638967
 20
177.0457013424928
 30
0.0
 40
0.6000980000000001
100
AcDbArc
 50
179.9999999994398
 51
359.9985429988735
  0
LINE
  5
12E3F
330
1F
100
AcDbEntity
  8
YKK_W17
 62
     4
100
AcDbLine
 10
564.5140985638966
 20
177.6807113424927
 30
0.0
 11
564.7140495638966
 21
177.6807113424927
 31
0.0
  0
LINE
  5
12E40
330
1F
100
AcDbEntity
  8
YKK_W17
 62
     4
100
AcDbLine
 10
566.0829465638967
 20
180.6022203424927
 30
0.0
 11
567.0263055638965
 21
181.5455793424928
 31
0.0
  0
LINE
  5
12E41
330
1F
100
AcDbEntity
  8
YKK_W17
 62
     4
100
AcDbLine
 10
565.6742545638967
 20
178.5417653424929
 30
0.0
 11
565.8742055638965
 21
178.5417653424929
 31
0.0
  0
LINE
  5
12E42
330
1F
100
AcDbEntity
  8
YKK_W17
 62
     4
100
AcDbLine
 10
567.8768915638966
 20
178.5870993424928
 30
0.0
 11
568.0768425638966
 21
178.5870993424928
 31
0.0
  0
LINE
  5
12E43
330
1F
100
AcDbEntity
  8
YKK_W17
 62
     4
100
AcDbLine
 10
567.5834345638966
 20
180.3457963424928
 30
0.0
 11
566.0834345638966
 21
180.3457963424928
 31
0.0
  0
LINE
  5
12E44
330
1F
100
AcDbEntity
  8
YKK_W17
 62
     4
100
AcDbLine
 10
567.5831905638965
 20
178.9458023424927
 30
0.0
 11
567.5834345638966
 21
180.3457963424928
 31
0.0
  0
LINE
  5
12E45
330
1F
100
AcDbEntity
  8
YKK_W17
 62
     4
100
AcDbLine
 10
566.0834345638966
 20
180.3457963424928
 30
0.0
 11
566.0834345638966
 21
181.5457933424927
 31
0.0
  0
LINE
  5
12E46
330
1F
100
AcDbEntity
  8
YKK_W17
 62
     4
100
AcDbLine
 10
566.5897815638966
 20
177.9888623424927
 30
0.0
 11
566.7897335638965
 21
177.9888623424927
 31
0.0
  0
LINE
  5
12E47
330
1F
100
AcDbEntity
  8
YKK_W17
 62
     4
100
AcDbLine
 10
564.8617545638967
 20
175.4492963424929
 30
0.0
 11
565.0619495638966
 21
175.4492963424929
 31
0.0
  0
ARC
  5
12E48
330
1F
100
AcDbEntity
  8
YKK_W17
 62
     4
100
AcDbCircle
 10
564.7831415638965
 20
175.7458203424929
 30
0.0
 40
0.5
100
AcDbArc
 50
179.9999999994398
 51
269.9999999991532
  0
LINE
  5
12E49
330
1F
100
AcDbEntity
  8
YKK_W17
 62
     4
100
AcDbLine
 10
567.1820675638967
 20
176.1200273424929
 30
0.0
 11
567.3822625638965
 21
176.1200123424928
 31
0.0
  0
LINE
  5
12E4A
330
1F
100
AcDbEntity
  8
YKK_W17
 62
     4
100
AcDbLine
 10
565.2423695638965
 20
176.3919393424928
 30
0.0
 11
565.4425655638966
 21
176.3919393424928
 31
0.0
  0
ARC
  5
12E4B
330
1F
100
AcDbEntity
  8
YKK_W17
 62
     4
100
AcDbCircle
 10
565.9833365638966
 20
176.9458483424928
 30
0.0
 40
0.5
100
AcDbArc
 50
179.9999999994398
 51
269.9999999991532
  0
LINE
  5
12E4C
330
1F
100
AcDbEntity
  8
YKK_W17
 62
     4
100
AcDbLine
 10
564.2831415638966
 20
178.9458023424927
 30
0.0
 11
564.2831415638966
 21
175.7458203424929
 31
0.0
  0
LINE
  5
12E4D
330
1F
100
AcDbEntity
  8
YKK_W17
 62
     4
100
AcDbLine
 10
565.4833365638967
 20
177.7458053424927
 30
0.0
 11
565.4833365638967
 21
176.9458483424928
 31
0.0
  0
LINE
  5
12E4E
330
1F
100
AcDbEntity
  8
YKK_W17
 62
     4
100
AcDbLine
 10
569.9833365638967
 20
178.9458023424927
 30
0.0
 11
564.2831415638966
 21
178.9458023424927
 31
0.0
  0
LINE
  5
12E4F
330
1F
100
AcDbEntity
  8
YKK_W17
 62
     4
100
AcDbLine
 10
564.7831415638965
 20
175.2458363424929
 30
0.0
 11
569.2838735638965
 21
175.245820342493
 31
0.0
  0
LINE
  5
12E50
330
1F
100
AcDbEntity
  8
YKK_W17
 62
     4
100
AcDbLine
 10
566.0834345638966
 20
181.5457933424927
 30
0.0
 11
571.4835805638966
 21
181.5457933424927
 31
0.0
  0
LINE
  5
12E51
330
1F
100
AcDbEntity
  8
YKK_W17
 62
     4
100
AcDbLine
 10
567.2404165638965
 20
180.3455523424927
 30
0.0
 11
568.4403675638966
 21
181.5455033424928
 31
0.0
  0
LINE
  5
12E52
330
1F
100
AcDbEntity
  8
YKK_W17
 62
     4
100
AcDbLine
 10
567.5827015638965
 20
179.2734543424929
 30
0.0
 11
569.8549185638967
 21
181.5456713424928
 31
0.0
  0
LINE
  5
12E53
330
1F
100
AcDbEntity
  8
YKK_W17
 62
     4
100
AcDbLine
 10
568.1066275638966
 20
175.431138342493
 30
0.0
 11
568.3068225638967
 21
175.431138342493
 31
0.0
  0
LINE
  5
12E54
330
1F
100
AcDbEntity
  8
YKK_W17
 62
     4
100
AcDbLine
 10
568.7831415638965
 20
177.7457903424927
 30
0.0
 11
565.4833365638967
 21
177.7458053424927
 31
0.0
  0
LINE
  5
12E55
330
1F
100
AcDbEntity
  8
YKK_W17
 62
     4
100
AcDbLine
 10
569.2838735638965
 20
176.4458483424928
 30
0.0
 11
565.9833365638966
 21
176.4458633424929
 31
0.0
  0
LINE
  5
12E56
330
1F
100
AcDbEntity
  8
003
100
AcDbLine
 10
556.2833615635088
 20
211.9456623424929
 30
0.0
 11
561.2829835638965
 21
211.945677842493
 31
0.0
  0
LINE
  5
12E57
330
1F
100
AcDbEntity
  8
YKK_W17
 62
     4
100
AcDbLine
 10
567.0836865638967
 20
205.8453993424928
 30
0.0
 11
555.9337095638966
 21
205.8453593424929
 31
0.0
  0
LINE
  5
12E58
330
1F
100
AcDbEntity
  8
YKK_W17
 62
     4
100
AcDbLine
 10
560.8364365638965
 20
206.6454143424929
 30
0.0
 11
555.9183745638965
 21
206.3449633424928
 31
0.0
  0
ARC
  5
12E59
330
1F
100
AcDbEntity
  8
YKK_W17
 62
     4
100
AcDbCircle
 10
555.9336175638966
 20
206.0954363424928
 30
0.0
 40
0.25
100
AcDbArc
 50
93.49605099970949
 51
269.9999999991532
  0
LINE
  5
12E5A
330
1F
100
AcDbEntity
  8
YKK_W17
 62
     4
100
AcDbLine
 10
569.4836265638967
 20
209.6454123424928
 30
0.0
 11
569.4836225638966
 21
208.4453843424929
 31
0.0
  0
LINE
  5
12E5B
330
1F
100
AcDbEntity
  8
YKK_W17
 62
     4
100
AcDbLine
 10
563.8261105638966
 20
208.4449323424929
 30
0.0
 11
565.0263055638966
 21
209.6451283424929
 31
0.0
  0
LINE
  5
12E5C
330
1F
100
AcDbEntity
  8
YKK_W17
 62
     4
100
AcDbLine
 10
563.0831905638965
 20
209.1161513424927
 30
0.0
 11
563.6122425638966
 21
209.6452043424929
 31
0.0
  0
LINE
  5
12E5D
330
1F
100
AcDbEntity
  8
YKK_W17
 62
     4
100
AcDbLine
 10
563.0836345638965
 20
209.6454083424929
 30
0.0
 11
563.0836305638966
 21
208.4453983424928
 31
0.0
  0
LINE
  5
12E5E
330
1F
100
AcDbEntity
  8
YKK_W17
 62
     4
100
AcDbLine
 10
564.5407095638965
 20
207.7451493424928
 30
0.0
 11
566.4408565638966
 21
209.6452963424927
 31
0.0
  0
LINE
  5
12E5F
330
1F
100
AcDbEntity
  8
YKK_W17
 62
     4
100
AcDbLine
 10
565.9547725638965
 20
207.7450733424928
 30
0.0
 11
567.8546745638966
 21
209.6449753424927
 31
0.0
  0
LINE
  5
12E60
330
1F
100
AcDbEntity
  8
YKK_W17
 62
     4
100
AcDbLine
 10
564.4836395638965
 20
207.7453973424929
 30
0.0
 11
568.0836445638965
 21
207.7453913424929
 31
0.0
  0
LINE
  5
12E61
330
1F
100
AcDbEntity
  8
YKK_W17
 62
     4
100
AcDbLine
 10
563.0836305638966
 20
208.4453983424928
 30
0.0
 11
564.4836395638965
 21
208.4453793424928
 31
0.0
  0
LINE
  5
12E62
330
1F
100
AcDbEntity
  8
YKK_W17
 62
     4
100
AcDbLine
 10
564.4836395638965
 20
208.4453943424928
 30
0.0
 11
564.4836385638966
 21
207.0454153424928
 31
0.0
  0
ARC
  5
12E63
330
1F
100
AcDbEntity
  8
YKK_W17
 62
     4
100
AcDbCircle
 10
561.2836415638967
 20
207.0454213424928
 30
0.0
 40
0.6
100
AcDbArc
 50
221.8124900004237
 51
359.9999938590595
  0
LINE
  5
12E64
330
1F
100
AcDbEntity
  8
YKK_W17
 62
     4
100
AcDbLine
 10
564.4836385638966
 20
207.0454153424928
 30
0.0
 11
561.8836475638966
 21
207.0454213424928
 31
0.0
  0
LINE
  5
12E65
330
1F
100
AcDbEntity
  8
YKK_W17
 62
     4
100
AcDbLine
 10
568.0836445638965
 20
208.4453583424927
 30
0.0
 11
568.0836575638966
 21
206.8453523424928
 31
0.0
  0
LINE
  5
12E66
330
1F
100
AcDbEntity
  8
YKK_W17
 62
     4
100
AcDbLine
 10
567.3688345638965
 20
207.7449963424929
 30
0.0
 11
569.2687375638966
 21
209.6448993424929
 31
0.0
  0
ARC
  5
12E67
330
1F
100
AcDbEntity
  8
YKK_W17
 62
     4
100
AcDbCircle
 10
567.0836735638966
 20
206.8453843424927
 30
0.0
 40
1.0
100
AcDbArc
 50
269.9999999991532
 51
359.9981419988773
  0
LINE
  5
12E68
330
1F
100
AcDbEntity
  8
YKK_W17
 62
     4
100
AcDbLine
 10
568.0836285638966
 20
208.4453733424928
 30
0.0
 11
569.4836225638966
 21
208.4454003424928
 31
0.0
  0
LINE
  5
12E69
330
1F
100
AcDbEntity
  8
YKK_W17
 62
     4
100
AcDbLine
 10
563.0836345638965
 20
209.6454083424929
 30
0.0
 11
569.4836265638967
 21
209.6454123424928
 31
0.0
  0
LINE
  5
12E6A
330
1F
100
AcDbEntity
  8
006
100
AcDbLine
 10
567.7829835638966
 20
241.5356778424928
 30
0.0
 11
575.7829835638965
 21
241.5356778424928
 31
0.0
  0
LINE
  5
12E6B
330
1F
100
AcDbEntity
  8
006
100
AcDbLine
 10
571.7829835638965
 20
237.5356778424928
 30
0.0
 11
571.7829835638965
 21
245.5356778424928
 31
0.0
  0
LINE
  5
12E6C
330
1F
100
AcDbEntity
  8
003
100
AcDbLine
 10
562.2829835638965
 20
238.1456778424927
 30
0.0
 11
562.2829835638965
 21
239.3456778424927
 31
0.0
  0
LINE
  5
12E6D
330
1F
100
AcDbEntity
  8
003
100
AcDbLine
 10
549.4829835638967
 20
238.1456778424927
 30
0.0
 11
549.4829835638967
 21
260.7456778424928
 31
0.0
  0
LINE
  5
12E6E
330
1F
100
AcDbEntity
  8
003
100
AcDbLine
 10
549.5029835638968
 20
238.1456778424927
 30
0.0
 11
574.0829835638967
 21
238.1456778424927
 31
0.0
  0
LINE
  5
12E6F
330
1F
100
AcDbEntity
  8
003
100
AcDbLine
 10
567.5829835638967
 20
238.1456778424927
 30
0.0
 11
574.0829835638967
 21
238.1456778424927
 31
0.0
  0
LINE
  5
12E70
330
1F
100
AcDbEntity
  8
003
100
AcDbLine
 10
567.5829835638967
 20
236.9456778424926
 30
0.0
 11
574.0829835638967
 21
236.9456778424926
 31
0.0
  0
LINE
  5
12E71
330
1F
100
AcDbEntity
  8
003
100
AcDbLine
 10
574.0829835638967
 20
236.9456778424926
 30
0.0
 11
574.0829835638967
 21
238.1456778424927
 31
0.0
  0
LINE
  5
12E72
330
1F
100
AcDbEntity
  8
003
100
AcDbLine
 10
574.0829835638967
 20
236.4456778424929
 30
0.0
 11
574.0829835638967
 21
238.1456778424927
 31
0.0
  0
LINE
  5
12E73
330
1F
100
AcDbEntity
  8
003
100
AcDbLine
 10
571.0829835638967
 20
236.4456778424929
 30
0.0
 11
574.0829835638967
 21
236.4456778424929
 31
0.0
  0
LINE
  5
12E74
330
1F
100
AcDbEntity
  8
003
100
AcDbLine
 10
571.0829835638967
 20
235.2456778424928
 30
0.0
 11
574.0829835638967
 21
235.2456778424928
 31
0.0
  0
LINE
  5
12E75
330
1F
100
AcDbEntity
  8
003
100
AcDbLine
 10
571.0829835638967
 20
235.2456778424928
 30
0.0
 11
571.0829835638967
 21
236.9456778424926
 31
0.0
  0
LINE
  5
12E76
330
1F
100
AcDbEntity
  8
003
100
AcDbLine
 10
562.2829835638965
 20
238.1456778424927
 30
0.0
 11
566.9829835638966
 21
238.1456778424927
 31
0.0
  0
ARC
  5
12E77
330
1F
100
AcDbEntity
  8
003
100
AcDbCircle
 10
567.2829835638965
 20
236.9456778424929
 30
0.0
 40
0.2999999999999829
100
AcDbArc
 50
0.0
 51
180.0
  0
ARC
  5
12E78
330
1F
100
AcDbEntity
  8
003
100
AcDbCircle
 10
567.282983563897
 20
238.1456778424927
 30
0.0
 40
0.3000000000000682
100
AcDbArc
 50
0.0000000000130276
 51
179.9999999999739
  0
LINE
  5
12E79
330
1F
100
AcDbEntity
  8
003
100
AcDbLine
 10
551.1829835638966
 20
241.9456778424929
 30
0.0
 11
553.6829835638966
 21
241.9456778424929
 31
0.0
  0
LINE
  5
12E7A
330
1F
100
AcDbEntity
  8
003
100
AcDbLine
 10
549.4829835638967
 20
260.7456778424928
 30
0.0
 11
550.6829835638966
 21
260.7456778424928
 31
0.0
  0
LINE
  5
12E7B
330
1F
100
AcDbEntity
  8
003
100
AcDbLine
 10
549.4829835638966
 20
253.4456778424929
 30
0.0
 11
551.1829835638966
 21
253.4456778424929
 31
0.0
  0
LINE
  5
12E7C
330
1F
100
AcDbEntity
  8
003
100
AcDbLine
 10
549.4829835638966
 20
260.4456778424928
 30
0.0
 11
551.1829835638966
 21
260.4456778424928
 31
0.0
  0
LINE
  5
12E7D
330
1F
100
AcDbEntity
  8
003
100
AcDbLine
 10
569.1844237541977
 20
240.0365157713952
 30
0.0
 11
570.2216533820275
 21
240.6399948275873
 31
0.0
  0
ARC
  5
12E7E
330
1F
100
AcDbEntity
  8
003
100
AcDbCircle
 10
571.7829835638965
 20
241.535677842493
 30
0.0
 40
3.0
100
AcDbArc
 50
209.9815227431618
 51
226.8863940541041
  0
LINE
  5
12E7F
330
1F
100
AcDbEntity
  8
003
100
AcDbLine
 10
569.1844268057509
 20
243.0348452029616
 30
0.0
 11
570.2238495090077
 21
242.4351782587748
 31
0.0
  0
ARC
  5
12E80
330
1F
100
AcDbEntity
  8
003
100
AcDbCircle
 10
571.7829835638965
 20
241.535677842493
 30
0.0
 40
3.0
100
AcDbArc
 50
39.94450518981577
 51
150.0183606311536
  0
ARC
  5
12E81
330
1F
100
AcDbEntity
  8
003
100
AcDbCircle
 10
571.7829835638965
 20
241.535677842493
 30
0.0
 40
1.8
100
AcDbArc
 50
209.8414545361684
 51
150.0183606311536
  0
LINE
  5
12E82
330
1F
100
AcDbEntity
  8
003
100
AcDbLine
 10
562.2829835638965
 20
239.3456778424927
 30
0.0
 11
569.7326421289155
 21
239.3456778424927
 31
0.0
  0
LINE
  5
12EA0
330
1F
100
AcDbEntity
  8
003
100
AcDbLine
 10
547.2829835638965
 20
272.9456645561772
 30
0.0
 11
426.4327015638968
 21
272.9456645561774
 31
0.0
  0
LINE
  5
12EA2
330
1F
100
AcDbEntity
  8
003
100
AcDbLine
 10
545.2829835638965
 20
276.9456778424928
 30
0.0
 11
426.4327015638968
 21
276.9456778424925
 31
0.0
  0
LINE
  5
12EA3
330
1F
100
AcDbEntity
  8
003
100
AcDbLine
 10
545.2829835638965
 20
275.7456778424928
 30
0.0
 11
426.4327015638968
 21
275.7456778424928
 31
0.0
  0
DIMENSION
  5
12EA4
330
1F
100
AcDbEntity
  8
003
100
AcDbDimension
  2
*D7
 10
695.2246485627205
 20
531.828106355482
 30
0.0
 11
690.2246485627204
 21
477.1534075724954
 31
0.0
 70
    32
  1
製品H
 71
     5
 42
109.3493975659734
  3
DIM
100
AcDbAlignedDimension
 13
656.462636716727
 23
422.4787087895085
 33
0.0
 14
656.462636716727
 24
531.828106355482
 34
0.0
 50
90.0
100
AcDbRotatedDimension
  0
DIMENSION
  5
12EA9
330
1F
100
AcDbEntity
  8
003
100
AcDbDimension
  2
*D8
 10
656.462636716727
 20
395.8809083129165
 30
0.0
 11
610.7076104784225
 21
400.8809083129165
 31
0.0
 70
    32
  1
製品W
 71
     5
 42
91.51005247660895
  3
DIM
100
AcDbAlignedDimension
 13
564.9525842401181
 23
420.5287087897037
 33
0.0
 14
656.462636716727
 24
420.5287087897035
 34
0.0
100
AcDbRotatedDimension
  0
LINE
  5
12EB3
330
1F
100
AcDbEntity
  8
003
100
AcDbLine
 10
570.7076104784225
 20
365.7995361874546
 30
0.0
 11
650.7076104784225
 21
365.7995361874546
 31
0.0
  0
LINE
  5
12EB4
330
1F
100
AcDbEntity
  8
003
100
AcDbLine
 10
570.7076104784225
 20
380.7995361874546
 30
0.0
 11
650.7076104784225
 21
380.7995361874546
 31
0.0
  0
TEXT
  5
12EB5
330
1F
100
AcDbEntity
  8
0
100
AcDbText
 10
592.8409438117559
 20
369.2995361874546
 30
0.0
 40
8.0
  1
外観姿図
  7
AT_VECTOR
 72
     1
 11
610.7076104784225
 21
373.2995361874546
 31
0.0
100
AcDbText
 73
     2
  0
LINE
  5
12EB6
330
1F
100
AcDbEntity
  8
003
100
AcDbLine
 10
570.7076104784225
 20
380.7995361874546
 30
0.0
 11
570.7076104784225
 21
365.7995361874546
 31
0.0
  0
MTEXT
  5
12ED0
102
{ACAD_REACTORS
330
12ED1
102
}
330
1F
100
AcDbEntity
  8
003
 62
     7
100
AcDbMText
 10
664.2337740310765
 20
379.3492566627517
 30
0.0
 40
6.0
 41
0.0
 71
     7
 72
     1
  1
取付金具（下部）
  7
DIM
 73
     1
 44
1.0
1001
ACAD
1000
MTEXTBEGIN
1070
    73
1070
     1
1070
    44
1040
1.0
1070
    74
1070
     0
1000
MTEXTEND
  0
LEADER
  5
12ED1
330
1F
100
AcDbEntity
  8
003
100
AcDbLeader
  3
DIM
 73
     0
 74
     0
 40
6.000000000000001
 41
39.29999999999998
 76
     3
 10
633.4118716048066
 20
422.3492280126599
 30
0.0
 10
660.7823541824273
 20
377.3492566627517
 30
0.0
 10
662.2337740310765
 20
377.3492566627517
 30
0.0
340
12ED0
1001
ACAD
1000
DSTYLE
1002
{
1070
   147
1040
1.0
1070
    77
1070
     1
1002
}
  0
LINE
  5
12ED2
330
1F
100
AcDbEntity
  8
003
100
AcDbLine
 10
650.7076104784225
 20
380.7995361874546
 30
0.0
 11
650.7076104784225
 21
365.7995361874546
 31
0.0
  0
LEADER
  5
12ED7
330
1F
100
AcDbEntity
  8
003
100
AcDbLeader
  3
DIM
 73
     0
 74
     0
 40
6.000000000000001
 41
9.600000000000001
 76
     3
 10
628.0042992451744
 20
484.6082932363085
 30
0.0
 10
634.2652161092614
 20
495.4525193468721
 30
0.0
 10
662.7659387768185
 20
495.4525193468721
 30
0.0
340
12ED8
1001
ACAD
1000
DSTYLE
1002
{
1070
   147
1040
1.0
1070
    77
1070
     1
1002
}
  0
MTEXT
  5
12ED8
102
{ACAD_REACTORS
330
12ED7
102
}
330
1F
100
AcDbEntity
  8
003
 62
     7
100
AcDbMText
 10
664.7659387768185
 20
497.452519346872
 30
0.0
 40
6.0
 41
0.0
 71
     7
 72
     1
  1
羽根
  7
DIM
 73
     1
 44
1.0
1001
ACAD
1000
MTEXTBEGIN
1070
    73
1070
     1
1070
    44
1040
1.0
1070
    74
1070
     0
1000
MTEXTEND
  0
LEADER
  5
12EE9
330
1F
100
AcDbEntity
  8
003
100
AcDbLeader
  3
DIM
 73
     0
 40
6.0
 41
18.68571428571429
 76
     3
 10
570.0471249017453
 20
476.1107958228335
 30
0.0
 10
558.4458192827423
 20
496.2048465890811
 30
0.0
 10
554.6080450081896
 20
496.2048465890811
 30
0.0
340
12EEA
1001
ACAD
1000
DSTYLE
1002
{
1070
   147
1040
1.0
1070
    77
1070
     1
1002
}
  0
MTEXT
  5
12EEA
102
{ACAD_REACTORS
330
12EE9
102
}
330
1F
100
AcDbEntity
  8
003
 62
     7
100
AcDbMText
 10
552.6080450081897
 20
498.2048465890811
 30
0.0
 40
6.0
 41
0.0
 71
     9
 72
     1
  1
Ｈ材1型
  7
DIM
 73
     1
 44
1.0
1001
ACAD
1000
MTEXTBEGIN
1070
    73
1070
     1
1070
    44
1040
1.0
1070
    74
1070
     0
1000
MTEXTEND
  0
LEADER
  5
12EEB
330
1F
100
AcDbEntity
  8
003
100
AcDbLeader
  3
DIM
 73
     0
 40
6.000000000000003
 41
54.38571428571428
 76
     3
 10
566.5511922009312
 20
530.2614703813974
 30
0.0
 10
560.3669901058609
 20
540.9728226143329
 30
0.0
 10
559.9479114314735
 20
540.9728226143329
 30
0.0
340
12EEC
1001
ACAD
1000
DSTYLE
1002
{
1070
   147
1040
1.0
1070
    77
1070
     1
1002
}
  0
MTEXT
  5
12EEC
102
{ACAD_REACTORS
330
12EEB
102
}
330
1F
100
AcDbEntity
  8
003
 62
     7
100
AcDbMText
 10
557.9479114314734
 20
542.9728226143329
 30
0.0
 40
6.0
 41
0.0
 71
     9
 72
     1
  1
安全キャップ（4ヶ所）
  7
DIM
 73
     1
 44
1.0
1001
ACAD
1000
MTEXTBEGIN
1070
    73
1070
     1
1070
    44
1040
1.0
1070
    74
1070
     0
1000
MTEXTEND
  0
MTEXT
  5
12EF1
102
{ACAD_REACTORS
330
12EF2
102
}
330
1F
100
AcDbEntity
  8
003
 62
     7
100
AcDbMText
 10
645.9265133804072
 20
544.5993738080499
 30
0.0
 40
6.0
 41
0.0
 71
     7
 72
     1
  1
取付金具（上部）
  7
DIM
 73
     1
 44
1.0
1001
ACAD
1000
MTEXTBEGIN
1070
    73
1070
     1
1070
    44
1040
1.0
1070
    74
1070
     0
1000
MTEXTEND
  0
LEADER
  5
12EF2
330
1F
100
AcDbEntity
  8
003
100
AcDbLeader
  3
DIM
 73
     0
 74
     0
 40
6.000000000000001
 41
39.29999999999998
 76
     3
 10
633.7572533616525
 20
532.8019678445023
 30
0.0
 10
639.4137883320669
 20
542.5993738080499
 30
0.0
 10
643.9265133804073
 20
542.5993738080499
 30
0.0
340
12EF1
1001
ACAD
1000
DSTYLE
1002
{
1070
   147
1040
1.0
1070
    77
1070
     1
1002
}
  0
DIMENSION
  5
12EF9
330
1F
100
AcDbEntity
  8
003
100
AcDbDimension
  2
*D9
 10
575.2829835638965
 20
298.9923147264973
 30
0.0
 11
560.2829835638965
 21
303.9923147264973
 31
0.0
 70
    32
 71
     5
 42
30.0
  3
DIM
100
AcDbAlignedDimension
 13
545.2829835638965
 23
276.9456778424928
 33
0.0
 14
575.2829835638965
 24
266.9456778424928
 34
0.0
100
AcDbRotatedDimension
  0
MTEXT
  5
12EFA
102
{ACAD_REACTORS
330
12EFB
102
}
330
1F
100
AcDbEntity
  8
003
 62
     7
100
AcDbMText
 10
597.1241954009492
 20
250.4851077711377
 30
0.0
 40
6.0
 41
0.0
 71
     7
 72
     1
  1
Ｈ材1型
  7
DIM
 73
     1
 44
1.0
1001
ACAD
1000
MTEXTBEGIN
1070
    73
1070
     1
1070
    44
1040
1.0
1070
    74
1070
     0
1000
MTEXTEND
  0
LEADER
  5
12EFB
330
1F
100
AcDbEntity
  8
003
100
AcDbLeader
  3
DIM
 73
     0
 74
     0
 40
6.0
 41
18.68571428571429
 76
     3
 10
575.2829835638965
 20
227.6528407999191
 30
0.0
 10
587.3104985075594
 20
248.4851077711377
 30
0.0
 10
595.1241954009492
 20
248.4851077711377
 30
0.0
340
12EFA
1001
ACAD
1000
DSTYLE
1002
{
1070
   147
1040
1.0
1070
    77
1070
     1
1002
}
  0
ARC
  5
12EFC
330
1F
100
AcDbEntity
  8
003
100
AcDbCircle
 10
565.2829835638965
 20
266.9456778424928
 30
0.0
 40
8.8
100
AcDbArc
 50
0.0
 51
90.0
  0
ARC
  5
12EFD
330
1F
100
AcDbEntity
  8
003
100
AcDbCircle
 10
565.2829835638965
 20
266.9456778424928
 30
0.0
 40
10.0
100
AcDbArc
 50
0.0
 51
90.0
  0
LINE
  5
12EFF
330
1F
100
AcDbEntity
  8
003
100
AcDbLine
 10
553.7091195923223
 20
275.7456778424928
 30
0.0
 11
565.2829835638965
 21
275.7456778424928
 31
0.0
  0
LINE
  5
12F00
330
1F
100
AcDbEntity
  8
003
100
AcDbLine
 10
545.2829835638965
 20
276.9456778424928
 30
0.0
 11
565.2829835638965
 21
276.9456778424928
 31
0.0
  0
LINE
  5
12F04
330
1F
100
AcDbEntity
  8
003
100
AcDbLine
 10
552.5603751600828
 20
270.548150913165
 30
0.0
 11
552.2536671895339
 21
271.7083071495888
 31
0.0
  0
ARC
  5
12F05
330
1F
100
AcDbEntity
  8
003
100
AcDbCircle
 10
551.782983563897
 20
273.4456778424928
 30
0.0
 40
3.0
100
AcDbArc
 50
273.8225537292692
 51
285.0184772568366
  0
LINE
  5
12F06
330
1F
100
AcDbEntity
  8
003
100
AcDbLine
 10
554.6805120756005
 20
272.6682921442309
 30
0.0
 11
553.5215006709204
 21
272.9792464235352
 31
0.0
  0
ARC
  5
12F07
330
1F
100
AcDbEntity
  8
003
100
AcDbCircle
 10
551.782983563897
 20
273.4456778424928
 30
0.0
 40
3.0
100
AcDbArc
 50
344.981639368847
 51
50.05549481018452
  0
LINE
  5
12F08
330
1F
100
AcDbEntity
  8
003
100
AcDbLine
 10
551.9829835638965
 20
268.1456778424927
 30
0.0
 11
552.3829835638967
 21
268.1456778424927
 31
0.0
  0
LINE
  5
12F09
330
1F
100
AcDbEntity
  8
003
100
AcDbLine
 10
551.1829835638966
 20
263.9456778424928
 30
0.0
 11
552.3829835638964
 21
263.9456778424928
 31
0.0
  0
LINE
  5
12F0A
330
1F
100
AcDbEntity
  8
003
100
AcDbLine
 10
551.1829835638966
 20
263.9456778424928
 30
0.0
 11
551.1829835638966
 21
266.9456778424928
 31
0.0
  0
LINE
  5
12F0B
330
1F
100
AcDbEntity
  8
003
100
AcDbLine
 10
552.3829835638964
 20
263.9456778424928
 30
0.0
 11
552.3829835638967
 21
268.1456778424927
 31
0.0
  0
LINE
  5
12F0C
330
1F
100
AcDbEntity
  8
003
100
AcDbLine
 10
551.1829835638966
 20
261.9456778424928
 30
0.0
 11
556.1829835638966
 21
261.9456778424928
 31
0.0
  0
LINE
  5
12F0D
330
1F
100
AcDbEntity
  8
003
100
AcDbLine
 10
551.9829835638965
 20
268.1456778424927
 30
0.0
 11
551.9829835638965
 21
270.4523519330737
 31
0.0
  0
LINE
  5
12F0E
330
1F
100
AcDbEntity
  8
003
100
AcDbLine
 10
545.2829835638965
 20
275.7456778424928
 30
0.0
 11
545.2829835638965
 21
276.9456778424928
 31
0.0
  0
LINE
  5
12F0F
330
1F
100
AcDbEntity
  8
003
100
AcDbLine
 10
545.2829835638965
 20
275.7456778424928
 30
0.0
 11
548.2829835638965
 21
275.7456778424928
 31
0.0
  0
LINE
  5
12F10
330
1F
100
AcDbEntity
  8
003
100
AcDbLine
 10
549.4829835638967
 20
266.9456778424926
 30
0.0
 11
550.6829835638966
 21
266.9456778424926
 31
0.0
  0
LINE
  5
12F11
330
1F
100
AcDbEntity
  8
003
100
AcDbLine
 10
549.4829835638967
 20
261.9456778424926
 30
0.0
 11
549.4829835638967
 21
266.9456778424926
 31
0.0
  0
LINE
  5
12F12
330
1F
100
AcDbEntity
  8
003
100
AcDbLine
 10
549.4829835638966
 20
261.9456778424928
 30
0.0
 11
549.4829835638966
 21
266.9456778424928
 31
0.0
  0
LINE
  5
12F13
330
1F
100
AcDbEntity
  8
003
100
AcDbLine
 10
548.2829835638965
 20
261.9456778424926
 30
0.0
 11
549.4829835638967
 21
261.9456778424926
 31
0.0
  0
LINE
  5
12F14
330
1F
100
AcDbEntity
  8
003
100
AcDbLine
 10
548.2829835638965
 20
261.9456778424928
 30
0.0
 11
549.4829835638966
 21
261.9456778424928
 31
0.0
  0
LINE
  5
12F15
330
1F
100
AcDbEntity
  8
003
100
AcDbLine
 10
548.2829835638965
 20
261.9456778424928
 30
0.0
 11
548.2829835638965
 21
275.7456778424928
 31
0.0
  0
LINE
  5
12F16
330
1F
100
AcDbEntity
  8
006
100
AcDbLine
 10
548.9545564391505
 20
270.6172507177466
 30
0.0
 11
554.6114106886427
 21
276.2741049672391
 31
0.0
  0
LINE
  5
12F17
330
1F
100
AcDbEntity
  8
006
100
AcDbLine
 10
554.6114106886427
 20
270.6172507177466
 30
0.0
 11
548.9545564391503
 21
276.2741049672388
 31
0.0
  0
LINE
  5
12F18
330
1F
100
AcDbEntity
  8
003
100
AcDbLine
 10
549.4829835638966
 20
266.9456778424928
 30
0.0
 11
551.1829835638966
 21
266.9456778424928
 31
0.0
  0
ARC
  5
12F19
330
1F
100
AcDbEntity
  8
003
100
AcDbCircle
 10
551.782983563897
 20
273.4456778424928
 30
0.0
 40
1.8
100
AcDbArc
 50
344.981639368847
 51
285.1585454638256
  0
TEXT
  5
12F2A
330
1F
100
AcDbEntity
  8
0
100
AcDbText
 10
44.00000000000008
 20
537.0
 30
0.0
 40
6.0
  1
名称
  7
AT_VECTOR
 11
44.00000000000008
 21
540.0
 31
0.0
100
AcDbText
 73
     2
  0
TEXT
  5
12F2B
330
1F
100
AcDbEntity
  8
0
100
AcDbText
 10
44.00000000000008
 20
549.0
 30
0.0
 40
6.0
  1
形式
  7
AT_VECTOR
 11
44.00000000000008
 21
552.0
 31
0.0
100
AcDbText
 73
     2
  0
LINE
  5
12F2C
330
1F
100
AcDbEntity
  8
003
100
AcDbLine
 10
40.00000000000008
 20
546.0
 30
0.0
 11
175.0000000000001
 21
546.0
 31
0.0
  0
LINE
  5
12F2D
330
1F
100
AcDbEntity
  8
003
100
AcDbLine
 10
40.00000000000008
 20
534.0
 30
0.0
 11
175.0000000000001
 21
534.0
 31
0.0
  0
TEXT
  5
12F30
330
1F
100
AcDbEntity
  8
0
100
AcDbText
 10
44.00000000000008
 20
501.0
 30
0.0
 40
6.0
  1
付属品
  7
AT_VECTOR
 11
44.00000000000008
 21
504.0
 31
0.0
100
AcDbText
 73
     2
  0
LINE
  5
12F31
330
1F
100
AcDbEntity
  8
003
100
AcDbLine
 10
40.00000000000008
 20
510.0
 30
0.0
 11
175.0000000000001
 21
510.0
 31
0.0
  0
LINE
  5
12F32
330
1F
100
AcDbEntity
  8
003
100
AcDbLine
 10
40.00000000000008
 20
498.0
 30
0.0
 11
175.0000000000001
 21
498.0
 31
0.0
  0
LINE
  5
12F33
330
1F
100
AcDbEntity
  8
003
100
AcDbLine
 10
40.00000000000008
 20
438.0
 30
0.0
 11
175.0000000000001
 21
438.0
 31
0.0
  0
TEXT
  5
12F34
330
1F
100
AcDbEntity
  8
0
100
AcDbText
 10
44.00000000000008
 20
489.0
 30
0.0
 40
6.0
  1
備考
  7
AT_VECTOR
 11
44.00000000000008
 21
492.0
 31
0.0
100
AcDbText
 73
     2
  0
TEXT
  5
12F35
330
1F
100
AcDbEntity
  8
0
100
AcDbText
 10
44.00000000000008
 20
513.0
 30
0.0
 40
6.0
  1
製品色
  7
AT_VECTOR
 11
44.00000000000008
 21
516.0
 31
0.0
100
AcDbText
 73
     2
  0
LINE
  5
12F36
330
1F
100
AcDbEntity
  8
003
100
AcDbLine
 10
40.00000000000008
 20
522.0
 30
0.0
 11
175.0000000000001
 21
522.0
 31
0.0
  0
TEXT
  5
12F37
330
1F
100
AcDbEntity
  8
0
100
AcDbText
 10
44.00000000000008
 20
525.0
 30
0.0
 40
6.0
  1
ｻｯｼﾒｰｶｰ
  7
AT_VECTOR
 11
44.00000000000008
 21
528.0
 31
0.0
100
AcDbText
 73
     2
  0
LINE
  5
12F38
330
1F
100
AcDbEntity
  8
003
100
AcDbLine
 10
175.0000000000001
 20
558.0
 30
0.0
 11
175.0000000000001
 21
438.0
 31
0.0
  0
LINE
  5
12F39
330
1F
100
AcDbEntity
  8
003
100
AcDbLine
 10
75.00000000000008
 20
558.0
 30
0.0
 11
75.00000000000008
 21
498.0
 31
0.0
  0
TEXT
  5
12F3A
330
1F
100
AcDbEntity
  8
0
100
AcDbText
 10
93.40000000000008
 20
537.0
 30
0.0
 40
6.0
  1
みらんちゃんＤＸ型
  7
AT_VECTOR
 72
     1
 11
125.0000000000001
 21
540.0
 31
0.0
100
AcDbText
 73
     2
  0
TEXT
  5
12F3B
330
1F
100
AcDbEntity
  8
0
100
AcDbText
 10
79.00000000000009
 20
501.0
 30
0.0
 40
6.0
  1
取付金具
  7
AT_VECTOR
 11
79.00000000000009
 21
504.0
 31
0.0
100
AcDbText
 73
     2
  0
TEXT
  5
12F3C
330
1F
100
AcDbEntity
  8
0
100
AcDbText
 10
79.00000000000009
 20
525.0
 30
0.0
 40
6.0
  1
ＹＫＫ
  7
AT_VECTOR
 11
79.00000000000009
 21
528.0
 31
0.0
100
AcDbText
 73
     2
  0
TEXT
  5
12F41
330
1F
100
AcDbEntity
  8
0
100
AcDbText
 10
78.80000000000011
 20
549.0
 30
0.0
 40
6.0
  1
内倒し窓専用自動可変面格子
  7
AT_VECTOR
 72
     1
 11
125.0000000000001
 21
552.0
 31
0.0
100
AcDbText
 73
     2
  0
TEXT
  5
12F42
330
1F
100
AcDbEntity
  8
0
100
AcDbText
 10
194.7479322779402
 20
517.9332677470681
 30
0.0
 40
8.0
  1
※製作範囲
  7
AT_VECTOR
100
AcDbText
  0
TEXT
  5
12F43
330
1F
100
AcDbEntity
  8
0
100
AcDbText
 10
204.4458488650173
 20
502.9332677470679
 30
0.0
 40
8.0
  1
サッシＷ＝２５２～８０２
  7
AT_VECTOR
100
AcDbText
  0
TEXT
  5
12F44
330
1F
100
AcDbEntity
  8
0
100
AcDbText
 10
204.4458488650173
 20
487.9332677470679
 30
0.0
 40
8.0
  1
サッシＨ＝４３５～９６２
  7
AT_VECTOR
100
AcDbText
  0
LINE
  5
12F45
330
1F
100
AcDbEntity
  8
003
100
AcDbLine
 10
199.0212626666846
 20
515.4661076327386
 30
0.0
 11
199.0212626666846
 21
481.708116720541
 31
0.0
  0
LINE
  5
12F46
330
1F
100
AcDbEntity
  8
003
100
AcDbLine
 10
199.0212626666846
 20
481.708116720541
 30
0.0
 11
322.6549025812212
 21
481.708116720541
 31
0.0
  0
LINE
  5
12F47
330
1F
100
AcDbEntity
  8
003
100
AcDbLine
 10
322.6549025812212
 20
481.708116720541
 30
0.0
 11
322.6549025812212
 21
521.4050126380008
 31
0.0
  0
LINE
  5
12F48
330
1F
100
AcDbEntity
  8
003
100
AcDbLine
 10
243.1311383070195
 20
521.4050126380008
 30
0.0
 11
322.6549025812212
 21
521.4050126380008
 31
0.0
  0
DIMENSION
  5
12F49
330
1F
100
AcDbEntity
  8
0
100
AcDbDimension
  2
*D10
 10
482.2846394199674
 20
218.9456628424931
 30
0.0
 11
477.2846394199674
 21
183.9457169584286
 31
0.0
 70
    32
 71
     5
 42
69.99989176812897
  3
DIM
100
AcDbAlignedDimension
 13
426.4327015638968
 23
148.9457710743641
 33
0.0
 14
576.2829835638966
 24
218.945662842493
 34
0.0
 50
90.0
100
AcDbRotatedDimension
  0
DIMENSION
  5
12F4A
330
1F
100
AcDbEntity
  8
0
100
AcDbDimension
  2
*D11
 10
482.2846394199674
 20
276.9456778424928
 30
0.0
 11
477.2846394199674
 21
247.945670342493
 31
0.0
 70
    32
 71
     5
 42
58.00001499999979
  3
DIM
100
AcDbAlignedDimension
 13
576.2829835638966
 23
218.945662842493
 33
0.0
 14
545.2829835638965
 24
276.9456778424928
 34
0.0
 50
90.0
100
AcDbRotatedDimension
  0
LINE
  5
13065
330
1F
100
AcDbEntity
  8
0
100
AcDbLine
 10
426.4327015638968
 20
330.9456501617199
 30
0.0
 11
606.2829835638965
 21
330.9456501617197
 31
0.0
  0
LINE
  5
13066
330
1F
100
AcDbEntity
  8
0
100
AcDbLine
 10
606.2829835638965
 20
330.9456501617197
 30
0.0
 11
606.2829835638965
 21
318.9456501617197
 31
0.0
  0
LINE
  5
13067
330
1F
100
AcDbEntity
  8
0
100
AcDbLine
 10
591.2829835638965
 20
308.9456501617198
 30
0.0
 11
591.2829835638965
 21
233.9456501617198
 31
0.0
  0
LINE
  5
13068
330
1F
100
AcDbEntity
  8
0
100
AcDbLine
 10
623.4529835638961
 20
290.5668461519304
 30
0.0
 11
591.2829835638965
 21
258.3968461519301
 31
0.0
  0
LINE
  5
13069
330
1F
100
AcDbEntity
  8
0
100
AcDbLine
 10
623.4529835638961
 20
293.3868461519302
 30
0.0
 11
591.2829835638965
 21
261.2168461519301
 31
0.0
  0
LINE
  5
1306A
330
1F
100
AcDbEntity
  8
0
100
AcDbLine
 10
623.4529835638961
 20
296.2068461519304
 30
0.0
 11
591.2829835638965
 21
264.0368461519301
 31
0.0
  0
LINE
  5
1306B
330
1F
100
AcDbEntity
  8
0
100
AcDbLine
 10
601.2829835638966
 20
318.9456501617197
 30
0.0
 11
619.3329835638962
 21
318.9456501617197
 31
0.0
  0
LINE
  5
1306C
330
1F
100
AcDbEntity
  8
0
100
AcDbLine
 10
601.2829835638966
 20
318.9456501617197
 30
0.0
 11
591.2829835638965
 21
308.9456501617198
 31
0.0
  0
LINE
  5
1306D
330
1F
100
AcDbEntity
  8
0
100
AcDbLine
 10
619.3329835638962
 20
318.9456501617197
 30
0.0
 11
623.4529835638961
 21
318.9456501617197
 31
0.0
  0
LINE
  5
1306E
330
1F
100
AcDbEntity
  8
0
100
AcDbLine
 10
591.2829835638965
 20
233.9456501617198
 30
0.0
 11
623.4529835638961
 21
233.9456501617198
 31
0.0
  0
LINE
  5
1306F
330
1F
100
AcDbEntity
  8
0
100
AcDbLine
 10
592.2829835638965
 20
232.9456501617198
 30
0.0
 11
592.2829835638965
 21
219.9456501617195
 31
0.0
  0
LINE
  5
13070
330
1F
100
AcDbEntity
  8
0
100
AcDbLine
 10
592.2829835638965
 20
223.6172230369736
 30
0.0
 11
601.2829835638966
 21
232.6172230369734
 31
0.0
  0
LINE
  5
13071
330
1F
100
AcDbEntity
  8
0
100
AcDbLine
 10
592.2829835638965
 20
226.4456501617196
 30
0.0
 11
599.7829835638965
 21
233.9456501617195
 31
0.0
  0
LINE
  5
13072
330
1F
100
AcDbEntity
  8
0
100
AcDbLine
 10
592.2829835638965
 20
229.2740772864658
 30
0.0
 11
596.9545564391506
 21
233.9456501617195
 31
0.0
  0
LINE
  5
13073
330
1F
100
AcDbEntity
  8
0
100
AcDbLine
 10
596.0966920628814
 20
233.9456501617198
 30
0.0
 11
601.2829835638966
 21
228.7593586607046
 31
0.0
  0
LINE
  5
13074
330
1F
100
AcDbEntity
  8
0
100
AcDbLine
 10
593.2682649381349
 20
233.9456501617198
 30
0.0
 11
601.2829835638966
 21
225.9309315359584
 31
0.0
  0
LINE
  5
13075
330
1F
100
AcDbEntity
  8
0
100
AcDbLine
 10
592.2829835638965
 20
232.102504411212
 30
0.0
 11
601.2829835638966
 21
223.1025044112122
 31
0.0
  0
LINE
  5
13076
330
1F
100
AcDbEntity
  8
0
100
AcDbLine
 10
592.2829835638965
 20
232.102504411212
 30
0.0
 11
594.1261293144044
 21
233.9456501617195
 31
0.0
  0
LINE
  5
13077
330
1F
100
AcDbEntity
  8
0
100
AcDbLine
 10
598.9251191876276
 20
233.9456501617198
 30
0.0
 11
601.2829835638966
 21
231.5877857854509
 31
0.0
  0
LINE
  5
13078
330
1F
100
AcDbEntity
  8
0
100
AcDbLine
 10
592.2829835638965
 20
232.9456501617198
 30
0.0
 11
591.2829835638965
 21
233.9456501617198
 31
0.0
  0
LINE
  5
13079
330
1F
100
AcDbEntity
  8
0
100
AcDbLine
 10
592.2829835638965
 20
220.7887959122273
 30
0.0
 11
601.2829835638966
 21
229.7887959122271
 31
0.0
  0
LINE
  5
1307A
330
1F
100
AcDbEntity
  8
0
100
AcDbLine
 10
592.2829835638965
 20
229.2740772864658
 30
0.0
 11
601.2829835638966
 21
220.274077286466
 31
0.0
  0
LINE
  5
1307B
330
1F
100
AcDbEntity
  8
0
100
AcDbLine
 10
592.2829835638965
 20
219.9456501617195
 30
0.0
 11
591.2829835638965
 21
218.9456501617198
 31
0.0
  0
LINE
  5
1307C
330
1F
100
AcDbEntity
  8
0
100
AcDbLine
 10
598.9251191876276
 20
218.9456501617196
 30
0.0
 11
601.2829835638966
 21
221.3035145379885
 31
0.0
  0
LINE
  5
1307D
330
1F
100
AcDbEntity
  8
0
100
AcDbLine
 10
593.2682649381349
 20
218.9456501617196
 30
0.0
 11
601.2829835638966
 21
226.9603687874809
 31
0.0
  0
LINE
  5
1307E
330
1F
100
AcDbEntity
  8
0
100
AcDbLine
 10
596.0966920628814
 20
218.9456501617196
 30
0.0
 11
601.2829835638966
 21
224.1319416627347
 31
0.0
  0
LINE
  5
1307F
330
1F
100
AcDbEntity
  8
0
100
AcDbLine
 10
592.2829835638965
 20
223.6172230369736
 30
0.0
 11
596.9545564391506
 21
218.9456501617198
 31
0.0
  0
LINE
  5
13080
330
1F
100
AcDbEntity
  8
0
100
AcDbLine
 10
592.2829835638965
 20
220.7887959122273
 30
0.0
 11
594.1261293144044
 21
218.9456501617198
 31
0.0
  0
LINE
  5
13081
330
1F
100
AcDbEntity
  8
0
100
AcDbLine
 10
592.2829835638965
 20
226.4456501617198
 30
0.0
 11
599.7829835638965
 21
218.9456501617198
 31
0.0
  0
LINE
  5
13176
330
1F
100
AcDbEntity
  8
007
100
AcDbLine
 10
603.1329895638966
 20
153.3355234148662
 30
0.0
 11
603.1329895638966
 21
213.3355234148663
 31
0.0
  0
LINE
  5
13177
330
1F
100
AcDbEntity
  8
007
100
AcDbLine
 10
601.1329895638965
 20
160.3855234148662
 30
0.0
 11
601.1329895638965
 21
207.3055234148663
 31
0.0
  0
LINE
  5
13178
330
1F
100
AcDbEntity
  8
007
100
AcDbLine
 10
603.1329895638966
 20
153.3355234148662
 30
0.0
 11
603.1329895638966
 21
213.3355234148663
 31
0.0
  0
LINE
  5
1317A
330
1F
100
AcDbEntity
  8
007
100
AcDbLine
 10
601.1329895638965
 20
160.3855234148662
 30
0.0
 11
597.6329895638965
 21
158.3655234148662
 31
0.0
  0
LINE
  5
1317B
330
1F
100
AcDbEntity
  8
007
100
AcDbLine
 10
599.6329895638965
 20
153.3355234148662
 30
0.0
 11
597.6329895638965
 21
153.3355234148662
 31
0.0
  0
LINE
  5
13188
330
1F
100
AcDbEntity
  8
007
100
AcDbLine
 10
597.6329895638965
 20
153.3355234148662
 30
0.0
 11
597.6329895638965
 21
158.3655234148662
 31
0.0
  0
LINE
  5
1318B
330
1F
100
AcDbEntity
  8
007
100
AcDbLine
 10
599.6329895638965
 20
157.3355234148662
 30
0.0
 11
599.6329895638965
 21
157.9055234148661
 31
0.0
  0
LINE
  5
1318C
330
1F
100
AcDbEntity
  8
007
100
AcDbLine
 10
601.1329895638965
 20
157.3355234148662
 30
0.0
 11
601.1329895638965
 21
158.7755234148663
 31
0.0
  0
LINE
  5
1318D
330
1F
100
AcDbEntity
  8
007
100
AcDbLine
 10
601.1329895638965
 20
158.7755234148663
 30
0.0
 11
599.6329895638965
 21
157.9055234148661
 31
0.0
  0
LINE
  5
13190
330
1F
100
AcDbEntity
  8
007
100
AcDbLine
 10
603.1329895638966
 20
153.3355234148662
 30
0.0
 11
601.1329895638965
 21
153.3355234148662
 31
0.0
  0
LINE
  5
131A1
330
1F
100
AcDbEntity
  8
007
100
AcDbLine
 10
612.1329895638965
 20
173.3355234148662
 30
0.0
 11
612.1329895638965
 21
193.3355234148662
 31
0.0
  0
LINE
  5
131A2
330
1F
100
AcDbEntity
  8
007
100
AcDbLine
 10
618.4629895638964
 20
178.8355234148662
 30
0.0
 11
603.1329895638966
 21
178.8355234148662
 31
0.0
  0
LINE
  5
131A3
330
1F
100
AcDbEntity
  8
007
100
AcDbLine
 10
612.1329895638965
 20
173.3355234148662
 30
0.0
 11
603.1329895638966
 21
173.3355234148662
 31
0.0
  0
LINE
  5
131A4
330
1F
100
AcDbEntity
  8
007
100
AcDbLine
 10
618.4629895638964
 20
187.8355234148662
 30
0.0
 11
603.1329895638966
 21
187.8355234148662
 31
0.0
  0
LINE
  5
131A5
330
1F
100
AcDbEntity
  8
007
100
AcDbLine
 10
612.1329895638965
 20
193.3355234148662
 30
0.0
 11
603.1329895638966
 21
193.3355234148662
 31
0.0
  0
LINE
  5
131A8
330
1F
100
AcDbEntity
  8
007
100
AcDbLine
 10
601.1329895638965
 20
207.3055234148663
 30
0.0
 11
597.6329895638965
 21
209.3255234148662
 31
0.0
  0
LINE
  5
131A9
330
1F
100
AcDbEntity
  8
007
100
AcDbLine
 10
599.6329895638965
 20
213.3355234148663
 30
0.0
 11
597.6329895638965
 21
213.3355234148663
 31
0.0
  0
LINE
  5
131AD
330
1F
100
AcDbEntity
  8
007
100
AcDbLine
 10
597.6329895638965
 20
209.3255234148662
 30
0.0
 11
597.6329895638965
 21
213.3355234148663
 31
0.0
  0
LINE
  5
131B0
330
1F
100
AcDbEntity
  8
007
100
AcDbLine
 10
601.1329895638965
 20
208.8355234148662
 30
0.0
 11
601.1329895638965
 21
210.3355234148662
 31
0.0
  0
LINE
  5
131B1
330
1F
100
AcDbEntity
  8
007
100
AcDbLine
 10
601.1329895638965
 20
208.8355234148662
 30
0.0
 11
599.6329895638965
 21
209.7055234148661
 31
0.0
  0
LINE
  5
131B2
330
1F
100
AcDbEntity
  8
007
100
AcDbLine
 10
599.6329895638965
 20
209.7055234148661
 30
0.0
 11
599.6329895638965
 21
210.3355234148662
 31
0.0
  0
LINE
  5
131B3
330
1F
100
AcDbEntity
  8
007
100
AcDbLine
 10
603.1329895638966
 20
213.3355234148663
 30
0.0
 11
601.1329895638965
 21
213.3355234148663
 31
0.0
  0
LINE
  5
13200
330
1F
100
AcDbEntity
  8
0
100
AcDbLine
 10
421.1329835638962
 20
330.9456501617199
 30
0.0
 11
241.2827015638966
 21
330.9456501617197
 31
0.0
  0
LINE
  5
13201
330
1F
100
AcDbEntity
  8
0
100
AcDbLine
 10
241.2827015638966
 20
330.9456501617197
 30
0.0
 11
241.2827015638966
 21
318.9456501617197
 31
0.0
  0
LINE
  5
13202
330
1F
100
AcDbEntity
  8
0
100
AcDbLine
 10
256.2827015638966
 20
308.9456501617198
 30
0.0
 11
256.2827015638966
 21
233.9456501617198
 31
0.0
  0
LINE
  5
13203
330
1F
100
AcDbEntity
  8
0
100
AcDbLine
 10
246.2827015638966
 20
318.9456501617197
 30
0.0
 11
228.2327015638969
 21
318.9456501617197
 31
0.0
  0
LINE
  5
13204
330
1F
100
AcDbEntity
  8
0
100
AcDbLine
 10
246.2827015638966
 20
318.9456501617197
 30
0.0
 11
256.2827015638966
 21
308.9456501617198
 31
0.0
  0
LINE
  5
13205
330
1F
100
AcDbEntity
  8
0
100
AcDbLine
 10
228.2327015638969
 20
318.9456501617197
 30
0.0
 11
224.112701563897
 21
318.9456501617197
 31
0.0
  0
LINE
  5
13206
330
1F
100
AcDbEntity
  8
0
100
AcDbLine
 10
256.2827015638966
 20
233.9456501617198
 30
0.0
 11
224.112701563897
 21
233.9456501617198
 31
0.0
  0
LINE
  5
13207
330
1F
100
AcDbEntity
  8
0
100
AcDbLine
 10
255.2827015638966
 20
232.9456501617198
 30
0.0
 11
255.2827015638966
 21
219.9456501617195
 31
0.0
  0
LINE
  5
13208
330
1F
100
AcDbEntity
  8
0
100
AcDbLine
 10
255.2827015638966
 20
223.6172230369736
 30
0.0
 11
246.2827015638966
 21
232.6172230369734
 31
0.0
  0
LINE
  5
13209
330
1F
100
AcDbEntity
  8
0
100
AcDbLine
 10
255.2827015638966
 20
226.4456501617196
 30
0.0
 11
247.7827015638966
 21
233.9456501617195
 31
0.0
  0
LINE
  5
1320A
330
1F
100
AcDbEntity
  8
0
100
AcDbLine
 10
255.2827015638966
 20
229.2740772864658
 30
0.0
 11
250.6111286886426
 21
233.9456501617195
 31
0.0
  0
LINE
  5
1320B
330
1F
100
AcDbEntity
  8
0
100
AcDbLine
 10
251.4689930649117
 20
233.9456501617198
 30
0.0
 11
246.2827015638966
 21
228.7593586607046
 31
0.0
  0
LINE
  5
1320C
330
1F
100
AcDbEntity
  8
0
100
AcDbLine
 10
254.2974201896582
 20
233.9456501617198
 30
0.0
 11
246.2827015638966
 21
225.9309315359584
 31
0.0
  0
LINE
  5
1320D
330
1F
100
AcDbEntity
  8
0
100
AcDbLine
 10
255.2827015638966
 20
232.102504411212
 30
0.0
 11
246.2827015638966
 21
223.1025044112122
 31
0.0
  0
LINE
  5
1320E
330
1F
100
AcDbEntity
  8
0
100
AcDbLine
 10
255.2827015638966
 20
232.102504411212
 30
0.0
 11
253.4395558133888
 21
233.9456501617195
 31
0.0
  0
LINE
  5
1320F
330
1F
100
AcDbEntity
  8
0
100
AcDbLine
 10
248.6405659401655
 20
233.9456501617198
 30
0.0
 11
246.2827015638966
 21
231.5877857854509
 31
0.0
  0
LINE
  5
13210
330
1F
100
AcDbEntity
  8
0
100
AcDbLine
 10
255.2827015638966
 20
232.9456501617198
 30
0.0
 11
256.2827015638966
 21
233.9456501617198
 31
0.0
  0
LINE
  5
13211
330
1F
100
AcDbEntity
  8
0
100
AcDbLine
 10
255.2827015638966
 20
220.7887959122273
 30
0.0
 11
246.2827015638966
 21
229.7887959122271
 31
0.0
  0
LINE
  5
13212
330
1F
100
AcDbEntity
  8
0
100
AcDbLine
 10
255.2827015638966
 20
229.2740772864658
 30
0.0
 11
246.2827015638966
 21
220.274077286466
 31
0.0
  0
LINE
  5
13213
330
1F
100
AcDbEntity
  8
0
100
AcDbLine
 10
255.2827015638966
 20
219.9456501617195
 30
0.0
 11
256.2827015638966
 21
218.9456501617198
 31
0.0
  0
LINE
  5
13214
330
1F
100
AcDbEntity
  8
0
100
AcDbLine
 10
248.6405659401655
 20
218.9456501617196
 30
0.0
 11
246.2827015638966
 21
221.3035145379885
 31
0.0
  0
LINE
  5
13215
330
1F
100
AcDbEntity
  8
0
100
AcDbLine
 10
254.2974201896582
 20
218.9456501617196
 30
0.0
 11
246.2827015638966
 21
226.9603687874809
 31
0.0
  0
LINE
  5
13216
330
1F
100
AcDbEntity
  8
0
100
AcDbLine
 10
251.4689930649117
 20
218.9456501617196
 30
0.0
 11
246.2827015638966
 21
224.1319416627347
 31
0.0
  0
LINE
  5
13217
330
1F
100
AcDbEntity
  8
0
100
AcDbLine
 10
255.2827015638966
 20
223.6172230369736
 30
0.0
 11
250.6111286886426
 21
218.9456501617198
 31
0.0
  0
LINE
  5
13218
330
1F
100
AcDbEntity
  8
0
100
AcDbLine
 10
255.2827015638966
 20
220.7887959122273
 30
0.0
 11
253.4395558133888
 21
218.9456501617198
 31
0.0
  0
LINE
  5
13219
330
1F
100
AcDbEntity
  8
0
100
AcDbLine
 10
255.2827015638966
 20
226.4456501617198
 30
0.0
 11
247.7827015638966
 21
218.9456501617198
 31
0.0
  0
LINE
  5
1321A
330
1F
100
AcDbEntity
  8
007
100
AcDbLine
 10
244.4326955638966
 20
153.3355234148662
 30
0.0
 11
244.4326955638966
 21
193.5989035253344
 31
0.0
  0
LINE
  5
1321B
330
1F
100
AcDbEntity
  8
007
100
AcDbLine
 10
246.4326955638966
 20
160.3855234148662
 30
0.0
 11
246.4326955638966
 21
193.5989035253344
 31
0.0
  0
LINE
  5
1321C
330
1F
100
AcDbEntity
  8
007
100
AcDbLine
 10
244.4326955638966
 20
153.3355234148662
 30
0.0
 11
244.4326955638966
 21
193.5989035253344
 31
0.0
  0
LINE
  5
1321D
330
1F
100
AcDbEntity
  8
007
100
AcDbLine
 10
246.4326955638966
 20
160.3855234148662
 30
0.0
 11
249.9326955638966
 21
158.3655234148662
 31
0.0
  0
LINE
  5
1321E
330
1F
100
AcDbEntity
  8
007
100
AcDbLine
 10
247.9326955638966
 20
153.3355234148662
 30
0.0
 11
249.9326955638966
 21
153.3355234148662
 31
0.0
  0
LINE
  5
1321F
330
1F
100
AcDbEntity
  8
007
100
AcDbLine
 10
249.9326955638966
 20
153.3355234148662
 30
0.0
 11
249.9326955638966
 21
158.3655234148662
 31
0.0
  0
LINE
  5
13220
330
1F
100
AcDbEntity
  8
007
100
AcDbLine
 10
247.9326955638966
 20
157.3355234148662
 30
0.0
 11
247.9326955638966
 21
157.9055234148661
 31
0.0
  0
LINE
  5
13221
330
1F
100
AcDbEntity
  8
007
100
AcDbLine
 10
246.4326955638966
 20
157.3355234148662
 30
0.0
 11
246.4326955638966
 21
158.7755234148663
 31
0.0
  0
LINE
  5
13222
330
1F
100
AcDbEntity
  8
007
100
AcDbLine
 10
246.4326955638966
 20
158.7755234148663
 30
0.0
 11
247.9326955638966
 21
157.9055234148661
 31
0.0
  0
LINE
  5
13223
330
1F
100
AcDbEntity
  8
007
100
AcDbLine
 10
244.4326955638966
 20
153.3355234148662
 30
0.0
 11
246.4326955638966
 21
153.3355234148662
 31
0.0
  0
LINE
  5
13224
330
1F
100
AcDbEntity
  8
007
100
AcDbLine
 10
235.4326955638966
 20
173.3355234148662
 30
0.0
 11
235.4326955638966
 21
193.3355234148662
 31
0.0
  0
LINE
  5
13225
330
1F
100
AcDbEntity
  8
007
100
AcDbLine
 10
229.1026955638967
 20
178.8355234148662
 30
0.0
 11
244.4326955638966
 21
178.8355234148662
 31
0.0
  0
LINE
  5
13226
330
1F
100
AcDbEntity
  8
007
100
AcDbLine
 10
235.4326955638966
 20
173.3355234148662
 30
0.0
 11
244.4326955638966
 21
173.3355234148662
 31
0.0
  0
LINE
  5
13227
330
1F
100
AcDbEntity
  8
007
100
AcDbLine
 10
229.1026955638967
 20
187.8355234148662
 30
0.0
 11
244.4326955638966
 21
187.8355234148662
 31
0.0
  0
LINE
  5
13228
330
1F
100
AcDbEntity
  8
007
100
AcDbLine
 10
235.4326955638966
 20
193.3355234148662
 30
0.0
 11
244.4326955638966
 21
193.3355234148662
 31
0.0
  0
LINE
  5
13229
330
1F
100
AcDbEntity
  8
007
100
AcDbLine
 10
246.4326955638966
 20
207.3055234148663
 30
0.0
 11
249.9326955638966
 21
209.3255234148662
 31
0.0
  0
LINE
  5
1322A
330
1F
100
AcDbEntity
  8
007
100
AcDbLine
 10
247.9326955638966
 20
213.3355234148663
 30
0.0
 11
249.9326955638966
 21
213.3355234148663
 31
0.0
  0
LINE
  5
1322B
330
1F
100
AcDbEntity
  8
007
100
AcDbLine
 10
249.9326955638966
 20
209.3255234148662
 30
0.0
 11
249.9326955638966
 21
213.3355234148663
 31
0.0
  0
LINE
  5
1322C
330
1F
100
AcDbEntity
  8
007
100
AcDbLine
 10
246.4326955638966
 20
208.8355234148662
 30
0.0
 11
246.4326955638966
 21
210.3355234148662
 31
0.0
  0
LINE
  5
1322D
330
1F
100
AcDbEntity
  8
007
100
AcDbLine
 10
246.4326955638966
 20
208.8355234148662
 30
0.0
 11
247.9326955638966
 21
209.7055234148661
 31
0.0
  0
LINE
  5
1322E
330
1F
100
AcDbEntity
  8
007
100
AcDbLine
 10
247.9326955638966
 20
209.7055234148661
 30
0.0
 11
247.9326955638966
 21
210.3355234148662
 31
0.0
  0
LINE
  5
1322F
330
1F
100
AcDbEntity
  8
007
100
AcDbLine
 10
244.4326955638966
 20
213.3355234148663
 30
0.0
 11
246.4326955638966
 21
213.3355234148663
 31
0.0
  0
LINE
  5
13257
330
1F
100
AcDbEntity
  8
007
100
AcDbLine
 10
244.4326955638966
 20
204.8001048979873
 30
0.0
 11
244.4326955638966
 21
213.3355234148663
 31
0.0
  0
LINE
  5
13258
330
1F
100
AcDbEntity
  8
007
100
AcDbLine
 10
246.4326955638966
 20
204.8001048979873
 30
0.0
 11
246.4326955638966
 21
207.3055234148663
 31
0.0
  0
LINE
  5
13259
330
1F
100
AcDbEntity
  8
007
100
AcDbLine
 10
244.4326955638966
 20
204.8001048979873
 30
0.0
 11
244.4326955638966
 21
213.3355234148663
 31
0.0
  0
LINE
  5
1325A
330
1F
100
AcDbEntity
  8
0
100
AcDbLine
 10
256.2827015638966
 20
286.8341360924638
 30
0.0
 11
224.112701563897
 21
254.6641360924637
 31
0.0
  0
LINE
  5
1325B
330
1F
100
AcDbEntity
  8
0
100
AcDbLine
 10
256.2827015638966
 20
289.6541360924635
 30
0.0
 11
224.112701563897
 21
257.4841360924636
 31
0.0
  0
LINE
  5
1325C
330
1F
100
AcDbEntity
  8
0
100
AcDbLine
 10
256.2827015638966
 20
292.4741360924637
 30
0.0
 11
224.112701563897
 21
260.3041360924635
 31
0.0
  0
LINE
  5
13443
330
1F
100
AcDbEntity
  8
003
100
AcDbLine
 10
456.5069899992614
 20
85.65864961868513
 30
0.0
 11
536.5069899992609
 21
85.65864961868513
 31
0.0
  0
LINE
  5
13444
330
1F
100
AcDbEntity
  8
003
100
AcDbLine
 10
456.5069899992614
 20
98.9919829520184
 30
0.0
 11
536.5069899992613
 21
98.9919829520184
 31
0.0
  0
LINE
  5
13445
330
1F
100
AcDbEntity
  8
003
100
AcDbLine
 10
456.5069899992614
 20
85.65864961868513
 30
0.0
 11
456.5069899992614
 21
98.9919829520184
 31
0.0
  0
TEXT
  5
13446
330
1F
100
AcDbEntity
  8
0
100
AcDbText
 10
478.6403233325946
 20
88.32531628535164
 30
0.0
 40
7.999999999999998
  1
横断面図
  7
AT_VECTOR
 72
     1
 11
496.5069899992613
 21
92.32531628535165
 31
0.0
100
AcDbText
 73
     2
  0
LINE
  5
13447
330
1F
100
AcDbEntity
  8
003
100
AcDbLine
 10
536.5069899992609
 20
85.65864961868513
 30
0.0
 11
536.5069899992613
 21
98.9919829520184
 31
0.0
  0
LINE
  5
13448
330
1F
100
AcDbEntity
  8
003
100
AcDbLine
 10
438.7828425638965
 20
107.7922871470693
 30
0.0
 11
438.7828425638965
 21
98.79228714706929
 31
0.0
  0
TEXT
  5
13449
330
1F
100
AcDbEntity
  8
0
100
AcDbText
 10
413.5828425638965
 20
100.2922871470693
 30
0.0
 40
6.0
  1
内　部
  7
AT_VECTOR
 72
     1
 11
423.7828425638965
 21
103.2922871470693
 31
0.0
100
AcDbText
 73
     2
  0
LINE
  5
1344A
330
1F
100
AcDbEntity
  8
003
100
AcDbLine
 10
408.7828425638965
 20
107.7922871470693
 30
0.0
 11
408.7828425638965
 21
98.79228714706929
 31
0.0
  0
LINE
  5
1344B
330
1F
100
AcDbEntity
  8
003
100
AcDbLine
 10
408.7828425638965
 20
98.79228714706929
 30
0.0
 11
438.7828425638965
 21
98.79228714706929
 31
0.0
  0
LINE
  5
1344C
330
1F
100
AcDbEntity
  8
003
100
AcDbLine
 10
408.7828425638965
 20
107.7922871470693
 30
0.0
 11
438.7828425638965
 21
107.7922871470693
 31
0.0
  0
TEXT
  5
1344D
330
1F
100
AcDbEntity
  8
0
100
AcDbText
 10
413.7828425638965
 20
340.2234797262994
 30
0.0
 40
6.0
  1
外　部
  7
AT_VECTOR
 72
     1
 11
423.7828425638965
 21
343.2234797262994
 31
0.0
100
AcDbText
 73
     2
  0
LINE
  5
1344E
330
1F
100
AcDbEntity
  8
003
100
AcDbLine
 10
408.7828425638965
 20
347.7234797262994
 30
0.0
 11
438.7828425638965
 21
347.7234797262994
 31
0.0
  0
LINE
  5
1344F
330
1F
100
AcDbEntity
  8
003
100
AcDbLine
 10
408.7828425638965
 20
338.7234797262994
 30
0.0
 11
438.7828425638965
 21
338.7234797262994
 31
0.0
  0
LINE
  5
13450
330
1F
100
AcDbEntity
  8
003
100
AcDbLine
 10
408.7828425638965
 20
347.7234797262994
 30
0.0
 11
408.7828425638965
 21
338.7234797262994
 31
0.0
  0
LINE
  5
13451
330
1F
100
AcDbEntity
  8
003
100
AcDbLine
 10
438.7828425638965
 20
347.7234797262994
 30
0.0
 11
438.7828425638965
 21
338.7234797262994
 31
0.0
  0
LINE
  5
134D0
330
1F
100
AcDbEntity
  8
003
100
AcDbLine
 10
656.462636716727
 20
424.4287087893135
 30
0.0
 11
564.9525842401181
 21
424.4287087893135
 31
0.0
  0
LINE
  5
134D1
330
1F
100
AcDbEntity
  8
003
100
AcDbLine
 10
656.462636716727
 20
421.7287087895833
 30
0.0
 11
564.9525842401181
 21
421.7287087895833
 31
0.0
  0
LINE
  5
134D2
330
1F
100
AcDbEntity
  8
003
100
AcDbLine
 10
656.462636716727
 20
420.5287087897035
 30
0.0
 11
564.9525842401181
 21
420.5287087897036
 31
0.0
  0
LINE
  5
134D3
330
1F
100
AcDbEntity
  8
003
100
AcDbLine
 10
656.462636716727
 20
427.4287087890135
 30
0.0
 11
564.9525842401181
 21
427.4287087890135
 31
0.0
  0
LINE
  5
134EA
330
1F
100
AcDbEntity
  8
003
100
AcDbLine
 10
635.2376367197495
 20
421.9037087895161
 30
0.0
 11
626.2376367197496
 21
421.9037087895161
 31
0.0
  0
LINE
  5
134EB
330
1F
100
AcDbEntity
  8
003
100
AcDbLine
 10
626.2376367197496
 20
424.253708789381
 30
0.0
 11
635.2376367197495
 21
424.253708789381
 31
0.0
  0
LINE
  5
134F6
330
1F
100
AcDbEntity
  8
003
100
AcDbLine
 10
624.5312367199201
 20
422.5218337895044
 30
0.0
 11
624.5312367199201
 21
423.6355837893928
 31
0.0
  0
ARC
  5
134F7
330
1F
100
AcDbEntity
  8
003
100
AcDbCircle
 10
624.5994539074131
 20
423.0787087894486
 30
0.0
 40
0.9592171874040412
100
AcDbArc
 50
144.5106567499019
 51
215.4893432501173
  0
LINE
  5
134F8
330
1F
100
AcDbEntity
  8
003
100
AcDbLine
 10
624.7094367199022
 20
422.5218337895044
 30
0.0
 11
623.8184367199913
 21
422.5218337895044
 31
0.0
  0
LINE
  5
134F9
330
1F
100
AcDbEntity
  8
003
100
AcDbLine
 10
624.7094367199022
 20
422.5218337895044
 30
0.0
 11
624.7094367199022
 21
423.6355837893928
 31
0.0
  0
LINE
  5
134FA
330
1F
100
AcDbEntity
  8
003
100
AcDbLine
 10
624.7094367199022
 20
423.6355837893929
 30
0.0
 11
623.8184367199913
 21
423.6355837893929
 31
0.0
  0
LINE
  5
134FB
330
1F
100
AcDbEntity
  8
003
100
AcDbLine
 10
596.7057842369427
 20
423.6355837893929
 30
0.0
 11
597.5967842368535
 21
423.6355837893929
 31
0.0
  0
LINE
  5
134FC
330
1F
100
AcDbEntity
  8
003
100
AcDbLine
 10
596.7057842369427
 20
422.5218337895045
 30
0.0
 11
596.7057842369427
 21
423.6355837893929
 31
0.0
  0
LINE
  5
134FD
330
1F
100
AcDbEntity
  8
003
100
AcDbLine
 10
596.7057842369427
 20
422.5218337895044
 30
0.0
 11
597.5967842368535
 21
422.5218337895044
 31
0.0
  0
ARC
  5
134FE
330
1F
100
AcDbEntity
  8
003
100
AcDbCircle
 10
596.8157670494319
 20
423.0787087894486
 30
0.0
 40
0.9592171874040412
100
AcDbArc
 50
324.5106567498825
 51
35.48934325009801
  0
LINE
  5
134FF
330
1F
100
AcDbEntity
  8
003
100
AcDbLine
 10
596.8839842369249
 20
422.5218337895045
 30
0.0
 11
596.8839842369249
 21
423.6355837893929
 31
0.0
  0
LINE
  5
15D53
330
1F
100
AcDbEntity
  8
003
100
AcDbLine
 10
656.462636716727
 20
531.8281063554819
 30
0.0
 11
564.9525842401181
 21
531.828106355482
 31
0.0
  0
LINE
  5
15D54
330
1F
100
AcDbEntity
  8
003
100
AcDbLine
 10
656.462636716727
 20
530.628106355482
 30
0.0
 11
564.9525842401181
 21
530.628106355482
 31
0.0
  0
LINE
  5
15D55
330
1F
100
AcDbEntity
  8
003
100
AcDbLine
 10
656.462636716727
 20
527.928106355482
 30
0.0
 11
564.9525842401181
 21
527.928106355482
 31
0.0
  0
LINE
  5
15D56
330
1F
100
AcDbEntity
  8
003
100
AcDbLine
 10
656.462636716727
 20
524.9281063554819
 30
0.0
 11
564.9525842401181
 21
524.928106355482
 31
0.0
  0
LINE
  5
15D5B
330
1F
100
AcDbEntity
  8
003
100
AcDbLine
 10
564.9525842401181
 20
420.5287087897036
 30
0.0
 11
564.9525842401181
 21
531.828106355482
 31
0.0
  0
LINE
  5
15D5C
330
1F
100
AcDbEntity
  8
003
100
AcDbLine
 10
573.9525842401181
 20
427.4287087890135
 30
0.0
 11
573.9525842401181
 21
524.928106355482
 31
0.0
  0
LINE
  5
15D5D
330
1F
100
AcDbEntity
  8
003
100
AcDbLine
 10
656.462636716727
 20
420.5287087897035
 30
0.0
 11
656.462636716727
 21
531.828106355482
 31
0.0
  0
LINE
  5
15D5E
330
1F
100
AcDbEntity
  8
003
100
AcDbLine
 10
647.462636716727
 20
427.4287087890135
 30
0.0
 11
647.462636716727
 21
524.928106355482
 31
0.0
  0
LINE
  5
15D5F
330
1F
100
AcDbEntity
  8
003
100
AcDbLine
 10
573.9525842401181
 20
471.2284075722477
 30
0.0
 11
647.462636716727
 21
471.2284075722477
 31
0.0
  0
LINE
  5
15D60
330
1F
100
AcDbEntity
  8
003
100
AcDbLine
 10
573.9525842401181
 20
481.1284075722478
 30
0.0
 11
647.462636716727
 21
481.1284075722478
 31
0.0
  0
LINE
  5
15D61
330
1F
100
AcDbEntity
  8
003
100
AcDbLine
 10
573.9525842401181
 20
500.9284075722478
 30
0.0
 11
647.462636716727
 21
500.9284075722478
 31
0.0
  0
LINE
  5
15D62
330
1F
100
AcDbEntity
  8
003
100
AcDbLine
 10
573.9525842401181
 20
510.8284075722479
 30
0.0
 11
647.462636716727
 21
510.8284075722479
 31
0.0
  0
LINE
  5
15D63
330
1F
100
AcDbEntity
  8
003
100
AcDbLine
 10
573.9525842401181
 20
520.7284075722477
 30
0.0
 11
647.462636716727
 21
520.7284075722477
 31
0.0
  0
LINE
  5
15D64
330
1F
100
AcDbEntity
  8
003
100
AcDbLine
 10
573.9525842401181
 20
441.5284075722478
 30
0.0
 11
647.462636716727
 21
441.5284075722478
 31
0.0
  0
LINE
  5
15D65
330
1F
100
AcDbEntity
  8
003
100
AcDbLine
 10
573.9525842401181
 20
451.4284075722478
 30
0.0
 11
647.462636716727
 21
451.4284075722478
 31
0.0
  0
LINE
  5
15D66
330
1F
100
AcDbEntity
  8
003
100
AcDbLine
 10
573.9525842401181
 20
461.3284075722478
 30
0.0
 11
647.462636716727
 21
461.3284075722478
 31
0.0
  0
LINE
  5
15D67
330
1F
100
AcDbEntity
  8
003
100
AcDbLine
 10
573.9525842401181
 20
431.6284075722478
 30
0.0
 11
647.462636716727
 21
431.6284075722478
 31
0.0
  0
LINE
  5
15D71
330
1F
100
AcDbEntity
  8
003
100
AcDbLine
 10
579.9525842251181
 20
534.8281063524821
 30
0.0
 11
591.9525842131181
 21
534.8281063524821
 31
0.0
  0
LINE
  5
15D72
330
1F
100
AcDbEntity
  8
003
100
AcDbLine
 10
579.9525842251181
 20
531.828106355482
 30
0.0
 11
579.9525842251181
 21
534.8281063524821
 31
0.0
  0
LINE
  5
15D73
330
1F
100
AcDbEntity
  8
003
100
AcDbLine
 10
591.9525842131181
 20
531.828106355482
 30
0.0
 11
591.9525842131181
 21
534.8281063524821
 31
0.0
  0
LINE
  5
15D74
330
1F
100
AcDbEntity
  8
003
100
AcDbLine
 10
641.462636731727
 20
534.8281063524821
 30
0.0
 11
629.4626367437269
 21
534.8281063524821
 31
0.0
  0
LINE
  5
15D75
330
1F
100
AcDbEntity
  8
003
100
AcDbLine
 10
641.462636731727
 20
531.828106355482
 30
0.0
 11
641.462636731727
 21
534.8281063524821
 31
0.0
  0
LINE
  5
15D76
330
1F
100
AcDbEntity
  8
003
100
AcDbLine
 10
629.4626367437269
 20
531.828106355482
 30
0.0
 11
629.4626367437269
 21
534.8281063524821
 31
0.0
  0
LINE
  5
15D77
330
1F
100
AcDbEntity
  8
003
100
AcDbLine
 10
573.9525842401182
 20
491.0284075722478
 30
0.0
 11
647.462636716727
 21
491.0284075722478
 31
0.0
  0
CIRCLE
  5
15D79
330
1F
100
AcDbEntity
  8
003
100
AcDbCircle
 10
628.2376367197496
 20
423.0787087894485
 30
0.0
 40
0.74999999925
  0
CIRCLE
  5
15D7B
330
1F
100
AcDbEntity
  8
003
100
AcDbCircle
 10
633.2376367197496
 20
423.0787087894485
 30
0.0
 40
0.74999999925
  0
LINE
  5
15D7C
330
1F
100
AcDbEntity
  8
003
100
AcDbLine
 10
635.2376367197495
 20
424.253708789381
 30
0.0
 11
635.2376367197495
 21
421.9037087895161
 31
0.0
  0
LINE
  5
15D7E
330
1F
100
AcDbEntity
  8
003
100
AcDbLine
 10
626.2376367197496
 20
424.253708789381
 30
0.0
 11
626.2376367197496
 21
421.9037087895161
 31
0.0
  0
LINE
  5
15D81
330
1F
100
AcDbEntity
  8
003
100
AcDbLine
 10
586.1775842370953
 20
421.9037087895161
 30
0.0
 11
595.1775842370953
 21
421.9037087895161
 31
0.0
  0
LINE
  5
15D82
330
1F
100
AcDbEntity
  8
003
100
AcDbLine
 10
595.1775842370953
 20
424.253708789381
 30
0.0
 11
586.1775842370953
 21
424.253708789381
 31
0.0
  0
CIRCLE
  5
15D83
330
1F
100
AcDbEntity
  8
003
100
AcDbCircle
 10
593.1775842370952
 20
423.0787087894485
 30
0.0
 40
0.74999999925
  0
CIRCLE
  5
15D84
330
1F
100
AcDbEntity
  8
003
100
AcDbCircle
 10
588.1775842370952
 20
423.0787087894485
 30
0.0
 40
0.74999999925
  0
LINE
  5
15D85
330
1F
100
AcDbEntity
  8
003
100
AcDbLine
 10
586.1775842370953
 20
424.253708789381
 30
0.0
 11
586.1775842370953
 21
421.9037087895161
 31
0.0
  0
LINE
  5
15D86
330
1F
100
AcDbEntity
  8
003
100
AcDbLine
 10
595.1775842370953
 20
424.253708789381
 30
0.0
 11
595.1775842370953
 21
421.9037087895161
 31
0.0
  0
TEXT
  5
15DEA
330
1F
100
AcDbEntity
  8
0
100
AcDbText
 10
67.81722297933971
 20
489.0
 30
0.0
 40
6.0
  1
内・外網戸（網色：ブラック・グレー）
 41
0.85
  7
AT_VECTOR
 11
67.81722297933971
 21
492.0
 31
0.0
100
AcDbText
 73
     2
  0
TEXT
  5
15F5F
330
1F
100
AcDbEntity
  8
0
100
AcDbText
 10
205.3571236321621
 20
443.4647244922421
 30
0.0
 40
8.0
  1
特記事項
  7
AT_VECTOR
100
AcDbText
  0
TEXT
  5
15FB6
330
1F
100
AcDbEntity
  8
0
100
AcDbText
 10
219.9982392998786
 20
430.5147298961651
 30
0.0
 40
6.0
  1
ご注文の際には網戸の仕様（内・外）及び網色（ブラック・グレー）のご指示お願いします
 41
0.9
  7
AT_VECTOR
 11
219.9982392998786
 21
433.5147298961651
 31
0.0
100
AcDbText
 73
     2
  0
TEXT
  5
15FB7
330
1F
100
AcDbEntity
  8
0
100
AcDbText
 10
219.9982392998786
 20
418.5147298961651
 30
0.0
 40
6.0
  1
本図以外のサッシの場合、納まりが変更となる場合ありますのでご確認お願いします
 41
0.9
  7
AT_VECTOR
 11
219.9982392998786
 21
421.5147298961651
 31
0.0
100
AcDbText
 73
     2
  0
TEXT
  5
15FB9
330
1F
100
AcDbEntity
  8
0
100
AcDbText
 10
207.9361824660775
 20
430.5147298961651
 30
0.0
 40
6.0
  1
1
 41
0.9
  7
AT_VECTOR
 11
207.9361824660775
 21
433.5147298961651
 31
0.0
100
AcDbText
 73
     2
  0
TEXT
  5
15FBB
330
1F
100
AcDbEntity
  8
0
100
AcDbText
 10
207.9361824660775
 20
418.5147298961651
 30
0.0
 40
6.0
  1
2
 41
0.9
  7
AT_VECTOR
 11
207.9361824660775
 21
421.5147298961651
 31
0.0
100
AcDbText
 73
     2
  0
CIRCLE
  5
15FBE
330
1F
100
AcDbEntity
  8
010
100
AcDbCircle
 10
210.9181020216272
 20
421.4966494517147
 30
0.0
 40
4.410730708366473
  0
CIRCLE
  5
15FC0
330
1F
100
AcDbEntity
  8
010
100
AcDbCircle
 10
210.9181020216272
 20
433.4966494517147
 30
0.0
 40
4.410730708366473
  0
LINE
  5
15FC2
330
1F
100
AcDbEntity
  8
003
100
AcDbLine
 10
202.4421484457528
 20
447.0430615799791
 30
0.0
 11
199.0212626666846
 21
447.0430615799791
 31
0.0
  0
LINE
  5
15FC3
330
1F
100
AcDbEntity
  8
003
100
AcDbLine
 10
199.0212626666846
 20
447.0430615799791
 30
0.0
 11
199.0212626666846
 21
411.5372569385795
 31
0.0
  0
LINE
  5
15FC4
330
1F
100
AcDbEntity
  8
003
100
AcDbLine
 10
199.0212626666846
 20
411.5372569385795
 30
0.0
 11
491.7351060924868
 21
411.5372569385795
 31
0.0
  0
LINE
  5
15FC5
330
1F
100
AcDbEntity
  8
003
100
AcDbLine
 10
491.7351060924868
 20
411.5372569385795
 30
0.0
 11
491.7351060924868
 21
446.8840717029689
 31
0.0
  0
LINE
  5
15FC6
330
1F
100
AcDbEntity
  8
003
100
AcDbLine
 10
491.7351060924868
 20
447.0430615799791
 30
0.0
 11
245.1658153724036
 21
447.0430615799791
 31
0.0
  0
LINE
  5
1606B
330
1F
100
AcDbEntity
  8
007
100
AcDbLine
 10
327.6824195638961
 20
274.045750448146
 30
0.0
 11
305.3824195638961
 21
274.045750448146
 31
0.0
  0
LINE
  5
1606C
330
1F
100
AcDbEntity
  8
007
100
AcDbLine
 10
327.1824195638961
 20
272.545750448146
 30
0.0
 11
305.8824195638961
 21
272.545750448146
 31
0.0
  0
LINE
  5
1606D
330
1F
100
AcDbEntity
  8
007
100
AcDbLine
 10
327.1824195638961
 20
277.045750448146
 30
0.0
 11
305.8824195638961
 21
277.045750448146
 31
0.0
  0
LINE
  5
1606E
330
1F
100
AcDbEntity
  8
007
100
AcDbLine
 10
328.6824195638961
 20
277.345750448146
 30
0.0
 11
300.3824195638961
 21
277.345750448146
 31
0.0
  0
LINE
  5
1606F
330
1F
100
AcDbEntity
  8
007
100
AcDbLine
 10
328.6824195638961
 20
287.345750448146
 30
0.0
 11
303.3824195638961
 21
287.345750448146
 31
0.0
  0
LINE
  5
16071
330
1F
100
AcDbEntity
  8
007
100
AcDbLine
 10
305.3824195638961
 20
273.045750448146
 30
0.0
 11
305.3824195638961
 21
276.545750448146
 31
0.0
  0
ARC
  5
16072
330
1F
100
AcDbEntity
  8
007
100
AcDbCircle
 10
305.8824195638961
 20
276.545750448146
 30
0.0
 40
0.5
100
AcDbArc
 50
90.0
 51
180.0
  0
LINE
  5
16075
330
1F
100
AcDbEntity
  8
007
100
AcDbLine
 10
300.3824195638961
 20
277.345750448146
 30
0.0
 11
300.3824195638961
 21
284.345750448146
 31
0.0
  0
ARC
  5
16076
330
1F
100
AcDbEntity
  8
007
100
AcDbCircle
 10
303.3824195638961
 20
284.345750448146
 30
0.0
 40
3.0
100
AcDbArc
 50
90.0
 51
180.0
  0
ARC
  5
16077
330
1F
100
AcDbEntity
  8
007
100
AcDbCircle
 10
305.8824195638961
 20
273.045750448146
 30
0.0
 40
0.5
100
AcDbArc
 50
180.0
 51
270.0
  0
LINE
  5
16078
330
1F
100
AcDbEntity
  8
007
100
AcDbLine
 10
421.4327015638968
 20
286.8457504481461
 30
0.0
 11
328.6824195638961
 21
286.8457504481458
 31
0.0
  0
LINE
  5
16079
330
1F
100
AcDbEntity
  8
007
100
AcDbLine
 10
328.6824195638961
 20
274.045850448146
 30
0.0
 11
421.4327015638968
 21
274.045850448146
 31
0.0
  0
LINE
  5
1607A
330
1F
100
AcDbEntity
  8
007
100
AcDbLine
 10
328.6824195638961
 20
273.1457504481459
 30
0.0
 11
421.4327015638968
 21
273.1457504481459
 31
0.0
  0
LINE
  5
1607B
330
1F
100
AcDbEntity
  8
007
100
AcDbLine
 10
328.6824195638961
 20
277.345750448146
 30
0.0
 11
421.4327015638968
 21
277.3457504481458
 31
0.0
  0
LINE
  5
1607C
330
1F
100
AcDbEntity
  8
007
100
AcDbLine
 10
327.6824195638961
 20
273.045750448146
 30
0.0
 11
327.6824195638961
 21
276.545750448146
 31
0.0
  0
LINE
  5
1607D
330
1F
100
AcDbEntity
  8
007
100
AcDbLine
 10
328.6824195638961
 20
273.1457504481459
 30
0.0
 11
328.6824195638961
 21
287.345750448146
 31
0.0
  0
LINE
  5
1607E
330
1F
100
AcDbEntity
  8
007
100
AcDbLine
 10
328.6824195638961
 20
276.1457504481459
 30
0.0
 11
327.6824195638961
 21
276.1457504481459
 31
0.0
  0
ARC
  5
1607F
330
1F
100
AcDbEntity
  8
007
100
AcDbCircle
 10
327.1824195638961
 20
276.545750448146
 30
0.0
 40
0.5
100
AcDbArc
 50
0.0
 51
90.0
  0
ARC
  5
16080
330
1F
100
AcDbEntity
  8
007
100
AcDbCircle
 10
327.1824195638961
 20
273.045750448146
 30
0.0
 40
0.5
100
AcDbArc
 50
270.0
 51
0.0
  0
LINE
  5
16083
330
1F
100
AcDbEntity
  8
007
100
AcDbLine
 10
519.8832655638971
 20
274.045750448146
 30
0.0
 11
542.183265563897
 21
274.045750448146
 31
0.0
  0
LINE
  5
16084
330
1F
100
AcDbEntity
  8
007
100
AcDbLine
 10
520.383265563897
 20
272.545750448146
 30
0.0
 11
541.683265563897
 21
272.545750448146
 31
0.0
  0
LINE
  5
16085
330
1F
100
AcDbEntity
  8
007
100
AcDbLine
 10
520.383265563897
 20
277.045750448146
 30
0.0
 11
541.683265563897
 21
277.045750448146
 31
0.0
  0
LINE
  5
16086
330
1F
100
AcDbEntity
  8
007
100
AcDbLine
 10
518.8832655638971
 20
277.345750448146
 30
0.0
 11
547.183265563897
 21
277.345750448146
 31
0.0
  0
LINE
  5
16087
330
1F
100
AcDbEntity
  8
007
100
AcDbLine
 10
518.8832655638971
 20
287.345750448146
 30
0.0
 11
544.183265563897
 21
287.345750448146
 31
0.0
  0
LINE
  5
16088
330
1F
100
AcDbEntity
  8
007
100
AcDbLine
 10
542.183265563897
 20
273.045750448146
 30
0.0
 11
542.183265563897
 21
276.545750448146
 31
0.0
  0
ARC
  5
16089
330
1F
100
AcDbEntity
  8
007
100
AcDbCircle
 10
541.683265563897
 20
276.545750448146
 30
0.0
 40
0.5
100
AcDbArc
 50
0.000000000000007
 51
90.0
  0
LINE
  5
1608A
330
1F
100
AcDbEntity
  8
007
100
AcDbLine
 10
547.183265563897
 20
277.345750448146
 30
0.0
 11
547.183265563897
 21
284.345750448146
 31
0.0
  0
ARC
  5
1608B
330
1F
100
AcDbEntity
  8
007
100
AcDbCircle
 10
544.183265563897
 20
284.345750448146
 30
0.0
 40
3.0
100
AcDbArc
 50
0.000000000000007
 51
90.0
  0
ARC
  5
1608C
330
1F
100
AcDbEntity
  8
007
100
AcDbCircle
 10
541.683265563897
 20
273.045750448146
 30
0.0
 40
0.5
100
AcDbArc
 50
270.0
 51
0.000000000000007
  0
LINE
  5
1608D
330
1F
100
AcDbEntity
  8
007
100
AcDbLine
 10
426.1329835638963
 20
286.8457504481461
 30
0.0
 11
518.8832655638971
 21
286.8457504481458
 31
0.0
  0
LINE
  5
1608E
330
1F
100
AcDbEntity
  8
007
100
AcDbLine
 10
518.8832655638971
 20
274.045850448146
 30
0.0
 11
426.1329835638963
 21
274.045850448146
 31
0.0
  0
LINE
  5
1608F
330
1F
100
AcDbEntity
  8
007
100
AcDbLine
 10
518.8832655638971
 20
273.1457504481459
 30
0.0
 11
426.1329835638963
 21
273.1457504481459
 31
0.0
  0
LINE
  5
16090
330
1F
100
AcDbEntity
  8
007
100
AcDbLine
 10
518.8832655638971
 20
277.345750448146
 30
0.0
 11
426.1329835638963
 21
277.3457504481458
 31
0.0
  0
LINE
  5
16091
330
1F
100
AcDbEntity
  8
007
100
AcDbLine
 10
519.8832655638971
 20
273.045750448146
 30
0.0
 11
519.8832655638971
 21
276.545750448146
 31
0.0
  0
LINE
  5
16092
330
1F
100
AcDbEntity
  8
007
100
AcDbLine
 10
518.8832655638971
 20
273.1457504481459
 30
0.0
 11
518.8832655638971
 21
287.345750448146
 31
0.0
  0
LINE
  5
16093
330
1F
100
AcDbEntity
  8
007
100
AcDbLine
 10
518.8832655638971
 20
276.1457504481459
 30
0.0
 11
519.8832655638971
 21
276.1457504481459
 31
0.0
  0
ARC
  5
16094
330
1F
100
AcDbEntity
  8
007
100
AcDbCircle
 10
520.383265563897
 20
276.545750448146
 30
0.0
 40
0.5
100
AcDbArc
 50
90.0
 51
180.0
  0
ARC
  5
16095
330
1F
100
AcDbEntity
  8
007
100
AcDbCircle
 10
520.383265563897
 20
273.045750448146
 30
0.0
 40
0.5
100
AcDbArc
 50
180.0
 51
270.0
  0
DIMENSION
  5
161B6
330
1F
100
AcDbEntity
  8
003
100
AcDbDimension
  2
*D14
 10
286.2827015638966
 20
132.4490602072779
 30
0.0
 11
278.7827015638966
 21
137.4490602072778
 31
0.0
 70
    32
 71
     5
 42
15.0
  3
DIM
100
AcDbAlignedDimension
 13
271.2827015638966
 23
148.9457637344613
 33
0.0
 14
286.2827015638966
 24
207.4457637344613
 34
0.0
100
AcDbRotatedDimension
  0
DIMENSION
  5
161C3
330
1F
100
AcDbEntity
  8
003
100
AcDbDimension
  2
*D15
 10
561.2829835638965
 20
132.4490602072779
 30
0.0
 11
568.7829835638965
 21
137.4490602072778
 31
0.0
 70
    32
 71
     5
 42
15.0
  3
DIM
100
AcDbAlignedDimension
 13
576.2829835638966
 23
148.9457637344613
 33
0.0
 14
561.2829835638965
 24
207.4457637344613
 34
0.0
 50
180.0
100
AcDbRotatedDimension
  0
LEADER
  5
1649E
330
1F
100
AcDbEntity
  8
003
100
AcDbLeader
  3
DIM
 73
     0
 40
6.000000000000001
 41
15.0
 76
     3
 10
380.6223306564241
 20
281.7814678535519
 30
0.0
 10
373.6637623734462
 20
293.8340616676068
 30
0.0
 10
370.019564942557
 20
293.8340616676068
 30
0.0
340
1649F
1001
ACAD
1000
DSTYLE
1002
{
1070
   147
1040
1.0
1070
    77
1070
     1
1002
}
  0
MTEXT
  5
1649F
102
{ACAD_REACTORS
330
1649E
102
}
330
1F
100
AcDbEntity
  8
003
 62
     7
100
AcDbMText
 10
368.019564942557
 20
295.8340616676069
 30
0.0
 40
6.0
 41
0.0
 71
     9
 72
     1
  1
外網戸
  7
DIM
 73
     1
 44
1.0
1001
ACAD
1000
MTEXTBEGIN
1070
    73
1070
     1
1070
    44
1040
1.0
1070
    74
1070
     0
1000
MTEXTEND
  0
ENDSEC
  0
SECTION
  2
OBJECTS
  0
DICTIONARY
  5
C
330
0
100
AcDbDictionary
281
     1
  3
ACAD_COLOR
350
E400
  3
ACAD_GROUP
350
D
  3
ACAD_LAYOUT
350
1A
  3
ACAD_MATERIAL
350
E3D6
  3
ACAD_MLEADERSTYLE
350
E425
  3
ACAD_MLINESTYLE
350
17
  3
ACAD_PLOTSETTINGS
350
19
  3
ACAD_PLOTSTYLENAME
350
E
  3
ACAD_SCALELIST
350
E403
  3
ACAD_TABLESTYLE
350
E401
  3
ACAD_VISUALSTYLE
350
E3EF
  3
AcadDim
350
164A0
  3
ACDB_RECOMPOSE_DATA
350
103AB
  3
AcDbVariableDictionary
350
103AC
  3
DWGPROPS
350
164E4
  0
DICTIONARY
  5
162EC
330
8
100
AcDbDictionary
280
     1
281
     1
  0
DICTIONARY
  5
2859
330
2
100
AcDbDictionary
280
     1
281
     1
  3
ACAD_LAYERFILTERS
360
128C4
  3
ACAD_LAYERSTATES
360
285A
  3
ACLYDICTIONARY
360
128C3
  0
DICTIONARY
  5
F074
330
10
100
AcDbDictionary
280
     1
281
     1
  3
ADSK_XREC_LAYER_RECONCILED
360
F075
  0
DICTIONARY
  5
F07A
330
33
100
AcDbDictionary
280
     1
281
     1
  3
ADSK_XREC_LAYER_RECONCILED
360
F07B
  0
DICTIONARY
  5
F080
330
1A4
100
AcDbDictionary
280
     1
281
     1
  3
ADSK_XREC_LAYER_RECONCILED
360
F081
  0
DICTIONARY
  5
F082
330
1A5
100
AcDbDictionary
280
     1
281
     1
  3
ADSK_XREC_LAYER_RECONCILED
360
F083
  0
DICTIONARY
  5
F088
330
2B1
100
AcDbDictionary
280
     1
281
     1
  3
ADSK_XREC_LAYER_RECONCILED
360
F089
  0
DICTIONARY
  5
F0BC
330
3BF1
100
AcDbDictionary
280
     1
281
     1
  3
ADSK_XREC_LAYER_RECONCILED
360
F0BD
  0
DICTIONARY
  5
F0C6
330
CA59
100
AcDbDictionary
280
     1
281
     1
  3
ADSK_XREC_LAYER_RECONCILED
360
F0C7
  0
DICTIONARY
  5
F144
330
1F
100
AcDbDictionary
280
     1
281
     1
  3
ACAD_SORTENTS
360
F145
  0
DICTIONARY
  5
E400
102
{ACAD_REACTORS
330
C
102
}
330
C
100
AcDbDictionary
281
     1
  0
DICTIONARY
  5
D
102
{ACAD_REACTORS
330
C
102
}
330
C
100
AcDbDictionary
281
     1
  0
DICTIONARY
  5
1A
102
{ACAD_REACTORS
330
C
102
}
330
C
100
AcDbDictionary
281
     1
  3
Model
350
22
  3
ﾚｲｱｳﾄ1
350
1E
  3
ﾚｲｱｳﾄ2
350
26
  0
DICTIONARY
  5
E3D6
102
{ACAD_REACTORS
330
C
102
}
330
C
100
AcDbDictionary
281
     1
  3
ByBlock
350
E3DF
  3
ByLayer
350
E3D7
  3
Global
350
E3E7
  0
DICTIONARY
  5
E425
102
{ACAD_REACTORS
330
C
102
}
330
C
100
AcDbDictionary
281
     1
  3
Standard
350
E426
  0
DICTIONARY
  5
17
102
{ACAD_REACTORS
330
C
102
}
330
C
100
AcDbDictionary
281
     1
  3
Standard
350
18
  0
DICTIONARY
  5
19
102
{ACAD_REACTORS
330
C
102
}
330
C
100
AcDbDictionary
281
     1
  0
ACDBDICTIONARYWDFLT
  5
E
102
{ACAD_REACTORS
330
C
102
}
330
C
100
AcDbDictionary
281
     1
  3
Normal
350
F
100
AcDbDictionaryWithDefault
340
F
  0
DICTIONARY
  5
E403
102
{ACAD_REACTORS
330
C
102
}
330
C
100
AcDbDictionary
281
     1
  3
A0
350
E404
  3
A1
350
E405
  3
A2
350
E406
  3
A3
350
E407
  3
A4
350
E408
  3
A5
350
E409
  3
A6
350
E40A
  3
A7
350
E40B
  3
A8
350
E40C
  3
A9
350
E40D
  3
B0
350
E40E
  3
B1
350
E40F
  3
B2
350
E410
  3
B3
350
E411
  3
B4
350
E412
  3
B5
350
E413
  3
B6
350
E414
  3
B7
350
E415
  3
B8
350
E416
  3
B9
350
E417
  3
C0
350
E418
  3
C1
350
E419
  3
C2
350
E41A
  3
C3
350
E41B
  3
C4
350
E41C
  3
C5
350
E41D
  3
C6
350
E41E
  3
C7
350
E41F
  3
C8
350
E420
  3
C9
350
E421
  3
D0
350
E422
  3
D1
350
E423
  3
D2
350
E424
  0
DICTIONARY
  5
E401
102
{ACAD_REACTORS
330
C
102
}
330
C
100
AcDbDictionary
281
     1
  3
Standard
350
E402
  0
DICTIONARY
  5
E3EF
102
{ACAD_REACTORS
330
C
102
}
330
C
100
AcDbDictionary
281
     1
  3
2dWireframe
350
E3F5
  3
3D Hidden
350
E3F7
  3
3dWireframe
350
E3F6
  3
Basic
350
E3F4
  3
Brighten
350
E3FB
  3
ColorChange
350
E3FF
  3
Conceptual
350
E3F8
  3
Dim
350
E3FA
  3
Facepattern
350
E3FE
  3
Flat
350
E3F0
  3
FlatWithEdges
350
E3F1
  3
Gouraud
350
E3F2
  3
GouraudWithEdges
350
E3F3
  3
Linepattern
350
E3FD
  3
Realistic
350
E3F9
  3
Thicken
350
E3FC
  0
XRECORD
  5
164A0
102
{ACAD_REACTORS
330
C
102
}
330
C
100
AcDbXrecord
280
     1
 90
   990106
  3

 60
     0
 61
     0
 62
     4
 63
     4
 64
     1
 65
     0
 66
     0
 67
     3
 68
     1
 69
     0
 70
     0
 71
     0
 72
     0
 40
0.0
170
     2
340
1649F
  0
XRECORD
  5
103AB
102
{ACAD_REACTORS
330
C
102
}
330
C
100
AcDbXrecord
280
     1
 90
        1
330
E402
  0
DICTIONARY
  5
103AC
102
{ACAD_REACTORS
330
C
102
}
330
C
100
AcDbDictionary
281
     1
  3
CANNOSCALE
350
103B0
  3
CMLEADERSTYLE
350
103AE
  3
CTABLESTYLE
350
103AD
  3
DIMASSOC
350
16336
  3
INDEXCTL
350
16335
  3
LIGHTINGUNITS
350
103B1
  3
MSLTSCALE
350
103AF
  3
SORTENTS
350
16334
  0
XRECORD
  5
164E4
102
{ACAD_REACTORS
330
C
102
}
330
C
100
AcDbXrecord
280
     1
  1
DWGPROPS COOKIE
  2

  3

  4

  6

  7

  8
koba
  9

300
=
301
=
302
=
303
=
304
=
305
=
306
=
307
=
308
=
309
=
 40
0.4360613425925927
 41
2452888.42884919
 42
2455959.428430197
  1

 90
        0
  0
DICTIONARY
  5
128C4
102
{ACAD_REACTORS
330
2859
102
}
330
2859
100
AcDbDictionary
281
     1
  0
DICTIONARY
  5
285A
102
{ACAD_REACTORS
330
2859
102
}
330
2859
100
AcDbDictionary
281
     1
  0
DICTIONARY
  5
128C3
102
{ACAD_REACTORS
330
2859
102
}
330
2859
100
AcDbDictionary
281
     1
1001
ACAD
1000
<All
  0
XRECORD
  5
F075
102
{ACAD_REACTORS
330
F074
102
}
330
F074
100
AcDbXrecord
280
     1
290
     1
  0
XRECORD
  5
F07B
102
{ACAD_REACTORS
330
F07A
102
}
330
F07A
100
AcDbXrecord
280
     1
290
     1
  0
XRECORD
  5
F081
102
{ACAD_REACTORS
330
F080
102
}
330
F080
100
AcDbXrecord
280
     1
290
     1
  0
XRECORD
  5
F083
102
{ACAD_REACTORS
330
F082
102
}
330
F082
100
AcDbXrecord
280
     1
290
     1
  0
XRECORD
  5
F089
102
{ACAD_REACTORS
330
F088
102
}
330
F088
100
AcDbXrecord
280
     1
290
     1
  0
XRECORD
  5
F0BD
102
{ACAD_REACTORS
330
F0BC
102
}
330
F0BC
100
AcDbXrecord
280
     1
290
     1
  0
XRECORD
  5
F0C7
102
{ACAD_REACTORS
330
F0C6
102
}
330
F0C6
100
AcDbXrecord
280
     1
290
     1
  0
SORTENTSTABLE
  5
F145
102
{ACAD_REACTORS
330
F144
102
}
330
F144
100
AcDbSortentsTable
330
1F
331
127ED
  5
127ED
331
1282C
  5
1282C
331
12863
  5
12863
331
128A2
  5
128A2
331
12E39
  5
12E39
331
12D35
  5
12D35
331
12CAF
  5
12CAF
331
127F5
  5
127F5
331
12834
  5
12834
331
1286B
  5
1286B
331
12CFE
  5
12CFE
331
12DC3
  5
12DC3
331
12E02
  5
12E02
331
12E78
  5
12E78
331
1320A
  5
1320A
331
12F36
  5
12F36
331
12D3D
  5
12D3D
331
12CB7
  5
12CB7
331
127FD
  5
127FD
331
1283C
  5
1283C
331
12873
  5
12873
331
12D06
  5
12D06
331
12E41
  5
12E41
331
12E80
  5
12E80
331
15F5F
  5
15FB9
331
13449
  5
13449
331
1317B
  5
1317B
331
13212
  5
13212
331
16076
  5
16079
331
12E49
  5
12E49
331
12D45
  5
12D45
331
12CBF
  5
12CBF
331
12805
  5
12805
331
12844
  5
12844
331
1287B
  5
1287B
331
12D0E
  5
12D0E
331
12DD3
  5
12DD3
331
12EA0
  5
12EA0
331
15FB7
  5
15FBE
331
15D60
  5
15D63
331
13451
  5
13451
331
1318B
  5
1318B
331
1321A
  5
1321A
331
1607E
  5
16083
331
12EFF
  5
12EFF
331
12E51
  5
12E51
331
12D94
  5
12D94
331
12D4D
  5
12D4D
331
12CC7
  5
12CC7
331
12D16
  5
12D16
331
12DDB
  5
12DDB
331
12E1A
  5
12E1A
331
12F46
  5
12F46
331
16086
  5
16089
331
134D1
  5
134D1
331
13222
  5
13225
331
12F07
  5
12F07
331
1306C
  5
1306C
331
1608E
  5
16091
331
1280D
  5
1280D
331
1284C
  5
1284C
331
12883
  5
12883
331
12E59
  5
12E59
331
12D9C
  5
12D9C
331
12D55
  5
12D55
331
12815
  5
12815
331
12854
  5
12854
331
1288B
  5
1288B
331
12D1E
  5
12D1E
331
12DE3
  5
12DE3
331
131A3
  5
131A3
331
1322A
  5
1322D
331
12F0F
  5
12F0F
331
12E61
  5
12E61
331
12DA4
  5
12DA4
331
12D5D
  5
12D5D
331
12893
  5
12893
331
1281D
  5
1281D
331
1285C
  5
1285C
331
12D26
  5
12D26
331
12DEB
  5
12DEB
331
12ED0
  5
12ED0
331
13074
  5
13074
331
12F17
  5
12F17
331
12E69
  5
12E69
331
12D65
  5
12D65
331
12825
  5
12825
331
1289B
  5
1289B
331
12D2E
  5
12D2E
331
12DF3
  5
12DF3
331
12E32
  5
12E32
331
12ED8
  5
12ED8
331
1307C
  5
1307C
331
134F9
  5
134F9
331
131B3
  5
131B3
331
1325A
  5
1325A
331
161B6
  5
16283
331
12CF7
  5
12CF7
331
12DFB
  5
12DFB
331
12E71
  5
12E71
331
13203
  5
13203
331
1606F
  5
16075
331
1282D
  5
1282D
331
127EE
  5
127EE
331
12864
  5
12864
331
128A3
  5
128A3
331
12E3A
  5
12E3A
331
12D36
  5
12D36
331
12CB0
  5
12CB0
331
12835
  5
12835
331
127F6
  5
127F6
331
1286C
  5
1286C
331
12CFF
  5
12CFF
331
12D75
  5
12D75
331
12DC4
  5
12DC4
331
12E03
  5
12E03
331
12E79
  5
12E79
331
1320B
  5
1320B
331
12F37
  5
12F37
331
12D3E
  5
12D3E
331
12CB8
  5
12CB8
331
1283D
  5
1283D
331
127FE
  5
127FE
331
12874
  5
12874
331
12D07
  5
12D07
331
12E42
  5
12E42
331
12E81
  5
12E81
331
16077
  5
1607A
331
1344A
  5
1344A
331
13213
  5
13213
331
12D46
  5
12D46
331
12D0F
  5
12D0F
331
12CC0
  5
12CC0
331
12845
  5
12845
331
12806
  5
12806
331
1287C
  5
1287C
331
12D8D
  5
12D8D
331
12DD4
  5
12DD4
331
12E4A
  5
12E4A
331
1607F
  5
16084
331
15D61
  5
15D64
331
1318C
  5
1318C
331
1321B
  5
1321C
331
13065
  5
13065
331
12F47
  5
12F47
331
12F00
  5
12F00
331
12E52
  5
12E52
331
12D4E
  5
12D4E
331
12D17
  5
12D17
331
12D95
  5
12D95
331
12DDC
  5
12DDC
331
12E1B
  5
12E1B
331
12EA9
  5
12EA9
331
16087
  5
1608A
331
15FC0
  5
15FC4
331
15D71
  5
15D74
331
134D2
  5
134D2
331
13223
  5
13226
331
1306D
  5
1306D
331
1608F
  5
16092
331
12CC8
  5
12CC8
331
1284D
  5
1284D
331
1280E
  5
1280E
331
12884
  5
12884
331
12E5A
  5
12E5A
331
12D56
  5
12D56
331
12CD0
  5
12CD0
331
12855
  5
12855
331
12816
  5
12816
331
1288C
  5
1288C
331
12D1F
  5
12D1F
331
12D9D
  5
12D9D
331
12DE4
  5
12DE4
331
12E23
  5
12E23
331
12F08
  5
12F08
331
15D79
  5
15D7E
331
134EA
  5
134EA
331
131A4
  5
131A4
331
1322B
  5
1322E
331
13075
  5
13075
331
12F10
  5
12F10
331
12E62
  5
12E62
331
12D5E
  5
12D5E
331
12D27
  5
12D27
331
12894
  5
12894
331
1281E
  5
1281E
331
F7F2
  5
F806
331
1285D
  5
1285D
331
12DEC
  5
12DEC
331
12ED1
  5
12ED1
331
15D81
  5
15D84
331
1307D
  5
1307D
331
12E33
  5
12E33
331
12D66
  5
12D66
331
12826
  5
12826
331
1289C
  5
1289C
331
12D2F
  5
12D2F
331
12E6A
  5
12E6A
331
12F18
  5
12F18
331
1325B
  5
1325B
331
134FA
  5
134FA
331
12E72
  5
12E72
331
13204
  5
13204
331
12CA9
  5
12CA9
331
1282E
  5
1282E
331
127EF
  5
127EF
331
12865
  5
12865
331
128A4
  5
128A4
331
12CF8
  5
12CF8
331
12EE9
  5
12EE9
331
12E3B
  5
12E3B
331
12E04
  5
12E04
331
12D37
  5
12D37
331
12CB1
  5
12CB1
331
12836
  5
12836
331
127F7
  5
127F7
331
1286D
  5
1286D
331
12D00
  5
12D00
331
12D76
  5
12D76
331
12E7A
  5
12E7A
331
12F30
  5
12F30
331
13443
  5
13443
331
1320C
  5
1320C
331
12EF1
  5
12EF1
331
12E43
  5
12E43
331
12E0C
  5
12E0C
331
12D3F
  5
12D3F
331
12CB9
  5
12CB9
331
1283E
  5
1283E
331
127FF
  5
127FF
331
12875
  5
12875
331
12D08
  5
12D08
331
12E82
  5
12E82
331
12F38
  5
12F38
331
16078
  5
1607B
331
1344B
  5
1344B
331
13214
  5
13214
331
12EF9
  5
12EF9
331
12DD5
  5
12DD5
331
12D47
  5
12D47
331
12CC1
  5
12CC1
331
12846
  5
12846
331
12807
  5
12807
331
1287D
  5
1287D
331
12D10
  5
12D10
331
12D8E
  5
12D8E
331
12E4B
  5
12E4B
331
12EA2
  5
12EA2
331
15FB9
  5
15FC0
331
15D62
  5
15D65
331
1318D
  5
1318D
331
1321C
  5
1321E
331
16080
  5
16085
331
13066
  5
13066
331
12DDD
  5
12DDD
331
12D4F
  5
12D4F
331
12D96
  5
12D96
331
12E53
  5
12E53
331
12F48
  5
12F48
331
16088
  5
1608B
331
15D72
  5
15D75
331
134D3
  5
134D3
331
13224
  5
13227
331
1306E
  5
1306E
331
1270A
  5
1270A
331
12CC9
  5
12CC9
331
1284E
  5
1284E
331
1280F
  5
1280F
331
12885
  5
12885
331
12D18
  5
12D18
331
12E5B
  5
12E5B
331
12DE5
  5
12DE5
331
12D57
  5
12D57
331
12856
  5
12856
331
12817
  5
12817
331
1288D
  5
1288D
331
12D20
  5
12D20
331
12D9E
  5
12D9E
331
12E24
  5
12E24
331
12F09
  5
12F09
331
16090
  5
16093
331
134EB
  5
134EB
331
131A5
  5
131A5
331
1322C
  5
1322F
331
13076
  5
13076
331
12F11
  5
12F11
331
12E63
  5
12E63
331
12DED
  5
12DED
331
12D5F
  5
12D5F
331
12895
  5
12895
331
1281F
  5
1281F
331
1285E
  5
1285E
331
12D28
  5
12D28
331
12ED2
  5
12ED2
331
15D82
  5
15D85
331
131AD
  5
131AD
331
1307E
  5
1307E
331
12E6B
  5
12E6B
331
12E34
  5
12E34
331
12D67
  5
12D67
331
12827
  5
12827
331
1289D
  5
1289D
331
12F19
  5
12F19
331
134FB
  5
134FB
331
1325C
  5
1325C
331
15DEA
  5
15F5F
331
12DFD
  5
12DFD
331
12E73
  5
12E73
331
13205
  5
13205
331
12D30
  5
12D30
331
1282F
  5
1282F
331
127F0
  5
127F0
331
12866
  5
12866
331
12CAA
  5
12CAA
331
12CF9
  5
12CF9
331
12EEA
  5
12EEA
331
12E3C
  5
12E3C
331
12DC6
  5
12DC6
331
12D38
  5
12D38
331
12837
  5
12837
331
127F8
  5
127F8
331
1286E
  5
1286E
331
12D01
  5
12D01
331
12E05
  5
12E05
331
12E7B
  5
12E7B
331
12F31
  5
12F31
331
16071
  5
16076
331
15D53
  5
15D56
331
13444
  5
13444
331
13176
  5
13176
331
1320D
  5
1320D
331
12EF2
  5
12EF2
331
12E44
  5
12E44
331
12DCE
  5
12DCE
331
12D40
  5
12D40
331
12CBA
  5
12CBA
331
1283F
  5
1283F
331
12800
  5
12800
331
12876
  5
12876
331
12D09
  5
12D09
331
12D87
  5
12D87
331
12E0D
  5
12E0D
331
12F39
  5
12F39
331
15D5B
  5
15D5E
331
1344C
  5
1344C
331
13215
  5
13215
331
16079
  5
1607C
331
12EFA
  5
12EFA
331
12DD6
  5
12DD6
331
12D8F
  5
12D8F
331
12D48
  5
12D48
331
12CC2
  5
12CC2
331
12847
  5
12847
331
1287E
  5
1287E
331
12D11
  5
12D11
331
12E4C
  5
12E4C
331
12EA3
  5
12EA3
331
12F41
  5
12F41
331
15D63
  5
15D66
331
1321D
  5
13220
331
13067
  5
13067
331
12DDE
  5
12DDE
331
12D97
  5
12D97
331
12E54
  5
12E54
331
12F49
  5
12F49
331
15FC2
  5
15FC5
331
15D73
  5
15D76
331
13225
  5
13228
331
16089
  5
1608C
331
1306F
  5
1306F
331
12808
  5
12808
331
12D50
  5
12D50
331
12CCA
  5
12CCA
331
1284F
  5
1284F
331
12810
  5
12810
331
12886
  5
12886
331
12D19
  5
12D19
331
12F0A
  5
12F0A
331
12E5C
  5
12E5C
331
12E25
  5
12E25
331
12D58
  5
12D58
331
12857
  5
12857
331
12818
  5
12818
331
1288E
  5
1288E
331
12D21
  5
12D21
331
12D9F
  5
12D9F
331
12EB3
  5
12EB3
331
16091
  5
16094
331
15D7B
  5
15D81
331
1322D
  5
13256
331
13077
  5
13077
331
12DEE
  5
12DEE
331
12D29
  5
12D29
331
1285F
  5
1285F
331
12820
  5
12820
331
12896
  5
12896
331
12D60
  5
12D60
331
12E64
  5
12E64
331
12F12
  5
12F12
331
15D83
  5
15D86
331
1307F
  5
1307F
331
12E6C
  5
12E6C
331
12D68
  5
12D68
331
12E35
  5
12E35
331
134FC
  5
134FC
331
12DFE
  5
12DFE
331
12E74
  5
12E74
331
12F2A
  5
12F2A
331
13206
  5
13206
331
12828
  5
12828
331
127E9
  5
127E9
331
12D31
  5
12D31
331
12867
  5
12867
331
12830
  5
12830
331
127F1
  5
127F1
331
12CAB
  5
12CAB
331
12CFA
  5
12CFA
331
12EEB
  5
12EEB
331
12E3D
  5
12E3D
331
12D39
  5
12D39
331
1286F
  5
1286F
331
12838
  5
12838
331
127F9
  5
127F9
331
12D02
  5
12D02
331
12DC7
  5
12DC7
331
12E06
  5
12E06
331
12E7C
  5
12E7C
331
12F32
  5
12F32
331
16072
  5
16077
331
15D54
  5
15D5B
331
13445
  5
13445
331
12E45
  5
12E45
331
12D41
  5
12D41
331
12CBB
  5
12CBB
331
12877
  5
12877
331
12840
  5
12840
331
12801
  5
12801
331
12D0A
  5
12D0A
331
12DCF
  5
12DCF
331
12E0E
  5
12E0E
331
12F3A
  5
12F3A
331
13177
  5
13177
331
1320E
  5
1320E
331
1607A
  5
1607D
331
15D5C
  5
15D5F
331
1344D
  5
1344D
331
12EFB
  5
12EFB
331
12E4D
  5
12E4D
331
12D49
  5
12D49
331
12CC3
  5
12CC3
331
1287F
  5
1287F
331
12D12
  5
12D12
331
12D90
  5
12D90
331
12DD7
  5
12DD7
331
12E16
  5
12E16
331
12EA4
  5
12EA4
331
12F42
  5
12F42
331
13216
  5
13216
331
15FBB
  5
15FC2
331
15D64
  5
15D67
331
13068
  5
13068
331
12DDF
  5
12DDF
331
12E55
  5
12E55
331
12F4A
  5
12F4A
331
1321E
  5
13221
331
15FC3
  5
15FC6
331
15D74
  5
15D77
331
13226
  5
13229
331
1608A
  5
1608D
331
12848
  5
12848
331
12809
  5
12809
331
12D51
  5
12D51
331
12CCB
  5
12CCB
331
12887
  5
12887
331
12850
  5
12850
331
12811
  5
12811
331
12D1A
  5
12D1A
331
12D98
  5
12D98
331
13070
  5
13070
331
12F0B
  5
12F0B
331
12E5D
  5
12E5D
331
12D59
  5
12D59
331
1288F
  5
1288F
331
12858
  5
12858
331
12819
  5
12819
331
12D22
  5
12D22
331
12DA0
  5
12DA0
331
12E26
  5
12E26
331
12EB4
  5
12EB4
331
16092
  5
16095
331
15D7C
  5
15D82
331
13078
  5
13078
331
12F13
  5
12F13
331
12D61
  5
12D61
331
12897
  5
12897
331
12821
  5
12821
331
12D2A
  5
12D2A
331
12DEF
  5
12DEF
331
12E65
  5
12E65
331
1322E
  5
13257
331
12E6D
  5
12E6D
331
12D69
  5
12D69
331
12E36
  5
12E36
331
13080
  5
13080
331
15D84
  5
15DEA
331
12E75
  5
12E75
331
12DFF
  5
12DFF
331
12F2B
  5
12F2B
331
134FD
  5
134FD
331
1606B
  5
1606E
331
13207
  5
13207
331
12860
  5
12860
331
12829
  5
12829
331
127EA
  5
127EA
331
12D32
  5
12D32
331
12CAC
  5
12CAC
331
12868
  5
12868
331
127F2
  5
127F2
331
12831
  5
12831
331
12CFB
  5
12CFB
331
12EEC
  5
12EEC
331
12E3E
  5
12E3E
331
12D3A
  5
12D3A
331
12870
  5
12870
331
127FA
  5
127FA
331
12839
  5
12839
331
12D03
  5
12D03
331
12DC8
  5
12DC8
331
12E07
  5
12E07
331
12E7D
  5
12E7D
331
12F33
  5
12F33
331
15D55
  5
15D5C
331
13446
  5
13446
331
12E46
  5
12E46
331
12D42
  5
12D42
331
12CBC
  5
12CBC
331
12878
  5
12878
331
12802
  5
12802
331
12841
  5
12841
331
12D0B
  5
12D0B
331
12E0F
  5
12E0F
331
12F3B
  5
12F3B
331
13178
  5
13178
331
1320F
  5
1320F
331
1607B
  5
1607E
331
15D5D
  5
15D60
331
1344E
  5
1344E
331
12EFC
  5
12EFC
331
12E4E
  5
12E4E
331
12E17
  5
12E17
331
12D91
  5
12D91
331
12D4A
  5
12D4A
331
12CC4
  5
12CC4
331
12D13
  5
12D13
331
12DD8
  5
12DD8
331
12F43
  5
12F43
331
13188
  5
13188
331
13217
  5
13217
331
15D65
  5
15D71
331
1321F
  5
13222
331
12E56
  5
12E56
331
12F04
  5
12F04
331
13069
  5
13069
331
13190
  5
13190
331
16083
  5
16086
331
15FC4
  5
1606B
331
15D75
  5
15D79
331
13227
  5
1322A
331
1608B
  5
1608E
331
12880
  5
12880
331
1280A
  5
1280A
331
12849
  5
12849
331
12D99
  5
12D99
331
12D52
  5
12D52
331
12CCC
  5
12CCC
331
12888
  5
12888
331
12812
  5
12812
331
12851
  5
12851
331
12D1B
  5
12D1B
331
12DE0
  5
12DE0
331
12F0C
  5
12F0C
331
12DA1
  5
12DA1
331
12D5A
  5
12D5A
331
12D23
  5
12D23
331
12890
  5
12890
331
12859
  5
12859
331
1281A
  5
1281A
331
12E5E
  5
12E5E
331
12EB5
  5
12EB5
331
13071
  5
13071
331
16093
  5
160C7
331
12F14
  5
12F14
331
12E66
  5
12E66
331
12E2F
  5
12E2F
331
12DF0
  5
12DF0
331
12D62
  5
12D62
331
12CDC
  5
12CDC
331
12822
  5
12822
331
12898
  5
12898
331
12D2B
  5
12D2B
331
12DB9
  5
12DB9
331
13079
  5
13079
331
131A8
  5
131A8
331
1322F
  5
13258
331
15D85
  5
15DED
331
134F6
  5
134F6
331
13257
  5
1321F
331
12E6E
  5
12E6E
331
12D6A
  5
12D6A
331
12E37
  5
12E37
331
13081
  5
13081
331
131B0
  5
131B0
331
134FE
  5
134FE
331
12E76
  5
12E76
331
12F2C
  5
12F2C
331
13200
  5
13200
331
1606C
  5
1606F
331
127EB
  5
127EB
331
1282A
  5
1282A
331
12861
  5
12861
331
12D72
  5
12D72
331
12D33
  5
12D33
331
12CAD
  5
12CAD
331
127F3
  5
127F3
331
F806
  5
F85B
331
12832
  5
12832
331
12869
  5
12869
331
12CFC
  5
12CFC
331
12DC1
  5
12DC1
331
12E00
  5
12E00
331
13208
  5
13208
331
12E3F
  5
12E3F
331
12D3B
  5
12D3B
331
1283A
  5
1283A
331
12871
  5
12871
331
12D04
  5
12D04
331
12DC9
  5
12DC9
331
12E7E
  5
12E7E
331
12F34
  5
12F34
331
15D56
  5
15D5D
331
13447
  5
13447
331
13210
  5
13210
331
161C3
  5
16284
331
12E47
  5
12E47
331
12D8A
  5
12D8A
331
12D43
  5
12D43
331
12D0C
  5
12D0C
331
12803
  5
12803
331
12842
  5
12842
331
12879
  5
12879
331
12DD1
  5
12DD1
331
12F3C
  5
12F3C
331
1607C
  5
1607F
331
15D5E
  5
15D61
331
1344F
  5
1344F
331
13218
  5
13218
331
12E4F
  5
12E4F
331
12D92
  5
12D92
331
12D4B
  5
12D4B
331
12CC5
  5
12CC5
331
12D14
  5
12D14
331
12DD9
  5
12DD9
331
12E18
  5
12E18
331
12EFD
  5
12EFD
331
12F44
  5
12F44
331
16084
  5
16087
331
15D66
  5
15D72
331
13220
  5
13223
331
12E57
  5
12E57
331
12F05
  5
12F05
331
1306A
  5
1306A
331
15FC5
  5
1606C
331
15D76
  5
15D7B
331
1608C
  5
1608F
331
1280B
  5
1280B
331
1284A
  5
1284A
331
12881
  5
12881
331
12D9A
  5
12D9A
331
12D53
  5
12D53
331
12813
  5
12813
331
12852
  5
12852
331
12CCD
  5
12CCD
331
12D1C
  5
12D1C
331
12DE1
  5
12DE1
331
131A1
  5
131A1
331
13228
  5
1322B
331
12F0D
  5
12F0D
331
12DA2
  5
12DA2
331
12D5B
  5
12D5B
331
12D24
  5
12D24
331
12891
  5
12891
331
F7EF
  5
F7FD
331
1281B
  5
1281B
331
1285A
  5
1285A
331
12E5F
  5
12E5F
331
12EB6
  5
12EB6
331
13072
  5
13072
331
15D7E
  5
15D83
331
131A9
  5
131A9
331
16094
  5
160C8
331
12F15
  5
12F15
331
12E67
  5
12E67
331
12D63
  5
12D63
331
12CDD
  5
12CDD
331
12823
  5
12823
331
12899
  5
12899
331
12D2C
  5
12D2C
331
12DF1
  5
12DF1
331
12E30
  5
12E30
331
1307A
  5
1307A
331
15D86
  5
15E7A
331
134F7
  5
134F7
331
131B1
  5
131B1
331
13258
  5
1321D
331
12D6B
  5
12D6B
331
12E6F
  5
12E6F
331
134FF
  5
134FF
331
13201
  5
13201
331
12F2D
  5
12F2D
331
12E77
  5
12E77
331
1606D
  5
16071
331
127EC
  5
127EC
331
1282B
  5
1282B
331
12862
  5
12862
331
12E38
  5
12E38
331
12D73
  5
12D73
331
12D34
  5
12D34
331
12CAE
  5
12CAE
331
127F4
  5
127F4
331
12833
  5
12833
331
1286A
  5
1286A
331
12CFD
  5
12CFD
331
12DC2
  5
12DC2
331
12E01
  5
12E01
331
13209
  5
13209
331
12D3C
  5
12D3C
331
12CB6
  5
12CB6
331
1283B
  5
1283B
331
12872
  5
12872
331
12D05
  5
12D05
331
12E40
  5
12E40
331
12E7F
  5
12E7F
331
12F35
  5
12F35
331
16075
  5
16078
331
13448
  5
13448
331
1317A
  5
1317A
331
13211
  5
13211
331
12E48
  5
12E48
331
12D8B
  5
12D8B
331
12D44
  5
12D44
331
12CBE
  5
12CBE
331
12804
  5
12804
331
12843
  5
12843
331
1287A
  5
1287A
331
12D0D
  5
12D0D
331
12DD2
  5
12DD2
331
15FB6
  5
15FBB
331
15D5F
  5
15D62
331
13450
  5
13450
331
13219
  5
13219
331
1607D
  5
16080
331
12F45
  5
12F45
331
12E50
  5
12E50
331
12D93
  5
12D93
331
12D4C
  5
12D4C
331
12CC6
  5
12CC6
331
12D15
  5
12D15
331
12DDA
  5
12DDA
331
12E19
  5
12E19
331
15FBE
  5
15FC3
331
15D67
  5
15D73
331
134D0
  5
134D0
331
13221
  5
13224
331
16085
  5
16088
331
12F06
  5
12F06
331
1306B
  5
1306B
331
15FC6
  5
1606D
331
15D77
  5
15D7C
331
1608D
  5
16090
331
1280C
  5
1280C
331
1284B
  5
1284B
331
12882
  5
12882
331
12E58
  5
12E58
331
12D9B
  5
12D9B
331
12D54
  5
12D54
331
12814
  5
12814
331
12853
  5
12853
331
1288A
  5
1288A
331
12CCE
  5
12CCE
331
12D1D
  5
12D1D
331
12DE2
  5
12DE2
331
12E21
  5
12E21
331
131A2
  5
131A2
331
13229
  5
1322C
331
12E60
  5
12E60
331
12DA3
  5
12DA3
331
12D5C
  5
12D5C
331
12D25
  5
12D25
331
12892
  5
12892
331
1281C
  5
1281C
331
1285B
  5
1285B
331
12DEA
  5
12DEA
331
12E29
  5
12E29
331
12F0E
  5
12F0E
331
13073
  5
13073
331
16095
  5
160CA
331
12F16
  5
12F16
331
12ED7
  5
12ED7
331
12E68
  5
12E68
331
12D64
  5
12D64
331
12CDE
  5
12CDE
331
12824
  5
12824
331
1289A
  5
1289A
331
12D2D
  5
12D2D
331
12DF2
  5
12DF2
331
12E31
  5
12E31
331
1307B
  5
1307B
331
134F8
  5
134F8
331
131B2
  5
131B2
331
13259
  5
1321B
331
12D6C
  5
12D6C
331
12DFA
  5
12DFA
331
12E70
  5
12E70
331
13202
  5
13202
331
1606E
  5
16072
  0
LAYOUT
  5
22
102
{ACAD_XDICTIONARY
360
164E7
102
}
102
{ACAD_REACTORS
330
1A
102
}
330
1A
100
AcDbPlotSettings
  1

  2
Brother HL-2170W series
  4
A4
  6

 40
5.027082920074462
 41
5.027085781097412
 42
5.027069091796875
 43
5.027069091796875
 44
209.9733276367187
 45
296.9259948730469
 46
2.459475103511039
 47
0.0
 48
20.0000000000001
 49
21.0
140
809.9999999999996
141
558.0
142
1.0
143
2.753842970434391
 70
 11956
 72
     1
 73
     1
 74
     4
  7
EPSON.ctb
 75
     0
147
0.3631289113925984
148
-20.0000000000001
149
-21.0
100
AcDbLayout
  1
Model
 70
     1
 71
     0
 10
0.0
 20
0.0
 11
12.0
 21
9.0
 12
0.0
 22
0.0
 32
0.0
 14
0.0
 24
0.0
 34
0.0
 15
0.0
 25
0.0
 35
0.0
146
0.0
 13
0.0
 23
0.0
 33
0.0
 16
1.0
 26
0.0
 36
0.0
 17
0.0
 27
1.0
 37
0.0
 76
     0
330
1F
331
E3D4
1001
ACAD_PSEXT
1000
Brother HL-2170W series
1000
Brother HL-2170W series
1000
USB002
1000

1070
     0
  0
LAYOUT
  5
1E
102
{ACAD_XDICTIONARY
360
164E5
102
}
102
{ACAD_REACTORS
330
1A
102
}
330
1A
100
AcDbPlotSettings
  1

  2
C:\PROGRAM FILES\AUTOCAD LT 2000I\plotters\HP DesignJet 430 A3.pc3
  4

  6

 40
0.0
 41
0.0
 42
0.0
 43
0.0
 44
0.0
 45
0.0
 46
0.0
 47
0.0
 48
0.0
 49
0.0
140
0.0
141
0.0
142
1.0
143
1.0
 70
   688
 72
     0
 73
     0
 74
     5
  7
EPSON.ctb
 75
    16
147
1.0
148
0.0
149
0.0
100
AcDbLayout
  1
ﾚｲｱｳﾄ1
 70
     1
 71
     1
 10
0.0
 20
0.0
 11
420.0
 21
297.0
 12
0.0
 22
0.0
 32
0.0
 14
1.000000000000000E+20
 24
1.000000000000000E+20
 34
1.000000000000000E+20
 15
-1.000000000000000E+20
 25
-1.000000000000000E+20
 35
-1.000000000000000E+20
146
0.0
 13
0.0
 23
0.0
 33
0.0
 16
1.0
 26
0.0
 36
0.0
 17
0.0
 27
1.0
 37
0.0
 76
     0
330
1B
  0
LAYOUT
  5
26
102
{ACAD_XDICTIONARY
360
164E9
102
}
102
{ACAD_REACTORS
330
1A
102
}
330
1A
100
AcDbPlotSettings
  1

  2
C:\PROGRAM FILES\AUTOCAD LT 2000I\plotters\HP DesignJet 430 A3.pc3
  4

  6

 40
0.0
 41
0.0
 42
0.0
 43
0.0
 44
0.0
 45
0.0
 46
0.0
 47
0.0
 48
0.0
 49
0.0
140
0.0
141
0.0
142
1.0
143
1.0
 70
   688
 72
     0
 73
     0
 74
     5
  7
EPSON.ctb
 75
    16
147
1.0
148
0.0
149
0.0
100
AcDbLayout
  1
ﾚｲｱｳﾄ2
 70
     1
 71
     2
 10
0.0
 20
0.0
 11
12.0
 21
9.0
 12
0.0
 22
0.0
 32
0.0
 14
0.0
 24
0.0
 34
0.0
 15
0.0
 25
0.0
 35
0.0
146
0.0
 13
0.0
 23
0.0
 33
0.0
 16
1.0
 26
0.0
 36
0.0
 17
0.0
 27
1.0
 37
0.0
 76
     0
330
23
  0
MATERIAL
  5
E3DF
102
{ACAD_XDICTIONARY
360
E3E0
102
}
102
{ACAD_REACTORS
330
E3D6
102
}
330
E3D6
100
AcDbMaterial
  1
ByBlock
 72
     0
 43
0.0008202099737533
 43
0.0
 43
0.0
 43
0.0
 43
0.0
 43
0.0008202099737533
 43
0.0
 43
0.0
 43
0.0
 43
0.0
 43
1.0
 43
0.0
 43
0.0
 43
0.0
 43
0.0
 43
1.0
 77
     0
 47
0.0008202099737533
 47
0.0
 47
0.0
 47
0.0
 47
0.0
 47
0.0008202099737533
 47
0.0
 47
0.0
 47
0.0
 47
0.0
 47
1.0
 47
0.0
 47
0.0
 47
0.0
 47
0.0
 47
1.0
171
     0
 49
0.0008202099737533
 49
0.0
 49
0.0
 49
0.0
 49
0.0
 49
0.0008202099737533
 49
0.0
 49
0.0
 49
0.0
 49
0.0
 49
1.0
 49
0.0
 49
0.0
 49
0.0
 49
0.0
 49
1.0
175
     0
142
0.0008202099737533
142
0.0
142
0.0
142
0.0
142
0.0
142
0.0008202099737533
142
0.0
142
0.0
142
0.0
142
0.0
142
1.0
142
0.0
142
0.0
142
0.0
142
0.0
142
1.0
179
     0
144
0.0008202099737533
144
0.0
144
0.0
144
0.0
144
0.0
144
0.0008202099737533
144
0.0
144
0.0
144
0.0
144
0.0
144
1.0
144
0.0
144
0.0
144
0.0
144
0.0
144
1.0
147
0.0008202099737533
147
0.0
147
0.0
147
0.0
147
0.0
147
0.0008202099737533
147
0.0
147
0.0
147
0.0
147
0.0
147
1.0
147
0.0
147
0.0
147
0.0
147
0.0
147
1.0
  0
MATERIAL
  5
E3D7
102
{ACAD_XDICTIONARY
360
E3D8
102
}
102
{ACAD_REACTORS
330
E3D6
102
}
330
E3D6
100
AcDbMaterial
  1
ByLayer
 72
     0
 43
0.0008202099737533
 43
0.0
 43
0.0
 43
0.0
 43
0.0
 43
0.0008202099737533
 43
0.0
 43
0.0
 43
0.0
 43
0.0
 43
1.0
 43
0.0
 43
0.0
 43
0.0
 43
0.0
 43
1.0
 77
     0
 47
0.0008202099737533
 47
0.0
 47
0.0
 47
0.0
 47
0.0
 47
0.0008202099737533
 47
0.0
 47
0.0
 47
0.0
 47
0.0
 47
1.0
 47
0.0
 47
0.0
 47
0.0
 47
0.0
 47
1.0
171
     0
 49
0.0008202099737533
 49
0.0
 49
0.0
 49
0.0
 49
0.0
 49
0.0008202099737533
 49
0.0
 49
0.0
 49
0.0
 49
0.0
 49
1.0
 49
0.0
 49
0.0
 49
0.0
 49
0.0
 49
1.0
175
     0
142
0.0008202099737533
142
0.0
142
0.0
142
0.0
142
0.0
142
0.0008202099737533
142
0.0
142
0.0
142
0.0
142
0.0
142
1.0
142
0.0
142
0.0
142
0.0
142
0.0
142
1.0
179
     0
144
0.0008202099737533
144
0.0
144
0.0
144
0.0
144
0.0
144
0.0008202099737533
144
0.0
144
0.0
144
0.0
144
0.0
144
1.0
144
0.0
144
0.0
144
0.0
144
0.0
144
1.0
147
0.0008202099737533
147
0.0
147
0.0
147
0.0
147
0.0
147
0.0008202099737533
147
0.0
147
0.0
147
0.0
147
0.0
147
1.0
147
0.0
147
0.0
147
0.0
147
0.0
147
1.0
  0
MATERIAL
  5
E3E7
102
{ACAD_XDICTIONARY
360
E3E8
102
}
102
{ACAD_REACTORS
330
E3D6
102
}
330
E3D6
100
AcDbMaterial
  1
Global
 72
     0
 43
0.0008202099737533
 43
0.0
 43
0.0
 43
0.0
 43
0.0
 43
0.0008202099737533
 43
0.0
 43
0.0
 43
0.0
 43
0.0
 43
1.0
 43
0.0
 43
0.0
 43
0.0
 43
0.0
 43
1.0
 77
     0
 47
0.0008202099737533
 47
0.0
 47
0.0
 47
0.0
 47
0.0
 47
0.0008202099737533
 47
0.0
 47
0.0
 47
0.0
 47
0.0
 47
1.0
 47
0.0
 47
0.0
 47
0.0
 47
0.0
 47
1.0
171
     0
 49
0.0008202099737533
 49
0.0
 49
0.0
 49
0.0
 49
0.0
 49
0.0008202099737533
 49
0.0
 49
0.0
 49
0.0
 49
0.0
 49
1.0
 49
0.0
 49
0.0
 49
0.0
 49
0.0
 49
1.0
175
     0
142
0.0008202099737533
142
0.0
142
0.0
142
0.0
142
0.0
142
0.0008202099737533
142
0.0
142
0.0
142
0.0
142
0.0
142
1.0
142
0.0
142
0.0
142
0.0
142
0.0
142
1.0
179
     0
144
0.0008202099737533
144
0.0
144
0.0
144
0.0
144
0.0
144
0.0008202099737533
144
0.0
144
0.0
144
0.0
144
0.0
144
1.0
144
0.0
144
0.0
144
0.0
144
0.0
144
1.0
147
0.0008202099737533
147
0.0
147
0.0
147
0.0
147
0.0
147
0.0008202099737533
147
0.0
147
0.0
147
0.0
147
0.0
147
1.0
147
0.0
147
0.0
147
0.0
147
0.0
147
1.0
  0
MLEADERSTYLE
  5
E426
102
{ACAD_REACTORS
330
E425
102
}
330
E425
100
AcDbMLeaderStyle
170
     2
171
     1
172
     0
 90
        2
 40
0.0
 41
0.0
173
     1
 91
-1023410172
340
15
 92
       20
290
     1
 42
0.09
291
     1
 43
-0.36
  3
Standard
341
2B
 44
3.0
300

342
34
174
     6
178
     6
175
     1
176
     0
 93
-1023410169
 45
6.0
292
     0
297
     0
 46
0.18
 94
-1056964608
 47
1.0
 49
1.0
140
1.0
293
     1
141
0.0
294
     1
177
     0
142
1.0
295
     0
296
     0
143
0.125
1001
ACAD_MLEADERVER
1070
     2
  0
MLINESTYLE
  5
18
102
{ACAD_REACTORS
330
17
102
}
330
17
100
AcDbMlineStyle
  2
STANDARD
 70
     0
  3

 62
   256
 51
90.0
 52
90.0
 71
     2
 49
0.5
 62
   256
  6
BYLAYER
 49
-0.5
 62
   256
  6
BYLAYER
  0
ACDBPLACEHOLDER
  5
F
102
{ACAD_REACTORS
330
E
102
}
330
E
  0
SCALE
  5
E404
102
{ACAD_REACTORS
330
E403
102
}
330
E403
100
AcDbScale
 70
     0
300
1:1
140
1.0
141
1.0
290
     1
  0
SCALE
  5
E405
102
{ACAD_REACTORS
330
E403
102
}
330
E403
100
AcDbScale
 70
     0
300
1:2
140
1.0
141
2.0
290
     0
  0
SCALE
  5
E406
102
{ACAD_REACTORS
330
E403
102
}
330
E403
100
AcDbScale
 70
     0
300
1:4
140
1.0
141
4.0
290
     0
  0
SCALE
  5
E407
102
{ACAD_REACTORS
330
E403
102
}
330
E403
100
AcDbScale
 70
     0
300
1:5
140
1.0
141
5.0
290
     0
  0
SCALE
  5
E408
102
{ACAD_REACTORS
330
E403
102
}
330
E403
100
AcDbScale
 70
     0
300
1:8
140
1.0
141
8.0
290
     0
  0
SCALE
  5
E409
102
{ACAD_REACTORS
330
E403
102
}
330
E403
100
AcDbScale
 70
     0
300
1:10
140
1.0
141
10.0
290
     0
  0
SCALE
  5
E40A
102
{ACAD_REACTORS
330
E403
102
}
330
E403
100
AcDbScale
 70
     0
300
1:16
140
1.0
141
16.0
290
     0
  0
SCALE
  5
E40B
102
{ACAD_REACTORS
330
E403
102
}
330
E403
100
AcDbScale
 70
     0
300
1:20
140
1.0
141
20.0
290
     0
  0
SCALE
  5
E40C
102
{ACAD_REACTORS
330
E403
102
}
330
E403
100
AcDbScale
 70
     0
300
1:30
140
1.0
141
30.0
290
     0
  0
SCALE
  5
E40D
102
{ACAD_REACTORS
330
E403
102
}
330
E403
100
AcDbScale
 70
     0
300
1:40
140
1.0
141
40.0
290
     0
  0
SCALE
  5
E40E
102
{ACAD_REACTORS
330
E403
102
}
330
E403
100
AcDbScale
 70
     0
300
1:50
140
1.0
141
50.0
290
     0
  0
SCALE
  5
E40F
102
{ACAD_REACTORS
330
E403
102
}
330
E403
100
AcDbScale
 70
     0
300
1:100
140
1.0
141
100.0
290
     0
  0
SCALE
  5
E410
102
{ACAD_REACTORS
330
E403
102
}
330
E403
100
AcDbScale
 70
     0
300
2:1
140
2.0
141
1.0
290
     0
  0
SCALE
  5
E411
102
{ACAD_REACTORS
330
E403
102
}
330
E403
100
AcDbScale
 70
     0
300
4:1
140
4.0
141
1.0
290
     0
  0
SCALE
  5
E412
102
{ACAD_REACTORS
330
E403
102
}
330
E403
100
AcDbScale
 70
     0
300
8:1
140
8.0
141
1.0
290
     0
  0
SCALE
  5
E413
102
{ACAD_REACTORS
330
E403
102
}
330
E403
100
AcDbScale
 70
     0
300
10:1
140
10.0
141
1.0
290
     0
  0
SCALE
  5
E414
102
{ACAD_REACTORS
330
E403
102
}
330
E403
100
AcDbScale
 70
     0
300
100:1
140
100.0
141
1.0
290
     0
  0
SCALE
  5
E415
102
{ACAD_REACTORS
330
E403
102
}
330
E403
100
AcDbScale
 70
     0
300
1/128" = 1'-0"
140
0.0078125
141
12.0
290
     0
  0
SCALE
  5
E416
102
{ACAD_REACTORS
330
E403
102
}
330
E403
100
AcDbScale
 70
     0
300
1/64" = 1'-0"
140
0.015625
141
12.0
290
     0
  0
SCALE
  5
E417
102
{ACAD_REACTORS
330
E403
102
}
330
E403
100
AcDbScale
 70
     0
300
1/32" = 1'-0"
140
0.03125
141
12.0
290
     0
  0
SCALE
  5
E418
102
{ACAD_REACTORS
330
E403
102
}
330
E403
100
AcDbScale
 70
     0
300
1/16" = 1'-0"
140
0.0625
141
12.0
290
     0
  0
SCALE
  5
E419
102
{ACAD_REACTORS
330
E403
102
}
330
E403
100
AcDbScale
 70
     0
300
3/32" = 1'-0"
140
0.09375
141
12.0
290
     0
  0
SCALE
  5
E41A
102
{ACAD_REACTORS
330
E403
102
}
330
E403
100
AcDbScale
 70
     0
300
1/8" = 1'-0"
140
0.125
141
12.0
290
     0
  0
SCALE
  5
E41B
102
{ACAD_REACTORS
330
E403
102
}
330
E403
100
AcDbScale
 70
     0
300
3/16" = 1'-0"
140
0.1875
141
12.0
290
     0
  0
SCALE
  5
E41C
102
{ACAD_REACTORS
330
E403
102
}
330
E403
100
AcDbScale
 70
     0
300
1/4" = 1'-0"
140
0.25
141
12.0
290
     0
  0
SCALE
  5
E41D
102
{ACAD_REACTORS
330
E403
102
}
330
E403
100
AcDbScale
 70
     0
300
3/8" = 1'-0"
140
0.375
141
12.0
290
     0
  0
SCALE
  5
E41E
102
{ACAD_REACTORS
330
E403
102
}
330
E403
100
AcDbScale
 70
     0
300
1/2" = 1'-0"
140
0.5
141
12.0
290
     0
  0
SCALE
  5
E41F
102
{ACAD_REACTORS
330
E403
102
}
330
E403
100
AcDbScale
 70
     0
300
3/4" = 1'-0"
140
0.75
141
12.0
290
     0
  0
SCALE
  5
E420
102
{ACAD_REACTORS
330
E403
102
}
330
E403
100
AcDbScale
 70
     0
300
1" = 1'-0"
140
1.0
141
12.0
290
     0
  0
SCALE
  5
E421
102
{ACAD_REACTORS
330
E403
102
}
330
E403
100
AcDbScale
 70
     0
300
1-1/2" = 1'-0"
140
1.5
141
12.0
290
     0
  0
SCALE
  5
E422
102
{ACAD_REACTORS
330
E403
102
}
330
E403
100
AcDbScale
 70
     0
300
3" = 1'-0"
140
3.0
141
12.0
290
     0
  0
SCALE
  5
E423
102
{ACAD_REACTORS
330
E403
102
}
330
E403
100
AcDbScale
 70
     0
300
6" = 1'-0"
140
6.0
141
12.0
290
     0
  0
SCALE
  5
E424
102
{ACAD_REACTORS
330
E403
102
}
330
E403
100
AcDbScale
 70
     0
300
1'-0" = 1'-0"
140
12.0
141
12.0
290
     0
  0
TABLESTYLE
  5
E402
102
{ACAD_XDICTIONARY
360
103A9
102
}
102
{ACAD_REACTORS
330
E401
102
}
330
E401
100
AcDbTableStyle
  3
Standard
 70
     0
 71
     0
 40
0.06
 41
0.06
280
     0
281
     0
  7
Standard
140
0.18
170
     2
 62
     0
 63
     7
283
     0
274
    -2
284
     1
 64
     0
275
    -2
285
     1
 65
     0
276
    -2
286
     1
 66
     0
277
    -2
287
     1
 67
     0
278
    -2
288
     1
 68
     0
279
    -2
289
     1
 69
     0
  7
Standard
140
0.25
170
     5
 62
     0
 63
     7
283
     0
274
    -2
284
     1
 64
     0
275
    -2
285
     1
 65
     0
276
    -2
286
     1
 66
     0
277
    -2
287
     1
 67
     0
278
    -2
288
     1
 68
     0
279
    -2
289
     1
 69
     0
  7
Standard
140
0.18
170
     5
 62
     0
 63
     7
283
     0
274
    -2
284
     1
 64
     0
275
    -2
285
     1
 65
     0
276
    -2
286
     1
 66
     0
277
    -2
287
     1
 67
     0
278
    -2
288
     1
 68
     0
279
    -2
289
     1
 69
     0
  0
VISUALSTYLE
  5
E3F5
102
{ACAD_REACTORS
330
E3EF
102
}
330
E3EF
100
AcDbVisualStyle
  2
2dWireframe
 70
     4
 71
     0
 72
     2
 73
     0
 90
        0
 40
-0.6
 41
-30.0
 62
     5
 63
     7
 74
     1
 91
        4
 64
     7
 65
   257
 75
     1
175
     1
 42
1.0
 92
        0
 66
   257
 43
1.0
 76
     1
 77
     6
 78
     2
 67
     7
 79
     5
170
     0
171
     0
290
     0
174
     0
 93
        1
 44
0.0
173
     0
291
     0
 45
0.0
1001
ACAD
1000
AcDbSavedByObjectVersion
1070
     0
  0
VISUALSTYLE
  5
E3F7
102
{ACAD_REACTORS
330
E3EF
102
}
330
E3EF
100
AcDbVisualStyle
  2
3D Hidden
 70
     6
 71
     1
 72
     2
 73
     2
 90
        0
 40
-0.6
 41
-30.0
 62
     5
 63
     7
 74
     2
 91
        2
 64
     7
 65
   257
 75
     2
175
     1
 42
40.0
 92
        0
 66
   257
 43
1.0
 76
     1
 77
     6
 78
     2
 67
     7
 79
     3
170
     0
171
     0
290
     0
174
     0
 93
        1
 44
0.0
173
     0
291
     0
 45
0.0
1001
ACAD
1000
AcDbSavedByObjectVersion
1070
     0
  0
VISUALSTYLE
  5
E3F6
102
{ACAD_REACTORS
330
E3EF
102
}
330
E3EF
100
AcDbVisualStyle
  2
3dWireframe
 70
     5
 71
     0
 72
     2
 73
     0
 90
        0
 40
-0.6
 41
-30.0
 62
     5
 63
     7
 74
     1
 91
        4
 64
     7
 65
   257
 75
     1
175
     1
 42
1.0
 92
        0
 66
   257
 43
1.0
 76
     1
 77
     6
 78
     2
 67
     7
 79
     5
170
     0
171
     0
290
     0
174
     0
 93
        1
 44
0.0
173
     0
291
     0
 45
0.0
1001
ACAD
1000
AcDbSavedByObjectVersion
1070
     0
  0
VISUALSTYLE
  5
E3F4
102
{ACAD_REACTORS
330
E3EF
102
}
330
E3EF
100
AcDbVisualStyle
  2
Basic
 70
     7
 71
     1
 72
     0
 73
     1
 90
        0
 40
-0.6
 41
-30.0
 62
     5
 63
     7
 74
     0
 91
        4
 64
     7
 65
   257
 75
     1
175
     1
 42
1.0
 92
        8
 66
     7
 43
1.0
 76
     1
 77
     6
 78
     2
 67
     7
 79
     5
170
     0
171
     0
290
     0
174
     0
 93
        1
 44
0.0
173
     0
291
     1
 45
0.0
1001
ACAD
1000
AcDbSavedByObjectVersion
1070
     0
  0
VISUALSTYLE
  5
E3FB
102
{ACAD_REACTORS
330
E3EF
102
}
330
E3EF
100
AcDbVisualStyle
  2
Brighten
 70
    12
 71
     2
 72
     2
 73
     0
 90
        0
 40
-0.6
 41
-30.0
 62
     5
 63
     7
 74
     1
 91
        4
 64
     7
 65
   257
 75
     1
175
     1
 42
1.0
 92
        8
 66
     7
 43
1.0
 76
     1
 77
     6
 78
     2
 67
     7
 79
     5
170
     0
171
     0
290
     0
174
     0
 93
        1
 44
50.0
173
     0
291
     1
 45
0.0
1001
ACAD
1000
AcDbSavedByObjectVersion
1070
     0
  0
VISUALSTYLE
  5
E3FF
102
{ACAD_REACTORS
330
E3EF
102
}
330
E3EF
100
AcDbVisualStyle
  2
ColorChange
 70
    16
 71
     2
 72
     2
 73
     3
 90
        0
 40
-0.6
 41
-30.0
 62
     5
 63
     8
 74
     1
 91
        4
 64
     7
 65
   257
 75
     1
175
     1
 42
1.0
 92
        8
 66
     8
 43
1.0
 76
     1
 77
     6
 78
     2
 67
     7
 79
     5
170
     0
171
     0
290
     0
174
     0
 93
        1
 44
0.0
173
     0
291
     1
 45
0.0
1001
ACAD
1000
AcDbSavedByObjectVersion
1070
     0
  0
VISUALSTYLE
  5
E3F8
102
{ACAD_REACTORS
330
E3EF
102
}
330
E3EF
100
AcDbVisualStyle
  2
Conceptual
 70
     9
 71
     3
 72
     2
 73
     0
 90
        0
 40
-0.6
 41
-30.0
 62
     5
 63
     7
 74
     2
 91
        2
 64
     7
 65
   257
 75
     1
175
     1
 42
40.0
 92
        8
 66
     7
 43
1.0
 76
     1
 77
     6
 78
     2
 67
     7
 79
     3
170
     0
171
     0
290
     0
174
     0
 93
        1
 44
0.0
173
     0
291
     0
 45
0.0
1001
ACAD
1000
AcDbSavedByObjectVersion
1070
     0
  0
VISUALSTYLE
  5
E3FA
102
{ACAD_REACTORS
330
E3EF
102
}
330
E3EF
100
AcDbVisualStyle
  2
Dim
 70
    11
 71
     2
 72
     2
 73
     0
 90
        0
 40
-0.6
 41
-30.0
 62
     5
 63
     7
 74
     1
 91
        4
 64
     7
 65
   257
 75
     1
175
     1
 42
1.0
 92
        8
 66
     7
 43
1.0
 76
     1
 77
     6
 78
     2
 67
     7
 79
     5
170
     0
171
     0
290
     0
174
     0
 93
        1
 44
-50.0
173
     0
291
     1
 45
0.0
1001
ACAD
1000
AcDbSavedByObjectVersion
1070
     0
  0
VISUALSTYLE
  5
E3FE
102
{ACAD_REACTORS
330
E3EF
102
}
330
E3EF
100
AcDbVisualStyle
  2
Facepattern
 70
    15
 71
     2
 72
     2
 73
     0
 90
        0
 40
-0.6
 41
-30.0
 62
     5
 63
     7
 74
     1
 91
        4
 64
     7
 65
   257
 75
     1
175
     1
 42
1.0
 92
        8
 66
     7
 43
1.0
 76
     1
 77
     6
 78
     2
 67
     7
 79
     5
170
     0
171
     0
290
     0
174
     0
 93
        1
 44
0.0
173
     0
291
     1
 45
0.0
1001
ACAD
1000
AcDbSavedByObjectVersion
1070
     0
  0
VISUALSTYLE
  5
E3F0
102
{ACAD_REACTORS
330
E3EF
102
}
330
E3EF
100
AcDbVisualStyle
  2
Flat
 70
     0
 71
     2
 72
     1
 73
     1
 90
        2
 40
-0.6
 41
30.0
 62
     5
 63
     7
 74
     0
 91
        4
 64
     7
 65
   257
 75
     1
175
     1
 42
1.0
 92
        8
 66
     7
 43
1.0
 76
     1
 77
     6
 78
     2
 67
     7
 79
     5
170
     0
171
     0
290
     0
174
     0
 93
       13
 44
0.0
173
     0
291
     1
 45
0.0
1001
ACAD
1000
AcDbSavedByObjectVersion
1070
     0
  0
VISUALSTYLE
  5
E3F1
102
{ACAD_REACTORS
330
E3EF
102
}
330
E3EF
100
AcDbVisualStyle
  2
FlatWithEdges
 70
     1
 71
     2
 72
     1
 73
     1
 90
        2
 40
-0.6
 41
30.0
 62
     5
 63
     7
 74
     1
 91
        4
 64
     7
 65
   257
 75
     1
175
     1
 42
1.0
 92
        0
 66
   257
 43
1.0
 76
     1
 77
     6
 78
     2
 67
     7
 79
     5
170
     0
171
     0
290
     0
174
     0
 93
       13
 44
0.0
173
     0
291
     1
 45
0.0
1001
ACAD
1000
AcDbSavedByObjectVersion
1070
     0
  0
VISUALSTYLE
  5
E3F2
102
{ACAD_REACTORS
330
E3EF
102
}
330
E3EF
100
AcDbVisualStyle
  2
Gouraud
 70
     2
 71
     2
 72
     2
 73
     1
 90
        2
 40
-0.6
 41
30.0
 62
     5
 63
     7
 74
     0
 91
        4
 64
     7
 65
   257
 75
     1
175
     1
 42
1.0
 92
        0
 66
     7
 43
1.0
 76
     1
 77
     6
 78
     2
 67
     7
 79
     5
170
     0
171
     0
290
     0
174
     0
 93
       13
 44
0.0
173
     0
291
     1
 45
0.0
1001
ACAD
1000
AcDbSavedByObjectVersion
1070
     0
  0
VISUALSTYLE
  5
E3F3
102
{ACAD_REACTORS
330
E3EF
102
}
330
E3EF
100
AcDbVisualStyle
  2
GouraudWithEdges
 70
     3
 71
     2
 72
     2
 73
     1
 90
        2
 40
-0.6
 41
30.0
 62
     5
 63
     7
 74
     1
 91
        4
 64
     7
 65
   257
 75
     1
175
     1
 42
1.0
 92
        0
 66
   257
 43
1.0
 76
     1
 77
     6
 78
     2
 67
     7
 79
     5
170
     0
171
     0
290
     0
174
     0
 93
       13
 44
0.0
173
     0
291
     1
 45
0.0
1001
ACAD
1000
AcDbSavedByObjectVersion
1070
     0
  0
VISUALSTYLE
  5
E3FD
102
{ACAD_REACTORS
330
E3EF
102
}
330
E3EF
100
AcDbVisualStyle
  2
Linepattern
 70
    14
 71
     2
 72
     2
 73
     0
 90
        0
 40
-0.6
 41
-30.0
 62
     5
 63
     7
 74
     1
 91
        4
 64
     7
 65
   257
 75
     7
175
     7
 42
1.0
 92
        8
 66
     7
 43
1.0
 76
     1
 77
     6
 78
     2
 67
     7
 79
     5
170
     0
171
     0
290
     0
174
     0
 93
        1
 44
0.0
173
     0
291
     1
 45
0.0
1001
ACAD
1000
AcDbSavedByObjectVersion
1070
     0
  0
VISUALSTYLE
  5
E3F9
102
{ACAD_REACTORS
330
E3EF
102
}
330
E3EF
100
AcDbVisualStyle
  2
Realistic
 70
     8
 71
     2
 72
     2
 73
     0
 90
        0
 40
-0.6
 41
-30.0
 62
     5
 63
     7
 74
     1
 91
        0
 64
     7
 65
   257
 75
     1
175
     1
 42
1.0
 92
        8
 66
     8
 43
1.0
 76
     1
 77
     6
 78
     2
 67
     7
 79
     5
170
     0
171
     0
290
     0
174
     0
 93
       13
 44
0.0
173
     0
291
     0
 45
0.0
1001
ACAD
1000
AcDbSavedByObjectVersion
1070
     0
  0
VISUALSTYLE
  5
E3FC
102
{ACAD_REACTORS
330
E3EF
102
}
330
E3EF
100
AcDbVisualStyle
  2
Thicken
 70
    13
 71
     2
 72
     2
 73
     0
 90
        0
 40
-0.6
 41
-30.0
 62
     5
 63
     7
 74
     1
 91
        4
 64
     7
 65
   257
 75
     1
175
     1
 42
1.0
 92
       12
 66
     7
 43
1.0
 76
     1
 77
     6
 78
     2
 67
     7
 79
     5
170
     0
171
     0
290
     0
174
     0
 93
        1
 44
0.0
173
     0
291
     1
 45
0.0
1001
ACAD
1000
AcDbSavedByObjectVersion
1070
     0
  0
DICTIONARYVAR
  5
103B0
102
{ACAD_REACTORS
330
103AC
102
}
330
103AC
100
DictionaryVariables
280
     0
  1
1:1
  0
DICTIONARYVAR
  5
103AE
102
{ACAD_REACTORS
330
103AC
102
}
330
103AC
100
DictionaryVariables
280
     0
  1
STANDARD
  0
DICTIONARYVAR
  5
103AD
102
{ACAD_REACTORS
330
103AC
102
}
330
103AC
100
DictionaryVariables
280
     0
  1
STANDARD
  0
DICTIONARYVAR
  5
16336
102
{ACAD_REACTORS
330
103AC
102
}
330
103AC
100
DictionaryVariables
280
     0
  1
1
  0
DICTIONARYVAR
  5
16335
102
{ACAD_REACTORS
330
103AC
102
}
330
103AC
100
DictionaryVariables
280
     0
  1
0
  0
DICTIONARYVAR
  5
103B1
102
{ACAD_REACTORS
330
103AC
102
}
330
103AC
100
DictionaryVariables
280
     0
  1
0
  0
DICTIONARYVAR
  5
103AF
102
{ACAD_REACTORS
330
103AC
102
}
330
103AC
100
DictionaryVariables
280
     0
  1
0
  0
DICTIONARYVAR
  5
16334
102
{ACAD_REACTORS
330
103AC
102
}
330
103AC
100
DictionaryVariables
280
     0
  1
127
  0
DICTIONARY
  5
164E7
330
22
100
AcDbDictionary
280
     1
281
     1
  3
ACAD_XREC_ROUNDTRIP
360
164E8
  0
DICTIONARY
  5
164E5
330
1E
100
AcDbDictionary
280
     1
281
     1
  3
ACAD_XREC_ROUNDTRIP
360
164E6
  0
DICTIONARY
  5
164E9
330
26
100
AcDbDictionary
280
     1
281
     1
  3
ACAD_XREC_ROUNDTRIP
360
164EA
  0
DICTIONARY
  5
E3E0
330
E3DF
100
AcDbDictionary
280
     1
281
     1
  3
ACAD_XREC_ROUNDTRIP
360
164EC
  3
BUMPTILE
360
E3E2
  3
DIFFUSETILE
360
E3E1
  3
OPACITYTILE
360
E3E5
  3
REFLECTIONTILE
360
E3E4
  3
REFRACTIONTILE
360
E3E6
  3
SPECULARTILE
360
E3E3
  0
DICTIONARY
  5
E3D8
330
E3D7
100
AcDbDictionary
280
     1
281
     1
  3
ACAD_XREC_ROUNDTRIP
360
164EB
  3
BUMPTILE
360
E3DA
  3
DIFFUSETILE
360
E3D9
  3
OPACITYTILE
360
E3DD
  3
REFLECTIONTILE
360
E3DC
  3
REFRACTIONTILE
360
E3DE
  3
SPECULARTILE
360
E3DB
  0
DICTIONARY
  5
E3E8
330
E3E7
100
AcDbDictionary
280
     1
281
     1
  3
ACAD_XREC_ROUNDTRIP
360
164ED
  3
BUMPTILE
360
E3EA
  3
DIFFUSETILE
360
E3E9
  3
OPACITYTILE
360
E3ED
  3
REFLECTIONTILE
360
E3EC
  3
REFRACTIONTILE
360
E3EE
  3
SPECULARTILE
360
E3EB
  0
DICTIONARY
  5
103A9
330
E402
100
AcDbDictionary
280
     1
281
     1
  3
ACAD_ROUNDTRIP_2008_TABLESTYLE_CELLSTYLEMAP
360
164E3
  3
ACAD_XREC_ROUNDTRIP
360
164EE
  0
XRECORD
  5
164E8
102
{ACAD_REACTORS
330
164E7
102
}
330
164E7
100
AcDbXrecord
280
     1
102
SHADEPLOT
 70
     0
102
SHADEPLOTRESLEVEL
 70
     2
102
SHADEPLOTCUSTOMDPI
 70
   300
  0
XRECORD
  5
164E6
102
{ACAD_REACTORS
330
164E5
102
}
330
164E5
100
AcDbXrecord
280
     1
102
SHADEPLOT
 70
     0
102
SHADEPLOTRESLEVEL
 70
     2
102
SHADEPLOTCUSTOMDPI
 70
   300
  0
XRECORD
  5
164EA
102
{ACAD_REACTORS
330
164E9
102
}
330
164E9
100
AcDbXrecord
280
     1
102
SHADEPLOT
 70
     0
102
SHADEPLOTRESLEVEL
 70
     2
102
SHADEPLOTCUSTOMDPI
 70
   300
  0
XRECORD
  5
164EC
102
{ACAD_REACTORS
330
E3E0
102
}
330
E3E0
100
AcDbXrecord
280
     1
102
MATERIAL
148
0.0
149
0.0
149
0.0
 93
        0
 94
      127
282
     0
 72
     0
 77
     0
171
     0
175
     0
179
     0
273
     0
  0
XRECORD
  5
E3E2
102
{ACAD_REACTORS
330
E3E0
102
}
330
E3E0
100
AcDbXrecord
280
     1
270
     1
271
     1
  0
XRECORD
  5
E3E1
102
{ACAD_REACTORS
330
E3E0
102
}
330
E3E0
100
AcDbXrecord
280
     1
270
     1
271
     1
  0
XRECORD
  5
E3E5
102
{ACAD_REACTORS
330
E3E0
102
}
330
E3E0
100
AcDbXrecord
280
     1
270
     1
271
     1
  0
XRECORD
  5
E3E4
102
{ACAD_REACTORS
330
E3E0
102
}
330
E3E0
100
AcDbXrecord
280
     1
270
     1
271
     1
  0
XRECORD
  5
E3E6
102
{ACAD_REACTORS
330
E3E0
102
}
330
E3E0
100
AcDbXrecord
280
     1
270
     1
271
     1
  0
XRECORD
  5
E3E3
102
{ACAD_REACTORS
330
E3E0
102
}
330
E3E0
100
AcDbXrecord
280
     1
270
     1
271
     1
  0
XRECORD
  5
164EB
102
{ACAD_REACTORS
330
E3D8
102
}
330
E3D8
100
AcDbXrecord
280
     1
102
MATERIAL
148
0.0
149
0.0
149
0.0
 93
        0
 94
      127
282
     0
 72
     0
 77
     0
171
     0
175
     0
179
     0
273
     0
  0
XRECORD
  5
E3DA
102
{ACAD_REACTORS
330
E3D8
102
}
330
E3D8
100
AcDbXrecord
280
     1
270
     1
271
     1
  0
XRECORD
  5
E3D9
102
{ACAD_REACTORS
330
E3D8
102
}
330
E3D8
100
AcDbXrecord
280
     1
270
     1
271
     1
  0
XRECORD
  5
E3DD
102
{ACAD_REACTORS
330
E3D8
102
}
330
E3D8
100
AcDbXrecord
280
     1
270
     1
271
     1
  0
XRECORD
  5
E3DC
102
{ACAD_REACTORS
330
E3D8
102
}
330
E3D8
100
AcDbXrecord
280
     1
270
     1
271
     1
  0
XRECORD
  5
E3DE
102
{ACAD_REACTORS
330
E3D8
102
}
330
E3D8
100
AcDbXrecord
280
     1
270
     1
271
     1
  0
XRECORD
  5
E3DB
102
{ACAD_REACTORS
330
E3D8
102
}
330
E3D8
100
AcDbXrecord
280
     1
270
     1
271
     1
  0
XRECORD
  5
164ED
102
{ACAD_REACTORS
330
E3E8
102
}
330
E3E8
100
AcDbXrecord
280
     1
102
MATERIAL
148
0.0
149
0.0
149
0.0
 93
        0
 94
      127
282
     0
 72
     0
 77
     0
171
     0
175
     0
179
     0
273
     0
  0
XRECORD
  5
E3EA
102
{ACAD_REACTORS
330
E3E8
102
}
330
E3E8
100
AcDbXrecord
280
     1
270
     1
271
     1
  0
XRECORD
  5
E3E9
102
{ACAD_REACTORS
330
E3E8
102
}
330
E3E8
100
AcDbXrecord
280
     1
270
     1
271
     1
  0
XRECORD
  5
E3ED
102
{ACAD_REACTORS
330
E3E8
102
}
330
E3E8
100
AcDbXrecord
280
     1
270
     1
271
     1
  0
XRECORD
  5
E3EC
102
{ACAD_REACTORS
330
E3E8
102
}
330
E3E8
100
AcDbXrecord
280
     1
270
     1
271
     1
  0
XRECORD
  5
E3EE
102
{ACAD_REACTORS
330
E3E8
102
}
330
E3E8
100
AcDbXrecord
280
     1
270
     1
271
     1
  0
XRECORD
  5
E3EB
102
{ACAD_REACTORS
330
E3E8
102
}
330
E3E8
100
AcDbXrecord
280
     1
270
     1
271
     1
  0
CELLSTYLEMAP
  5
164E3
102
{ACAD_REACTORS
330
103A9
102
}
330
103A9
100
AcDbCellStyleMap
 90
        3
300
CELLSTYLE
  1
TABLEFORMAT_BEGIN
 90
        5
170
     1
 91
        0
 92
    32768
 62
   257
 93
        1
300
CONTENTFORMAT
  1
CONTENTFORMAT_BEGIN
 90
        0
 91
        0
 92
      512
 93
        0
300

 40
0.0
140
1.0
 94
        5
 62
     0
340
11
144
0.25
309
CONTENTFORMAT_END
171
     0
 94
        0
309
TABLEFORMAT_END
  1
CELLSTYLE_BEGIN
 90
        1
 91
        1
300
_TITLE
309
CELLSTYLE_END
300
CELLSTYLE
  1
TABLEFORMAT_BEGIN
 90
        5
170
     1
 91
        0
 92
        0
 62
   257
 93
        1
300
CONTENTFORMAT
  1
CONTENTFORMAT_BEGIN
 90
        0
 91
        0
 92
      512
 93
        0
300

 40
0.0
140
1.0
 94
        5
 62
     0
340
11
144
0.18
309
CONTENTFORMAT_END
171
     0
 94
        0
309
TABLEFORMAT_END
  1
CELLSTYLE_BEGIN
 90
        2
 91
        1
300
_HEADER
309
CELLSTYLE_END
300
CELLSTYLE
  1
TABLEFORMAT_BEGIN
 90
        5
170
     1
 91
        0
 92
        0
 62
   257
 93
        1
300
CONTENTFORMAT
  1
CONTENTFORMAT_BEGIN
 90
        0
 91
        0
 92
      512
 93
        0
300

 40
0.0
140
1.0
 94
        2
 62
     0
340
11
144
0.18
309
CONTENTFORMAT_END
171
     0
 94
        0
309
TABLEFORMAT_END
  1
CELLSTYLE_BEGIN
 90
        3
 91
        2
300
_DATA
309
CELLSTYLE_END
  0
XRECORD
  5
164EE
102
{ACAD_REACTORS
330
103A9
102
}
330
103A9
100
AcDbXrecord
280
     1
102
ACAD_ROUNDTRIP_PRE2007_TABLESTYLE
 90
      512
 91
        0
  1

 92
      512
 93
        0
  2

 94
      512
 95
        0
  3

  0
ENDSEC
  0
EOF
